0
SECTION
2
HEADER
9
$ACADVER
1
AC1015
9
$DWGCODEPAGE
3
ANSI_1252
9
$EXTMAX
10
210.0000000000
20
297.0000000000
30
0.0000000000
9
$EXTMIN
10
0.0000000000
20
0.0000000000
30
0.0000000000
9
$LIMMIN
10
0.0000000000
20
0.0000000000
9
$LIMMAX
10
210.0000000000
20
297.0000000000
9
$VIEWCTR
10
105.0000000000
20
148.5000000000
9
$VIEWSIZE
40
297.0000000000
9
$CLAYER
8
0
9
$LTSCALE
40
19.3600000000
9
$CELTYPE
6
BYLAYER
9
$DIMSCALE
40
1
9
$DIMASZ
40
3.5000000000
9
$DIMEXO
40
2.2000000000
9
$DIMDLI
40
13.3760000000
9
$DIMEXE
40
6.3360000000
9
$DIMCEN
40
3.1680000000
9
$DIMLFAC
40
1.0000000000
9
$DIMBLK
1
_FILLED
9
$DIMTXT
40
3.5000000000
9
$DIMTOL
70
1
9
$DIMLIM
70
0
9
$DIMTFAC
40
1.0000000000
9
$DIMTP
40
0.0010000000
9
$DIMTM
40
0.0010000000
9
$PDMODE
70
3
9
$PDSIZE
40
0.3125000000
9
$HANDSEED
5
2C4
9
$MEASUREMENT
70
1
9
$INSUNITS
70
4
0
ENDSEC
0
SECTION
2
CLASSES
0
CLASS
1
ACDBDICTIONARYWDFLT
2
AcDbDictionaryWithDefault
3
AutoCAD 2000
90
0
280
0
281
0
0
CLASS
1
ACDBPLACEHOLDER
2
AcDbPlaceHolder
3
AutoCAD 2000
90
0
280
0
281
0
0
CLASS
1
LAYOUT
2
AcDbLayout
3
AutoCAD 2000
90
0
280
0
281
0
0
ENDSEC
0
SECTION
2
TABLES
0
TABLE
2
VPORT
5
8
100
AcDbSymbolTable
70
2
0
VPORT
5
1F4
100
AcDbSymbolTableRecord
100
AcDbViewportTableRecord
2
*ACTIVE
70
0
10
0.0
20
0.0
11
1.0
21
1.0
12
105.0000000000
22
148.5000000000
13
0.0
23
0.0
14
1.0
24
1.0
15
0.0
25
0.0
16
0.0
26
0.0
36
1.0
17
0.0
27
0.0
37
0.0
40
297.0000000000
41
0.7070707071
42
50.0
43
0.0
44
0.0
50
0.0
51
0.0
71
0
72
100
73
1
74
1
75
0
76
0
77
0
78
0
0
ENDTAB
0
TABLE
2
LTYPE
5
5
100
AcDbSymbolTable
70
6
0
LTYPE
5
14
100
AcDbSymbolTableRecord
100
AcDbLinetypeTableRecord
2
BYBLOCK
70
0
3

72
65
73
0
40
0.0
0
LTYPE
5
15
100
AcDbSymbolTableRecord
100
AcDbLinetypeTableRecord
2
BYLAYER
70
0
3

72
65
73
0
40
0.0
0
LTYPE
5
16
100
AcDbSymbolTableRecord
100
AcDbLinetypeTableRecord
2
CONTINUOUS
70
64
3
Solid line
72
65
73
0
40
0
0
LTYPE
5
1F5
100
AcDbSymbolTableRecord
100
AcDbLinetypeTableRecord
2
CENTER
70
64
3
____ _ ____ _ ____ _ ____ _ ____ _ ____ _ ____
72
65
73
4
40
0.6
49
0.375
74
0
49
-0.075
74
0
49
0.075
74
0
49
-0.075
74
0
0
LTYPE
5
1F6
100
AcDbSymbolTableRecord
100
AcDbLinetypeTableRecord
2
HIDDEN
70
64
3
- - - - - - - - - - - - - - - - - - - -
72
65
73
2
40
0.2
49
0.1
74
0
49
-0.1
74
0
0
LTYPE
5
1F7
100
AcDbSymbolTableRecord
100
AcDbLinetypeTableRecord
2
PHANTOM
70
64
3
_____ _ _ _____ _ _ _____ _ _ _____
72
65
73
6
40
0.8
49
0.45
74
0
49
-0.05
74
0
49
0.1
74
0
49
-0.05
74
0
49
0.1
74
0
49
-0.05
74
0
0
LTYPE
5
1F8
100
AcDbSymbolTableRecord
100
AcDbLinetypeTableRecord
2
DOT
70
64
3
. . . . . . . . . . . . . . . . . . . .
72
65
73
2
40
0.2
49
0.1
74
0
49
-0.1
74
0
0
LTYPE
5
1F9
100
AcDbSymbolTableRecord
100
AcDbLinetypeTableRecord
2
DASHED
70
64
3
- - - - - - - - - - - - - - - - - - - -
72
65
73
2
40
0.2
49
0.1
74
0
49
-0.1
74
0
0
ENDTAB
0
TABLE
2
LAYER
5
2
100
AcDbSymbolTable
70
36
0
LAYER
5
10
100
AcDbSymbolTableRecord
100
AcDbLayerTableRecord
2
0
70
0
62
7
6
CONTINUOUS
370
-3
390
F
0
LAYER
5
1FA
100
AcDbSymbolTableRecord
100
AcDbLayerTableRecord
2
DEFAULT_1
70
0
62
7
6
CENTER
370
-3
390
F
0
LAYER
5
1FB
100
AcDbSymbolTableRecord
100
AcDbLayerTableRecord
2
DEFAULT_2
70
0
62
8
6
HIDDEN
370
-3
390
F
0
LAYER
5
1FC
100
AcDbSymbolTableRecord
100
AcDbLayerTableRecord
2
DEFAULT_3
70
0
62
7
6
PHANTOM
370
-3
390
F
0
LAYER
5
1FD
100
AcDbSymbolTableRecord
100
AcDbLayerTableRecord
2
ASSI
70
0
62
7
6
CONTINUOUS
370
-3
390
F
0
LAYER
5
1FE
100
AcDbSymbolTableRecord
100
AcDbLayerTableRecord
2
PIANI
70
0
62
7
6
CONTINUOUS
370
-3
390
F
0
ENDTAB
0
TABLE
2
STYLE
5
3
100
AcDbSymbolTable
70
1
0
STYLE
5
11
100
AcDbSymbolTableRecord
100
AcDbTextStyleTableRecord
2
STANDARD
70
0
40
0.0
41
0.7143000000
50
0.0
71
0
42
0.2
3
txt
4

0
ENDTAB
0
TABLE
2
VIEW
5
6
100
AcDbSymbolTable
70
0
0
ENDTAB
0
TABLE
2
UCS
5
7
100
AcDbSymbolTable
70
0
0
ENDTAB
0
TABLE
2
APPID
5
9
100
AcDbSymbolTable
70
1
0
APPID
5
1FF
100
AcDbSymbolTableRecord
100
AcDbRegAppTableRecord
2
ACAD
70
0
0
ENDTAB
0
TABLE
2
BLOCK_RECORD
5
1
100
AcDbSymbolTable
70
0
0
BLOCK_RECORD
5
1F
100
AcDbSymbolTableRecord
100
AcDbBlockTableRecord
2
*MODEL_SPACE
0
BLOCK_RECORD
5
1B
100
AcDbSymbolTableRecord
100
AcDbBlockTableRecord
2
*PAPER_SPACE
0
BLOCK_RECORD
5
200
100
AcDbSymbolTableRecord
100
AcDbBlockTableRecord
2
_FILLED
0
BLOCK_RECORD
5
201
100
AcDbSymbolTableRecord
100
AcDbBlockTableRecord
2
*D0
0
BLOCK_RECORD
5
202
100
AcDbSymbolTableRecord
100
AcDbBlockTableRecord
2
*D1
0
BLOCK_RECORD
5
203
100
AcDbSymbolTableRecord
100
AcDbBlockTableRecord
2
*D2
0
BLOCK_RECORD
5
204
100
AcDbSymbolTableRecord
100
AcDbBlockTableRecord
2
*D3
0
BLOCK_RECORD
5
205
100
AcDbSymbolTableRecord
100
AcDbBlockTableRecord
2
*D4
0
BLOCK_RECORD
5
206
100
AcDbSymbolTableRecord
100
AcDbBlockTableRecord
2
*D5
0
BLOCK_RECORD
5
207
100
AcDbSymbolTableRecord
100
AcDbBlockTableRecord
2
*D6
0
ENDTAB
0
TABLE
2
DIMSTYLE
5
A
100
AcDbSymbolTable
70
1
100
AcDbDimStyleTable
71
0
0
DIMSTYLE
105
208
100
AcDbSymbolTableRecord
100
AcDbDimStyleTableRecord
2
STANDARD
70
0
3

4

40
1.0
41
3.5000000000
42
0.0625
43
0.38
44
0.18
45
0.0
46
0.0
47
0.0010000000
48
0.0010000000
140
3.5000000000
141
0.09
142
0.0
143
25.4
144
1.0000000000
145
0.0
146
1.0000000000
147
0.09
71
1
72
0
73
0
74
0
75
0
76
0
77
1
78
8
170
0
171
2
172
0
173
0
174
0
175
0
176
0
177
0
178
0
270
2
271
3
272
3
273
2
274
2
275
0
280
0
281
0
282
0
283
1
284
8
285
0
286
0
287
3
288
0
340
11
341
200
342
200
343
200
344
200
0
DIMSTYLE
105
209
100
AcDbSymbolTableRecord
100
AcDbDimStyleTableRecord
2
DIMSTYLE_1
70
0
3

4

40
1.0
41
3.5000000000
42
0.0625
43
0.38
44
0.18
45
0.0
46
0.0
47
0.1500000000
48
0.1500000000
140
3.5000000000
141
0.09
142
0.0
143
25.4
144
1.0000000000
145
0.0
146
1.0000000000
147
0.09
71
0
72
0
73
0
74
0
75
0
76
0
77
1
78
8
170
0
171
2
172
0
173
0
174
0
175
0
176
0
177
0
178
0
270
2
271
3
272
3
273
2
274
2
275
0
280
0
281
0
282
0
283
1
284
8
285
0
286
0
287
3
288
0
340
11
341
200
342
200
343
200
344
200
0
DIMSTYLE
105
20A
100
AcDbSymbolTableRecord
100
AcDbDimStyleTableRecord
2
DIMSTYLE_2
70
0
3

4

40
1.0
41
3.5000000000
42
0.0625
43
0.38
44
0.18
45
0.0
46
0.0
47
0.1000000000
48
0.1000000000
140
3.5000000000
141
0.09
142
0.0
143
25.4
144
1.0000000000
145
0.0
146
1.0000000000
147
0.09
71
0
72
0
73
0
74
0
75
0
76
0
77
1
78
8
170
0
171
2
172
0
173
0
174
0
175
0
176
0
177
0
178
0
270
2
271
3
272
3
273
2
274
2
275
0
280
0
281
0
282
0
283
1
284
8
285
0
286
0
287
3
288
0
340
11
341
200
342
200
343
200
344
200
0
DIMSTYLE
105
20B
100
AcDbSymbolTableRecord
100
AcDbDimStyleTableRecord
2
DIMSTYLE_3
70
0
3

4

40
1.0
41
3.5000000000
42
0.0625
43
0.38
44
0.18
45
0.0
46
0.0
47
0.0500000000
48
0.0500000000
140
3.5000000000
141
0.09
142
0.0
143
25.4
144
1.0000000000
145
0.0
146
1.0000000000
147
0.09
71
0
72
0
73
0
74
0
75
0
76
0
77
1
78
8
170
0
171
2
172
0
173
0
174
0
175
0
176
0
177
0
178
0
270
2
271
3
272
3
273
2
274
2
275
0
280
0
281
0
282
0
283
1
284
8
285
0
286
0
287
3
288
0
340
11
341
200
342
200
343
200
344
200
0
ENDTAB
0
ENDSEC
0
SECTION
2
BLOCKS
0
BLOCK
5
20
100
AcDbEntity
8
0
100
AcDbBlockBegin
2
*MODEL_SPACE
70
0
10
0.0
20
0.0
30
0.0
3
*MODEL_SPACE
1

0
ENDBLK
5
21
100
AcDbEntity
8
0
100
AcDbBlockEnd
0
BLOCK
5
1C
100
AcDbEntity
8
0
100
AcDbBlockBegin
2
*PAPER_SPACE
70
0
10
0.0
20
0.0
30
0.0
3
*PAPER_SPACE
1

0
ENDBLK
5
1D
100
AcDbEntity
8
0
100
AcDbBlockEnd
0
BLOCK
5
20C
100
AcDbEntity
8
0
100
AcDbBlockBegin
62
2
6
CONTINUOUS
2
*D0
70
65
10
0.0000000000
20
0.0000000000
3
*D0
1

0
TEXT
5
20D
100
AcDbEntity
8
0
100
AcDbText
62
2
6
CONTINUOUS
10
98.9700271209
20
58.8819089284
7
STANDARD
40
3.5000000000
1
70
41
0.7143000000
72
0
100
AcDbText
0
LINE
5
20E
100
AcDbEntity
8
0
100
AcDbLine
62
2
6
CONTINUOUS
10
66.9989969910
20
86.6970912738
11
66.9989969910
21
56.5069089284
0
LINE
5
20F
100
AcDbEntity
8
0
100
AcDbLine
62
2
6
CONTINUOUS
10
136.9989969910
20
86.6970912738
11
136.9989969910
21
56.5069089284
0
LINE
5
210
100
AcDbEntity
8
0
100
AcDbLine
62
2
6
CONTINUOUS
10
66.9989969910
20
58.0069089284
11
101.9989969910
21
58.0069089284
0
LINE
5
211
100
AcDbEntity
8
0
100
AcDbLine
62
2
6
CONTINUOUS
10
136.9989969910
20
58.0069089284
11
101.9989969910
21
58.0069089284
0
INSERT
5
212
100
AcDbEntity
8
0
100
AcDbBlockReference
62
2
6
CONTINUOUS
2
_FILLED
10
66.9989969910
20
58.0069089284
41
  3.500000
42
  3.500000
43
  3.500000
50
180.000000
0
INSERT
5
213
100
AcDbEntity
8
0
100
AcDbBlockReference
62
2
6
CONTINUOUS
2
_FILLED
10
136.9989969910
20
58.0069089284
41
  3.500000
42
  3.500000
43
  3.500000
0
ENDBLK
5
214
100
AcDbEntity
8
0
6
BYBLOCK
62
0
100
AcDbBlockEnd
0
BLOCK
5
215
100
AcDbEntity
8
0
100
AcDbBlockBegin
62
2
6
CONTINUOUS
2
*D1
70
65
10
0.0000000000
20
0.0000000000
3
*D1
1

0
TEXT
5
216
100
AcDbEntity
8
0
100
AcDbText
62
2
6
CONTINUOUS
10
99.3997995170
20
45.5589646507
7
STANDARD
40
3.5000000000
1
95
41
0.7143000000
72
0
100
AcDbText
0
LINE
5
217
100
AcDbEntity
8
0
100
AcDbLine
62
2
6
CONTINUOUS
10
54.4989969910
20
84.1970912738
11
54.4989969910
21
43.1839646507
0
LINE
5
218
100
AcDbEntity
8
0
100
AcDbLine
62
2
6
CONTINUOUS
10
149.4989969910
20
84.1970912738
11
149.4989969910
21
43.1839646507
0
LINE
5
219
100
AcDbEntity
8
0
100
AcDbLine
62
2
6
CONTINUOUS
10
54.4989969910
20
44.6839646507
11
101.9989969910
21
44.6839646507
0
LINE
5
21A
100
AcDbEntity
8
0
100
AcDbLine
62
2
6
CONTINUOUS
10
149.4989969910
20
44.6839646507
11
101.9989969910
21
44.6839646507
0
INSERT
5
21B
100
AcDbEntity
8
0
100
AcDbBlockReference
62
2
6
CONTINUOUS
2
_FILLED
10
54.4989969910
20
44.6839646507
41
  3.500000
42
  3.500000
43
  3.500000
50
180.000000
0
INSERT
5
21C
100
AcDbEntity
8
0
100
AcDbBlockReference
62
2
6
CONTINUOUS
2
_FILLED
10
149.4989969910
20
44.6839646507
41
  3.500000
42
  3.500000
43
  3.500000
0
ENDBLK
5
21D
100
AcDbEntity
8
0
6
BYBLOCK
62
0
100
AcDbBlockEnd
0
BLOCK
5
21E
100
AcDbEntity
8
0
100
AcDbBlockBegin
62
2
6
CONTINUOUS
2
*D2
70
65
10
0.0000000000
20
0.0000000000
3
*D2
1

0
TEXT
5
21F
100
AcDbEntity
8
0
100
AcDbText
62
2
6
CONTINUOUS
10
32.4761523463
20
119.9727183366
7
STANDARD
40
3.5000000000
1
70
50
90.0000000000
41
0.7143000000
72
0
100
AcDbText
0
LINE
5
220
100
AcDbEntity
8
0
100
AcDbLine
62
2
6
CONTINUOUS
10
66.4989969910
20
157.1970912738
11
31.8511523463
21
157.1970912738
0
LINE
5
221
100
AcDbEntity
8
0
100
AcDbLine
62
2
6
CONTINUOUS
10
66.4989969910
20
87.1970912738
11
31.8511523463
21
87.1970912738
0
LINE
5
222
100
AcDbEntity
8
0
100
AcDbLine
62
2
6
CONTINUOUS
10
33.3511523463
20
157.1970912738
11
33.3511523463
21
122.1970912738
0
LINE
5
223
100
AcDbEntity
8
0
100
AcDbLine
62
2
6
CONTINUOUS
10
33.3511523463
20
87.1970912738
11
33.3511523463
21
122.1970912738
0
INSERT
5
224
100
AcDbEntity
8
0
100
AcDbBlockReference
62
2
6
CONTINUOUS
2
_FILLED
10
33.3511523463
20
157.1970912738
41
  3.500000
42
  3.500000
43
  3.500000
50
 90.000000
0
INSERT
5
225
100
AcDbEntity
8
0
100
AcDbBlockReference
62
2
6
CONTINUOUS
2
_FILLED
10
33.3511523463
20
87.1970912738
41
  3.500000
42
  3.500000
43
  3.500000
50
270.000000
0
ENDBLK
5
226
100
AcDbEntity
8
0
6
BYBLOCK
62
0
100
AcDbBlockEnd
0
BLOCK
5
227
100
AcDbEntity
8
0
100
AcDbBlockBegin
62
2
6
CONTINUOUS
2
*D3
70
65
10
0.0000000000
20
0.0000000000
3
*D3
1

0
TEXT
5
228
100
AcDbEntity
8
0
100
AcDbText
62
2
6
CONTINUOUS
10
18.2936632765
20
119.3280597425
7
STANDARD
40
3.5000000000
1
95
50
90.0000000000
41
0.7143000000
72
0
100
AcDbText
0
LINE
5
229
100
AcDbEntity
8
0
100
AcDbLine
62
2
6
CONTINUOUS
10
63.9989969910
20
169.6970912738
11
17.6686632765
21
169.6970912738
0
LINE
5
22A
100
AcDbEntity
8
0
100
AcDbLine
62
2
6
CONTINUOUS
10
63.9989969910
20
74.6970912738
11
17.6686632765
21
74.6970912738
0
LINE
5
22B
100
AcDbEntity
8
0
100
AcDbLine
62
2
6
CONTINUOUS
10
19.1686632765
20
169.6970912738
11
19.1686632765
21
122.1970912738
0
LINE
5
22C
100
AcDbEntity
8
0
100
AcDbLine
62
2
6
CONTINUOUS
10
19.1686632765
20
74.6970912738
11
19.1686632765
21
122.1970912738
0
INSERT
5
22D
100
AcDbEntity
8
0
100
AcDbBlockReference
62
2
6
CONTINUOUS
2
_FILLED
10
19.1686632765
20
169.6970912738
41
  3.500000
42
  3.500000
43
  3.500000
50
 90.000000
0
INSERT
5
22E
100
AcDbEntity
8
0
100
AcDbBlockReference
62
2
6
CONTINUOUS
2
_FILLED
10
19.1686632765
20
74.6970912738
41
  3.500000
42
  3.500000
43
  3.500000
50
270.000000
0
ENDBLK
5
22F
100
AcDbEntity
8
0
6
BYBLOCK
62
0
100
AcDbBlockEnd
0
BLOCK
5
230
100
AcDbEntity
8
0
100
AcDbBlockBegin
62
2
6
CONTINUOUS
2
*D4
70
65
10
0.0000000000
20
0.0000000000
3
*D4
1

0
TEXT
5
231
100
AcDbEntity
8
0
100
AcDbText
62
2
6
CONTINUOUS
10
140.3729143426
20
175.1080714963
7
STANDARD
40
3.5000000000
1
%%c
50
76.5803823468
41
1.3333333333
72
0
100
AcDbText
0
TEXT
5
232
100
AcDbEntity
8
0
100
AcDbText
62
2
6
CONTINUOUS
10
141.4559588282
20
179.6473217009
7
STANDARD
40
3.5000000000
1
8.5
50
76.5803823468
41
0.7143000000
72
0
100
AcDbText
0
LINE
5
233
100
AcDbEntity
8
0
100
AcDbLine
62
2
6
CONTINUOUS
10
137.9853410763
20
161.3310512823
11
136.9989969910
21
157.1970912738
0
LINE
5
234
100
AcDbEntity
8
0
100
AcDbLine
62
2
6
CONTINUOUS
10
136.9989969910
20
157.1970912738
11
144.0477102627
21
186.7396203074
0
LINE
5
235
100
AcDbEntity
8
0
100
AcDbLine
62
2
6
CONTINUOUS
10
136.0126529057
20
153.0631312654
11
136.9989969910
21
157.1970912738
0
LINE
5
236
100
AcDbEntity
8
0
100
AcDbLine
62
2
6
CONTINUOUS
10
136.9989969910
20
157.1970912738
11
134.1560052162
21
145.2815594868
0
INSERT
5
237
100
AcDbEntity
8
0
100
AcDbBlockReference
62
2
6
CONTINUOUS
2
_FILLED
10
137.9853410761
20
161.3310512816
41
  3.500000
42
  3.500000
43
  3.500000
50
256.579750
0
INSERT
5
238
100
AcDbEntity
8
0
100
AcDbBlockReference
62
2
6
CONTINUOUS
2
_FILLED
10
136.0126529059
20
153.0631312661
41
  3.500000
42
  3.500000
43
  3.500000
50
 76.581463
0
ENDBLK
5
239
100
AcDbEntity
8
0
6
BYBLOCK
62
0
100
AcDbBlockEnd
0
BLOCK
5
23A
100
AcDbEntity
8
0
100
AcDbBlockBegin
62
2
6
CONTINUOUS
2
*D5
70
65
10
0.0000000000
20
0.0000000000
3
*D5
1

0
TEXT
5
23B
100
AcDbEntity
8
0
100
AcDbText
62
2
6
CONTINUOUS
10
163.1430732770
20
232.4468614465
7
STANDARD
40
3.5000000000
1
60
50
90.0000000000
41
0.7143000000
72
0
100
AcDbText
0
LINE
5
23C
100
AcDbEntity
8
0
100
AcDbLine
62
2
6
CONTINUOUS
10
128.7989969910
20
265.8821464393
11
165.5180732770
21
265.8821464393
0
LINE
5
23D
100
AcDbEntity
8
0
100
AcDbLine
62
2
6
CONTINUOUS
10
139.9989969910
20
205.8821464393
11
165.5180732770
21
205.8821464393
0
LINE
5
23E
100
AcDbEntity
8
0
100
AcDbLine
62
2
6
CONTINUOUS
10
164.0180732770
20
265.8821464393
11
164.0180732770
21
235.8821464393
0
LINE
5
23F
100
AcDbEntity
8
0
100
AcDbLine
62
2
6
CONTINUOUS
10
164.0180732770
20
205.8821464393
11
164.0180732770
21
235.8821464393
0
INSERT
5
240
100
AcDbEntity
8
0
100
AcDbBlockReference
62
2
6
CONTINUOUS
2
_FILLED
10
164.0180732770
20
265.8821464393
41
  3.500000
42
  3.500000
43
  3.500000
50
 90.000000
0
INSERT
5
241
100
AcDbEntity
8
0
100
AcDbBlockReference
62
2
6
CONTINUOUS
2
_FILLED
10
164.0180732770
20
205.8821464393
41
  3.500000
42
  3.500000
43
  3.500000
50
270.000000
0
ENDBLK
5
242
100
AcDbEntity
8
0
6
BYBLOCK
62
0
100
AcDbBlockEnd
0
BLOCK
5
243
100
AcDbEntity
8
0
100
AcDbBlockBegin
62
2
6
CONTINUOUS
2
*D6
70
65
10
0.0000000000
20
0.0000000000
3
*D6
1

0
TEXT
5
244
100
AcDbEntity
8
0
100
AcDbText
62
2
6
CONTINUOUS
10
39.6728201759
20
218.1291088802
7
STANDARD
40
3.5000000000
1
2
50
90.0000000000
41
0.7143000000
72
0
100
AcDbText
0
LINE
5
245
100
AcDbEntity
8
0
100
AcDbLine
62
2
6
CONTINUOUS
10
53.9989969910
20
207.8821464393
11
39.0478201759
21
207.8821464393
0
LINE
5
246
100
AcDbEntity
8
0
100
AcDbLine
62
2
6
CONTINUOUS
10
53.9989969910
20
205.8821464393
11
39.0478201759
21
205.8821464393
0
LINE
5
247
100
AcDbEntity
8
0
100
AcDbLine
62
2
6
CONTINUOUS
10
40.5478201759
20
207.8821464393
11
40.5478201759
21
220.6291588802
0
LINE
5
248
100
AcDbEntity
8
0
100
AcDbLine
62
2
6
CONTINUOUS
10
40.5478201759
20
220.6291588802
11
40.5478201759
21
206.8821464393
0
LINE
5
249
100
AcDbEntity
8
0
100
AcDbLine
62
2
6
CONTINUOUS
10
40.5478201759
20
205.8821464393
11
40.5478201759
21
197.8821464393
0
LINE
5
24A
100
AcDbEntity
8
0
100
AcDbLine
62
2
6
CONTINUOUS
10
40.5478201759
20
197.8821464393
11
40.5478201759
21
206.8821464393
0
INSERT
5
24B
100
AcDbEntity
8
0
100
AcDbBlockReference
62
2
6
CONTINUOUS
2
_FILLED
10
40.5478201759
20
207.8821464393
41
  3.500000
42
  3.500000
43
  3.500000
50
270.000000
0
INSERT
5
24C
100
AcDbEntity
8
0
100
AcDbBlockReference
62
2
6
CONTINUOUS
2
_FILLED
10
40.5478201759
20
205.8821464393
41
  3.500000
42
  3.500000
43
  3.500000
50
 90.000000
0
ENDBLK
5
24D
100
AcDbEntity
8
0
6
BYBLOCK
62
0
100
AcDbBlockEnd
0
BLOCK
5
24E
100
AcDbEntity
8
0
100
AcDbBlockBegin
2
_FILLED
70
64
10
0.0000000000
20
0.0000000000
3
_FILLED
1

0
SOLID
5
24F
100
AcDbEntity
8
0
6
BYBLOCK
62
0
100
AcDbTrace
10
0.0000000000
20
0.0000000000
11
-1.0000000000
21
0.1857142857
12
-1.0000000000
22
-0.1857142857
13
-1.0000000000
23
-0.1857142857
0
ENDBLK
5
250
100
AcDbEntity
8
0
6
BYBLOCK
62
0
100
AcDbBlockEnd
0
ENDSEC
0
SECTION
2
ENTITIES
0
DIMENSION
5
251
100
AcDbEntity
8
0
100
AcDbDimension
62
2
6
CONTINUOUS
2
*D0
10
136.9989969910
20
58.0069089284
11
101.4700771209
21
60.6319089284
70
160
42
70.000000
3
DIMSTYLE_1
100
AcDbAlignedDimension
13
66.9989969910
23
86.6970912738
14
136.9989969910
24
86.6970912738
100
AcDbRotatedDimension
0
DIMENSION
5
252
100
AcDbEntity
8
0
100
AcDbDimension
62
2
6
CONTINUOUS
2
*D1
10
149.4989969910
20
44.6839646507
11
101.8998495170
21
47.3089646507
70
160
42
95.000000
3
DIMSTYLE_1
100
AcDbAlignedDimension
13
54.4989969910
23
84.1970912738
14
149.4989969910
24
84.1970912738
100
AcDbRotatedDimension
0
DIMENSION
5
253
100
AcDbEntity
8
0
100
AcDbDimension
62
2
6
CONTINUOUS
2
*D2
10
33.3511523463
20
87.1970912738
11
30.7261523463
21
122.4727683366
70
160
42
70.000000
3
DIMSTYLE_1
100
AcDbAlignedDimension
13
66.4989969910
23
157.1970912738
14
66.4989969910
24
87.1970912738
50
270.000000
100
AcDbRotatedDimension
0
DIMENSION
5
254
100
AcDbEntity
8
0
100
AcDbDimension
62
2
6
CONTINUOUS
2
*D3
10
19.1686632765
20
74.6970912738
11
16.5436632765
21
121.8281097425
70
160
42
95.000000
3
DIMSTYLE_1
100
AcDbAlignedDimension
13
63.9989969910
23
169.6970912738
14
63.9989969910
24
74.6970912738
50
270.000000
100
AcDbRotatedDimension
0
DIMENSION
5
255
100
AcDbEntity
8
0
100
AcDbDimension
62
2
6
CONTINUOUS
2
*D4
10
137.9853410761
20
161.3310512816
11
140.0825387693
21
181.4315230045
70
163
42
8.500000
1
<>
3
DIMSTYLE_2
100
AcDbDiametricDimension
15
136.0126529059
25
153.0631312661
0
DIMENSION
5
256
100
AcDbEntity
8
0
100
AcDbDimension
62
2
6
CONTINUOUS
2
*D5
10
164.0180732770
20
205.8821464393
11
161.3930732770
21
234.9469114465
70
160
42
60.000000
3
DIMSTYLE_1
100
AcDbAlignedDimension
13
128.7989969910
23
265.8821464393
14
139.9989969910
24
205.8821464393
50
270.000000
100
AcDbRotatedDimension
0
DIMENSION
5
257
100
AcDbEntity
8
0
100
AcDbDimension
62
2
6
CONTINUOUS
2
*D6
10
40.5478201759
20
205.8821464393
11
37.9228201759
21
219.3791338802
70
160
42
2.000000
3
DIMSTYLE_3
100
AcDbAlignedDimension
13
53.9989969910
23
207.8821464393
14
53.9989969910
24
205.8821464393
50
270.000000
100
AcDbRotatedDimension
0
LINE
5
258
100
AcDbEntity
8
0
100
AcDbLine
62
7
6
CONTINUOUS
10
0.0000000000
20
0.0000000000
11
210.0000000000
21
0.0000000000
0
LINE
5
259
100
AcDbEntity
8
0
100
AcDbLine
62
7
6
CONTINUOUS
10
0.0000000000
20
0.0000000000
11
0.0000000000
21
297.0000000000
0
LINE
5
25A
100
AcDbEntity
8
0
100
AcDbLine
62
7
6
CONTINUOUS
10
210.0000000000
20
0.0000000000
11
210.0000000000
21
297.0000000000
0
LINE
5
25B
100
AcDbEntity
8
0
100
AcDbLine
62
7
6
CONTINUOUS
10
0.0000000000
20
297.0000000000
11
210.0000000000
21
297.0000000000
0
LINE
5
25C
100
AcDbEntity
8
0
100
AcDbLine
62
7
6
CONTINUOUS
10
54.4989969910
20
84.6970912738
11
54.4989969910
21
159.6970912738
0
LINE
5
25D
100
AcDbEntity
8
0
100
AcDbLine
62
7
6
CONTINUOUS
10
55.7989969910
20
126.6970912738
11
55.7989969910
21
124.6970912738
0
LINE
5
25E
100
AcDbEntity
8
0
100
AcDbLine
62
7
6
CONTINUOUS
10
55.7989969910
20
119.6970912738
11
55.7989969910
21
117.6970912738
0
LINE
5
25F
100
AcDbEntity
8
0
100
AcDbLine
62
7
6
CONTINUOUS
10
57.1934434915
20
111.7776478574
11
57.1934434915
21
117.1165346902
0
LINE
5
260
100
AcDbEntity
8
0
100
AcDbLine
62
7
6
CONTINUOUS
10
57.1934434915
20
126.6970912738
11
57.1934434915
21
131.6165346902
0
LINE
5
261
100
AcDbEntity
8
0
100
AcDbLine
62
7
6
CONTINUOUS
10
139.4989969910
20
74.6970912738
11
64.4989969910
21
74.6970912738
0
LINE
5
262
100
AcDbEntity
8
0
100
AcDbLine
62
7
6
CONTINUOUS
10
60.6989969910
20
124.6970912738
11
60.6989969910
21
119.6970912738
0
LINE
5
263
100
AcDbEntity
8
0
100
AcDbLine
62
7
6
CONTINUOUS
10
60.9462202412
20
111.7776478574
11
60.9462202412
21
117.1165346902
0
LINE
5
264
100
AcDbEntity
8
0
100
AcDbLine
62
7
6
CONTINUOUS
10
60.9462202412
20
126.6970912738
11
60.9462202412
21
131.6165346902
0
LINE
5
265
100
AcDbEntity
8
0
100
AcDbLine
62
7
6
CONTINUOUS
10
65.7989969910
20
126.6970912738
11
65.7989969910
21
124.6970912738
0
LINE
5
266
100
AcDbEntity
8
0
100
AcDbLine
62
7
6
CONTINUOUS
10
65.7989969910
20
119.6970912738
11
65.7989969910
21
117.6970912738
0
LINE
5
267
100
AcDbEntity
8
0
100
AcDbLine
62
7
6
CONTINUOUS
10
61.3989969910
20
110.6970912738
11
60.8989969910
21
111.1970912738
0
LINE
5
268
100
AcDbEntity
8
0
100
AcDbLine
62
7
6
CONTINUOUS
10
68.4517737407
20
111.7776478574
11
68.4517737407
21
117.1165346902
0
LINE
5
269
100
AcDbEntity
8
0
100
AcDbLine
62
7
6
CONTINUOUS
10
68.4517737407
20
126.6970912738
11
68.4517737407
21
131.6165346902
0
LINE
5
26A
100
AcDbEntity
8
0
100
AcDbLine
62
7
6
CONTINUOUS
10
68.6989969910
20
124.6970912738
11
68.6989969910
21
119.6970912738
0
LINE
5
26B
100
AcDbEntity
8
0
100
AcDbLine
62
7
6
CONTINUOUS
10
58.1989969910
20
111.1970912738
11
57.1934434915
21
111.7776478574
0
LINE
5
26C
100
AcDbEntity
8
0
100
AcDbLine
62
7
6
CONTINUOUS
10
72.2045504904
20
111.7776478574
11
72.2045504904
21
117.1165346902
0
LINE
5
26D
100
AcDbEntity
8
0
100
AcDbLine
62
7
6
CONTINUOUS
10
72.2045504904
20
126.6970912738
11
72.2045504904
21
131.6165346902
0
LINE
5
26E
100
AcDbEntity
8
0
100
AcDbLine
62
7
6
CONTINUOUS
10
57.1934434915
20
131.6165346902
11
58.1989969910
21
132.1970912738
0
LINE
5
26F
100
AcDbEntity
8
0
100
AcDbLine
62
7
6
CONTINUOUS
10
57.1934434915
20
117.1165346902
11
58.1989969910
21
117.6970912738
0
LINE
5
270
100
AcDbEntity
8
0
100
AcDbLine
62
7
6
CONTINUOUS
10
72.2045504904
20
117.1165346902
11
71.1989969910
21
117.6970912738
0
LINE
5
271
100
AcDbEntity
8
0
100
AcDbLine
62
7
6
CONTINUOUS
10
67.9989969910
20
110.6970912738
11
68.4989969910
21
111.1970912738
0
LINE
5
272
100
AcDbEntity
8
0
100
AcDbLine
62
7
6
CONTINUOUS
10
61.3989969910
20
110.6970912738
11
67.9989969910
21
110.6970912738
0
LINE
5
273
100
AcDbEntity
8
0
100
AcDbLine
62
7
6
CONTINUOUS
10
58.1989969910
20
111.1970912738
11
71.1989969910
21
111.1970912738
0
LINE
5
274
100
AcDbEntity
8
0
100
AcDbLine
62
7
6
CONTINUOUS
10
71.1989969910
20
111.1970912738
11
72.2045504904
21
111.7776478574
0
LINE
5
275
100
AcDbEntity
8
0
100
AcDbLine
62
7
6
CONTINUOUS
10
55.7989969910
20
117.6970912738
11
74.4555767241
21
117.6970912738
0
LINE
5
276
100
AcDbEntity
8
0
100
AcDbLine
62
7
6
CONTINUOUS
10
72.2045504904
20
131.6165346902
11
71.1989969910
21
132.1970912738
0
LINE
5
277
100
AcDbEntity
8
DEFAULT_1
100
AcDbLine
62
2
6
CENTER
10
101.9989969910
20
122.1970912738
11
101.9989969910
21
69.5912738215
0
LINE
5
278
100
AcDbEntity
8
DEFAULT_1
100
AcDbLine
62
2
6
CENTER
10
101.9989969910
20
122.1970912738
11
101.9989969910
21
178.3335005015
0
LINE
5
279
100
AcDbEntity
8
0
100
AcDbLine
62
7
6
CONTINUOUS
10
55.7989969910
20
119.6970912738
11
74.4555767241
21
119.6970912738
0
LINE
5
27A
100
AcDbEntity
8
DEFAULT_1
100
AcDbLine
62
2
6
CENTER
10
101.9989969910
20
122.1970912738
11
41.9789368104
21
122.1970912738
0
LINE
5
27B
100
AcDbEntity
8
DEFAULT_1
100
AcDbLine
62
2
6
CENTER
10
101.9989969910
20
122.1970912738
11
158.1354062187
21
122.1970912738
0
LINE
5
27C
100
AcDbEntity
8
0
100
AcDbLine
62
7
6
CONTINUOUS
10
55.7989969910
20
124.6970912738
11
74.4555767241
21
124.6970912738
0
LINE
5
27D
100
AcDbEntity
8
0
100
AcDbLine
62
7
6
CONTINUOUS
10
55.7989969910
20
126.6970912738
11
74.4555767241
21
126.6970912738
0
LINE
5
27E
100
AcDbEntity
8
0
100
AcDbLine
62
7
6
CONTINUOUS
10
58.1989969910
20
132.1970912738
11
71.1989969910
21
132.1970912738
0
LINE
5
27F
100
AcDbEntity
8
0
100
AcDbLine
62
7
6
CONTINUOUS
10
149.4989969910
20
159.6970912738
11
149.4989969910
21
84.6970912738
0
LINE
5
280
100
AcDbEntity
8
0
100
AcDbLine
62
7
6
CONTINUOUS
10
64.4989969910
20
169.6970912738
11
139.4989969910
21
169.6970912738
0
LINE
5
281
100
AcDbEntity
8
0
100
AcDbLine
62
7
6
CONTINUOUS
10
54.4989969910
20
205.8821464393
11
54.4989969910
21
207.8821464393
0
LINE
5
282
100
AcDbEntity
8
0
100
AcDbLine
62
7
6
CONTINUOUS
10
55.7989969910
20
225.8821464393
11
55.7989969910
21
255.8821464393
0
LINE
5
283
100
AcDbEntity
8
0
100
AcDbLine
62
7
6
CONTINUOUS
10
57.1934434915
20
245.8821464393
11
60.9462202412
21
252.3821464393
0
LINE
5
284
100
AcDbEntity
8
0
100
AcDbLine
62
7
6
CONTINUOUS
10
64.4989969910
20
205.8821464393
11
64.4989969910
21
207.8821464393
0
LINE
5
285
100
AcDbEntity
8
0
100
AcDbLine
62
7
6
CONTINUOUS
10
60.9462202412
20
239.3821464393
11
57.1934434915
21
245.8821464393
0
LINE
5
286
100
AcDbEntity
8
0
100
AcDbLine
62
7
6
CONTINUOUS
10
72.2045504904
20
245.8821464393
11
68.4517737407
21
239.3821464393
0
LINE
5
287
100
AcDbEntity
8
0
100
AcDbLine
62
7
6
CONTINUOUS
10
149.4989969910
20
205.8821464393
11
54.4989969910
21
205.8821464393
0
LINE
5
288
100
AcDbEntity
8
0
100
AcDbLine
62
7
6
CONTINUOUS
10
74.4555767241
20
215.8821464393
11
74.4555767241
21
265.8821464393
0
LINE
5
289
100
AcDbEntity
8
0
100
AcDbLine
62
7
6
CONTINUOUS
10
54.4989969910
20
207.8821464393
11
149.4989969910
21
207.8821464393
0
LINE
5
28A
100
AcDbEntity
8
0
100
AcDbLine
62
7
6
CONTINUOUS
10
76.4021081917
20
215.8821464393
11
76.4021081917
21
265.8821464393
0
LINE
5
28B
100
AcDbEntity
8
0
100
AcDbLine
62
7
6
CONTINUOUS
10
73.2667423086
20
215.0935034426
11
130.7312516733
21
215.0935034426
0
LINE
5
28C
100
AcDbEntity
8
0
100
AcDbLine
62
7
6
CONTINUOUS
10
65.7989969910
20
215.8821464393
11
128.2989969910
21
215.8821464393
0
LINE
5
28D
100
AcDbEntity
8
0
100
AcDbLine
62
7
6
CONTINUOUS
10
68.4517737407
20
252.3821464393
11
72.2045504904
21
245.8821464393
0
LINE
5
28E
100
AcDbEntity
8
DEFAULT_1
100
AcDbLine
62
2
6
CENTER
10
101.9989969910
20
268.8821464393
11
101.9989969910
21
202.8821464393
0
LINE
5
28F
100
AcDbEntity
8
0
100
AcDbLine
62
7
6
CONTINUOUS
10
130.7312516733
20
215.0935034426
11
141.9989969910
21
207.8821464393
0
LINE
5
290
100
AcDbEntity
8
0
100
AcDbLine
62
7
6
CONTINUOUS
10
73.2667423086
20
215.0935034426
11
61.9989969910
21
207.8821464393
0
LINE
5
291
100
AcDbEntity
8
0
100
AcDbLine
62
7
6
CONTINUOUS
10
68.4517737407
20
239.3821464393
11
60.9462202412
21
239.3821464393
0
LINE
5
292
100
AcDbEntity
8
0
100
AcDbLine
62
7
6
CONTINUOUS
10
60.9462202412
20
252.3821464393
11
68.4517737407
21
252.3821464393
0
LINE
5
293
100
AcDbEntity
8
0
100
AcDbLine
62
7
6
CONTINUOUS
10
128.2989969910
20
215.8821464393
11
128.2989969910
21
265.8821464393
0
LINE
5
294
100
AcDbEntity
8
0
100
AcDbLine
62
7
6
CONTINUOUS
10
65.7989969910
20
265.8821464393
11
128.2989969910
21
265.8821464393
0
LINE
5
295
100
AcDbEntity
8
0
100
AcDbLine
62
7
6
CONTINUOUS
10
139.4989969910
20
205.8821464393
11
139.4989969910
21
207.8821464393
0
LINE
5
296
100
AcDbEntity
8
0
100
AcDbLine
62
7
6
CONTINUOUS
10
149.4989969910
20
205.8821464393
11
149.4989969910
21
207.8821464393
0
CIRCLE
5
297
100
AcDbEntity
8
0
100
AcDbCircle
62
7
6
CONTINUOUS
10
66.9989969910
20
87.1970912738
40
4.2500000000
0
CIRCLE
5
298
100
AcDbEntity
8
0
100
AcDbCircle
62
7
6
CONTINUOUS
10
136.9989969910
20
87.1970912738
40
4.2500000000
0
CIRCLE
5
299
100
AcDbEntity
8
0
100
AcDbCircle
62
7
6
CONTINUOUS
10
136.9989969910
20
157.1970912738
40
4.2500000000
0
CIRCLE
5
29A
100
AcDbEntity
8
0
100
AcDbCircle
62
7
6
CONTINUOUS
10
66.9989969910
20
157.1970912738
40
4.2500000000
0
ARC
5
29B
100
AcDbEntity
8
0
100
AcDbCircle
62
7
6
CONTINUOUS
10
64.4989969910
20
84.6970912738
40
10.0000000000
100
AcDbArc
50
180.0000000000
51
270.0000000000
0
ARC
5
29C
100
AcDbEntity
8
0
100
AcDbCircle
62
7
6
CONTINUOUS
10
64.4989969910
20
159.6970912738
40
10.0000000000
100
AcDbArc
50
90.0000000000
51
180.0000000000
0
ARC
5
29D
100
AcDbEntity
8
0
100
AcDbCircle
62
7
6
CONTINUOUS
10
139.4989969910
20
159.6970912738
40
10.0000000000
100
AcDbArc
50
0.0000000000
51
90.0000000000
0
ARC
5
29E
100
AcDbEntity
8
0
100
AcDbCircle
62
7
6
CONTINUOUS
10
139.4989969910
20
84.6970912738
40
10.0000000000
100
AcDbArc
50
270.0000000000
51
360.0000000000
0
CIRCLE
5
29F
100
AcDbEntity
8
0
100
AcDbCircle
62
7
6
CONTINUOUS
10
101.9989969910
20
122.1970912738
40
24.2000000000
0
ARC
5
2A0
100
AcDbEntity
8
0
100
AcDbCircle
62
7
6
CONTINUOUS
10
74.4555767241
20
128.6970912738
40
2.0000000000
100
AcDbArc
50
270.0000000000
51
346.7216507609
0
ARC
5
2A1
100
AcDbEntity
8
0
100
AcDbCircle
62
7
6
CONTINUOUS
10
74.4555767241
20
115.6970912738
40
2.0000000000
100
AcDbArc
50
13.2783492391
51
90.0000000000
0
ARC
5
2A2
100
AcDbEntity
8
0
100
AcDbCircle
62
7
6
CONTINUOUS
10
74.4555767241
20
115.6970912738
40
4.0000000000
100
AcDbArc
50
13.2783492391
51
90.0000000000
0
ARC
5
2A3
100
AcDbEntity
8
0
100
AcDbCircle
62
7
6
CONTINUOUS
10
74.4555767241
20
128.6970912738
40
4.0000000000
100
AcDbArc
50
270.0000000000
51
346.7216507609
0
ARC
5
2A4
100
AcDbEntity
8
0
100
AcDbCircle
62
7
6
CONTINUOUS
10
101.9989969910
20
122.1970912738
40
26.3000000000
100
AcDbArc
50
193.2783492391
51
166.7216507609
0
ARC
5
2A5
100
AcDbEntity
8
0
100
AcDbCircle
62
7
6
CONTINUOUS
10
101.9989969910
20
122.1970912738
40
24.3000000000
100
AcDbArc
50
193.2783492392
51
166.7216507609
0
ARC
5
2A6
100
AcDbEntity
8
0
100
AcDbCircle
62
7
6
CONTINUOUS
10
101.9989969910
20
122.1970912738
40
40.0000000000
100
AcDbArc
50
196.7093408192
51
165.5217662575
0
ARC
5
2A7
100
AcDbEntity
8
0
100
AcDbCircle
62
7
6
CONTINUOUS
10
101.9989969910
20
122.1970912738
40
26.0369862002
100
AcDbArc
50
173.6877787813
51
186.3122212187
0
ARC
5
2A8
100
AcDbEntity
8
0
100
AcDbCircle
62
7
6
CONTINUOUS
10
101.9989969910
20
122.1970912738
40
28.7322546823
100
AcDbArc
50
189.0111009496
51
170.9888990504
0
ARC
5
2A9
100
AcDbEntity
8
0
100
AcDbCircle
62
7
6
CONTINUOUS
10
101.9989969910
20
122.1970912738
40
28.7322546823
100
AcDbArc
50
175.0080584181
51
184.9919415818
0
ARC
5
2AA
100
AcDbEntity
8
0
100
AcDbCircle
62
7
6
CONTINUOUS
10
128.0359831912
20
210.8821464393
40
5.0000000000
100
AcDbArc
50
57.3807569289
51
87.2817304206
0
ARC
5
2AB
100
AcDbEntity
8
0
100
AcDbCircle
62
7
6
CONTINUOUS
10
75.9620107908
20
210.8821464393
40
5.0000000000
100
AcDbArc
50
92.7182695794
51
122.6192430711
0
ARC
5
2AC
100
AcDbEntity
8
0
100
AcDbCircle
62
7
6
CONTINUOUS
10
65.7989969910
20
225.8821464393
40
10.0000000000
100
AcDbArc
50
180.0000000000
51
270.0000000000
0
ARC
5
2AD
100
AcDbEntity
8
0
100
AcDbCircle
62
7
6
CONTINUOUS
10
65.7989969910
20
255.8821464393
40
10.0000000000
100
AcDbArc
50
90.0000000000
51
180.0000000000
0
CIRCLE
5
2AE
100
AcDbEntity
8
0
100
AcDbCircle
62
7
6
CONTINUOUS
10
64.6989969910
20
245.8821464393
40
4.0000000000
0
CIRCLE
5
2AF
100
AcDbEntity
8
0
100
AcDbCircle
62
7
6
CONTINUOUS
10
64.6989969910
20
245.8821464393
40
3.3000000000
0
CIRCLE
5
2B0
100
AcDbEntity
8
0
100
AcDbCircle
62
7
6
CONTINUOUS
10
64.6989969910
20
245.8821464393
40
6.5000000000
0
CIRCLE
5
2B1
100
AcDbEntity
8
0
100
AcDbCircle
62
7
6
CONTINUOUS
10
64.6989969910
20
245.8821464393
40
3.9000000000
0
SPLINE
5
2B2
100
AcDbEntity
8
0
100
AcDbSpline
62
7
6
CONTINUOUS
70
0
71
3
72
14
73
10
74
8
42
0.0000001000
43
0.0000001000
44
0.0000000001
12
1.9869142219
22
-0.0000000001
32
0.0000000000
13
1.7207181913
23
-0.9934571109
33
0.0000000000
40
0.0000000000
40
0.0000000000
40
0.0000000000
40
0.0000000000
40
0.1336560434
40
0.2682703927
40
0.4049979467
40
0.5449838578
40
0.6896004066
40
0.8406305235
40
1.0000000000
40
1.0000000000
40
1.0000000000
40
1.0000000000
10
59.0698318664
20
132.1970912738
30
0.0000000000
10
59.1583528975
20
132.1970912738
30
0.0000000000
10
59.3361405909
20
132.1886636384
30
0.0000000000
10
59.6020833271
20
132.1511119006
30
0.0000000000
10
59.8677759243
20
132.0894603629
30
0.0000000000
10
60.1339140064
20
132.0046761052
30
0.0000000000
10
60.4020133968
20
131.8974598707
30
0.0000000000
10
60.6742972496
20
131.7679126939
30
0.0000000000
10
60.8548102555
20
131.6693102701
30
0.0000000000
10
60.9462202412
20
131.6165346902
30
0.0000000000
11
59.0698318664
21
132.1970912738
31
0.0000000000
11
59.3351015587
21
132.1846114126
31
0.0000000000
11
59.5999802237
21
132.1474902971
31
0.0000000000
11
59.8647066891
21
132.0864798760
31
0.0000000000
11
60.1298710709
21
132.0025173314
31
0.0000000000
11
60.3968622874
21
131.8963083141
31
0.0000000000
11
60.6680683684
21
131.7678653269
31
0.0000000000
11
60.9462202412
21
131.6165346902
31
0.0000000000
0
SPLINE
5
2B3
100
AcDbEntity
8
0
100
AcDbSpline
62
7
6
CONTINUOUS
70
0
71
3
72
14
73
10
74
8
42
0.0000001000
43
0.0000001000
44
0.0000000001
12
1.7207192063
22
-0.9934576969
32
0.0000000000
13
1.9869153939
23
-0.0000000003
33
0.0000000000
40
0.0000000000
40
0.0000000000
40
0.0000000000
40
0.0000000000
40
0.1604360652
40
0.3119938558
40
0.4567283043
40
0.5965320383
40
0.7328637481
40
0.8669445193
40
1.0000000000
40
1.0000000000
40
1.0000000000
40
1.0000000000
10
68.4517737407
20
111.7776478574
30
0.0000000000
10
68.5437955470
20
111.7245190428
30
0.0000000000
10
68.7252528486
20
111.6254378236
30
0.0000000000
10
68.9986299404
20
111.4955430402
30
0.0000000000
10
69.2670985716
20
111.3884193319
30
0.0000000000
10
69.5330213529
20
111.3039632606
30
0.0000000000
10
69.7980457374
20
111.2426980560
30
0.0000000000
10
70.0630036213
20
111.2054451627
30
0.0000000000
10
70.2400388189
20
111.1970912718
30
0.0000000000
10
70.3281621466
20
111.1970912718
30
0.0000000000
11
68.4517737407
21
111.7776478574
31
0.0000000000
11
68.7318148730
21
111.6253549877
31
0.0000000000
11
69.0040368834
21
111.4966073122
31
0.0000000000
11
69.2713283375
21
111.3905190524
31
0.0000000000
11
69.5362215805
21
111.3068991184
31
0.0000000000
11
69.8002313658
21
111.2462808358
31
0.0000000000
11
70.0640816465
21
111.2094596730
31
0.0000000000
11
70.3281621466
21
111.1970912718
31
0.0000000000
0
SPLINE
5
2B4
100
AcDbEntity
8
0
100
AcDbSpline
62
7
6
CONTINUOUS
70
0
71
3
72
14
73
10
74
8
42
0.0000001000
43
0.0000001000
44
0.0000000001
12
1.9869141911
22
0.0000000001
32
0.0000000000
13
1.7207181646
23
0.9934570955
33
0.0000000000
40
0.0000000000
40
0.0000000000
40
0.0000000000
40
0.0000000000
40
0.1336560284
40
0.2682703679
40
0.4049979114
40
0.5449838159
40
0.6896003637
40
0.8406304934
40
1.0000000000
40
1.0000000000
40
1.0000000000
40
1.0000000000
10
70.3281621466
20
111.1970912718
30
0.0000000000
10
70.4166831664
20
111.1970912718
30
0.0000000000
10
70.5944708403
20
111.2055189116
30
0.0000000000
10
70.8604135495
20
111.2430706423
30
0.0000000000
10
71.1261061259
20
111.3047221723
30
0.0000000000
10
71.3922441937
20
111.3895064204
30
0.0000000000
10
71.6603435850
20
111.4967226499
30
0.0000000000
10
71.9326274603
20
111.6262698331
30
0.0000000000
10
72.1131404888
20
111.7248722684
30
0.0000000000
10
72.2045504904
20
111.7776478574
30
0.0000000000
11
70.3281621466
21
111.1970912718
31
0.0000000000
11
70.5934318048
21
111.2095711347
31
0.0000000000
11
70.8583104468
21
111.2466922456
31
0.0000000000
11
71.1230368884
21
111.3077026579
31
0.0000000000
11
71.3882012549
21
111.3916651929
31
0.0000000000
11
71.6551924671
21
111.4978742032
31
0.0000000000
11
71.9263985686
21
111.6263171958
31
0.0000000000
11
72.2045504904
21
111.7776478574
31
0.0000000000
0
SPLINE
5
2B5
100
AcDbEntity
8
0
100
AcDbSpline
62
7
6
CONTINUOUS
70
0
71
3
72
14
73
10
74
8
42
0.0000001000
43
0.0000001000
44
0.0000000001
12
1.9869141911
22
-0.0000000001
32
0.0000000000
13
1.7207181646
23
-0.9934570955
33
0.0000000000
40
0.0000000000
40
0.0000000000
40
0.0000000000
40
0.0000000000
40
0.1336560284
40
0.2682703679
40
0.4049979114
40
0.5449838159
40
0.6896003637
40
0.8406304934
40
1.0000000000
40
1.0000000000
40
1.0000000000
40
1.0000000000
10
70.3281621466
20
117.6970912758
30
0.0000000000
10
70.4166831664
20
117.6970912758
30
0.0000000000
10
70.5944708403
20
117.6886636360
30
0.0000000000
10
70.8604135495
20
117.6511119053
30
0.0000000000
10
71.1261061259
20
117.5894603754
30
0.0000000000
10
71.3922441937
20
117.5046761273
30
0.0000000000
10
71.6603435850
20
117.3974598977
30
0.0000000000
10
71.9326274603
20
117.2679127145
30
0.0000000000
10
72.1131404888
20
117.1693102793
30
0.0000000000
10
72.2045504904
20
117.1165346902
30
0.0000000000
11
70.3281621466
21
117.6970912758
31
0.0000000000
11
70.5934318048
21
117.6846114129
31
0.0000000000
11
70.8583104468
21
117.6474903020
31
0.0000000000
11
71.1230368884
21
117.5864798897
31
0.0000000000
11
71.3882012549
21
117.5025173548
31
0.0000000000
11
71.6551924671
21
117.3963083445
31
0.0000000000
11
71.9263985686
21
117.2678653518
31
0.0000000000
11
72.2045504904
21
117.1165346902
31
0.0000000000
0
SPLINE
5
2B6
100
AcDbEntity
8
0
100
AcDbSpline
62
7
6
CONTINUOUS
70
0
71
3
72
14
73
10
74
8
42
0.0000001000
43
0.0000001000
44
0.0000000001
12
1.7207191794
22
-0.9934576814
32
0.0000000000
13
1.9869153628
23
-0.0000000004
33
0.0000000000
40
0.0000000000
40
0.0000000000
40
0.0000000000
40
0.0000000000
40
0.1604360651
40
0.3119938557
40
0.4567283043
40
0.5965320384
40
0.7328637482
40
0.8669445209
40
1.0000000000
40
1.0000000000
40
1.0000000000
40
1.0000000000
10
57.1934434915
20
111.7776478574
30
0.0000000000
10
57.2854652963
20
111.7245190437
30
0.0000000000
10
57.4669225950
20
111.6254378260
30
0.0000000000
10
57.7402996823
20
111.4955430442
30
0.0000000000
10
58.0087683092
20
111.3884193368
30
0.0000000000
10
58.2746910861
20
111.3039632656
30
0.0000000000
10
58.5397154671
20
111.2426980601
30
0.0000000000
10
58.8046733464
20
111.2054451648
30
0.0000000000
10
58.9817085412
20
111.1970912738
30
0.0000000000
10
59.0698318664
20
111.1970912738
30
0.0000000000
11
57.1934434915
21
111.7776478574
31
0.0000000000
11
57.4734846192
21
111.6253549901
31
0.0000000000
11
57.7457066252
21
111.4966073161
31
0.0000000000
11
58.0129980750
21
111.3905190572
31
0.0000000000
11
58.2778913136
21
111.3068991232
31
0.0000000000
11
58.5419010945
21
111.2462808399
31
0.0000000000
11
58.8057513737
21
111.2094596752
31
0.0000000000
11
59.0698318664
21
111.1970912738
31
0.0000000000
0
SPLINE
5
2B7
100
AcDbEntity
8
0
100
AcDbSpline
62
7
6
CONTINUOUS
70
0
71
3
72
14
73
10
74
8
42
0.0000001000
43
0.0000001000
44
0.0000000001
12
1.9869142219
22
-0.0000000001
32
0.0000000000
13
1.7207181913
23
-0.9934571109
33
0.0000000000
40
0.0000000000
40
0.0000000000
40
0.0000000000
40
0.0000000000
40
0.1336560434
40
0.2682703927
40
0.4049979467
40
0.5449838578
40
0.6896004066
40
0.8406305235
40
1.0000000000
40
1.0000000000
40
1.0000000000
40
1.0000000000
10
70.3281621156
20
132.1970912738
30
0.0000000000
10
70.4166831467
20
132.1970912738
30
0.0000000000
10
70.5944708401
20
132.1886636384
30
0.0000000000
10
70.8604135763
20
132.1511119006
30
0.0000000000
10
71.1261061735
20
132.0894603629
30
0.0000000000
10
71.3922442556
20
132.0046761052
30
0.0000000000
10
71.6603436460
20
131.8974598707
30
0.0000000000
10
71.9326274988
20
131.7679126939
30
0.0000000000
10
72.1131405047
20
131.6693102701
30
0.0000000000
10
72.2045504904
20
131.6165346902
30
0.0000000000
11
70.3281621156
21
132.1970912738
31
0.0000000000
11
70.5934318079
21
132.1846114126
31
0.0000000000
11
70.8583104729
21
132.1474902971
31
0.0000000000
11
71.1230369383
21
132.0864798760
31
0.0000000000
11
71.3882013201
21
132.0025173314
31
0.0000000000
11
71.6551925366
21
131.8963083141
31
0.0000000000
11
71.9263986176
21
131.7678653269
31
0.0000000000
11
72.2045504904
21
131.6165346902
31
0.0000000000
0
SPLINE
5
2B8
100
AcDbEntity
8
0
100
AcDbSpline
62
7
6
CONTINUOUS
70
0
71
3
72
14
73
10
74
8
42
0.0000001000
43
0.0000001000
44
0.0000000001
12
1.7207192063
22
0.9934576969
32
0.0000000000
13
1.9869153939
23
0.0000000003
33
0.0000000000
40
0.0000000000
40
0.0000000000
40
0.0000000000
40
0.0000000000
40
0.1604360652
40
0.3119938558
40
0.4567283043
40
0.5965320383
40
0.7328637481
40
0.8669445193
40
1.0000000000
40
1.0000000000
40
1.0000000000
40
1.0000000000
10
68.4517737407
20
117.1165346902
30
0.0000000000
10
68.5437955470
20
117.1696635048
30
0.0000000000
10
68.7252528486
20
117.2687447241
30
0.0000000000
10
68.9986299404
20
117.3986395074
30
0.0000000000
10
69.2670985716
20
117.5057632158
30
0.0000000000
10
69.5330213529
20
117.5902192870
30
0.0000000000
10
69.7980457374
20
117.6514844917
30
0.0000000000
10
70.0630036213
20
117.6887373849
30
0.0000000000
10
70.2400388189
20
117.6970912758
30
0.0000000000
10
70.3281621466
20
117.6970912758
30
0.0000000000
11
68.4517737407
21
117.1165346902
31
0.0000000000
11
68.7318148730
21
117.2688275599
31
0.0000000000
11
69.0040368834
21
117.3975752354
31
0.0000000000
11
69.2713283375
21
117.5036634953
31
0.0000000000
11
69.5362215805
21
117.5872834292
31
0.0000000000
11
69.8002313658
21
117.6479017118
31
0.0000000000
11
70.0640816465
21
117.6847228747
31
0.0000000000
11
70.3281621466
21
117.6970912758
31
0.0000000000
0
SPLINE
5
2B9
100
AcDbEntity
8
0
100
AcDbSpline
62
7
6
CONTINUOUS
70
0
71
3
72
14
73
10
74
8
42
0.0000001000
43
0.0000001000
44
0.0000000001
12
3.6605373219
22
-1.0567061041
32
0.0000000000
13
3.8100080413
23
-0.0000000003
33
0.0000000000
40
0.0000000000
40
0.0000000000
40
0.0000000000
40
0.0000000000
40
0.1523319509
40
0.2991658835
40
0.4422114713
40
0.5829859261
40
0.7224876941
40
0.8613320916
40
1.0000000000
40
1.0000000000
40
1.0000000000
40
1.0000000000
10
60.9462202412
20
111.7776478574
30
0.0000000000
10
61.1320925051
20
111.7239911566
30
0.0000000000
10
61.4987234230
20
111.6240208981
30
0.0000000000
10
62.0452759701
20
111.4943754739
30
0.0000000000
10
62.5818056650
20
111.3875380704
30
0.0000000000
10
63.1129499989
20
111.3033898135
30
0.0000000000
10
63.6419035158
20
111.2424179803
30
0.0000000000
10
64.1703917806
20
111.2053822383
30
0.0000000000
10
64.5228883756
20
111.1970912738
30
0.0000000000
10
64.6989969910
20
111.1970912738
30
0.0000000000
11
60.9462202412
21
111.7776478574
31
0.0000000000
11
61.5062712774
21
111.6253629366
31
0.0000000000
11
62.0506942005
21
111.4966187110
31
0.0000000000
11
62.5852737074
21
111.3905290021
31
0.0000000000
11
63.1150665256
21
111.3069058701
31
0.0000000000
11
63.6431008819
21
111.2462840397
31
0.0000000000
11
64.1708159622
21
111.2094606124
31
0.0000000000
11
64.6989969910
21
111.1970912738
31
0.0000000000
0
SPLINE
5
2BA
100
AcDbEntity
8
0
100
AcDbSpline
62
7
6
CONTINUOUS
70
0
71
3
72
14
73
10
74
8
42
0.0000001000
43
0.0000001000
44
0.0000000001
12
3.8100075716
22
0.0000000000
32
0.0000000000
13
3.6605368706
23
1.0567059738
33
0.0000000000
40
0.0000000000
40
0.0000000000
40
0.0000000000
40
0.0000000000
40
0.1393032553
40
0.2787000178
40
0.4185947221
40
0.5595270893
40
0.7024224110
40
0.8487087829
40
1.0000000000
40
1.0000000000
40
1.0000000000
40
1.0000000000
10
64.6989969910
20
111.1970912738
30
0.0000000000
10
64.8759124768
20
111.1970912738
30
0.0000000000
10
65.2299181770
20
111.2054560739
30
0.0000000000
10
65.7603995983
20
111.2427926458
30
0.0000000000
10
66.2907194675
20
111.3041558574
30
0.0000000000
10
66.8223256101
20
111.3886406081
30
0.0000000000
10
67.3581351059
20
111.4955790595
30
0.0000000000
10
67.9024981262
20
111.6248816569
30
0.0000000000
10
68.2671713812
20
111.7243577464
30
0.0000000000
10
68.4517737407
20
111.7776478574
30
0.0000000000
11
64.6989969910
21
111.1970912738
31
0.0000000000
11
65.2295966373
21
111.2095739656
31
0.0000000000
11
65.7593999962
21
111.2467021307
31
0.0000000000
11
66.2888953408
21
111.3077230693
31
0.0000000000
11
66.8192420618
21
111.3916950547
31
0.0000000000
11
67.3532132775
21
111.4979081600
31
0.0000000000
11
67.8955658371
21
111.6263416397
31
0.0000000000
11
68.4517737407
21
111.7776478574
31
0.0000000000
0
SPLINE
5
2BB
100
AcDbEntity
8
0
100
AcDbSpline
62
7
6
CONTINUOUS
70
0
71
3
72
14
73
10
74
8
42
0.0000001000
43
0.0000001000
44
0.0000000001
12
3.8100075716
22
-0.0000000003
32
0.0000000000
13
3.6605368706
23
-1.0567059738
33
0.0000000000
40
0.0000000000
40
0.0000000000
40
0.0000000000
40
0.0000000000
40
0.1393032554
40
0.2787000178
40
0.4185947221
40
0.5595270893
40
0.7024224110
40
0.8487087829
40
1.0000000000
40
1.0000000000
40
1.0000000000
40
1.0000000000
10
64.6989969910
20
117.6970912739
30
0.0000000000
10
64.8759124769
20
117.6970912738
30
0.0000000000
10
65.2299181770
20
117.6887264737
30
0.0000000000
10
65.7603995984
20
117.6513899018
30
0.0000000000
10
66.2907194675
20
117.5900266903
30
0.0000000000
10
66.8223256101
20
117.5055419396
30
0.0000000000
10
67.3581351059
20
117.3986034882
30
0.0000000000
10
67.9024981262
20
117.2693008908
30
0.0000000000
10
68.2671713812
20
117.1698248012
30
0.0000000000
10
68.4517737407
20
117.1165346902
30
0.0000000000
11
64.6989969910
21
117.6970912739
31
0.0000000000
11
65.2295966374
21
117.6846085821
31
0.0000000000
11
65.7593999962
21
117.6474804169
31
0.0000000000
11
66.2888953408
21
117.5864594783
31
0.0000000000
11
66.8192420618
21
117.5024874929
31
0.0000000000
11
67.3532132775
21
117.3962743876
31
0.0000000000
11
67.8955658371
21
117.2678409079
31
0.0000000000
11
68.4517737407
21
117.1165346902
31
0.0000000000
0
SPLINE
5
2BC
100
AcDbEntity
8
0
100
AcDbSpline
62
7
6
CONTINUOUS
70
0
71
3
72
14
73
10
74
8
42
0.0000001000
43
0.0000001000
44
0.0000000001
12
3.6605373219
22
1.0567061041
32
0.0000000000
13
3.8100080413
23
0.0000000003
33
0.0000000000
40
0.0000000000
40
0.0000000000
40
0.0000000000
40
0.0000000000
40
0.1523319509
40
0.2991658835
40
0.4422114713
40
0.5829859261
40
0.7224876941
40
0.8613320916
40
1.0000000000
40
1.0000000000
40
1.0000000000
40
1.0000000000
10
60.9462202412
20
117.1165346902
30
0.0000000000
10
61.1320925051
20
117.1701913910
30
0.0000000000
10
61.4987234230
20
117.2701616495
30
0.0000000000
10
62.0452759701
20
117.3998070737
30
0.0000000000
10
62.5818056650
20
117.5066444772
30
0.0000000000
10
63.1129499989
20
117.5907927341
30
0.0000000000
10
63.6419035158
20
117.6517645673
30
0.0000000000
10
64.1703917806
20
117.6888003093
30
0.0000000000
10
64.5228883756
20
117.6970912738
30
0.0000000000
10
64.6989969910
20
117.6970912739
30
0.0000000000
11
60.9462202412
21
117.1165346902
31
0.0000000000
11
61.5062712774
21
117.2688196111
31
0.0000000000
11
62.0506942005
21
117.3975638366
31
0.0000000000
11
62.5852737074
21
117.5036535455
31
0.0000000000
11
63.1150665256
21
117.5872766775
31
0.0000000000
11
63.6431008819
21
117.6478985079
31
0.0000000000
11
64.1708159622
21
117.6847219352
31
0.0000000000
11
64.6989969910
21
117.6970912739
31
0.0000000000
0
SPLINE
5
2BD
100
AcDbEntity
8
0
100
AcDbSpline
62
7
6
CONTINUOUS
70
0
71
3
72
14
73
10
74
8
42
0.0000001000
43
0.0000001000
44
0.0000000001
12
1.7207191794
22
0.9934576814
32
0.0000000000
13
1.9869153628
23
0.0000000003
33
0.0000000000
40
0.0000000000
40
0.0000000000
40
0.0000000000
40
0.0000000000
40
0.1604360437
40
0.3119938253
40
0.4567282761
40
0.5965320158
40
0.7328637331
40
0.8669445124
40
1.0000000000
40
1.0000000000
40
1.0000000000
40
1.0000000000
10
68.4517737407
20
131.6165346902
30
0.0000000000
10
68.5437955332
20
131.6696634969
30
0.0000000000
10
68.7252528138
20
131.7687447055
30
0.0000000000
10
68.9986298830
20
131.8986394819
30
0.0000000000
10
69.2670985075
20
132.0057631928
30
0.0000000000
10
69.5330212929
20
132.0902192707
30
0.0000000000
10
69.7980456859
20
132.1514844822
30
0.0000000000
10
70.0630035799
20
132.1887373819
30
0.0000000000
10
70.2400387848
20
132.1970912738
30
0.0000000000
10
70.3281621156
20
132.1970912738
30
0.0000000000
11
68.4517737407
21
131.6165346902
31
0.0000000000
11
68.7318148305
21
131.7688275383
31
0.0000000000
11
69.0040368188
21
131.8975752073
31
0.0000000000
11
69.2713282713
21
132.0036634716
31
0.0000000000
11
69.5362215193
21
132.0872834125
31
0.0000000000
11
69.8002313140
21
132.1479017023
31
0.0000000000
11
70.0640816061
21
132.1847228709
31
0.0000000000
11
70.3281621156
21
132.1970912738
31
0.0000000000
0
SPLINE
5
2BE
100
AcDbEntity
8
0
100
AcDbSpline
62
7
6
CONTINUOUS
70
0
71
3
72
14
73
10
74
8
42
0.0000001000
43
0.0000001000
44
0.0000000001
12
1.9869142219
22
0.0000000001
32
0.0000000000
13
1.7207181913
23
0.9934571109
33
0.0000000000
40
0.0000000000
40
0.0000000000
40
0.0000000000
40
0.0000000000
40
0.1336560299
40
0.2682703680
40
0.4049979114
40
0.5449838158
40
0.6896003635
40
0.8406304933
40
1.0000000000
40
1.0000000000
40
1.0000000000
40
1.0000000000
10
59.0698318664
20
111.1970912738
30
0.0000000000
10
59.1583528886
20
111.1970912738
30
0.0000000000
10
59.3361405656
20
111.2055189077
30
0.0000000000
10
59.6020832791
20
111.2430706387
30
0.0000000000
10
59.8677758590
20
111.3047221671
30
0.0000000000
10
60.1339139312
20
111.3895064155
30
0.0000000000
10
60.4020133269
20
111.4967226459
30
0.0000000000
10
60.6742972066
20
111.6262698308
30
0.0000000000
10
60.8548102381
20
111.7248722675
30
0.0000000000
10
60.9462202412
20
111.7776478574
30
0.0000000000
11
59.0698318664
21
111.1970912738
31
0.0000000000
11
59.3351015320
21
111.2095711325
31
0.0000000000
11
59.5999801754
21
111.2466922415
31
0.0000000000
11
59.8647066214
21
111.3077026530
31
0.0000000000
11
60.1298709923
21
111.3916651881
31
0.0000000000
11
60.3968622088
21
111.4978741992
31
0.0000000000
11
60.6680683147
21
111.6263171934
31
0.0000000000
11
60.9462202412
21
111.7776478574
31
0.0000000000
0
SPLINE
5
2BF
100
AcDbEntity
8
0
100
AcDbSpline
62
7
6
CONTINUOUS
70
0
71
3
72
14
73
10
74
8
42
0.0000001000
43
0.0000001000
44
0.0000000001
12
1.9869142219
22
-0.0000000001
32
0.0000000000
13
1.7207181913
23
-0.9934571109
33
0.0000000000
40
0.0000000000
40
0.0000000000
40
0.0000000000
40
0.0000000000
40
0.1336560299
40
0.2682703680
40
0.4049979114
40
0.5449838158
40
0.6896003635
40
0.8406304933
40
1.0000000000
40
1.0000000000
40
1.0000000000
40
1.0000000000
10
59.0698318664
20
117.6970912738
30
0.0000000000
10
59.1583528886
20
117.6970912738
30
0.0000000000
10
59.3361405656
20
117.6886636400
30
0.0000000000
10
59.6020832791
20
117.6511119090
30
0.0000000000
10
59.8677758590
20
117.5894603805
30
0.0000000000
10
60.1339139312
20
117.5046761322
30
0.0000000000
10
60.4020133269
20
117.3974599018
30
0.0000000000
10
60.6742972066
20
117.2679127169
30
0.0000000000
10
60.8548102381
20
117.1693102801
30
0.0000000000
10
60.9462202412
20
117.1165346902
30
0.0000000000
11
59.0698318664
21
117.6970912738
31
0.0000000000
11
59.3351015320
21
117.6846114151
31
0.0000000000
11
59.5999801754
21
117.6474903061
31
0.0000000000
11
59.8647066214
21
117.5864798946
31
0.0000000000
11
60.1298709923
21
117.5025173596
31
0.0000000000
11
60.3968622088
21
117.3963083484
31
0.0000000000
11
60.6680683147
21
117.2678653542
31
0.0000000000
11
60.9462202412
21
117.1165346902
31
0.0000000000
0
SPLINE
5
2C0
100
AcDbEntity
8
0
100
AcDbSpline
62
7
6
CONTINUOUS
70
0
71
3
72
14
73
10
74
8
42
0.0000001000
43
0.0000001000
44
0.0000000001
12
3.8100075716
22
-0.0000000003
32
0.0000000000
13
3.6605368706
23
-1.0567059738
33
0.0000000000
40
0.0000000000
40
0.0000000000
40
0.0000000000
40
0.0000000000
40
0.1393032500
40
0.2787000090
40
0.4185947098
40
0.5595270765
40
0.7024224014
40
0.8487087794
40
1.0000000000
40
1.0000000000
40
1.0000000000
40
1.0000000000
10
64.6989969910
20
132.1970912739
30
0.0000000000
10
64.8759124701
20
132.1970912738
30
0.0000000000
10
65.2299181591
20
132.1887264743
30
0.0000000000
10
65.7603995649
20
132.1513899047
30
0.0000000000
10
66.2907194247
20
132.0900266960
30
0.0000000000
10
66.8223255667
20
132.0055419474
30
0.0000000000
10
67.3581350738
20
131.8986034955
30
0.0000000000
10
67.9024981101
20
131.7693008951
30
0.0000000000
10
68.2671713769
20
131.6698248024
30
0.0000000000
10
68.4517737407
20
131.6165346902
30
0.0000000000
11
64.6989969910
21
132.1970912739
31
0.0000000000
11
65.2295966171
21
132.1846085830
31
0.0000000000
11
65.7593999628
21
132.1474804200
31
0.0000000000
11
66.2888952942
21
132.0864594847
31
0.0000000000
11
66.8192420138
21
132.0024875015
31
0.0000000000
11
67.3532132417
21
131.8962743954
31
0.0000000000
11
67.8955658242
21
131.7678409112
31
0.0000000000
11
68.4517737407
21
131.6165346902
31
0.0000000000
0
SPLINE
5
2C1
100
AcDbEntity
8
0
100
AcDbSpline
62
7
6
CONTINUOUS
70
0
71
3
72
14
73
10
74
8
42
0.0000001000
43
0.0000001000
44
0.0000000001
12
3.6605373219
22
1.0567061041
32
0.0000000000
13
3.8100080413
23
0.0000000003
33
0.0000000000
40
0.0000000000
40
0.0000000000
40
0.0000000000
40
0.0000000000
40
0.1523319350
40
0.2991658616
40
0.4422114517
40
0.5829859105
40
0.7224876836
40
0.8613320857
40
1.0000000000
40
1.0000000000
40
1.0000000000
40
1.0000000000
10
60.9462202412
20
131.6165346902
30
0.0000000000
10
61.1320924857
20
131.6701913854
30
0.0000000000
10
61.4987233765
20
131.7701616372
30
0.0000000000
10
62.0452758988
20
131.8998070580
30
0.0000000000
10
62.5818055936
20
132.0066444646
30
0.0000000000
10
63.1129499414
20
132.0907927264
30
0.0000000000
10
63.6419034754
20
132.1517645639
30
0.0000000000
10
64.1703917598
20
132.1888003086
30
0.0000000000
10
64.5228883681
20
132.1970912738
30
0.0000000000
10
64.6989969910
20
132.1970912739
30
0.0000000000
11
60.9462202412
21
131.6165346902
31
0.0000000000
11
61.5062712186
21
131.7688195961
31
0.0000000000
11
62.0506941190
21
131.8975638189
31
0.0000000000
11
62.5852736338
21
132.0036535324
31
0.0000000000
11
63.1150664667
21
132.0872766695
31
0.0000000000
11
63.6431008422
21
132.1478985043
31
0.0000000000
11
64.1708159398
21
132.1847219342
31
0.0000000000
11
64.6989969910
21
132.1970912739
31
0.0000000000
0
SPLINE
5
2C2
100
AcDbEntity
8
0
100
AcDbSpline
62
7
6
CONTINUOUS
70
0
71
3
72
14
73
10
74
8
42
0.0000001000
43
0.0000001000
44
0.0000000001
12
1.7207191794
22
0.9934576814
32
0.0000000000
13
1.9869153628
23
0.0000000004
33
0.0000000000
40
0.0000000000
40
0.0000000000
40
0.0000000000
40
0.0000000000
40
0.1604360651
40
0.3119938557
40
0.4567283043
40
0.5965320384
40
0.7328637482
40
0.8669445209
40
1.0000000000
40
1.0000000000
40
1.0000000000
40
1.0000000000
10
57.1934434915
20
117.1165346902
30
0.0000000000
10
57.2854652963
20
117.1696635040
30
0.0000000000
10
57.4669225950
20
117.2687447217
30
0.0000000000
10
57.7402996823
20
117.3986395034
30
0.0000000000
10
58.0087683092
20
117.5057632109
30
0.0000000000
10
58.2746910861
20
117.5902192820
30
0.0000000000
10
58.5397154671
20
117.6514844875
30
0.0000000000
10
58.8046733464
20
117.6887373829
30
0.0000000000
10
58.9817085412
20
117.6970912738
30
0.0000000000
10
59.0698318664
20
117.6970912738
30
0.0000000000
11
57.1934434915
21
117.1165346902
31
0.0000000000
11
57.4734846192
21
117.2688275576
31
0.0000000000
11
57.7457066252
21
117.3975752315
31
0.0000000000
11
58.0129980750
21
117.5036634905
31
0.0000000000
11
58.2778913136
21
117.5872834244
31
0.0000000000
11
58.5419010945
21
117.6479017077
31
0.0000000000
11
58.8057513737
21
117.6847228725
31
0.0000000000
11
59.0698318664
21
117.6970912738
31
0.0000000000
0
SPLINE
5
2C3
100
AcDbEntity
8
0
100
AcDbSpline
62
7
6
CONTINUOUS
70
0
71
3
72
14
73
10
74
8
42
0.0000001000
43
0.0000001000
44
0.0000000001
12
1.7207191794
22
0.9934576814
32
0.0000000000
13
1.9869153628
23
0.0000000004
33
0.0000000000
40
0.0000000000
40
0.0000000000
40
0.0000000000
40
0.0000000000
40
0.1604360437
40
0.3119938253
40
0.4567282761
40
0.5965320158
40
0.7328637331
40
0.8669445124
40
1.0000000000
40
1.0000000000
40
1.0000000000
40
1.0000000000
10
57.1934434915
20
131.6165346902
30
0.0000000000
10
57.2854652840
20
131.6696634969
30
0.0000000000
10
57.4669225646
20
131.7687447055
30
0.0000000000
10
57.7402996338
20
131.8986394819
30
0.0000000000
10
58.0087682583
20
132.0057631928
30
0.0000000000
10
58.2746910437
20
132.0902192707
30
0.0000000000
10
58.5397154367
20
132.1514844822
30
0.0000000000
10
58.8046733307
20
132.1887373819
30
0.0000000000
10
58.9817085356
20
132.1970912738
30
0.0000000000
10
59.0698318664
20
132.1970912738
30
0.0000000000
11
57.1934434915
21
131.6165346902
31
0.0000000000
11
57.4734845813
21
131.7688275383
31
0.0000000000
11
57.7457065696
21
131.8975752073
31
0.0000000000
11
58.0129980221
21
132.0036634716
31
0.0000000000
11
58.2778912701
21
132.0872834125
31
0.0000000000
11
58.5419010648
21
132.1479017023
31
0.0000000000
11
58.8057513569
21
132.1847228709
31
0.0000000000
11
59.0698318664
21
132.1970912738
31
0.0000000000
0
ENDSEC
0
SECTION
2
OBJECTS
0
DICTIONARY
5
C
100
AcDbDictionary
280
0
281
1
3
ACAD_GROUP
350
D
3
ACAD_MLINESTYLE
350
17
3
ACAD_LAYOUT
350
1A
3
ACAD_PLOTSETTINGS
350
19
3
ACAD_PLOTSTYLENAME
350
E
0
DICTIONARY
5
D
102
{ACAD_REACTORS
330
C
102
}
100
AcDbDictionary
280
0
281
1
0
ACDBDICTIONARYWDFLT
5
E
102
{ACAD_REACTORS
330
C
102
}
100
AcDbDictionary
281
1
3
Normal
350
F
100
AcDbDictionaryWithDefault
340
F
0
DICTIONARY
5
17
102
{ACAD_REACTORS
330
C
102
}
100
AcDbDictionary
280
0
281
1
3
Standard
350
18
0
DICTIONARY
5
19
102
{ACAD_REACTORS
330
C
102
}
100
AcDbDictionary
281
1
0
DICTIONARY
5
1A
102
{ACAD_REACTORS
330
C
102
}
100
AcDbDictionary
281
1
3
Layout1
350
1E
3
Model
350
22
0
ACDBPLACEHOLDER
5
F
102
{ACAD_REACTORS
330
E
102
}
0
MLINESTYLE
5
18
102
{ACAD_REACTORS
330
17
102
}
100
AcDbMlineStyle
2
STANDARD
70
0
3

62
256
51
90.0
52
90.0
71
2
49
0.5
62
256
6
BYLAYER
49
-0.5
62
256
6
BYLAYER
0
LAYOUT
5
1E
102
{ACAD_REACTORS
330
1A
102
}
100
AcDbPlotSettings
1

2

4

6

40
0.0
41
0.0
42
0.0
43
0.0
44
0.0
45
0.0
46
0.0
47
0.0
48
0.0
49
0.0
140
0.0
141
0.0
142
1.0
143
1.0
70
0
72
0
73
0
74
0
7

75
0
147
1.0
148
0.0
149
0.0
100
AcDbLayout
1
Layout1
70
0
71
0
10
0.0
20
0.0
11
0.0
21
0.0
12
0.0
22
0.0
32
0.0
14
0.0
24
0.0
34
0.0
15
0.0
25
0.0
35
0.0
146
0.0
13
0.0
23
0.0
33
0.0
16
0.0
26
0.0
36
0.0
17
0.0
27
0.0
37
0.0
76
0
330
1B
331
0
345
0
346
0
0
LAYOUT
5
22
102
{ACAD_REACTORS
330
1A
102
}
100
AcDbPlotSettings
1

2

4

6

40
0.0
41
0.0
42
0.0
43
0.0
44
0.0
45
0.0
46
0.0
47
0.0
48
0.0
49
0.0
140
0.0
141
0.0
142
1.0
143
1.0
70
0
72
0
73
0
74
0
7

75
0
147
1.0
148
0.0
149
0.0
100
AcDbLayout
1
Model
70
0
71
0
10
0.0
20
0.0
11
0.0
21
0.0
12
0.0
22
0.0
32
0.0
14
0.0
24
0.0
34
0.0
15
0.0
25
0.0
35
0.0
146
0.0
13
0.0
23
0.0
33
0.0
16
0.0
26
0.0
36
0.0
17
0.0
27
0.0
37
0.0
76
0
330
1F
331
0
345
0
346
0
0
ENDSEC
0
EOF
