999
DXF file: S0688-684552.dxf
999
Pro/ENGINEER 2005310 by Parametric Technology Corporation
0
SECTION
2
HEADER
9
$ACADVER
1
AC1015
9
$DWGCODEPAGE
3
ANSI_1252
9
$EXTMAX
10
210.0000000000
20
297.0000000000
30
0.0000000000
9
$EXTMIN
10
0.0000000000
20
0.0000000000
30
0.0000000000
9
$LIMMIN
10
0.0000000000
20
0.0000000000
9
$LIMMAX
10
210.0000000000
20
297.0000000000
9
$VIEWCTR
10
105.0000000000
20
148.5000000000
9
$VIEWSIZE
40
297.0000000000
9
$CLAYER
8
0
9
$LTSCALE
40
19.3600000000
9
$CELTYPE
6
BYLAYER
9
$DIMSCALE
40
1
9
$DIMASZ
40
3.5000000000
9
$DIMEXO
40
2.2000000000
9
$DIMDLI
40
13.3760000000
9
$DIMEXE
40
6.3360000000
9
$DIMCEN
40
3.1680000000
9
$DIMLFAC
40
1.0000000000
9
$DIMBLK
1
_FILLED
9
$DIMTXT
40
3.5000000000
9
$DIMTOL
70
1
9
$DIMLIM
70
0
9
$DIMTFAC
40
1.0000000000
9
$DIMTP
40
0.0010000000
9
$DIMTM
40
0.0010000000
9
$PDMODE
70
3
9
$PDSIZE
40
0.3125000000
9
$HANDSEED
5
2E2
9
$MEASUREMENT
70
1
9
$INSUNITS
70
4
0
ENDSEC
0
SECTION
2
CLASSES
0
CLASS
1
ACDBDICTIONARYWDFLT
2
AcDbDictionaryWithDefault
3
AutoCAD 2000
90
0
280
0
281
0
0
CLASS
1
ACDBPLACEHOLDER
2
AcDbPlaceHolder
3
AutoCAD 2000
90
0
280
0
281
0
0
CLASS
1
LAYOUT
2
AcDbLayout
3
AutoCAD 2000
90
0
280
0
281
0
0
ENDSEC
0
SECTION
2
TABLES
0
TABLE
2
VPORT
5
8
100
AcDbSymbolTable
70
2
0
VPORT
5
1F4
100
AcDbSymbolTableRecord
100
AcDbViewportTableRecord
2
*ACTIVE
70
0
10
0.0
20
0.0
11
1.0
21
1.0
12
105.0000000000
22
148.5000000000
13
0.0
23
0.0
14
1.0
24
1.0
15
0.0
25
0.0
16
0.0
26
0.0
36
1.0
17
0.0
27
0.0
37
0.0
40
297.0000000000
41
0.7070707071
42
50.0
43
0.0
44
0.0
50
0.0
51
0.0
71
0
72
100
73
1
74
1
75
0
76
0
77
0
78
0
0
ENDTAB
0
TABLE
2
LTYPE
5
5
100
AcDbSymbolTable
70
6
0
LTYPE
5
14
100
AcDbSymbolTableRecord
100
AcDbLinetypeTableRecord
2
BYBLOCK
70
0
3

72
65
73
0
40
0.0
0
LTYPE
5
15
100
AcDbSymbolTableRecord
100
AcDbLinetypeTableRecord
2
BYLAYER
70
0
3

72
65
73
0
40
0.0
0
LTYPE
5
16
100
AcDbSymbolTableRecord
100
AcDbLinetypeTableRecord
2
CONTINUOUS
70
64
3
Solid line
72
65
73
0
40
0
0
LTYPE
5
1F5
100
AcDbSymbolTableRecord
100
AcDbLinetypeTableRecord
2
CENTER
70
64
3
____ _ ____ _ ____ _ ____ _ ____ _ ____ _ ____
72
65
73
4
40
0.6
49
0.375
74
0
49
-0.075
74
0
49
0.075
74
0
49
-0.075
74
0
0
LTYPE
5
1F6
100
AcDbSymbolTableRecord
100
AcDbLinetypeTableRecord
2
HIDDEN
70
64
3
- - - - - - - - - - - - - - - - - - - -
72
65
73
2
40
0.2
49
0.1
74
0
49
-0.1
74
0
0
LTYPE
5
1F7
100
AcDbSymbolTableRecord
100
AcDbLinetypeTableRecord
2
PHANTOM
70
64
3
_____ _ _ _____ _ _ _____ _ _ _____
72
65
73
6
40
0.8
49
0.45
74
0
49
-0.05
74
0
49
0.1
74
0
49
-0.05
74
0
49
0.1
74
0
49
-0.05
74
0
0
LTYPE
5
1F8
100
AcDbSymbolTableRecord
100
AcDbLinetypeTableRecord
2
DOT
70
64
3
. . . . . . . . . . . . . . . . . . . .
72
65
73
2
40
0.2
49
0.1
74
0
49
-0.1
74
0
0
LTYPE
5
1F9
100
AcDbSymbolTableRecord
100
AcDbLinetypeTableRecord
2
DASHED
70
64
3
- - - - - - - - - - - - - - - - - - - -
72
65
73
2
40
0.2
49
0.1
74
0
49
-0.1
74
0
0
ENDTAB
0
TABLE
2
LAYER
5
2
100
AcDbSymbolTable
70
36
0
LAYER
5
10
100
AcDbSymbolTableRecord
100
AcDbLayerTableRecord
2
0
70
0
62
7
6
CONTINUOUS
370
-3
390
F
0
LAYER
5
1FA
100
AcDbSymbolTableRecord
100
AcDbLayerTableRecord
2
DEFAULT_1
70
0
62
7
6
CENTER
370
-3
390
F
0
LAYER
5
1FB
100
AcDbSymbolTableRecord
100
AcDbLayerTableRecord
2
DEFAULT_2
70
0
62
8
6
HIDDEN
370
-3
390
F
0
LAYER
5
1FC
100
AcDbSymbolTableRecord
100
AcDbLayerTableRecord
2
DEFAULT_3
70
0
62
7
6
PHANTOM
370
-3
390
F
0
LAYER
5
1FD
100
AcDbSymbolTableRecord
100
AcDbLayerTableRecord
2
_2D_DELETED_OBJS
70
0
62
7
6
CONTINUOUS
370
-3
390
F
0
LAYER
5
1FE
100
AcDbSymbolTableRecord
100
AcDbLayerTableRecord
2
ASSI
70
0
62
7
6
CONTINUOUS
370
-3
390
F
0
LAYER
5
1FF
100
AcDbSymbolTableRecord
100
AcDbLayerTableRecord
2
CURVE
70
0
62
7
6
CONTINUOUS
370
-3
390
F
0
LAYER
5
200
100
AcDbSymbolTableRecord
100
AcDbLayerTableRecord
2
PIANI
70
0
62
7
6
CONTINUOUS
370
-3
390
F
0
LAYER
5
201
100
AcDbSymbolTableRecord
100
AcDbLayerTableRecord
2
PUNTI
70
0
62
7
6
CONTINUOUS
370
-3
390
F
0
LAYER
5
202
100
AcDbSymbolTableRecord
100
AcDbLayerTableRecord
2
SURF_FILETTI
70
0
62
7
6
CONTINUOUS
370
-3
390
F
0
ENDTAB
0
TABLE
2
STYLE
5
3
100
AcDbSymbolTable
70
1
0
STYLE
5
11
100
AcDbSymbolTableRecord
100
AcDbTextStyleTableRecord
2
STANDARD
70
0
40
0.0
41
0.7143000000
50
0.0
71
0
42
0.2
3
txt
4

0
ENDTAB
0
TABLE
2
VIEW
5
6
100
AcDbSymbolTable
70
0
0
ENDTAB
0
TABLE
2
UCS
5
7
100
AcDbSymbolTable
70
0
0
ENDTAB
0
TABLE
2
APPID
5
9
100
AcDbSymbolTable
70
1
0
APPID
5
203
100
AcDbSymbolTableRecord
100
AcDbRegAppTableRecord
2
ACAD
70
0
0
ENDTAB
0
TABLE
2
BLOCK_RECORD
5
1
100
AcDbSymbolTable
70
0
0
BLOCK_RECORD
5
1F
100
AcDbSymbolTableRecord
100
AcDbBlockTableRecord
2
*MODEL_SPACE
0
BLOCK_RECORD
5
1B
100
AcDbSymbolTableRecord
100
AcDbBlockTableRecord
2
*PAPER_SPACE
0
BLOCK_RECORD
5
204
100
AcDbSymbolTableRecord
100
AcDbBlockTableRecord
2
_FILLED
0
BLOCK_RECORD
5
205
100
AcDbSymbolTableRecord
100
AcDbBlockTableRecord
2
*D0
0
BLOCK_RECORD
5
206
100
AcDbSymbolTableRecord
100
AcDbBlockTableRecord
2
*D1
0
BLOCK_RECORD
5
207
100
AcDbSymbolTableRecord
100
AcDbBlockTableRecord
2
*D2
0
BLOCK_RECORD
5
208
100
AcDbSymbolTableRecord
100
AcDbBlockTableRecord
2
*D3
0
BLOCK_RECORD
5
209
100
AcDbSymbolTableRecord
100
AcDbBlockTableRecord
2
*D4
0
BLOCK_RECORD
5
20A
100
AcDbSymbolTableRecord
100
AcDbBlockTableRecord
2
*D5
0
BLOCK_RECORD
5
20B
100
AcDbSymbolTableRecord
100
AcDbBlockTableRecord
2
*D6
0
ENDTAB
0
TABLE
2
DIMSTYLE
5
A
100
AcDbSymbolTable
70
1
100
AcDbDimStyleTable
71
0
0
DIMSTYLE
105
20C
100
AcDbSymbolTableRecord
100
AcDbDimStyleTableRecord
2
STANDARD
70
0
3

4

40
1.0
41
3.5000000000
42
0.0625
43
0.38
44
0.18
45
0.0
46
0.0
47
0.0010000000
48
0.0010000000
140
3.5000000000
141
0.09
142
0.0
143
25.4
144
1.0000000000
145
0.0
146
1.0000000000
147
0.09
71
1
72
0
73
0
74
0
75
0
76
0
77
1
78
8
170
0
171
2
172
0
173
0
174
0
175
0
176
0
177
0
178
5
270
2
271
3
272
3
273
2
274
2
275
0
280
0
281
0
282
0
283
1
284
8
285
0
286
0
287
3
288
0
340
11
341
204
342
204
343
204
344
204
0
DIMSTYLE
105
20D
100
AcDbSymbolTableRecord
100
AcDbDimStyleTableRecord
2
DIMSTYLE_1
70
0
3

4

40
1.0
41
3.5000000000
42
0.0625
43
0.38
44
0.18
45
0.0
46
0.0
47
0.1500000000
48
0.1500000000
140
3.5000000000
141
0.09
142
0.0
143
25.4
144
1.0000000000
145
0.0
146
1.0000000000
147
0.09
71
0
72
0
73
0
74
0
75
0
76
0
77
1
78
8
170
0
171
2
172
0
173
0
174
0
175
0
176
0
177
0
178
5
270
2
271
2
272
2
273
2
274
2
275
0
280
0
281
0
282
0
283
1
284
8
285
0
286
0
287
3
288
0
340
11
341
204
342
204
343
204
344
204
0
DIMSTYLE
105
20E
100
AcDbSymbolTableRecord
100
AcDbDimStyleTableRecord
2
DIMSTYLE_2
70
0
3

4

40
1.0
41
3.5000000000
42
0.0625
43
0.38
44
0.18
45
0.0
46
0.0
47
0.1500000000
48
0.1500000000
140
3.5000000000
141
0.09
142
0.0
143
25.4
144
1.0000000000
145
0.0
146
1.0000000000
147
0.09
71
0
72
0
73
0
74
0
75
0
76
0
77
1
78
8
170
0
171
2
172
0
173
0
174
0
175
0
176
0
177
0
178
5
270
2
271
3
272
3
273
2
274
2
275
0
280
0
281
0
282
0
283
1
284
8
285
0
286
0
287
3
288
0
340
11
341
204
342
204
343
204
344
204
0
DIMSTYLE
105
20F
100
AcDbSymbolTableRecord
100
AcDbDimStyleTableRecord
2
DIMSTYLE_3
70
0
3

4

40
1.0
41
3.5000000000
42
0.0625
43
0.38
44
0.18
45
0.0
46
0.0
47
0.1000000000
48
0.1000000000
140
3.5000000000
141
0.09
142
0.0
143
25.4
144
1.0000000000
145
0.0
146
1.0000000000
147
0.09
71
0
72
0
73
0
74
0
75
0
76
0
77
1
78
8
170
0
171
2
172
0
173
0
174
0
175
0
176
0
177
0
178
5
270
2
271
3
272
3
273
2
274
2
275
0
280
0
281
0
282
0
283
1
284
8
285
0
286
0
287
3
288
0
340
11
341
204
342
204
343
204
344
204
0
DIMSTYLE
105
210
100
AcDbSymbolTableRecord
100
AcDbDimStyleTableRecord
2
DIMSTYLE_4
70
0
3

4

40
1.0
41
3.5000000000
42
0.0625
43
0.38
44
0.18
45
0.0
46
0.0
47
0.1000000000
48
0.1000000000
140
3.5000000000
141
0.09
142
0.0
143
25.4
144
1.0000000000
145
0.0
146
1.0000000000
147
0.09
71
0
72
0
73
0
74
0
75
0
76
0
77
1
78
8
170
0
171
2
172
0
173
0
174
0
175
0
176
0
177
0
178
5
270
2
271
3
272
3
273
2
274
2
275
0
280
0
281
0
282
0
283
1
284
8
285
0
286
0
287
3
288
0
340
11
341
204
342
204
343
204
344
204
0
ENDTAB
0
ENDSEC
0
SECTION
2
BLOCKS
0
BLOCK
5
20
100
AcDbEntity
8
0
100
AcDbBlockBegin
2
*MODEL_SPACE
70
0
10
0.0
20
0.0
30
0.0
3
*MODEL_SPACE
1

0
ENDBLK
5
21
100
AcDbEntity
8
0
100
AcDbBlockEnd
0
BLOCK
5
1C
100
AcDbEntity
8
0
100
AcDbBlockBegin
2
*PAPER_SPACE
70
0
10
0.0
20
0.0
30
0.0
3
*PAPER_SPACE
1

0
ENDBLK
5
1D
100
AcDbEntity
8
0
100
AcDbBlockEnd
0
BLOCK
5
211
100
AcDbEntity
8
0
100
AcDbBlockBegin
62
2
6
CONTINUOUS
2
*D0
70
65
10
0.0000000000
20
0.0000000000
3
*D0
1

0
TEXT
5
212
100
AcDbEntity
8
0
100
AcDbText
62
5
6
CONTINUOUS
10
148.6845652554
20
65.9909373221
7
STANDARD
40
3.5000000000
1
105
41
0.7143000000
72
0
100
AcDbText
0
LINE
5
213
100
AcDbEntity
8
0
100
AcDbLine
62
2
6
CONTINUOUS
10
100.0036468619
20
123.2460030586
11
100.0036468619
21
63.6159373221
0
LINE
5
214
100
AcDbEntity
8
0
100
AcDbLine
62
2
6
CONTINUOUS
10
205.0036468619
20
109.7460030586
11
205.0036468619
21
63.6159373221
0
LINE
5
215
100
AcDbEntity
8
0
100
AcDbLine
62
2
6
CONTINUOUS
10
100.0036468619
20
65.1159373221
11
152.5036468619
21
65.1159373221
0
LINE
5
216
100
AcDbEntity
8
0
100
AcDbLine
62
2
6
CONTINUOUS
10
205.0036468619
20
65.1159373221
11
152.5036468619
21
65.1159373221
0
INSERT
5
217
100
AcDbEntity
8
0
100
AcDbBlockReference
62
2
6
CONTINUOUS
2
_FILLED
10
100.0036468619
20
65.1159373221
41
  3.500000
42
  3.500000
43
  3.500000
50
180.000000
0
INSERT
5
218
100
AcDbEntity
8
0
100
AcDbBlockReference
62
2
6
CONTINUOUS
2
_FILLED
10
205.0036468619
20
65.1159373221
41
  3.500000
42
  3.500000
43
  3.500000
0
ENDBLK
5
219
100
AcDbEntity
8
0
6
BYBLOCK
62
0
100
AcDbBlockEnd
0
BLOCK
5
21A
100
AcDbEntity
8
0
100
AcDbBlockBegin
62
2
6
CONTINUOUS
2
*D1
70
65
10
0.0000000000
20
0.0000000000
3
*D1
1

0
TEXT
5
21B
100
AcDbEntity
8
0
100
AcDbText
62
5
6
CONTINUOUS
10
183.2970989168
20
181.0692264806
7
STANDARD
40
3.5000000000
1
40
41
0.7143000000
72
0
100
AcDbText
0
LINE
5
21C
100
AcDbEntity
8
0
100
AcDbLine
62
2
6
CONTINUOUS
10
165.0036468619
20
213.4442264806
11
165.0036468619
21
178.6942264806
0
LINE
5
21D
100
AcDbEntity
8
0
100
AcDbLine
62
2
6
CONTINUOUS
10
205.0036468619
20
201.6942264806
11
205.0036468619
21
178.6942264806
0
LINE
5
21E
100
AcDbEntity
8
0
100
AcDbLine
62
2
6
CONTINUOUS
10
165.0036468619
20
180.1942264806
11
185.0036468619
21
180.1942264806
0
LINE
5
21F
100
AcDbEntity
8
0
100
AcDbLine
62
2
6
CONTINUOUS
10
205.0036468619
20
180.1942264806
11
185.0036468619
21
180.1942264806
0
INSERT
5
220
100
AcDbEntity
8
0
100
AcDbBlockReference
62
2
6
CONTINUOUS
2
_FILLED
10
165.0036468619
20
180.1942264806
41
  3.500000
42
  3.500000
43
  3.500000
50
180.000000
0
INSERT
5
221
100
AcDbEntity
8
0
100
AcDbBlockReference
62
2
6
CONTINUOUS
2
_FILLED
10
205.0036468619
20
180.1942264806
41
  3.500000
42
  3.500000
43
  3.500000
0
ENDBLK
5
222
100
AcDbEntity
8
0
6
BYBLOCK
62
0
100
AcDbBlockEnd
0
BLOCK
5
223
100
AcDbEntity
8
0
100
AcDbBlockBegin
62
2
6
CONTINUOUS
2
*D2
70
65
10
0.0000000000
20
0.0000000000
3
*D2
1

0
TEXT
5
224
100
AcDbEntity
8
0
100
AcDbText
62
5
6
CONTINUOUS
10
170.8625709707
20
228.3169104008
7
STANDARD
40
3.5000000000
1
%%c
50
40.3345652463
41
1.3333333333
72
0
100
AcDbText
0
TEXT
5
225
100
AcDbEntity
8
0
100
AcDbText
62
5
6
CONTINUOUS
10
174.4198682915
20
231.3374092916
7
STANDARD
40
3.5000000000
1
10.5
50
40.3345652463
41
0.7143000000
72
0
100
AcDbText
0
LINE
5
226
100
AcDbEntity
8
0
100
AcDbLine
62
2
6
CONTINUOUS
10
169.0056063478
20
225.5922877328
11
165.0036468619
21
222.1942264806
0
LINE
5
227
100
AcDbEntity
8
0
100
AcDbLine
62
2
6
CONTINUOUS
10
165.0036468619
20
222.1942264806
11
182.6091442622
21
237.1430431171
0
LINE
5
228
100
AcDbEntity
8
0
100
AcDbLine
62
2
6
CONTINUOUS
10
161.0016873761
20
218.7961652285
11
165.0036468619
21
222.1942264806
0
INSERT
5
229
100
AcDbEntity
8
0
100
AcDbBlockReference
62
2
6
CONTINUOUS
2
_FILLED
10
169.0056063478
20
225.5922877328
41
  3.500000
42
  3.500000
43
  3.500000
50
 40.334565
0
INSERT
5
22A
100
AcDbEntity
8
0
100
AcDbBlockReference
62
2
6
CONTINUOUS
2
_FILLED
10
161.0016873761
20
218.7961652285
41
  3.500000
42
  3.500000
43
  3.500000
50
220.334565
0
ENDBLK
5
22B
100
AcDbEntity
8
0
6
BYBLOCK
62
0
100
AcDbBlockEnd
0
BLOCK
5
22C
100
AcDbEntity
8
0
100
AcDbBlockBegin
62
2
6
CONTINUOUS
2
*D3
70
65
10
0.0000000000
20
0.0000000000
3
*D3
1

0
TEXT
5
22D
100
AcDbEntity
8
0
100
AcDbText
62
5
6
CONTINUOUS
10
164.2052818493
20
75.6736015384
7
STANDARD
40
3.5000000000
1
78
41
0.7143000000
72
0
100
AcDbText
0
LINE
5
22E
100
AcDbEntity
8
0
100
AcDbLine
62
2
6
CONTINUOUS
10
127.0036468619
20
120.2459030586
11
127.0036468619
21
73.2986015384
0
LINE
5
22F
100
AcDbEntity
8
0
100
AcDbLine
62
2
6
CONTINUOUS
10
205.0036468619
20
112.7460030586
11
205.0036468619
21
73.2986015384
0
LINE
5
230
100
AcDbEntity
8
0
100
AcDbLine
62
2
6
CONTINUOUS
10
127.0036468619
20
74.7986015384
11
166.0036468619
21
74.7986015384
0
LINE
5
231
100
AcDbEntity
8
0
100
AcDbLine
62
2
6
CONTINUOUS
10
205.0036468619
20
74.7986015384
11
166.0036468619
21
74.7986015384
0
INSERT
5
232
100
AcDbEntity
8
0
100
AcDbBlockReference
62
2
6
CONTINUOUS
2
_FILLED
10
127.0036468619
20
74.7986015384
41
  3.500000
42
  3.500000
43
  3.500000
50
180.000000
0
INSERT
5
233
100
AcDbEntity
8
0
100
AcDbBlockReference
62
2
6
CONTINUOUS
2
_FILLED
10
205.0036468619
20
74.7986015384
41
  3.500000
42
  3.500000
43
  3.500000
0
ENDBLK
5
234
100
AcDbEntity
8
0
6
BYBLOCK
62
0
100
AcDbBlockEnd
0
BLOCK
5
235
100
AcDbEntity
8
0
100
AcDbBlockBegin
62
2
6
CONTINUOUS
2
*D4
70
65
10
0.0000000000
20
0.0000000000
3
*D4
1

0
TEXT
5
236
100
AcDbEntity
8
0
100
AcDbText
62
5
6
CONTINUOUS
10
90.1708555155
20
219.7940542909
7
STANDARD
40
3.5000000000
1
60
50
90.0000000000
41
0.7143000000
72
0
100
AcDbText
0
LINE
5
237
100
AcDbEntity
8
0
100
AcDbLine
62
2
6
CONTINUOUS
10
99.5036468619
20
192.1942264806
11
89.5458555155
21
192.1942264806
0
LINE
5
238
100
AcDbEntity
8
0
100
AcDbLine
62
2
6
CONTINUOUS
10
99.5036468619
20
252.1942264806
11
89.5458555155
21
252.1942264806
0
LINE
5
239
100
AcDbEntity
8
0
100
AcDbLine
62
2
6
CONTINUOUS
10
91.0458555155
20
192.1942264806
11
91.0458555155
21
222.1942264806
0
LINE
5
23A
100
AcDbEntity
8
0
100
AcDbLine
62
2
6
CONTINUOUS
10
91.0458555155
20
252.1942264806
11
91.0458555155
21
222.1942264806
0
INSERT
5
23B
100
AcDbEntity
8
0
100
AcDbBlockReference
62
2
6
CONTINUOUS
2
_FILLED
10
91.0458555155
20
192.1942264806
41
  3.500000
42
  3.500000
43
  3.500000
50
270.000000
0
INSERT
5
23C
100
AcDbEntity
8
0
100
AcDbBlockReference
62
2
6
CONTINUOUS
2
_FILLED
10
91.0458555155
20
252.1942264806
41
  3.500000
42
  3.500000
43
  3.500000
50
 90.000000
0
ENDBLK
5
23D
100
AcDbEntity
8
0
6
BYBLOCK
62
0
100
AcDbBlockEnd
0
BLOCK
5
23E
100
AcDbEntity
8
0
100
AcDbBlockBegin
62
2
6
CONTINUOUS
2
*D5
70
65
10
0.0000000000
20
0.0000000000
3
*D5
1

0
TEXT
5
23F
100
AcDbEntity
8
0
100
AcDbText
62
5
6
CONTINUOUS
10
29.8077693992
20
181.0692264806
7
STANDARD
40
3.5000000000
1
22
41
0.7143000000
72
0
100
AcDbText
0
LINE
5
240
100
AcDbEntity
8
0
100
AcDbLine
62
2
6
CONTINUOUS
10
21.0017068462
20
201.6942264806
11
21.0017068462
21
178.6942264806
0
LINE
5
241
100
AcDbEntity
8
0
100
AcDbLine
62
2
6
CONTINUOUS
10
43.0017068462
20
201.6942264806
11
43.0017068462
21
178.6942264806
0
LINE
5
242
100
AcDbEntity
8
0
100
AcDbLine
62
2
6
CONTINUOUS
10
21.0017068462
20
180.1942264806
11
32.0017068462
21
180.1942264806
0
LINE
5
243
100
AcDbEntity
8
0
100
AcDbLine
62
2
6
CONTINUOUS
10
43.0017068462
20
180.1942264806
11
32.0017068462
21
180.1942264806
0
INSERT
5
244
100
AcDbEntity
8
0
100
AcDbBlockReference
62
2
6
CONTINUOUS
2
_FILLED
10
21.0017068462
20
180.1942264806
41
  3.500000
42
  3.500000
43
  3.500000
50
180.000000
0
INSERT
5
245
100
AcDbEntity
8
0
100
AcDbBlockReference
62
2
6
CONTINUOUS
2
_FILLED
10
43.0017068462
20
180.1942264806
41
  3.500000
42
  3.500000
43
  3.500000
0
ENDBLK
5
246
100
AcDbEntity
8
0
6
BYBLOCK
62
0
100
AcDbBlockEnd
0
BLOCK
5
247
100
AcDbEntity
8
0
100
AcDbBlockBegin
62
2
6
CONTINUOUS
2
*D6
70
65
10
0.0000000000
20
0.0000000000
3
*D6
1

0
TEXT
5
248
100
AcDbEntity
8
0
100
AcDbText
62
5
6
CONTINUOUS
10
70.0741181667
20
219.2189762708
7
STANDARD
40
3.5000000000
1
41
50
90.0000000000
41
0.7143000000
72
0
100
AcDbText
0
LINE
5
249
100
AcDbEntity
8
0
100
AcDbLine
62
2
6
CONTINUOUS
10
43.0017068462
20
242.6942264806
11
72.4491181667
21
242.6942264806
0
LINE
5
24A
100
AcDbEntity
8
0
100
AcDbLine
62
2
6
CONTINUOUS
10
43.0017068462
20
201.6942264806
11
72.4491181667
21
201.6942264806
0
LINE
5
24B
100
AcDbEntity
8
0
100
AcDbLine
62
2
6
CONTINUOUS
10
70.9491181667
20
242.6942264806
11
70.9491181667
21
222.1942264806
0
LINE
5
24C
100
AcDbEntity
8
0
100
AcDbLine
62
2
6
CONTINUOUS
10
70.9491181667
20
201.6942264806
11
70.9491181667
21
222.1942264806
0
INSERT
5
24D
100
AcDbEntity
8
0
100
AcDbBlockReference
62
2
6
CONTINUOUS
2
_FILLED
10
70.9491181667
20
242.6942264806
41
  3.500000
42
  3.500000
43
  3.500000
50
 90.000000
0
INSERT
5
24E
100
AcDbEntity
8
0
100
AcDbBlockReference
62
2
6
CONTINUOUS
2
_FILLED
10
70.9491181667
20
201.6942264806
41
  3.500000
42
  3.500000
43
  3.500000
50
270.000000
0
ENDBLK
5
24F
100
AcDbEntity
8
0
6
BYBLOCK
62
0
100
AcDbBlockEnd
0
BLOCK
5
250
100
AcDbEntity
8
0
100
AcDbBlockBegin
2
_FILLED
70
64
10
0.0000000000
20
0.0000000000
3
_FILLED
1

0
SOLID
5
251
100
AcDbEntity
8
0
6
BYBLOCK
62
0
100
AcDbTrace
10
0.0000000000
20
0.0000000000
11
-1.0000000000
21
0.1857142857
12
-1.0000000000
22
-0.1857142857
13
-1.0000000000
23
-0.1857142857
0
ENDBLK
5
252
100
AcDbEntity
8
0
6
BYBLOCK
62
0
100
AcDbBlockEnd
0
ENDSEC
0
SECTION
2
ENTITIES
0
DIMENSION
5
253
100
AcDbEntity
8
0
100
AcDbDimension
62
2
6
CONTINUOUS
2
*D0
10
205.0036468619
20
65.1159373221
11
152.4346402554
21
67.7409373221
70
160
42
105.000000
3
DIMSTYLE_1
100
AcDbAlignedDimension
13
100.0036468619
23
123.2460030586
14
205.0036468619
24
109.7460030586
100
AcDbRotatedDimension
0
DIMENSION
5
254
100
AcDbEntity
8
0
100
AcDbDimension
62
2
6
CONTINUOUS
2
*D1
10
205.0036468619
20
180.1942264806
11
185.7971489168
21
182.8192264806
70
160
42
40.000000
3
DIMSTYLE_2
100
AcDbAlignedDimension
13
165.0036468619
23
213.4442264806
14
205.0036468619
24
201.6942264806
100
AcDbRotatedDimension
0
DIMENSION
5
255
100
AcDbEntity
8
0
100
AcDbDimension
62
2
6
CONTINUOUS
2
*D2
10
169.0056063478
20
225.5922877328
11
175.3199987614
21
234.3974598781
70
163
42
10.500000
1
<>
3
DIMSTYLE_3
100
AcDbDiametricDimension
15
161.0016873761
25
218.7961652285
0
DIMENSION
5
256
100
AcDbEntity
8
0
100
AcDbDimension
62
2
6
CONTINUOUS
2
*D3
10
205.0036468619
20
74.7986015384
11
166.7053318493
21
77.4236015384
70
160
42
78.000000
3
DIMSTYLE_2
100
AcDbAlignedDimension
13
127.0036468619
23
120.2459030586
14
205.0036468619
24
112.7460030586
100
AcDbRotatedDimension
0
DIMENSION
5
257
100
AcDbEntity
8
0
100
AcDbDimension
62
2
6
CONTINUOUS
2
*D4
10
91.0458555155
20
252.1942264806
11
88.4208555155
21
222.2941042909
70
160
42
60.000000
3
DIMSTYLE_2
100
AcDbAlignedDimension
13
99.5036468619
23
192.1942264806
14
99.5036468619
24
252.1942264806
50
90.000000
100
AcDbRotatedDimension
0
DIMENSION
5
258
100
AcDbEntity
8
0
100
AcDbDimension
62
2
6
CONTINUOUS
2
*D5
10
43.0017068462
20
180.1942264806
11
32.3078193992
21
182.8192264806
70
160
42
22.000000
3
DIMSTYLE_4
100
AcDbAlignedDimension
13
21.0017068462
23
201.6942264806
14
43.0017068462
24
201.6942264806
100
AcDbRotatedDimension
0
DIMENSION
5
259
100
AcDbEntity
8
0
100
AcDbDimension
62
2
6
CONTINUOUS
2
*D6
10
70.9491181667
20
201.6942264806
11
68.3241181667
21
221.7190262708
70
160
42
41.000000
3
DIMSTYLE_2
100
AcDbAlignedDimension
13
43.0017068462
23
242.6942264806
14
43.0017068462
24
201.6942264806
50
270.000000
100
AcDbRotatedDimension
0
LINE
5
25A
100
AcDbEntity
8
0
100
AcDbLine
62
7
6
CONTINUOUS
10
0.0000000000
20
0.0000000000
11
210.0000000000
21
0.0000000000
0
LINE
5
25B
100
AcDbEntity
8
0
100
AcDbLine
62
7
6
CONTINUOUS
10
0.0000000000
20
0.0000000000
11
0.0000000000
21
297.0000000000
0
LINE
5
25C
100
AcDbEntity
8
0
100
AcDbLine
62
7
6
CONTINUOUS
10
210.0000000000
20
0.0000000000
11
210.0000000000
21
297.0000000000
0
LINE
5
25D
100
AcDbEntity
8
0
100
AcDbLine
62
7
6
CONTINUOUS
10
0.0000000000
20
297.0000000000
11
210.0000000000
21
297.0000000000
0
LINE
5
25E
100
AcDbEntity
8
0
100
AcDbLine
62
7
6
CONTINUOUS
10
100.0036468619
20
192.1942264806
11
100.0036468619
21
252.1942264806
0
LINE
5
25F
100
AcDbEntity
8
0
100
AcDbLine
62
7
6
CONTINUOUS
10
100.0036468619
20
192.1942264806
11
103.4517317616
21
192.1942264806
0
LINE
5
260
100
AcDbEntity
8
DEFAULT_1
100
AcDbLine
62
2
6
CENTER
10
127.0036468619
20
255.3291853195
11
127.0036468619
21
189.0592676417
0
LINE
5
261
100
AcDbEntity
8
0
100
AcDbLine
62
7
6
CONTINUOUS
10
151.2368884940
20
201.4960990822
11
155.0036468619
21
202.1942264806
0
LINE
5
262
100
AcDbEntity
8
0
100
AcDbLine
62
7
6
CONTINUOUS
10
101.0484751187
20
192.1942264806
11
149.9614547239
21
201.2597114054
0
LINE
5
263
100
AcDbEntity
8
0
100
AcDbLine
62
7
6
CONTINUOUS
10
205.0036468619
20
199.1942264806
11
157.0036468619
21
199.1942264806
0
LINE
5
264
100
AcDbEntity
8
0
100
AcDbLine
62
7
6
CONTINUOUS
10
155.0036468619
20
202.1942264806
11
205.0036468619
21
202.1942264806
0
LINE
5
265
100
AcDbEntity
8
0
100
AcDbLine
62
7
6
CONTINUOUS
10
149.9614547239
20
201.2592184775
11
149.9614547239
21
243.1292344837
0
LINE
5
266
100
AcDbEntity
8
0
100
AcDbLine
62
7
6
CONTINUOUS
10
151.2368884940
20
201.4960990822
11
151.2368884940
21
242.8923538790
0
LINE
5
267
100
AcDbEntity
8
DEFAULT_1
100
AcDbLine
62
2
6
CENTER
10
165.0036468619
20
222.1942264806
11
156.7536468619
21
222.1942264806
0
LINE
5
268
100
AcDbEntity
8
DEFAULT_1
100
AcDbLine
62
2
6
CENTER
10
97.6685281983
20
222.1942264806
11
156.7536468619
21
222.1942264806
0
LINE
5
269
100
AcDbEntity
8
DEFAULT_1
100
AcDbLine
62
2
6
CENTER
10
173.2536468619
20
222.1942264806
11
208.0036468619
21
222.1942264806
0
LINE
5
26A
100
AcDbEntity
8
DEFAULT_1
100
AcDbLine
62
2
6
CENTER
10
165.0036468619
20
222.1942264806
11
173.2536468619
21
222.1942264806
0
LINE
5
26B
100
AcDbEntity
8
0
100
AcDbLine
62
7
6
CONTINUOUS
10
157.0036468619
20
202.1942264806
11
157.0036468619
21
199.1942264806
0
LINE
5
26C
100
AcDbEntity
8
0
100
AcDbLine
62
7
6
CONTINUOUS
10
157.0036468619
20
242.1942264806
11
157.0036468619
21
245.1942264806
0
LINE
5
26D
100
AcDbEntity
8
DEFAULT_1
100
AcDbLine
62
2
6
CENTER
10
165.0036468619
20
222.1942264806
11
165.0036468619
21
213.9442264806
0
LINE
5
26E
100
AcDbEntity
8
DEFAULT_1
100
AcDbLine
62
2
6
CENTER
10
165.0036468619
20
222.1942264806
11
165.0036468619
21
230.4442264806
0
LINE
5
26F
100
AcDbEntity
8
0
100
AcDbLine
62
7
6
CONTINUOUS
10
155.0036468619
20
242.1942264806
11
205.0036468619
21
242.1942264806
0
LINE
5
270
100
AcDbEntity
8
0
100
AcDbLine
62
7
6
CONTINUOUS
10
151.2368884940
20
242.8923538790
11
155.0036468619
21
242.1942264806
0
LINE
5
271
100
AcDbEntity
8
0
100
AcDbLine
62
7
6
CONTINUOUS
10
101.0484751187
20
252.1942264806
11
149.9614547239
21
243.1287415558
0
LINE
5
272
100
AcDbEntity
8
0
100
AcDbLine
62
7
6
CONTINUOUS
10
205.0036468619
20
245.1942264806
11
157.0036468619
21
245.1942264806
0
LINE
5
273
100
AcDbEntity
8
0
100
AcDbLine
62
7
6
CONTINUOUS
10
100.0036468619
20
252.1942264806
11
103.4517317616
21
252.1942264806
0
LINE
5
274
100
AcDbEntity
8
0
100
AcDbLine
62
7
6
CONTINUOUS
10
205.0036468619
20
199.1942264806
11
205.0036468619
21
245.1942264806
0
LINE
5
275
100
AcDbEntity
8
0
100
AcDbLine
62
7
6
CONTINUOUS
10
24.5633562372
20
192.1942264806
11
39.4400574551
21
192.1942264806
0
LINE
5
276
100
AcDbEntity
8
0
100
AcDbLine
62
7
6
CONTINUOUS
10
5.0017068462
20
197.0045881486
11
5.0017068462
21
247.3838648126
0
LINE
5
277
100
AcDbEntity
8
0
100
AcDbLine
62
7
6
CONTINUOUS
10
42.5017068462
20
199.1942264806
11
37.0017068462
21
199.1942264806
0
LINE
5
278
100
AcDbEntity
8
0
100
AcDbLine
62
7
6
CONTINUOUS
10
21.5017068462
20
199.1942264806
11
27.0017068462
21
199.1942264806
0
LINE
5
279
100
AcDbEntity
8
0
100
AcDbLine
62
7
6
CONTINUOUS
10
45.5017068462
20
201.4960990822
11
45.4097180724
21
201.4960990822
0
LINE
5
27A
100
AcDbEntity
8
0
100
AcDbLine
62
7
6
CONTINUOUS
10
18.5017068462
20
201.4960990822
11
18.5936956199
21
201.4960990822
0
LINE
5
27B
100
AcDbEntity
8
0
100
AcDbLine
62
7
6
CONTINUOUS
10
42.5017068462
20
201.6942264806
11
37.0017068462
21
201.6942264806
0
LINE
5
27C
100
AcDbEntity
8
0
100
AcDbLine
62
7
6
CONTINUOUS
10
21.5017068462
20
201.6942264806
11
27.0017068462
21
201.6942264806
0
LINE
5
27D
100
AcDbEntity
8
0
100
AcDbLine
62
7
6
CONTINUOUS
10
17.7911805304
20
201.2597114054
11
18.6517090867
21
201.2595491726
0
LINE
5
27E
100
AcDbEntity
8
0
100
AcDbLine
62
7
6
CONTINUOUS
10
46.2122331619
20
201.2592184326
11
45.3516342703
21
201.2593800568
0
LINE
5
27F
100
AcDbEntity
8
0
100
AcDbLine
62
7
6
CONTINUOUS
10
17.7911805304
20
201.2592184775
11
17.7911805304
21
243.1292344837
0
LINE
5
280
100
AcDbEntity
8
0
100
AcDbLine
62
7
6
CONTINUOUS
10
18.5017068462
20
242.1942264806
11
18.5017068462
21
202.1942264806
0
LINE
5
281
100
AcDbEntity
8
0
100
AcDbLine
62
7
6
CONTINUOUS
10
21.0017068462
20
242.1942264806
11
21.0017068462
21
202.1942264806
0
LINE
5
282
100
AcDbEntity
8
0
100
AcDbLine
62
7
6
CONTINUOUS
10
27.0017068462
20
245.1942264806
11
27.0017068462
21
242.6942264806
0
LINE
5
283
100
AcDbEntity
8
0
100
AcDbLine
62
7
6
CONTINUOUS
10
27.0017068462
20
199.1942264806
11
27.0017068462
21
201.6942264806
0
LINE
5
284
100
AcDbEntity
8
DEFAULT_1
100
AcDbLine
62
2
6
CENTER
10
32.0017068462
20
255.3291853195
11
32.0017068462
21
189.0592676417
0
LINE
5
285
100
AcDbEntity
8
DEFAULT_1
100
AcDbLine
62
2
6
CENTER
10
15.5017068462
20
222.1942264806
11
61.6780425077
21
222.1942264806
0
LINE
5
286
100
AcDbEntity
8
0
100
AcDbLine
62
7
6
CONTINUOUS
10
37.0017068462
20
245.1942264806
11
37.0017068462
21
242.6942264806
0
LINE
5
287
100
AcDbEntity
8
0
100
AcDbLine
62
7
6
CONTINUOUS
10
37.0017068462
20
199.1942264806
11
37.0017068462
21
201.6942264806
0
LINE
5
288
100
AcDbEntity
8
0
100
AcDbLine
62
7
6
CONTINUOUS
10
43.0017068462
20
242.1942264806
11
43.0017068462
21
202.1942264806
0
LINE
5
289
100
AcDbEntity
8
0
100
AcDbLine
62
7
6
CONTINUOUS
10
45.5017068462
20
242.1942264806
11
45.5017068462
21
202.1942264806
0
LINE
5
28A
100
AcDbEntity
8
0
100
AcDbLine
62
7
6
CONTINUOUS
10
46.2122331619
20
201.2592184326
11
46.2122331619
21
243.1292345287
0
LINE
5
28B
100
AcDbEntity
8
0
100
AcDbLine
62
7
6
CONTINUOUS
10
42.5017068462
20
242.6942264806
11
37.0017068462
21
242.6942264806
0
LINE
5
28C
100
AcDbEntity
8
0
100
AcDbLine
62
7
6
CONTINUOUS
10
21.5017068462
20
242.6942264806
11
27.0017068462
21
242.6942264806
0
LINE
5
28D
100
AcDbEntity
8
0
100
AcDbLine
62
7
6
CONTINUOUS
10
45.5017068462
20
242.8923538790
11
45.4097180724
21
242.8923538790
0
LINE
5
28E
100
AcDbEntity
8
0
100
AcDbLine
62
7
6
CONTINUOUS
10
18.5017068462
20
242.8923538790
11
18.5936956199
21
242.8923538790
0
LINE
5
28F
100
AcDbEntity
8
0
100
AcDbLine
62
7
6
CONTINUOUS
10
17.7911805304
20
243.1292344837
11
18.6517794095
21
243.1290728743
0
LINE
5
290
100
AcDbEntity
8
0
100
AcDbLine
62
7
6
CONTINUOUS
10
46.2122331619
20
243.1287415558
11
45.3517045994
21
243.1289038035
0
LINE
5
291
100
AcDbEntity
8
0
100
AcDbLine
62
7
6
CONTINUOUS
10
42.5017068462
20
245.1942264806
11
37.0017068462
21
245.1942264806
0
LINE
5
292
100
AcDbEntity
8
0
100
AcDbLine
62
7
6
CONTINUOUS
10
21.5017068462
20
245.1942264806
11
27.0017068462
21
245.1942264806
0
LINE
5
293
100
AcDbEntity
8
0
100
AcDbLine
62
7
6
CONTINUOUS
10
59.0017068462
20
197.0045880979
11
59.0017068462
21
247.3838648634
0
LINE
5
294
100
AcDbEntity
8
0
100
AcDbLine
62
7
6
CONTINUOUS
10
24.5633562372
20
252.1942264806
11
39.4400574551
21
252.1942264806
0
LINE
5
295
100
AcDbEntity
8
DEFAULT_1
100
AcDbLine
62
2
6
CENTER
10
127.0036468619
20
123.7460030586
11
127.0036468619
21
120.7459030586
0
LINE
5
296
100
AcDbEntity
8
DEFAULT_1
100
AcDbLine
62
2
6
CENTER
10
127.0036468619
20
123.7460030586
11
127.0036468619
21
126.7461030586
0
LINE
5
297
100
AcDbEntity
8
0
100
AcDbLine
62
7
6
CONTINUOUS
10
149.9614547239
20
137.9565293744
11
147.8357317737
21
136.6407399007
0
LINE
5
298
100
AcDbEntity
8
0
100
AcDbLine
62
7
6
CONTINUOUS
10
151.2368884940
20
110.2460030586
11
205.0036468619
21
110.2460030586
0
LINE
5
299
100
AcDbEntity
8
0
100
AcDbLine
62
7
6
CONTINUOUS
10
149.9614547239
20
109.5354767428
11
147.8357317737
21
110.8512662165
0
LINE
5
29A
100
AcDbEntity
8
0
100
AcDbLine
62
7
6
CONTINUOUS
10
151.2368884940
20
112.7460030586
11
157.0036468619
21
112.7460030586
0
LINE
5
29B
100
AcDbEntity
8
0
100
AcDbLine
62
7
6
CONTINUOUS
10
205.0036468619
20
113.2460030586
11
157.0036468619
21
113.2460030586
0
LINE
5
29C
100
AcDbEntity
8
0
100
AcDbLine
62
7
6
CONTINUOUS
10
101.0484751187
20
116.3076524497
11
103.4517317616
21
116.9963886172
0
LINE
5
29D
100
AcDbEntity
8
0
100
AcDbLine
62
7
6
CONTINUOUS
10
205.0036468619
20
118.7460030586
11
157.0036468619
21
118.7460030586
0
LINE
5
29E
100
AcDbEntity
8
0
100
AcDbLine
62
7
6
CONTINUOUS
10
101.0484751187
20
131.1843536676
11
103.4517317616
21
130.4956175001
0
LINE
5
29F
100
AcDbEntity
8
0
100
AcDbLine
62
7
6
CONTINUOUS
10
151.2368884940
20
137.2460030586
11
151.2368884940
21
134.7460030586
0
LINE
5
2A0
100
AcDbEntity
8
0
100
AcDbLine
62
7
6
CONTINUOUS
10
151.2368884940
20
110.2460030586
11
151.2368884940
21
112.7460030586
0
LINE
5
2A1
100
AcDbEntity
8
DEFAULT_1
100
AcDbLine
62
2
6
CENTER
10
127.0036468619
20
123.7460030586
11
124.0035468619
21
123.7460030586
0
LINE
5
2A2
100
AcDbEntity
8
DEFAULT_1
100
AcDbLine
62
2
6
CENTER
10
94.1086253272
20
123.7460030586
11
124.0035468619
21
123.7460030586
0
LINE
5
2A3
100
AcDbEntity
8
DEFAULT_1
100
AcDbLine
62
2
6
CENTER
10
130.0037468619
20
123.7460030586
11
204.9694959481
21
123.7460030586
0
LINE
5
2A4
100
AcDbEntity
8
DEFAULT_1
100
AcDbLine
62
2
6
CENTER
10
127.0036468619
20
123.7460030586
11
130.0037468619
21
123.7460030586
0
LINE
5
2A5
100
AcDbEntity
8
0
100
AcDbLine
62
7
6
CONTINUOUS
10
155.0036468619
20
137.2460030586
11
155.0036468619
21
134.7460030586
0
LINE
5
2A6
100
AcDbEntity
8
0
100
AcDbLine
62
7
6
CONTINUOUS
10
155.0036468619
20
110.2460030586
11
155.0036468619
21
112.7460030586
0
LINE
5
2A7
100
AcDbEntity
8
0
100
AcDbLine
62
7
6
CONTINUOUS
10
157.0036468619
20
137.2460030586
11
157.0036468619
21
128.7460030586
0
LINE
5
2A8
100
AcDbEntity
8
0
100
AcDbLine
62
7
6
CONTINUOUS
10
157.0036468619
20
110.2460030586
11
157.0036468619
21
118.7460030586
0
LINE
5
2A9
100
AcDbEntity
8
0
100
AcDbLine
62
7
6
CONTINUOUS
10
205.0036468619
20
128.7460030586
11
157.0036468619
21
128.7460030586
0
LINE
5
2AA
100
AcDbEntity
8
0
100
AcDbLine
62
7
6
CONTINUOUS
10
205.0036468619
20
134.2460030586
11
157.0036468619
21
134.2460030586
0
LINE
5
2AB
100
AcDbEntity
8
0
100
AcDbLine
62
7
6
CONTINUOUS
10
151.2368884940
20
134.7460030586
11
157.0036468619
21
134.7460030586
0
LINE
5
2AC
100
AcDbEntity
8
0
100
AcDbLine
62
7
6
CONTINUOUS
10
151.2368884940
20
137.2460030586
11
205.0036468619
21
137.2460030586
0
LINE
5
2AD
100
AcDbEntity
8
0
100
AcDbLine
62
7
6
CONTINUOUS
10
205.0036468619
20
137.2460030586
11
205.0036468619
21
128.7460030586
0
LINE
5
2AE
100
AcDbEntity
8
0
100
AcDbLine
62
7
6
CONTINUOUS
10
205.0036468619
20
110.2460030586
11
205.0036468619
21
118.7460030586
0
CIRCLE
5
2AF
100
AcDbEntity
8
0
100
AcDbCircle
62
7
6
CONTINUOUS
10
165.0036468619
20
222.1942264806
40
5.2500000000
0
ARC
5
2B0
100
AcDbEntity
8
0
100
AcDbCircle
62
7
6
CONTINUOUS
10
21.5017068462
20
202.1942264806
40
0.5000000000
100
AcDbArc
50
180.0000000000
51
270.0000000000
0
ARC
5
2B1
100
AcDbEntity
8
0
100
AcDbCircle
62
7
6
CONTINUOUS
10
21.5017068462
20
202.1942264806
40
3.0000000000
100
AcDbArc
50
180.0000000000
51
270.0000000000
0
ARC
5
2B2
100
AcDbEntity
8
0
100
AcDbCircle
62
7
6
CONTINUOUS
10
21.5017068462
20
242.1942264806
40
3.0000000000
100
AcDbArc
50
90.0000000000
51
180.0000000000
0
ARC
5
2B3
100
AcDbEntity
8
0
100
AcDbCircle
62
7
6
CONTINUOUS
10
21.5017068462
20
242.1942264806
40
0.5000000000
100
AcDbArc
50
90.0000000000
51
180.0000000000
0
ARC
5
2B4
100
AcDbEntity
8
0
100
AcDbCircle
62
7
6
CONTINUOUS
10
42.5017068462
20
202.1942264806
40
3.0000000000
100
AcDbArc
50
270.0000000000
51
360.0000000000
0
ARC
5
2B5
100
AcDbEntity
8
0
100
AcDbCircle
62
7
6
CONTINUOUS
10
42.5017068462
20
242.1942264806
40
3.0000000000
100
AcDbArc
50
0.0000000000
51
90.0000000000
0
ARC
5
2B6
100
AcDbEntity
8
0
100
AcDbCircle
62
7
6
CONTINUOUS
10
42.5017068462
20
242.1942264806
40
0.5000000000
100
AcDbArc
50
0.0000000000
51
90.0000000000
0
ARC
5
2B7
100
AcDbEntity
8
0
100
AcDbCircle
62
7
6
CONTINUOUS
10
42.5017068462
20
202.1942264806
40
0.5000000000
100
AcDbArc
50
270.0000000000
51
360.0000000000
0
ARC
5
2B8
100
AcDbEntity
8
0
100
AcDbCircle
62
7
6
CONTINUOUS
10
151.2368884940
20
108.7460030586
40
1.5000000000
100
AcDbArc
50
90.0000000000
51
148.2431361407
0
ARC
5
2B9
100
AcDbEntity
8
0
100
AcDbCircle
62
7
6
CONTINUOUS
10
127.0036468619
20
123.7460030586
40
24.5000000000
100
AcDbArc
50
31.7568638593
51
328.2431361407
0
ARC
5
2BA
100
AcDbEntity
8
0
100
AcDbCircle
62
7
6
CONTINUOUS
10
127.0036468619
20
123.7460030586
40
27.0000000000
100
AcDbArc
50
31.7568638593
51
328.2431361407
0
ARC
5
2BB
100
AcDbEntity
8
0
100
AcDbCircle
62
7
6
CONTINUOUS
10
151.2368884940
20
138.7460030586
40
4.0000000000
100
AcDbArc
50
211.7568638593
51
270.0000000000
0
ARC
5
2BC
100
AcDbEntity
8
0
100
AcDbCircle
62
7
6
CONTINUOUS
10
151.2368884940
20
138.7460030586
40
1.5000000000
100
AcDbArc
50
211.7568638593
51
270.0000000000
0
ARC
5
2BD
100
AcDbEntity
8
0
100
AcDbCircle
62
7
6
CONTINUOUS
10
151.2368884940
20
108.7460030586
40
4.0000000000
100
AcDbArc
50
90.0000000000
51
148.2431361407
0
SPLINE
5
2BE
100
AcDbEntity
8
0
100
AcDbSpline
62
7
6
CONTINUOUS
70
0
71
3
72
11
73
7
74
5
42
0.0000001000
43
0.0000001000
44
0.0000000001
12
-1.2824985903
22
-0.1992383888
32
0.0000000000
13
-1.2447889246
23
-0.3674222405
33
0.0000000000
40
0.0000000000
40
0.0000000000
40
0.0000000000
40
0.0000000000
40
0.2941190932
40
0.5698147537
40
0.8099528787
40
1.0000000000
40
1.0000000000
40
1.0000000000
40
1.0000000000
10
151.2368884940
20
201.4960990822
30
0.0000000000
10
151.1111527199
20
201.4765658108
30
0.0000000000
10
150.8675615568
20
201.4387263569
30
0.0000000000
10
150.5218061380
20
201.3816110741
30
0.0000000000
10
150.2217462314
20
201.3249128565
30
0.0000000000
10
150.0403109078
20
201.2824943239
30
0.0000000000
10
149.9614547239
20
201.2592184775
30
0.0000000000
11
151.2368884940
21
201.4960990822
31
0.0000000000
11
150.8597780646
21
201.4368789311
31
0.0000000000
11
150.5068920990
21
201.3776587799
31
0.0000000000
11
150.2008989524
21
201.3184386287
31
0.0000000000
11
149.9614547239
21
201.2592184775
31
0.0000000000
0
SPLINE
5
2BF
100
AcDbEntity
8
0
100
AcDbSpline
62
7
6
CONTINUOUS
70
0
71
3
72
11
73
7
74
5
42
0.0000001000
43
0.0000001000
44
0.0000000001
12
1.2447889246
22
-0.3674222405
32
0.0000000000
13
1.2824985903
23
-0.1992383888
33
0.0000000000
40
0.0000000000
40
0.0000000000
40
0.0000000000
40
0.0000000000
40
0.1900471213
40
0.4301852463
40
0.7058809068
40
1.0000000000
40
1.0000000000
40
1.0000000000
40
1.0000000000
10
149.9614547239
20
243.1292344837
30
0.0000000000
10
150.0403109078
20
243.1059586374
30
0.0000000000
10
150.2217462314
20
243.0635401048
30
0.0000000000
10
150.5218061380
20
243.0068418872
30
0.0000000000
10
150.8675615568
20
242.9497266044
30
0.0000000000
10
151.1111527199
20
242.9118871504
30
0.0000000000
10
151.2368884940
20
242.8923538790
30
0.0000000000
11
149.9614547239
21
243.1292344837
31
0.0000000000
11
150.2008989524
21
243.0700143325
31
0.0000000000
11
150.5068920990
21
243.0107941814
31
0.0000000000
11
150.8597780646
21
242.9515740302
31
0.0000000000
11
151.2368884940
21
242.8923538790
31
0.0000000000
0
SPLINE
5
2C0
100
AcDbEntity
8
0
100
AcDbSpline
62
7
6
CONTINUOUS
70
0
71
3
72
16
73
12
74
10
42
0.0000001000
43
0.0000001000
44
0.0000000001
12
23.5585140698
22
-4.8118545893
32
0.0000000000
13
23.5585340628
23
-4.8117567039
33
0.0000000000
40
0.0000000000
40
0.0000000000
40
0.0000000000
40
0.0000000000
40
0.0548522634
40
0.1318292469
40
0.2291124202
40
0.3450440900
40
0.4764932292
40
0.6212337579
40
0.7748607680
40
0.9346552342
40
1.0000000000
40
1.0000000000
40
1.0000000000
40
1.0000000000
10
103.4517317616
20
252.1942264806
30
0.0000000000
10
103.8824777016
20
252.1062461088
30
0.0000000000
10
104.9177160129
20
251.8948208528
30
0.0000000000
10
106.7169006113
20
251.5273448092
30
0.0000000000
10
108.9957336017
20
251.0619087176
30
0.0000000000
10
111.7023270212
20
250.5090990547
30
0.0000000000
10
114.7815955901
20
249.8801711913
30
0.0000000000
10
118.1568795009
20
249.1907815349
30
0.0000000000
10
121.7547547014
20
248.4559274911
30
0.0000000000
10
124.7291471887
20
247.8484172312
30
0.0000000000
10
126.4971306104
20
247.4873121623
30
0.0000000000
10
127.0102729077
20
247.3825044573
30
0.0000000000
11
103.4517317616
21
252.1942264806
31
0.0000000000
11
104.7439727922
21
251.9303010852
31
0.0000000000
11
106.5574393675
21
251.5599148333
31
0.0000000000
11
108.8492895869
21
251.0918180815
31
0.0000000000
11
111.5804706861
21
250.5339875360
31
0.0000000000
11
114.6772202988
21
249.9014891384
31
0.0000000000
11
118.0870953089
21
249.2050345664
31
0.0000000000
11
121.7063226067
21
248.4658194886
31
0.0000000000
11
125.4708460149
21
247.6969275683
31
0.0000000000
11
127.0102729077
21
247.3825044573
31
0.0000000000
0
SPLINE
5
2C1
100
AcDbEntity
8
0
100
AcDbSpline
62
7
6
CONTINUOUS
70
0
71
3
72
16
73
12
74
10
42
0.0000001000
43
0.0000001000
44
0.0000000001
12
23.5585140698
22
4.8118545893
32
0.0000000000
13
23.5585340628
23
4.8117567039
33
0.0000000000
40
0.0000000000
40
0.0000000000
40
0.0000000000
40
0.0000000000
40
0.0548522634
40
0.1318292469
40
0.2291124202
40
0.3450440900
40
0.4764932292
40
0.6212337579
40
0.7748607680
40
0.9346552342
40
1.0000000000
40
1.0000000000
40
1.0000000000
40
1.0000000000
10
103.4517317616
20
192.1942264806
30
0.0000000000
10
103.8824777016
20
192.2822068525
30
0.0000000000
10
104.9177160129
20
192.4936321084
30
0.0000000000
10
106.7169006113
20
192.8611081521
30
0.0000000000
10
108.9957336017
20
193.3265442436
30
0.0000000000
10
111.7023270212
20
193.8793539066
30
0.0000000000
10
114.7815955901
20
194.5082817699
30
0.0000000000
10
118.1568795009
20
195.1976714263
30
0.0000000000
10
121.7547547014
20
195.9325254702
30
0.0000000000
10
124.7291471887
20
196.5400357301
30
0.0000000000
10
126.4971306104
20
196.9011407989
30
0.0000000000
10
127.0102729077
20
197.0059485040
30
0.0000000000
11
103.4517317616
21
192.1942264806
31
0.0000000000
11
104.7439727922
21
192.4581518761
31
0.0000000000
11
106.5574393675
21
192.8285381279
31
0.0000000000
11
108.8492895869
21
193.2966348797
31
0.0000000000
11
111.5804706861
21
193.8544654253
31
0.0000000000
11
114.6772202988
21
194.4869638228
31
0.0000000000
11
118.0870953089
21
195.1834183949
31
0.0000000000
11
121.7063226067
21
195.9226334727
31
0.0000000000
11
125.4708460149
21
196.6915253930
31
0.0000000000
11
127.0102729077
21
197.0059485040
31
0.0000000000
0
SPLINE
5
2C2
100
AcDbEntity
8
0
100
AcDbSpline
62
7
6
CONTINUOUS
70
0
71
3
72
22
73
18
74
16
42
0.0000001000
43
0.0000001000
44
0.0000000001
12
-0.0016785388
22
-11.3056914919
32
0.0000000000
13
11.1662485605
23
-1.6644316869
33
0.0000000000
40
0.0000000000
40
0.0000000000
40
0.0000000000
40
0.0000000000
40
0.0066803255
40
0.0240874452
40
0.0422842598
40
0.0617616289
40
0.0829103074
40
0.1312695251
40
0.1889522385
40
0.2566263597
40
0.3345042819
40
0.4224829286
40
0.5202860501
40
0.6274864874
40
0.7435676099
40
0.8678998691
40
1.0000000000
40
1.0000000000
40
1.0000000000
40
1.0000000000
10
7.5017635887
20
247.3839358920
30
0.0000000000
10
7.5017598510
20
247.3587606589
30
0.0000000000
10
7.5050772069
20
247.2679871816
30
0.0000000000
10
7.5321241667
20
247.1102619009
30
0.0000000000
10
7.6034298615
20
246.9145949181
30
0.0000000000
10
7.7116604491
20
246.7206044664
30
0.0000000000
10
7.9134654571
20
246.4523697419
30
0.0000000000
10
8.2660735769
20
246.1238409244
30
0.0000000000
10
8.8084320089
20
245.7563282930
30
0.0000000000
10
9.4857544953
20
245.3987444854
30
0.0000000000
10
10.2944235438
20
245.0531512210
30
0.0000000000
10
11.2298499683
20
244.7211359167
30
0.0000000000
10
12.2863234554
20
244.4049050194
30
0.0000000000
10
13.4572579367
20
244.1061814548
30
0.0000000000
10
14.7353021514
20
243.8268688538
30
0.0000000000
10
16.1130922187
20
243.5684275043
30
0.0000000000
10
17.0659042811
20
243.4151472090
30
0.0000000000
10
17.5575919133
20
243.3418566611
30
0.0000000000
11
7.5017635887
21
247.3839358920
31
0.0000000000
11
7.5045298127
21
247.3084821843
31
0.0000000000
11
7.5371926412
21
247.1147206214
31
0.0000000000
11
7.6065656064
21
246.9213803160
31
0.0000000000
11
7.7125811504
21
246.7287635973
31
0.0000000000
11
7.8550020138
21
246.5371684458
31
0.0000000000
11
8.2479409601
21
246.1582304165
31
0.0000000000
11
8.7828280634
21
245.7869187237
31
0.0000000000
11
9.4558413259
21
245.4254952691
31
0.0000000000
11
10.2625572241
21
245.0761659019
31
0.0000000000
11
11.1974137490
21
244.7410028566
31
0.0000000000
11
12.2543447687
21
244.4220000936
31
0.0000000000
11
13.4264061452
21
244.1209720925
31
0.0000000000
11
14.7061994941
21
243.8396493592
31
0.0000000000
11
16.0853874533
21
243.5796059864
31
0.0000000000
11
17.5575919133
21
243.3418566611
31
0.0000000000
0
SPLINE
5
2C3
100
AcDbEntity
8
0
100
AcDbSpline
62
7
6
CONTINUOUS
70
0
71
3
72
8
73
4
74
2
42
0.0000001000
43
0.0000001000
44
0.0000000001
12
0.2576472024
22
-0.0384046769
32
0.0000000000
13
0.2577979301
23
-0.0373803531
33
0.0000000000
40
0.0000000000
40
0.0000000000
40
0.0000000000
40
0.0000000000
40
1.0000000000
40
1.0000000000
40
1.0000000000
40
1.0000000000
10
17.5575919133
20
243.3418566611
30
0.0000000000
10
17.6434743141
20
243.3290551021
30
0.0000000000
10
17.7293826558
20
243.3164265662
30
0.0000000000
10
17.8153152992
20
243.3039664485
30
0.0000000000
11
17.5575919133
21
243.3418566611
31
0.0000000000
11
17.8153152992
21
243.3039664485
31
0.0000000000
0
SPLINE
5
2C4
100
AcDbEntity
8
0
100
AcDbSpline
62
7
6
CONTINUOUS
70
0
71
3
72
8
73
4
74
2
42
0.0000001000
43
0.0000001000
44
0.0000000001
12
0.8598866069
22
-0.1246824014
32
0.0000000000
13
0.8613263207
23
-0.1139525292
33
0.0000000000
40
0.0000000000
40
0.0000000000
40
0.0000000000
40
0.0000000000
40
1.0000000000
40
1.0000000000
40
1.0000000000
40
1.0000000000
10
17.8153152992
20
243.3039664485
30
0.0000000000
10
18.1019441682
20
243.2624056480
30
0.0000000000
10
18.3888434072
20
243.2227186014
30
0.0000000000
10
18.6759521808
20
243.1847344250
30
0.0000000000
11
17.8153152992
21
243.3039664485
31
0.0000000000
11
18.6759521808
21
243.1847344250
31
0.0000000000
0
SPLINE
5
2C5
100
AcDbEntity
8
0
100
AcDbSpline
62
7
6
CONTINUOUS
70
0
71
3
72
22
73
18
74
16
42
0.0000001000
43
0.0000001000
44
0.0000000001
12
-0.0016785388
22
11.3056914919
32
0.0000000000
13
11.1662485605
23
1.6644316869
33
0.0000000000
40
0.0000000000
40
0.0000000000
40
0.0000000000
40
0.0000000000
40
0.0066803255
40
0.0240874452
40
0.0422842598
40
0.0617616289
40
0.0829103074
40
0.1312695251
40
0.1889522385
40
0.2566263597
40
0.3345042819
40
0.4224829286
40
0.5202860501
40
0.6274864874
40
0.7435676099
40
0.8678998691
40
1.0000000000
40
1.0000000000
40
1.0000000000
40
1.0000000000
10
7.5017635887
20
197.0045170692
30
0.0000000000
10
7.5017598510
20
197.0296923023
30
0.0000000000
10
7.5050772069
20
197.1204657796
30
0.0000000000
10
7.5321241667
20
197.2781910603
30
0.0000000000
10
7.6034298615
20
197.4738580431
30
0.0000000000
10
7.7116604491
20
197.6678484948
30
0.0000000000
10
7.9134654571
20
197.9360832193
30
0.0000000000
10
8.2660735769
20
198.2646120368
30
0.0000000000
10
8.8084320089
20
198.6321246683
30
0.0000000000
10
9.4857544953
20
198.9897084758
30
0.0000000000
10
10.2944235438
20
199.3353017402
30
0.0000000000
10
11.2298499683
20
199.6673170446
30
0.0000000000
10
12.2863234554
20
199.9835479418
30
0.0000000000
10
13.4572579367
20
200.2822715065
30
0.0000000000
10
14.7353021514
20
200.5615841074
30
0.0000000000
10
16.1130922187
20
200.8200254570
30
0.0000000000
10
17.0659042811
20
200.9733057523
30
0.0000000000
10
17.5575919133
20
201.0465963002
30
0.0000000000
11
7.5017635887
21
197.0045170692
31
0.0000000000
11
7.5045298127
21
197.0799707769
31
0.0000000000
11
7.5371926412
21
197.2737323398
31
0.0000000000
11
7.6065656064
21
197.4670726453
31
0.0000000000
11
7.7125811504
21
197.6596893639
31
0.0000000000
11
7.8550020138
21
197.8512845154
31
0.0000000000
11
8.2479409601
21
198.2302225448
31
0.0000000000
11
8.7828280634
21
198.6015342376
31
0.0000000000
11
9.4558413259
21
198.9629576922
31
0.0000000000
11
10.2625572241
21
199.3122870593
31
0.0000000000
11
11.1974137490
21
199.6474501047
31
0.0000000000
11
12.2543447687
21
199.9664528676
31
0.0000000000
11
13.4264061452
21
200.2674808688
31
0.0000000000
11
14.7061994941
21
200.5488036020
31
0.0000000000
11
16.0853874533
21
200.8088469749
31
0.0000000000
11
17.5575919133
21
201.0465963002
31
0.0000000000
0
SPLINE
5
2C6
100
AcDbEntity
8
0
100
AcDbSpline
62
7
6
CONTINUOUS
70
0
71
3
72
8
73
4
74
2
42
0.0000001000
43
0.0000001000
44
0.0000000001
12
0.2576472024
22
0.0384046769
32
0.0000000000
13
0.2577979301
23
0.0373803531
33
0.0000000000
40
0.0000000000
40
0.0000000000
40
0.0000000000
40
0.0000000000
40
1.0000000000
40
1.0000000000
40
1.0000000000
40
1.0000000000
10
17.5575919133
20
201.0465963002
30
0.0000000000
10
17.6434743141
20
201.0593978591
30
0.0000000000
10
17.7293826558
20
201.0720263951
30
0.0000000000
10
17.8153152992
20
201.0844865128
30
0.0000000000
11
17.5575919133
21
201.0465963002
31
0.0000000000
11
17.8153152992
21
201.0844865128
31
0.0000000000
0
SPLINE
5
2C7
100
AcDbEntity
8
0
100
AcDbSpline
62
7
6
CONTINUOUS
70
0
71
3
72
8
73
4
74
2
42
0.0000001000
43
0.0000001000
44
0.0000000001
12
0.8598866069
22
0.1246824014
32
0.0000000000
13
0.8613263207
23
0.1139525292
33
0.0000000000
40
0.0000000000
40
0.0000000000
40
0.0000000000
40
0.0000000000
40
1.0000000000
40
1.0000000000
40
1.0000000000
40
1.0000000000
10
17.8153152992
20
201.0844865128
30
0.0000000000
10
18.1019441682
20
201.1260473132
30
0.0000000000
10
18.3888434072
20
201.1657343599
30
0.0000000000
10
18.6759521808
20
201.2037185363
30
0.0000000000
11
17.8153152992
21
201.0844865128
31
0.0000000000
11
18.6759521808
21
201.2037185363
31
0.0000000000
0
SPLINE
5
2C8
100
AcDbEntity
8
0
100
AcDbSpline
62
7
6
CONTINUOUS
70
0
71
3
72
26
73
22
74
20
42
0.0000001000
43
0.0000001000
44
0.0000000001
12
-20.7307666980
22
-1.1011209435
32
0.0000000000
13
-0.0051161780
23
-20.7986096014
33
0.0000000000
40
0.0000000000
40
0.0000000000
40
0.0000000000
40
0.0000000000
40
0.1858487238
40
0.3600043073
40
0.4414919355
40
0.5186437587
40
0.5910279102
40
0.6582521128
40
0.7199550909
40
0.7758339107
40
0.8256389688
40
0.8692192111
40
0.9065365903
40
0.9228999512
40
0.9377857937
40
0.9512685708
40
0.9634642357
40
0.9745375689
40
0.9847147881
40
0.9942936146
40
1.0000000000
40
1.0000000000
40
1.0000000000
40
1.0000000000
10
24.5633562372
20
252.1942264806
30
0.0000000000
10
23.2790940589
20
252.1260125066
30
0.0000000000
10
20.7931368677
20
251.9571995231
30
0.0000000000
10
17.7529123130
20
251.6484147489
30
0.0000000000
10
15.4697200510
20
251.3462779415
30
0.0000000000
10
13.8897378831
20
251.1014964989
30
0.0000000000
10
12.4134770362
20
250.8348036330
30
0.0000000000
10
11.0500532979
20
250.5478365705
30
0.0000000000
10
9.8079672589
20
250.2421483795
30
0.0000000000
10
8.6950321068
20
249.9197416387
30
0.0000000000
10
7.7181388004
20
249.5824172163
30
0.0000000000
10
6.8833899858
20
249.2324201225
30
0.0000000000
10
6.2860012914
20
248.9193714325
30
0.0000000000
10
5.8880916294
20
248.6602862612
30
0.0000000000
10
5.6416032545
20
248.4724758646
30
0.0000000000
10
5.4341440925
20
248.2827081770
30
0.0000000000
10
5.2660129409
20
248.0910651188
30
0.0000000000
10
5.1375711979
20
247.8975215859
30
0.0000000000
10
5.0494574257
20
247.7020108388
30
0.0000000000
10
5.0085340881
20
247.5294039109
30
0.0000000000
10
5.0017808381
20
247.4234266246
30
0.0000000000
10
5.0017711065
20
247.3838649971
30
0.0000000000
11
24.5633562372
21
252.1942264806
31
0.0000000000
11
20.7142243283
21
251.9296023158
31
0.0000000000
11
17.1178141819
21
251.5588689005
31
0.0000000000
11
15.4408779207
21
251.3359928413
31
0.0000000000
11
13.8582651490
21
251.0896457708
31
0.0000000000
11
12.3797557044
21
250.8211318747
31
0.0000000000
11
11.0144712973
21
250.5319528482
31
0.0000000000
11
9.7711590095
21
250.2237068939
31
0.0000000000
11
8.6577255352
21
249.8981807333
31
0.0000000000
11
7.6815987500
21
249.5572493364
31
0.0000000000
11
6.8491316424
21
249.2029521466
31
0.0000000000
11
6.1660899289
21
248.8374017244
31
0.0000000000
11
5.8820271027
21
248.6511047245
31
0.0000000000
11
5.6369651243
21
248.4628386244
31
0.0000000000
11
5.4313810396
21
248.2728899832
31
0.0000000000
11
5.2655735963
21
248.0815553205
31
0.0000000000
11
5.1397969674
21
247.8891336456
31
0.0000000000
11
5.0543053259
21
247.6959239682
31
0.0000000000
11
5.0093058666
21
247.5022260323
31
0.0000000000
11
5.0017711065
21
247.3838649971
31
0.0000000000
0
SPLINE
5
2C9
100
AcDbEntity
8
0
100
AcDbSpline
62
7
6
CONTINUOUS
70
0
71
3
72
26
73
22
74
20
42
0.0000001000
43
0.0000001000
44
0.0000000001
12
-20.7307666980
22
1.1011209435
32
0.0000000000
13
-0.0051161780
23
20.7986096014
33
0.0000000000
40
0.0000000000
40
0.0000000000
40
0.0000000000
40
0.0000000000
40
0.1858487238
40
0.3600043073
40
0.4414919355
40
0.5186437587
40
0.5910279102
40
0.6582521128
40
0.7199550909
40
0.7758339107
40
0.8256389688
40
0.8692192111
40
0.9065365903
40
0.9228999512
40
0.9377857937
40
0.9512685708
40
0.9634642357
40
0.9745375689
40
0.9847147881
40
0.9942936146
40
1.0000000000
40
1.0000000000
40
1.0000000000
40
1.0000000000
10
24.5633562372
20
192.1942264806
30
0.0000000000
10
23.2790940589
20
192.2624404547
30
0.0000000000
10
20.7931368677
20
192.4312534381
30
0.0000000000
10
17.7529123130
20
192.7400382124
30
0.0000000000
10
15.4697200510
20
193.0421750197
30
0.0000000000
10
13.8897378831
20
193.2869564623
30
0.0000000000
10
12.4134770362
20
193.5536493282
30
0.0000000000
10
11.0500532979
20
193.8406163907
30
0.0000000000
10
9.8079672589
20
194.1463045817
30
0.0000000000
10
8.6950321068
20
194.4687113225
30
0.0000000000
10
7.7181388004
20
194.8060357449
30
0.0000000000
10
6.8833899858
20
195.1560328388
30
0.0000000000
10
6.2860012914
20
195.4690815287
30
0.0000000000
10
5.8880916294
20
195.7281667001
30
0.0000000000
10
5.6416032545
20
195.9159770966
30
0.0000000000
10
5.4341440925
20
196.1057447843
30
0.0000000000
10
5.2660129409
20
196.2973878425
30
0.0000000000
10
5.1375711979
20
196.4909313753
30
0.0000000000
10
5.0494574257
20
196.6864421225
30
0.0000000000
10
5.0085340881
20
196.8590490503
30
0.0000000000
10
5.0017808381
20
196.9650263367
30
0.0000000000
10
5.0017711065
20
197.0045879642
30
0.0000000000
11
24.5633562372
21
192.1942264806
31
0.0000000000
11
20.7142243283
21
192.4588506455
31
0.0000000000
11
17.1178141819
21
192.8295840608
31
0.0000000000
11
15.4408779207
21
193.0524601200
31
0.0000000000
11
13.8582651490
21
193.2988071905
31
0.0000000000
11
12.3797557044
21
193.5673210866
31
0.0000000000
11
11.0144712973
21
193.8565001130
31
0.0000000000
11
9.7711590095
21
194.1647460674
31
0.0000000000
11
8.6577255352
21
194.4902722279
31
0.0000000000
11
7.6815987500
21
194.8312036248
31
0.0000000000
11
6.8491316424
21
195.1855008146
31
0.0000000000
11
6.1660899289
21
195.5510512369
31
0.0000000000
11
5.8820271027
21
195.7373482367
31
0.0000000000
11
5.6369651243
21
195.9256143369
31
0.0000000000
11
5.4313810396
21
196.1155629780
31
0.0000000000
11
5.2655735963
21
196.3068976408
31
0.0000000000
11
5.1397969674
21
196.4993193156
31
0.0000000000
11
5.0543053259
21
196.6925289931
31
0.0000000000
11
5.0093058666
21
196.8862269289
31
0.0000000000
11
5.0017711065
21
197.0045879642
31
0.0000000000
0
SPLINE
5
2CA
100
AcDbEntity
8
0
100
AcDbSpline
62
7
6
CONTINUOUS
70
0
71
3
72
26
73
22
74
20
42
0.0000001000
43
0.0000001000
44
0.0000000001
12
-0.0051077885
22
20.7986107616
32
0.0000000000
13
-20.7307667946
23
1.1011209487
33
0.0000000000
40
0.0000000000
40
0.0000000000
40
0.0000000000
40
0.0000000000
40
0.0057049824
40
0.0152837435
40
0.0254608527
40
0.0365340430
40
0.0487295447
40
0.0622121490
40
0.0770978181
40
0.0934610119
40
0.1307780973
40
0.1743581272
40
0.2241630738
40
0.2800418953
40
0.3417449931
40
0.4089694306
40
0.4813539129
40
0.5585061426
40
0.6399942514
40
0.8141508446
40
1.0000000000
40
1.0000000000
40
1.0000000000
40
1.0000000000
10
59.0016425823
20
247.3838648628
30
0.0000000000
10
59.0016328691
20
247.4234167653
30
0.0000000000
10
58.9948819845
20
247.5293838674
30
0.0000000000
10
58.9539664087
20
247.7019813703
30
0.0000000000
10
58.8658587122
20
247.8974924883
30
0.0000000000
10
58.7374228183
20
248.0910364950
30
0.0000000000
10
58.5692972757
20
248.2826801084
30
0.0000000000
10
58.3618434465
20
248.4724484389
30
0.0000000000
10
58.1153600770
20
248.6602595749
30
0.0000000000
10
57.7174565337
20
248.9193461348
30
0.0000000000
10
57.1200740272
20
249.2323967429
30
0.0000000000
10
56.2853307727
20
249.5823961179
30
0.0000000000
10
55.3084406767
20
249.9197230917
30
0.0000000000
10
54.1955062193
20
250.2421325397
30
0.0000000000
10
52.9534183069
20
250.5478235025
30
0.0000000000
10
51.5899902767
20
250.8347932635
30
0.0000000000
10
50.1137230423
20
251.1014886848
30
0.0000000000
10
48.5337326935
20
251.3462724473
30
0.0000000000
10
46.2505275298
20
251.6484119247
30
0.0000000000
10
43.2102897726
20
251.9571986063
30
0.0000000000
10
40.7243226219
20
252.1260123478
30
0.0000000000
10
39.4400574551
20
252.1942264806
30
0.0000000000
11
59.0016425823
21
247.3838648628
31
0.0000000000
11
58.9941115420
21
247.5021969521
31
0.0000000000
11
58.9491181667
21
247.6958949098
31
0.0000000000
11
58.8636325482
21
247.8891047550
31
0.0000000000
11
58.7378618110
21
248.0815267400
31
0.0000000000
11
58.5720600586
21
248.2728618512
31
0.0000000000
11
58.3664813946
21
248.4628110745
31
0.0000000000
11
58.1214244997
21
248.6510778855
31
0.0000000000
11
57.8373663628
21
248.8373757165
31
0.0000000000
11
57.1543326281
21
249.2029281254
31
0.0000000000
11
56.3218713097
21
249.5572276682
31
0.0000000000
11
55.3457478865
21
249.8981616851
31
0.0000000000
11
54.2323151817
21
250.2236906278
31
0.0000000000
11
52.9890010342
21
250.5319394202
31
0.0000000000
11
51.6237122229
21
250.8211212322
31
0.0000000000
11
50.1451962680
21
251.0896377447
31
0.0000000000
11
48.5625753124
21
251.3359871607
31
0.0000000000
11
46.8856292478
21
251.5588652590
31
0.0000000000
11
43.2891983108
21
251.9296015527
31
0.0000000000
11
39.4400574551
21
252.1942264806
31
0.0000000000
0
SPLINE
5
2CB
100
AcDbEntity
8
0
100
AcDbSpline
62
7
6
CONTINUOUS
70
0
71
3
72
26
73
22
74
20
42
0.0000001000
43
0.0000001000
44
0.0000000001
12
-0.0051077885
22
-20.7986107616
32
0.0000000000
13
-20.7307667946
23
-1.1011209487
33
0.0000000000
40
0.0000000000
40
0.0000000000
40
0.0000000000
40
0.0000000000
40
0.0057049824
40
0.0152837435
40
0.0254608527
40
0.0365340430
40
0.0487295447
40
0.0622121490
40
0.0770978181
40
0.0934610119
40
0.1307780973
40
0.1743581272
40
0.2241630738
40
0.2800418953
40
0.3417449931
40
0.4089694306
40
0.4813539129
40
0.5585061426
40
0.6399942514
40
0.8141508446
40
1.0000000000
40
1.0000000000
40
1.0000000000
40
1.0000000000
10
59.0016425823
20
197.0045880985
30
0.0000000000
10
59.0016328691
20
196.9650361959
30
0.0000000000
10
58.9948819845
20
196.8590690939
30
0.0000000000
10
58.9539664087
20
196.6864715910
30
0.0000000000
10
58.8658587122
20
196.4909604730
30
0.0000000000
10
58.7374228183
20
196.2974164662
30
0.0000000000
10
58.5692972757
20
196.1057728528
30
0.0000000000
10
58.3618434465
20
195.9160045224
30
0.0000000000
10
58.1153600770
20
195.7281933863
30
0.0000000000
10
57.7174565337
20
195.4691068265
30
0.0000000000
10
57.1200740272
20
195.1560562184
30
0.0000000000
10
56.2853307727
20
194.8060568434
30
0.0000000000
10
55.3084406767
20
194.4687298695
30
0.0000000000
10
54.1955062193
20
194.1463204215
30
0.0000000000
10
52.9534183069
20
193.8406294588
30
0.0000000000
10
51.5899902767
20
193.5536596977
30
0.0000000000
10
50.1137230423
20
193.2869642764
30
0.0000000000
10
48.5337326935
20
193.0421805139
30
0.0000000000
10
46.2505275298
20
192.7400410365
30
0.0000000000
10
43.2102897726
20
192.4312543550
30
0.0000000000
10
40.7243226219
20
192.2624406134
30
0.0000000000
10
39.4400574551
20
192.1942264806
30
0.0000000000
11
59.0016425823
21
197.0045880985
31
0.0000000000
11
58.9941115420
21
196.8862560092
31
0.0000000000
11
58.9491181667
21
196.6925580514
31
0.0000000000
11
58.8636325482
21
196.4993482063
31
0.0000000000
11
58.7378618110
21
196.3069262212
31
0.0000000000
11
58.5720600586
21
196.1155911101
31
0.0000000000
11
58.3664813946
21
195.9256418867
31
0.0000000000
11
58.1214244997
21
195.7373750758
31
0.0000000000
11
57.8373663628
21
195.5510772448
31
0.0000000000
11
57.1543326281
21
195.1855248358
31
0.0000000000
11
56.3218713097
21
194.8312252930
31
0.0000000000
11
55.3457478865
21
194.4902912761
31
0.0000000000
11
54.2323151817
21
194.1647623335
31
0.0000000000
11
52.9890010342
21
193.8565135410
31
0.0000000000
11
51.6237122229
21
193.5673317291
31
0.0000000000
11
50.1451962680
21
193.2988152165
31
0.0000000000
11
48.5625753124
21
193.0524658005
31
0.0000000000
11
46.8856292478
21
192.8295877023
31
0.0000000000
11
43.2891983108
21
192.4588514086
31
0.0000000000
11
39.4400574551
21
192.1942264806
31
0.0000000000
0
SPLINE
5
2CC
100
AcDbEntity
8
0
100
AcDbSpline
62
7
6
CONTINUOUS
70
0
71
3
72
8
73
4
74
2
42
0.0000001000
43
0.0000001000
44
0.0000000001
12
0.8613263256
22
-0.1139525359
32
0.0000000000
13
0.8598866107
23
-0.1246824104
33
0.0000000000
40
0.0000000000
40
0.0000000000
40
0.0000000000
40
0.0000000000
40
1.0000000000
40
1.0000000000
40
1.0000000000
40
1.0000000000
10
45.3274615015
20
201.2037185135
30
0.0000000000
10
45.6145702767
20
201.1657343348
30
0.0000000000
10
45.9014695169
20
201.1260472845
30
0.0000000000
10
46.1880983872
20
201.0844864810
30
0.0000000000
11
45.3274615015
21
201.2037185135
31
0.0000000000
11
46.1880983872
21
201.0844864810
31
0.0000000000
0
SPLINE
5
2CD
100
AcDbEntity
8
0
100
AcDbSpline
62
7
6
CONTINUOUS
70
0
71
3
72
8
73
4
74
2
42
0.0000001000
43
0.0000001000
44
0.0000000001
12
0.2577984151
22
-0.0373804259
32
0.0000000000
13
0.2576476868
23
-0.0384047530
33
0.0000000000
40
0.0000000000
40
0.0000000000
40
0.0000000000
40
0.0000000000
40
1.0000000000
40
1.0000000000
40
1.0000000000
40
1.0000000000
10
46.1880983872
20
201.0844864810
30
0.0000000000
10
46.2740311922
20
201.0720263391
30
0.0000000000
10
46.3599396955
20
201.0593977783
30
0.0000000000
10
46.4458222578
20
201.0465961940
30
0.0000000000
11
46.1880983872
21
201.0844864810
31
0.0000000000
11
46.4458222578
21
201.0465961940
31
0.0000000000
0
SPLINE
5
2CE
100
AcDbEntity
8
0
100
AcDbSpline
62
7
6
CONTINUOUS
70
0
71
3
72
22
73
18
74
16
42
0.0000001000
43
0.0000001000
44
0.0000000001
12
11.1662481083
22
-1.6644317893
32
0.0000000000
13
-0.0016762651
23
-11.3056913621
33
0.0000000000
40
0.0000000000
40
0.0000000000
40
0.0000000000
40
0.0000000000
40
0.1320986595
40
0.2564299933
40
0.3725102643
40
0.4797101219
40
0.5775129200
40
0.6654914428
40
0.7433694332
40
0.8110438067
40
0.8687269053
40
0.9170865628
40
0.9382354469
40
0.9577129906
40
0.9759099296
40
0.9933171065
40
1.0000000000
40
1.0000000000
40
1.0000000000
40
1.0000000000
10
46.4458222578
20
201.0465961940
30
0.0000000000
10
46.9375043935
20
200.9733064579
30
0.0000000000
10
47.8903075310
20
200.8200277174
30
0.0000000000
10
49.2680856506
20
200.5615892703
30
0.0000000000
10
50.5461213466
20
200.2822794755
30
0.0000000000
10
51.7170497309
20
199.9835589391
30
0.0000000000
10
52.7735200469
20
199.6673311098
30
0.0000000000
10
53.7089459575
20
199.3353187828
30
0.0000000000
10
54.5176169377
20
198.9897283064
30
0.0000000000
10
55.1949436974
20
198.6321470763
30
0.0000000000
10
55.7373084572
20
198.2646367228
30
0.0000000000
10
56.0899234324
20
197.9361098407
30
0.0000000000
10
56.2917350209
20
197.6678762718
30
0.0000000000
10
56.3999706655
20
197.4738865156
30
0.0000000000
10
56.4712817124
20
197.2782201008
30
0.0000000000
10
56.4983348274
20
197.1204853437
30
0.0000000000
10
56.5016538342
20
197.0297019711
30
0.0000000000
10
56.5016501001
20
197.0045170606
30
0.0000000000
11
46.4458222578
21
201.0465961940
31
0.0000000000
11
47.9180102995
21
200.8088497360
31
0.0000000000
11
49.2971880623
21
200.5488089402
31
0.0000000000
11
50.5769721883
21
200.2674892468
31
0.0000000000
11
51.7490275556
21
199.9664643290
31
0.0000000000
11
52.8059556464
21
199.6474646336
31
0.0000000000
11
53.7408117397
21
199.3123046381
31
0.0000000000
11
54.5475296976
21
198.9629781685
31
0.0000000000
11
55.2205475547
21
198.6015573079
31
0.0000000000
11
55.7554414518
21
198.2302478205
31
0.0000000000
11
56.1483889565
21
197.8513115415
31
0.0000000000
11
56.2908146200
21
197.6597170765
31
0.0000000000
11
56.3968352351
21
197.4671009097
31
0.0000000000
11
56.4662134839
21
197.2737610154
31
0.0000000000
11
56.4988817426
21
197.0799997208
31
0.0000000000
11
56.5016501001
21
197.0045170606
31
0.0000000000
0
SPLINE
5
2CF
100
AcDbEntity
8
0
100
AcDbSpline
62
7
6
CONTINUOUS
70
0
71
3
72
8
73
4
74
2
42
0.0000001000
43
0.0000001000
44
0.0000000001
12
0.8613263256
22
0.1139525359
32
0.0000000000
13
0.8598866107
23
0.1246824104
33
0.0000000000
40
0.0000000000
40
0.0000000000
40
0.0000000000
40
0.0000000000
40
1.0000000000
40
1.0000000000
40
1.0000000000
40
1.0000000000
10
45.3274615015
20
243.1847344478
30
0.0000000000
10
45.6145702767
20
243.2227186264
30
0.0000000000
10
45.9014695169
20
243.2624056768
30
0.0000000000
10
46.1880983872
20
243.3039664802
30
0.0000000000
11
45.3274615015
21
243.1847344478
31
0.0000000000
11
46.1880983872
21
243.3039664802
31
0.0000000000
0
SPLINE
5
2D0
100
AcDbEntity
8
0
100
AcDbSpline
62
7
6
CONTINUOUS
70
0
71
3
72
8
73
4
74
2
42
0.0000001000
43
0.0000001000
44
0.0000000001
12
0.2577984151
22
0.0373804259
32
0.0000000000
13
0.2576476868
23
0.0384047530
33
0.0000000000
40
0.0000000000
40
0.0000000000
40
0.0000000000
40
0.0000000000
40
1.0000000000
40
1.0000000000
40
1.0000000000
40
1.0000000000
10
46.1880983872
20
243.3039664802
30
0.0000000000
10
46.2740311922
20
243.3164266222
30
0.0000000000
10
46.3599396955
20
243.3290551830
30
0.0000000000
10
46.4458222578
20
243.3418567673
30
0.0000000000
11
46.1880983872
21
243.3039664802
31
0.0000000000
11
46.4458222578
21
243.3418567673
31
0.0000000000
0
SPLINE
5
2D1
100
AcDbEntity
8
0
100
AcDbSpline
62
7
6
CONTINUOUS
70
0
71
3
72
22
73
18
74
16
42
0.0000001000
43
0.0000001000
44
0.0000000001
12
11.1662481083
22
1.6644317893
32
0.0000000000
13
-0.0016762651
23
11.3056913621
33
0.0000000000
40
0.0000000000
40
0.0000000000
40
0.0000000000
40
0.0000000000
40
0.1320986595
40
0.2564299933
40
0.3725102643
40
0.4797101219
40
0.5775129200
40
0.6654914428
40
0.7433694332
40
0.8110438067
40
0.8687269053
40
0.9170865628
40
0.9382354469
40
0.9577129906
40
0.9759099296
40
0.9933171065
40
1.0000000000
40
1.0000000000
40
1.0000000000
40
1.0000000000
10
46.4458222578
20
243.3418567673
30
0.0000000000
10
46.9375043935
20
243.4151465034
30
0.0000000000
10
47.8903075310
20
243.5684252438
30
0.0000000000
10
49.2680856506
20
243.8268636909
30
0.0000000000
10
50.5461213466
20
244.1061734857
30
0.0000000000
10
51.7170497309
20
244.4048940222
30
0.0000000000
10
52.7735200469
20
244.7211218515
30
0.0000000000
10
53.7089459575
20
245.0531341784
30
0.0000000000
10
54.5176169377
20
245.3987246549
30
0.0000000000
10
55.1949436974
20
245.7563058849
30
0.0000000000
10
55.7373084572
20
246.1238162385
30
0.0000000000
10
56.0899234324
20
246.4523431205
30
0.0000000000
10
56.2917350209
20
246.7205766895
30
0.0000000000
10
56.3999706655
20
246.9145664456
30
0.0000000000
10
56.4712817124
20
247.1102328605
30
0.0000000000
10
56.4983348274
20
247.2679676176
30
0.0000000000
10
56.5016538342
20
247.3587509902
30
0.0000000000
10
56.5016501001
20
247.3839359007
30
0.0000000000
11
46.4458222578
21
243.3418567673
31
0.0000000000
11
47.9180102995
21
243.5796032253
31
0.0000000000
11
49.2971880623
21
243.8396440210
31
0.0000000000
11
50.5769721883
21
244.1209637145
31
0.0000000000
11
51.7490275556
21
244.4219886323
31
0.0000000000
11
52.8059556464
21
244.7409883277
31
0.0000000000
11
53.7408117397
21
245.0761483231
31
0.0000000000
11
54.5475296976
21
245.4254747928
31
0.0000000000
11
55.2205475547
21
245.7868956533
31
0.0000000000
11
55.7554414518
21
246.1582051407
31
0.0000000000
11
56.1483889565
21
246.5371414198
31
0.0000000000
11
56.2908146200
21
246.7287358847
31
0.0000000000
11
56.3968352351
21
246.9213520515
31
0.0000000000
11
56.4662134839
21
247.1146919459
31
0.0000000000
11
56.4988817426
21
247.3084532405
31
0.0000000000
11
56.5016501001
21
247.3839359007
31
0.0000000000
0
SPLINE
5
2D2
100
AcDbEntity
8
0
100
AcDbSpline
62
7
6
CONTINUOUS
70
0
71
3
72
16
73
12
74
10
42
0.0000001000
43
0.0000001000
44
0.0000000001
12
0.0000000000
22
-0.7668940206
32
0.0000000000
13
-0.7544059794
23
-0.1378334395
33
0.0000000000
40
0.0000000000
40
0.0000000000
40
0.0000000000
40
0.0000000000
40
0.0417145279
40
0.0692557326
40
0.1027646386
40
0.1894376537
40
0.3030330995
40
0.4428898072
40
0.6072590370
40
0.7939039322
40
1.0000000000
40
1.0000000000
40
1.0000000000
40
1.0000000000
10
18.5017068462
20
201.4960990822
30
0.0000000000
10
18.5017068462
20
201.4854355416
30
0.0000000000
10
18.4928833915
20
201.4680939955
30
0.0000000000
10
18.4737357275
20
201.4503128205
30
0.0000000000
10
18.4424758776
20
201.4287780170
30
0.0000000000
10
18.3880782310
20
201.4034748021
30
0.0000000000
10
18.3060039503
20
201.3746408203
30
0.0000000000
10
18.2031255435
20
201.3457171225
30
0.0000000000
10
18.0810563440
20
201.3165823863
30
0.0000000000
10
17.9416526460
20
201.2873820861
30
0.0000000000
10
17.8430072323
20
201.2686874542
30
0.0000000000
10
17.7911805304
20
201.2592184775
30
0.0000000000
11
18.5017068462
21
201.4960990822
31
0.0000000000
11
18.4895972086
21
201.4664890067
31
0.0000000000
11
18.4745334999
21
201.4516839689
31
0.0000000000
11
18.4535290543
21
201.4368789311
31
0.0000000000
11
18.3940196126
21
201.4072688555
31
0.0000000000
11
18.3120904782
21
201.3776587799
31
0.0000000000
11
18.2090034423
21
201.3480487043
31
0.0000000000
11
18.0864767156
21
201.3184386287
31
0.0000000000
11
17.9464359986
21
201.2888285531
31
0.0000000000
11
17.7911805304
21
201.2592184775
31
0.0000000000
0
SPLINE
5
2D3
100
AcDbEntity
8
0
100
AcDbSpline
62
7
6
CONTINUOUS
70
0
71
3
72
24
73
20
74
18
42
0.0000001000
43
0.0000001000
44
0.0000000001
12
13.8735977305
22
-1.5916067228
32
0.0000000000
13
-0.0034358496
23
-13.9905748376
33
0.0000000000
40
0.0000000000
40
0.0000000000
40
0.0000000000
40
0.0000000000
40
0.2406258909
40
0.3510477348
40
0.4540338058
40
0.5490074431
40
0.6354884912
40
0.7130702827
40
0.7814723168
40
0.8405552678
40
0.8666403308
40
0.8904699349
40
0.9121215970
40
0.9317229146
40
0.9494593011
40
0.9655919800
40
0.9804805364
40
0.9945934838
40
1.0000000000
40
1.0000000000
40
1.0000000000
40
1.0000000000
10
46.2122331619
20
201.2597114054
30
0.0000000000
10
47.3250154333
20
201.1320508102
30
0.0000000000
10
48.9455144210
20
200.9165947972
30
0.0000000000
10
51.0292024483
20
200.5619487594
30
0.0000000000
10
52.4374661731
20
200.2826926734
30
0.0000000000
10
53.7276490821
20
199.9840559497
30
0.0000000000
10
54.8916066269
20
199.6679561745
30
0.0000000000
10
55.9221104402
20
199.3361695764
30
0.0000000000
10
56.8126774986
20
198.9908942246
30
0.0000000000
10
57.4585787758
20
198.6819264323
30
0.0000000000
10
57.8969406375
20
198.4259140077
30
0.0000000000
10
58.1735035241
20
198.2397113402
30
0.0000000000
10
58.4113109142
20
198.0514425982
30
0.0000000000
10
58.6100505785
20
197.8612624367
30
0.0000000000
10
58.7694240189
20
197.6692215274
30
0.0000000000
10
58.8889809192
20
197.4752470363
30
0.0000000000
10
58.9679263823
20
197.2792870268
30
0.0000000000
10
58.9979882526
20
197.1208272529
30
0.0000000000
10
59.0016487743
20
197.0298015216
30
0.0000000000
10
59.0016425823
20
197.0045880985
30
0.0000000000
11
46.2122331619
21
201.2597114054
31
0.0000000000
11
49.5421228968
21
200.8090797899
31
0.0000000000
11
51.0620330843
21
200.5490300801
31
0.0000000000
11
52.4724074273
21
200.2677028683
31
0.0000000000
11
53.7640602811
21
199.9666699213
31
0.0000000000
11
54.9288381770
21
199.6476618227
31
0.0000000000
11
55.9590877492
21
199.3124935609
31
0.0000000000
11
56.8481238661
21
198.9631589252
31
0.0000000000
11
57.5898170147
21
198.6017298618
31
0.0000000000
11
57.9038668555
21
198.4171671331
31
0.0000000000
11
58.1792919218
21
198.2304121448
31
0.0000000000
11
58.4155656540
21
198.0417476309
31
0.0000000000
11
58.6123361106
21
197.8514676459
31
0.0000000000
11
58.7692950050
21
197.6598690746
31
0.0000000000
11
58.8861340503
21
197.4672488016
31
0.0000000000
11
58.9625917123
21
197.2739048000
31
0.0000000000
11
58.9985934667
21
197.0801393973
31
0.0000000000
11
59.0016425823
21
197.0045880985
31
0.0000000000
0
SPLINE
5
2D4
100
AcDbEntity
8
0
100
AcDbSpline
62
7
6
CONTINUOUS
70
0
71
3
72
24
73
20
74
18
42
0.0000001000
43
0.0000001000
44
0.0000000001
12
13.8735977305
22
1.5916067228
32
0.0000000000
13
-0.0034358496
23
13.9905748376
33
0.0000000000
40
0.0000000000
40
0.0000000000
40
0.0000000000
40
0.0000000000
40
0.2406258909
40
0.3510477348
40
0.4540338058
40
0.5490074431
40
0.6354884912
40
0.7130702827
40
0.7814723168
40
0.8405552678
40
0.8666403308
40
0.8904699349
40
0.9121215970
40
0.9317229146
40
0.9494593011
40
0.9655919800
40
0.9804805364
40
0.9945934838
40
1.0000000000
40
1.0000000000
40
1.0000000000
40
1.0000000000
10
46.2122331619
20
243.1287415558
30
0.0000000000
10
47.3250154333
20
243.2564021511
30
0.0000000000
10
48.9455144210
20
243.4718581641
30
0.0000000000
10
51.0292024483
20
243.8265042019
30
0.0000000000
10
52.4374661731
20
244.1057602879
30
0.0000000000
10
53.7276490821
20
244.4043970115
30
0.0000000000
10
54.8916066269
20
244.7204967867
30
0.0000000000
10
55.9221104402
20
245.0522833848
30
0.0000000000
10
56.8126774986
20
245.3975587366
30
0.0000000000
10
57.4585787758
20
245.7065265289
30
0.0000000000
10
57.8969406375
20
245.9625389536
30
0.0000000000
10
58.1735035241
20
246.1487416210
30
0.0000000000
10
58.4113109142
20
246.3370103630
30
0.0000000000
10
58.6100505785
20
246.5271905245
30
0.0000000000
10
58.7694240189
20
246.7192314339
30
0.0000000000
10
58.8889809192
20
246.9132059250
30
0.0000000000
10
58.9679263823
20
247.1091659344
30
0.0000000000
10
58.9979882526
20
247.2676257083
30
0.0000000000
10
59.0016487743
20
247.3586514397
30
0.0000000000
10
59.0016425823
20
247.3838648628
30
0.0000000000
11
46.2122331619
21
243.1287415558
31
0.0000000000
11
49.5421228968
21
243.5793731713
31
0.0000000000
11
51.0620330843
21
243.8394228811
31
0.0000000000
11
52.4724074273
21
244.1207500929
31
0.0000000000
11
53.7640602811
21
244.4217830400
31
0.0000000000
11
54.9288381770
21
244.7407911385
31
0.0000000000
11
55.9590877492
21
245.0759594003
31
0.0000000000
11
56.8481238661
21
245.4252940361
31
0.0000000000
11
57.5898170147
21
245.7867230994
31
0.0000000000
11
57.9038668555
21
245.9712858281
31
0.0000000000
11
58.1792919218
21
246.1580408164
31
0.0000000000
11
58.4155656540
21
246.3467053303
31
0.0000000000
11
58.6123361106
21
246.5369853153
31
0.0000000000
11
58.7692950050
21
246.7285838867
31
0.0000000000
11
58.8861340503
21
246.9212041597
31
0.0000000000
11
58.9625917123
21
247.1145481612
31
0.0000000000
11
58.9985934667
21
247.3083135640
31
0.0000000000
11
59.0016425823
21
247.3838648628
31
0.0000000000
0
SPLINE
5
2D5
100
AcDbEntity
8
0
100
AcDbSpline
62
7
6
CONTINUOUS
70
0
71
3
72
8
73
4
74
2
42
0.0000001000
43
0.0000001000
44
0.0000000001
12
-0.6860042188
22
0.0401554156
32
0.0000000000
13
-0.6857495740
23
0.0445968369
33
0.0000000000
40
0.0000000000
40
0.0000000000
40
0.0000000000
40
0.0000000000
40
1.0000000000
40
1.0000000000
40
1.0000000000
40
1.0000000000
10
25.2520924047
20
192.1942264806
30
0.0000000000
10
25.0234243318
20
192.2076116192
30
0.0000000000
10
24.7947948728
20
192.2217250898
30
0.0000000000
10
24.5662116815
20
192.2365907021
30
0.0000000000
11
25.2520924047
21
192.1942264806
31
0.0000000000
11
24.5662116815
21
192.2365907021
31
0.0000000000
0
SPLINE
5
2D6
100
AcDbEntity
8
0
100
AcDbSpline
62
7
6
CONTINUOUS
70
0
71
3
72
24
73
20
74
18
42
0.0000001000
43
0.0000001000
44
0.0000000001
12
-18.2968786784
22
1.1899138479
32
0.0000000000
13
-0.0027263846
23
18.3633909059
33
0.0000000000
40
0.0000000000
40
0.0000000000
40
0.0000000000
40
0.0000000000
40
0.1535620779
40
0.3326947421
40
0.4165724875
40
0.4960406667
40
0.5706638066
40
0.6400485783
40
0.7038358836
40
0.7617296350
40
0.8134934759
40
0.8589990029
40
0.8982442669
40
0.9314565955
40
0.9459769972
40
0.9592522072
40
0.9827398849
40
0.9935362314
40
1.0000000000
40
1.0000000000
40
1.0000000000
40
1.0000000000
10
24.5662116815
20
192.2365907021
30
0.0000000000
10
23.6296427787
20
192.2974992498
30
0.0000000000
10
21.6022337911
20
192.4568146029
30
0.0000000000
10
19.0713410589
20
192.7401304877
30
0.0000000000
10
16.9999661000
20
193.0422117752
30
0.0000000000
10
15.5661641064
20
193.2870183453
30
0.0000000000
10
14.2264542701
20
193.5537510949
30
0.0000000000
10
12.9890897184
20
193.8407815303
30
0.0000000000
10
11.8617854184
20
194.1465681208
30
0.0000000000
10
10.8515697463
20
194.4691344714
30
0.0000000000
10
9.9647837126
20
194.8067167433
30
0.0000000000
10
9.2066018453
20
195.1571510349
30
0.0000000000
10
8.5815811077
20
195.5187727488
30
0.0000000000
10
8.1561715910
20
195.8413739159
30
0.0000000000
10
7.8931459561
20
196.1067165501
30
0.0000000000
10
7.6978649968
20
196.3521523574
30
0.0000000000
10
7.5603044682
20
196.6144666884
30
0.0000000000
10
7.5078777887
20
196.8592971635
30
0.0000000000
10
7.5017694630
20
196.9649514993
30
0.0000000000
10
7.5017635887
20
197.0045170692
30
0.0000000000
11
24.5662116815
21
192.2365907021
31
0.0000000000
11
21.7593615985
21
192.4588342146
31
0.0000000000
11
18.4959523915
21
192.8295511989
31
0.0000000000
11
16.9742880064
21
193.0524192296
31
0.0000000000
11
15.5382134543
21
193.2987578977
31
0.0000000000
11
14.1966030323
21
193.5672635282
31
0.0000000000
11
12.9577338481
21
193.8564343893
31
0.0000000000
11
11.8295430684
21
194.1646721416
31
0.0000000000
11
10.8192052862
21
194.4901900733
31
0.0000000000
11
9.9334606108
21
194.8311132511
31
0.0000000000
11
9.1780737909
21
195.1854022290
31
0.0000000000
11
8.5582766805
21
195.5509444367
31
0.0000000000
11
8.0781449134
21
195.9254993204
31
0.0000000000
11
7.8915963921
21
196.1154438537
31
0.0000000000
11
7.7411414898
21
196.3067744088
31
0.0000000000
11
7.5494350963
21
196.6923975456
31
0.0000000000
11
7.5086022536
21
196.8860913733
31
0.0000000000
11
7.5017635887
21
197.0045170692
31
0.0000000000
0
SPLINE
5
2D7
100
AcDbEntity
8
0
100
AcDbSpline
62
7
6
CONTINUOUS
70
0
71
3
72
16
73
12
74
10
42
0.0000001000
43
0.0000001000
44
0.0000000001
12
0.7544059794
22
-0.1378334395
32
0.0000000000
13
0.0000000000
23
-0.7668940206
33
0.0000000000
40
0.0000000000
40
0.0000000000
40
0.0000000000
40
0.0000000000
40
0.2060960678
40
0.3927409630
40
0.5571101928
40
0.6969669005
40
0.8105623463
40
0.8972353614
40
0.9307442674
40
0.9582854721
40
1.0000000000
40
1.0000000000
40
1.0000000000
40
1.0000000000
10
17.7911805304
20
243.1292344837
30
0.0000000000
10
17.8430072323
20
243.1197655071
30
0.0000000000
10
17.9416526460
20
243.1010708752
30
0.0000000000
10
18.0810563440
20
243.0718705750
30
0.0000000000
10
18.2031255435
20
243.0427358388
30
0.0000000000
10
18.3060039503
20
243.0138121409
30
0.0000000000
10
18.3880782310
20
242.9849781592
30
0.0000000000
10
18.4424758776
20
242.9596749442
30
0.0000000000
10
18.4737357275
20
242.9381401407
30
0.0000000000
10
18.4928833915
20
242.9203589657
30
0.0000000000
10
18.5017068462
20
242.9030174197
30
0.0000000000
10
18.5017068462
20
242.8923538790
30
0.0000000000
11
17.7911805304
21
243.1292344837
31
0.0000000000
11
17.9464359986
21
243.0996244081
31
0.0000000000
11
18.0864767156
21
243.0700143325
31
0.0000000000
11
18.2090034423
21
243.0404042570
31
0.0000000000
11
18.3120904782
21
243.0107941814
31
0.0000000000
11
18.3940196126
21
242.9811841058
31
0.0000000000
11
18.4535290543
21
242.9515740302
31
0.0000000000
11
18.4745334999
21
242.9367689924
31
0.0000000000
11
18.4895972086
21
242.9219639546
31
0.0000000000
11
18.5017068462
21
242.8923538790
31
0.0000000000
0
SPLINE
5
2D8
100
AcDbEntity
8
0
100
AcDbSpline
62
7
6
CONTINUOUS
70
0
71
3
72
24
73
20
74
18
42
0.0000001000
43
0.0000001000
44
0.0000000001
12
-0.0027226917
22
18.3633912583
32
0.0000000000
13
-18.2968785745
23
1.1899138283
33
0.0000000000
40
0.0000000000
40
0.0000000000
40
0.0000000000
40
0.0000000000
40
0.0064621747
40
0.0172584603
40
0.0407458989
40
0.0540209541
40
0.0685411906
40
0.1017531898
40
0.1409981689
40
0.1865034912
40
0.2382672284
40
0.2961609904
40
0.3599484257
40
0.4293334446
40
0.5039569288
40
0.5834255292
40
0.6673037713
40
0.8464374766
40
1.0000000000
40
1.0000000000
40
1.0000000000
40
1.0000000000
10
56.5016501001
20
247.3839359007
30
0.0000000000
10
56.5016442352
20
247.4234917148
30
0.0000000000
10
56.4955380357
20
247.5291359150
30
0.0000000000
10
56.4431205868
20
247.7739564939
30
0.0000000000
10
56.3055673679
20
248.0362717239
30
0.0000000000
10
56.1102928438
20
248.2817083180
30
0.0000000000
10
55.8472738555
20
248.5470519900
30
0.0000000000
10
55.4218714206
20
248.8696547928
30
0.0000000000
10
54.7968575752
20
249.2312785056
30
0.0000000000
10
54.0386807304
20
249.5817151007
30
0.0000000000
10
53.1518976031
20
249.9192999327
30
0.0000000000
10
52.1416825516
20
250.2418689967
30
0.0000000000
10
51.0143765457
20
250.5476583620
30
0.0000000000
10
49.7770080939
20
250.8346914979
30
0.0000000000
10
48.4372924579
20
251.1014268035
30
0.0000000000
10
47.0034830382
20
251.3462356937
30
0.0000000000
10
44.9320963769
20
251.6483196498
30
0.0000000000
10
42.4011916564
20
251.9316373960
30
0.0000000000
10
40.3737736257
20
252.0909535360
30
0.0000000000
10
39.4372020111
20
252.1518622594
30
0.0000000000
11
56.5016501001
21
247.3839359007
31
0.0000000000
11
56.4948148109
21
247.5023325201
31
0.0000000000
11
56.4539874889
21
247.6960263692
31
0.0000000000
11
56.2622919069
21
248.0816499832
31
0.0000000000
11
56.1118421686
21
248.2729809864
31
0.0000000000
11
55.9252985661
21
248.4629261015
31
0.0000000000
11
55.4451756668
21
248.8374825264
31
0.0000000000
11
54.8253857964
21
249.2030267200
31
0.0000000000
11
54.0700042297
21
249.5573180501
31
0.0000000000
11
53.1842626050
21
249.8982438473
31
0.0000000000
11
52.1739255210
21
250.2237645603
31
0.0000000000
11
51.0457330539
21
250.5320051499
31
0.0000000000
11
49.8068598732
21
250.8211787958
31
0.0000000000
11
48.4652435437
21
251.0896870420
31
0.0000000000
11
47.0291615655
21
251.3360280548
31
0.0000000000
11
45.5074882847
21
251.5588981238
31
0.0000000000
11
42.2440602122
21
251.9296179851
31
0.0000000000
11
39.4372020111
21
252.1518622594
31
0.0000000000
0
SPLINE
5
2D9
100
AcDbEntity
8
0
100
AcDbSpline
62
7
6
CONTINUOUS
70
0
71
3
72
8
73
4
74
2
42
0.0000001000
43
0.0000001000
44
0.0000000001
12
-0.6857495744
22
0.0445968364
32
0.0000000000
13
-0.6860042191
23
0.0401554156
33
0.0000000000
40
0.0000000000
40
0.0000000000
40
0.0000000000
40
0.0000000000
40
1.0000000000
40
1.0000000000
40
1.0000000000
40
1.0000000000
10
39.4372020111
20
252.1518622594
30
0.0000000000
10
39.2086188197
20
252.1667278715
30
0.0000000000
10
38.9799893606
20
252.1808413421
30
0.0000000000
10
38.7513212876
20
252.1942264806
30
0.0000000000
11
39.4372020111
21
252.1518622594
31
0.0000000000
11
38.7513212876
21
252.1942264806
31
0.0000000000
0
SPLINE
5
2DA
100
AcDbEntity
8
0
100
AcDbSpline
62
7
6
CONTINUOUS
70
0
71
3
72
24
73
20
74
18
42
0.0000001000
43
0.0000001000
44
0.0000000001
12
-0.0027226917
22
-18.3633912583
32
0.0000000000
13
-18.2968785745
23
-1.1899138283
33
0.0000000000
40
0.0000000000
40
0.0000000000
40
0.0000000000
40
0.0000000000
40
0.0064621747
40
0.0172584603
40
0.0407458989
40
0.0540209541
40
0.0685411906
40
0.1017531898
40
0.1409981689
40
0.1865034912
40
0.2382672284
40
0.2961609904
40
0.3599484257
40
0.4293334446
40
0.5039569288
40
0.5834255292
40
0.6673037713
40
0.8464374766
40
1.0000000000
40
1.0000000000
40
1.0000000000
40
1.0000000000
10
56.5016501001
20
197.0045170606
30
0.0000000000
10
56.5016442352
20
196.9649612464
30
0.0000000000
10
56.4955380357
20
196.8593170462
30
0.0000000000
10
56.4431205868
20
196.6144964674
30
0.0000000000
10
56.3055673679
20
196.3521812374
30
0.0000000000
10
56.1102928438
20
196.1067446433
30
0.0000000000
10
55.8472738555
20
195.8414009712
30
0.0000000000
10
55.4218714206
20
195.5187981685
30
0.0000000000
10
54.7968575752
20
195.1571744557
30
0.0000000000
10
54.0386807304
20
194.8067378606
30
0.0000000000
10
53.1518976031
20
194.4691530285
30
0.0000000000
10
52.1416825516
20
194.1465839645
30
0.0000000000
10
51.0143765457
20
193.8407945993
30
0.0000000000
10
49.7770080939
20
193.5537614634
30
0.0000000000
10
48.4372924579
20
193.2870261577
30
0.0000000000
10
47.0034830382
20
193.0422172675
30
0.0000000000
10
44.9320963769
20
192.7401333115
30
0.0000000000
10
42.4011916564
20
192.4568155652
30
0.0000000000
10
40.3737736257
20
192.2974994252
30
0.0000000000
10
39.4372020111
20
192.2365907019
30
0.0000000000
11
56.5016501001
21
197.0045170606
31
0.0000000000
11
56.4948148109
21
196.8861204412
31
0.0000000000
11
56.4539874889
21
196.6924265920
31
0.0000000000
11
56.2622919069
21
196.3068029780
31
0.0000000000
11
56.1118421686
21
196.1154719749
31
0.0000000000
11
55.9252985661
21
195.9255268598
31
0.0000000000
11
55.4451756668
21
195.5509704349
31
0.0000000000
11
54.8253857964
21
195.1854262413
31
0.0000000000
11
54.0700042297
21
194.8311349111
31
0.0000000000
11
53.1842626050
21
194.4902091140
31
0.0000000000
11
52.1739255210
21
194.1646884010
31
0.0000000000
11
51.0457330539
21
193.8564478113
31
0.0000000000
11
49.8068598732
21
193.5672741655
31
0.0000000000
11
48.4652435437
21
193.2987659192
31
0.0000000000
11
47.0291615655
21
193.0524249064
31
0.0000000000
11
45.5074882847
21
192.8295548374
31
0.0000000000
11
42.2440602122
21
192.4588349761
31
0.0000000000
11
39.4372020111
21
192.2365907019
31
0.0000000000
0
SPLINE
5
2DB
100
AcDbEntity
8
0
100
AcDbSpline
62
7
6
CONTINUOUS
70
0
71
3
72
8
73
4
74
2
42
0.0000001000
43
0.0000001000
44
0.0000000001
12
-0.6857495744
22
-0.0445968364
32
0.0000000000
13
-0.6860042191
23
-0.0401554156
33
0.0000000000
40
0.0000000000
40
0.0000000000
40
0.0000000000
40
0.0000000000
40
1.0000000000
40
1.0000000000
40
1.0000000000
40
1.0000000000
10
39.4372020111
20
192.2365907019
30
0.0000000000
10
39.2086188197
20
192.2217250897
30
0.0000000000
10
38.9799893606
20
192.2076116192
30
0.0000000000
10
38.7513212876
20
192.1942264806
30
0.0000000000
11
39.4372020111
21
192.2365907019
31
0.0000000000
11
38.7513212876
21
192.1942264806
31
0.0000000000
0
SPLINE
5
2DC
100
AcDbEntity
8
0
100
AcDbSpline
62
7
6
CONTINUOUS
70
0
71
3
72
24
73
20
74
18
42
0.0000001000
43
0.0000001000
44
0.0000000001
12
-0.0034414929
22
-13.9905742201
32
0.0000000000
13
13.8735978275
23
-1.5916067339
33
0.0000000000
40
0.0000000000
40
0.0000000000
40
0.0000000000
40
0.0000000000
40
0.0054044493
40
0.0195173372
40
0.0344057675
40
0.0505382725
40
0.0682744569
40
0.0878755611
40
0.1095270129
40
0.1333564209
40
0.1594413114
40
0.2185240174
40
0.2869259756
40
0.3645078664
40
0.4509891949
40
0.5459633435
40
0.6489501702
40
0.7593728375
40
1.0000000000
40
1.0000000000
40
1.0000000000
40
1.0000000000
10
5.0017711065
20
247.3838649971
30
0.0000000000
10
5.0017649067
20
247.3586612141
30
0.0000000000
10
5.0054235961
20
247.2676454057
30
0.0000000000
10
5.0354786484
20
247.1091950541
30
0.0000000000
10
5.1144182183
20
246.9132344232
30
0.0000000000
10
5.2339695689
20
246.7192592040
30
0.0000000000
10
5.3933378042
20
246.5272174931
30
0.0000000000
10
5.5920726328
20
246.3370364521
30
0.0000000000
10
5.8298756036
20
246.1487667422
30
0.0000000000
10
6.1064345450
20
245.9625630123
30
0.0000000000
10
6.5447920479
20
245.7065487532
30
0.0000000000
10
7.1906896898
20
245.3975785471
30
0.0000000000
10
8.0812545974
20
245.0523004220
30
0.0000000000
10
9.1117589684
20
244.7205108564
30
0.0000000000
10
10.2757200002
20
244.4044080186
30
0.0000000000
10
11.5659096214
20
244.1057682710
30
0.0000000000
10
12.9741827265
20
243.8265093818
30
0.0000000000
10
15.0578837049
20
243.4718602340
30
0.0000000000
10
16.6783923709
20
243.2564028266
30
0.0000000000
10
17.7911805304
20
243.1287415558
30
0.0000000000
11
5.0017711065
21
247.3838649971
31
0.0000000000
11
5.0048178706
21
247.3083425205
31
0.0000000000
11
5.0408136407
21
247.1145768499
31
0.0000000000
11
5.1172654799
21
246.9212324376
31
0.0000000000
11
5.2340989366
21
246.7286116131
31
0.0000000000
11
5.3910525412
21
246.5370123556
31
0.0000000000
11
5.5878180697
21
246.3467315564
31
0.0000000000
11
5.8240872982
21
246.1580661072
31
0.0000000000
11
6.0995083477
21
245.9713100694
31
0.0000000000
11
6.4135547182
21
245.7867461855
31
0.0000000000
11
7.1552428034
21
245.4253145289
31
0.0000000000
11
8.0442766504
21
245.0759769963
31
0.0000000000
11
9.0745266983
21
244.7408056855
31
0.0000000000
11
10.2393078221
21
244.4217945200
31
0.0000000000
11
11.5309672981
21
244.1207584904
31
0.0000000000
11
12.9413518052
21
243.8394282395
31
0.0000000000
11
14.4612732296
21
243.5793759534
31
0.0000000000
11
17.7911805304
21
243.1287415558
31
0.0000000000
0
SPLINE
5
2DD
100
AcDbEntity
8
0
100
AcDbSpline
62
7
6
CONTINUOUS
70
0
71
3
72
24
73
20
74
18
42
0.0000001000
43
0.0000001000
44
0.0000000001
12
-0.0034414929
22
13.9905742201
32
0.0000000000
13
13.8735978275
23
1.5916067339
33
0.0000000000
40
0.0000000000
40
0.0000000000
40
0.0000000000
40
0.0000000000
40
0.0054044493
40
0.0195173372
40
0.0344057675
40
0.0505382725
40
0.0682744569
40
0.0878755611
40
0.1095270129
40
0.1333564209
40
0.1594413114
40
0.2185240174
40
0.2869259756
40
0.3645078664
40
0.4509891949
40
0.5459633435
40
0.6489501702
40
0.7593728375
40
1.0000000000
40
1.0000000000
40
1.0000000000
40
1.0000000000
10
5.0017711065
20
197.0045879642
30
0.0000000000
10
5.0017649067
20
197.0297917472
30
0.0000000000
10
5.0054235961
20
197.1208075556
30
0.0000000000
10
5.0354786484
20
197.2792579071
30
0.0000000000
10
5.1144182183
20
197.4752185380
30
0.0000000000
10
5.2339695689
20
197.6691937573
30
0.0000000000
10
5.3933378042
20
197.8612354681
30
0.0000000000
10
5.5920726328
20
198.0514165092
30
0.0000000000
10
5.8298756036
20
198.2396862190
30
0.0000000000
10
6.1064345450
20
198.4258899490
30
0.0000000000
10
6.5447920479
20
198.6819042081
30
0.0000000000
10
7.1906896898
20
198.9908744141
30
0.0000000000
10
8.0812545974
20
199.3361525392
30
0.0000000000
10
9.1117589684
20
199.6679421049
30
0.0000000000
10
10.2757200002
20
199.9840449426
30
0.0000000000
10
11.5659096214
20
200.2826846903
30
0.0000000000
10
12.9741827265
20
200.5619435794
30
0.0000000000
10
15.0578837049
20
200.9165927273
30
0.0000000000
10
16.6783923709
20
201.1320501347
30
0.0000000000
10
17.7911805304
20
201.2597114054
30
0.0000000000
11
5.0017711065
21
197.0045879642
31
0.0000000000
11
5.0048178706
21
197.0801104407
31
0.0000000000
11
5.0408136407
21
197.2738761114
31
0.0000000000
11
5.1172654799
21
197.4672205237
31
0.0000000000
11
5.2340989366
21
197.6598413481
31
0.0000000000
11
5.3910525412
21
197.8514406057
31
0.0000000000
11
5.5878180697
21
198.0417214048
31
0.0000000000
11
5.8240872982
21
198.2303868541
31
0.0000000000
11
6.0995083477
21
198.4171428918
31
0.0000000000
11
6.4135547182
21
198.6017067757
31
0.0000000000
11
7.1552428034
21
198.9631384324
31
0.0000000000
11
8.0442766504
21
199.3124759649
31
0.0000000000
11
9.0745266983
21
199.6476472758
31
0.0000000000
11
10.2393078221
21
199.9666584412
31
0.0000000000
11
11.5309672981
21
200.2676944708
31
0.0000000000
11
12.9413518052
21
200.5490247218
31
0.0000000000
11
14.4612732296
21
200.8090770079
31
0.0000000000
11
17.7911805304
21
201.2597114054
31
0.0000000000
0
SPLINE
5
2DE
100
AcDbEntity
8
0
100
AcDbSpline
62
7
6
CONTINUOUS
70
0
71
3
72
8
73
4
74
2
42
0.0000001000
43
0.0000001000
44
0.0000000001
12
-0.6860042188
22
-0.0401554156
32
0.0000000000
13
-0.6857495740
23
-0.0445968369
33
0.0000000000
40
0.0000000000
40
0.0000000000
40
0.0000000000
40
0.0000000000
40
1.0000000000
40
1.0000000000
40
1.0000000000
40
1.0000000000
10
25.2520924047
20
252.1942264806
30
0.0000000000
10
25.0234243318
20
252.1808413421
30
0.0000000000
10
24.7947948728
20
252.1667278714
30
0.0000000000
10
24.5662116815
20
252.1518622591
30
0.0000000000
11
25.2520924047
21
252.1942264806
31
0.0000000000
11
24.5662116815
21
252.1518622591
31
0.0000000000
0
SPLINE
5
2DF
100
AcDbEntity
8
0
100
AcDbSpline
62
7
6
CONTINUOUS
70
0
71
3
72
24
73
20
74
18
42
0.0000001000
43
0.0000001000
44
0.0000000001
12
-18.2968786784
22
-1.1899138479
32
0.0000000000
13
-0.0027263846
23
-18.3633909059
33
0.0000000000
40
0.0000000000
40
0.0000000000
40
0.0000000000
40
0.0000000000
40
0.1535620779
40
0.3326947421
40
0.4165724875
40
0.4960406667
40
0.5706638066
40
0.6400485783
40
0.7038358836
40
0.7617296350
40
0.8134934759
40
0.8589990029
40
0.8982442669
40
0.9314565955
40
0.9459769972
40
0.9592522072
40
0.9827398849
40
0.9935362314
40
1.0000000000
40
1.0000000000
40
1.0000000000
40
1.0000000000
10
24.5662116815
20
252.1518622591
30
0.0000000000
10
23.6296427787
20
252.0909537115
30
0.0000000000
10
21.6022337911
20
251.9316383583
30
0.0000000000
10
19.0713410589
20
251.6483224735
30
0.0000000000
10
16.9999661000
20
251.3462411860
30
0.0000000000
10
15.5661641064
20
251.1014346160
30
0.0000000000
10
14.2264542701
20
250.8347018664
30
0.0000000000
10
12.9890897184
20
250.5476714310
30
0.0000000000
10
11.8617854184
20
250.2418848405
30
0.0000000000
10
10.8515697463
20
249.9193184899
30
0.0000000000
10
9.9647837126
20
249.5817362180
30
0.0000000000
10
9.2066018453
20
249.2313019264
30
0.0000000000
10
8.5815811077
20
248.8696802125
30
0.0000000000
10
8.1561715910
20
248.5470790454
30
0.0000000000
10
7.8931459561
20
248.2817364111
30
0.0000000000
10
7.6978649968
20
248.0363006038
30
0.0000000000
10
7.5603044682
20
247.7739862729
30
0.0000000000
10
7.5078777887
20
247.5291557978
30
0.0000000000
10
7.5017694630
20
247.4235014620
30
0.0000000000
10
7.5017635887
20
247.3839358920
30
0.0000000000
11
24.5662116815
21
252.1518622591
31
0.0000000000
11
21.7593615985
21
251.9296187467
31
0.0000000000
11
18.4959523915
21
251.5589017623
31
0.0000000000
11
16.9742880064
21
251.3360337316
31
0.0000000000
11
15.5382134543
21
251.0896950635
31
0.0000000000
11
14.1966030323
21
250.8211894330
31
0.0000000000
11
12.9577338481
21
250.5320185719
31
0.0000000000
11
11.8295430684
21
250.2237808197
31
0.0000000000
11
10.8192052862
21
249.8982628880
31
0.0000000000
11
9.9334606108
21
249.5573397101
31
0.0000000000
11
9.1780737909
21
249.2030507322
31
0.0000000000
11
8.5582766805
21
248.8375085245
31
0.0000000000
11
8.0781449134
21
248.4629536409
31
0.0000000000
11
7.8915963921
21
248.2730091076
31
0.0000000000
11
7.7411414898
21
248.0816785524
31
0.0000000000
11
7.5494350963
21
247.6960554156
31
0.0000000000
11
7.5086022536
21
247.5023615879
31
0.0000000000
11
7.5017635887
21
247.3839358920
31
0.0000000000
0
SPLINE
5
2E0
100
AcDbEntity
8
0
100
AcDbSpline
62
7
6
CONTINUOUS
70
0
71
3
72
16
73
12
74
10
42
0.0000001000
43
0.0000001000
44
0.0000000001
12
-0.7544059927
22
0.1378334681
32
0.0000000000
13
0.0000000000
23
0.7668940388
33
0.0000000000
40
0.0000000000
40
0.0000000000
40
0.0000000000
40
0.0000000000
40
0.2060960642
40
0.3927409565
40
0.5571101841
40
0.6969668905
40
0.8105623360
40
0.8972353524
40
0.9307442597
40
0.9582854663
40
1.0000000000
40
1.0000000000
40
1.0000000000
40
1.0000000000
10
46.2122331619
20
201.2592184326
30
0.0000000000
10
46.1604064600
20
201.2686874110
30
0.0000000000
10
46.0617610462
20
201.2873820465
30
0.0000000000
10
45.9223573482
20
201.3165823522
30
0.0000000000
10
45.8002881486
20
201.3457170940
30
0.0000000000
10
45.6974097417
20
201.3746407974
30
0.0000000000
10
45.6153354608
20
201.4034747847
30
0.0000000000
10
45.5609378142
20
201.4287780046
30
0.0000000000
10
45.5296779645
20
201.4503128120
30
0.0000000000
10
45.5105303001
20
201.4680939910
30
0.0000000000
10
45.5017068462
20
201.4854355398
30
0.0000000000
10
45.5017068462
20
201.4960990822
30
0.0000000000
11
46.2122331619
21
201.2592184326
31
0.0000000000
11
46.0569776937
21
201.2888285138
31
0.0000000000
11
45.9169369767
21
201.3184385950
31
0.0000000000
11
45.7944102500
21
201.3480486762
31
0.0000000000
11
45.6913232141
21
201.3776587574
31
0.0000000000
11
45.6093940797
21
201.4072688386
31
0.0000000000
11
45.5498846380
21
201.4368789198
31
0.0000000000
11
45.5288801924
21
201.4516839604
31
0.0000000000
11
45.5138164838
21
201.4664890010
31
0.0000000000
11
45.5017068462
21
201.4960990822
31
0.0000000000
0
SPLINE
5
2E1
100
AcDbEntity
8
0
100
AcDbSpline
62
7
6
CONTINUOUS
70
0
71
3
72
16
73
12
74
10
42
0.0000001000
43
0.0000001000
44
0.0000000001
12
0.0000000000
22
0.7668940388
32
0.0000000000
13
0.7544059927
23
0.1378334681
33
0.0000000000
40
0.0000000000
40
0.0000000000
40
0.0000000000
40
0.0000000000
40
0.0417145337
40
0.0692557403
40
0.1027646476
40
0.1894376640
40
0.3030331095
40
0.4428898159
40
0.6072590435
40
0.7939039358
40
1.0000000000
40
1.0000000000
40
1.0000000000
40
1.0000000000
10
45.5017068462
20
242.8923538790
30
0.0000000000
10
45.5017068462
20
242.9030174214
30
0.0000000000
10
45.5105303001
20
242.9203589702
30
0.0000000000
10
45.5296779645
20
242.9381401492
30
0.0000000000
10
45.5609378142
20
242.9596749567
30
0.0000000000
10
45.6153354608
20
242.9849781766
30
0.0000000000
10
45.6974097417
20
243.0138121639
30
0.0000000000
10
45.8002881486
20
243.0427358673
30
0.0000000000
10
45.9223573482
20
243.0718706090
30
0.0000000000
10
46.0617610462
20
243.1010709148
30
0.0000000000
10
46.1604064600
20
243.1197655502
30
0.0000000000
10
46.2122331619
20
243.1292345287
30
0.0000000000
11
45.5017068462
21
242.8923538790
31
0.0000000000
11
45.5138164838
21
242.9219639602
31
0.0000000000
11
45.5288801924
21
242.9367690008
31
0.0000000000
11
45.5498846380
21
242.9515740414
31
0.0000000000
11
45.6093940797
21
242.9811841226
31
0.0000000000
11
45.6913232141
21
243.0107942038
31
0.0000000000
11
45.7944102500
21
243.0404042851
31
0.0000000000
11
45.9169369767
21
243.0700143663
31
0.0000000000
11
46.0569776937
21
243.0996244475
31
0.0000000000
11
46.2122331619
21
243.1292345287
31
0.0000000000
0
ENDSEC
0
SECTION
2
OBJECTS
0
DICTIONARY
5
C
100
AcDbDictionary
280
0
281
1
3
ACAD_GROUP
350
D
3
ACAD_MLINESTYLE
350
17
3
ACAD_LAYOUT
350
1A
3
ACAD_PLOTSETTINGS
350
19
3
ACAD_PLOTSTYLENAME
350
E
0
DICTIONARY
5
D
102
{ACAD_REACTORS
330
C
102
}
100
AcDbDictionary
280
0
281
1
0
ACDBDICTIONARYWDFLT
5
E
102
{ACAD_REACTORS
330
C
102
}
100
AcDbDictionary
281
1
3
Normal
350
F
100
AcDbDictionaryWithDefault
340
F
0
DICTIONARY
5
17
102
{ACAD_REACTORS
330
C
102
}
100
AcDbDictionary
280
0
281
1
3
Standard
350
18
0
DICTIONARY
5
19
102
{ACAD_REACTORS
330
C
102
}
100
AcDbDictionary
281
1
0
DICTIONARY
5
1A
102
{ACAD_REACTORS
330
C
102
}
100
AcDbDictionary
281
1
3
Layout1
350
1E
3
Model
350
22
0
ACDBPLACEHOLDER
5
F
102
{ACAD_REACTORS
330
E
102
}
0
MLINESTYLE
5
18
102
{ACAD_REACTORS
330
17
102
}
100
AcDbMlineStyle
2
STANDARD
70
0
3

62
256
51
90.0
52
90.0
71
2
49
0.5
62
256
6
BYLAYER
49
-0.5
62
256
6
BYLAYER
0
LAYOUT
5
1E
102
{ACAD_REACTORS
330
1A
102
}
100
AcDbPlotSettings
1

2

4

6

40
0.0
41
0.0
42
0.0
43
0.0
44
0.0
45
0.0
46
0.0
47
0.0
48
0.0
49
0.0
140
0.0
141
0.0
142
1.0
143
1.0
70
0
72
0
73
0
74
0
7

75
0
147
1.0
148
0.0
149
0.0
100
AcDbLayout
1
Layout1
70
0
71
0
10
0.0
20
0.0
11
0.0
21
0.0
12
0.0
22
0.0
32
0.0
14
0.0
24
0.0
34
0.0
15
0.0
25
0.0
35
0.0
146
0.0
13
0.0
23
0.0
33
0.0
16
0.0
26
0.0
36
0.0
17
0.0
27
0.0
37
0.0
76
0
330
1B
331
0
345
0
346
0
0
LAYOUT
5
22
102
{ACAD_REACTORS
330
1A
102
}
100
AcDbPlotSettings
1

2

4

6

40
0.0
41
0.0
42
0.0
43
0.0
44
0.0
45
0.0
46
0.0
47
0.0
48
0.0
49
0.0
140
0.0
141
0.0
142
1.0
143
1.0
70
0
72
0
73
0
74
0
7

75
0
147
1.0
148
0.0
149
0.0
100
AcDbLayout
1
Model
70
0
71
0
10
0.0
20
0.0
11
0.0
21
0.0
12
0.0
22
0.0
32
0.0
14
0.0
24
0.0
34
0.0
15
0.0
25
0.0
35
0.0
146
0.0
13
0.0
23
0.0
33
0.0
16
0.0
26
0.0
36
0.0
17
0.0
27
0.0
37
0.0
76
0
330
1F
331
0
345
0
346
0
0
ENDSEC
0
EOF
