  0
SECTION
  2
HEADER
  9
$ACADVER
  1
AC1009
  9
$INSBASE
 10
0
 20
0
  9
$EXTMIN
 10
2027.945287727321
 20
-1601.04869242224
  9
$EXTMAX
 10
2237.945287727321
 20
-1304.04869242224
  9
$LIMMIN
 10
2027.945287727321
 20
-1601.04869242224
  9
$LIMMAX
 10
2237.945287727321
 20
-1304.04869242224
  9
$VIEWCTR
 10
10
 20
10
  9
$VIEWSIZE
 40
10
  9
$SNAPMODE
 70
0
  9
$SNAPUNIT
 10
1
 20
1
  9
$SNAPBASE
 10
0
 20
0
  9
$SNAPANG
 50
0
  9
$SNAPSTYLE
 70
0
  9
$SNAPISOPAIR
 70
0
  9
$GRIDMODE
 70
0
  9
$GRIDUNIT
 10
0
 20
0
  9
$ORTHOMODE
 70
0
  9
$REGENMODE
 70
1
  9
$FILLMODE
 70
1
  9
$QTEXTMODE
 70
0
  9
$DRAGMODE
 70
2
  9
$LTSCALE
 40
1
  9
$OSMODE
 70
0
  9
$ATTMODE
 70
1
  9
$TEXTSIZE
 40
3.5
  9
$TRACEWID
 40
0.5
  9
$TEXTSTYLE
  7
STANDARD
  9
$CLAYER
  8
0
  9
$CELTYPE
  6
BYLAYER
  9
$CECOLOR
 62
256
  9
$DIMSCALE
 40
1
  9
$DIMASZ
 40
0.18
  9
$DIMEXO
 40
0.0625
  9
$DIMDLI
 40
0.38
  9
$DIMRND
 40
0
  9
$DIMDLE
 40
0
  9
$DIMEXE
 40
0.18
  9
$DIMTP
 40
0
  9
$DIMTM
 40
0
  9
$DIMTXT
 40
0.18
  9
$DIMCEN
 40
0.09
  9
$DIMTSZ
 40
0
  9
$DIMTOL
 70
0
  9
$DIMLIM
 70
0
  9
$DIMTIH
 70
1
  9
$DIMTOH
 70
1
  9
$DIMSE1
 70
0
  9
$DIMSE2
 70
0
  9
$DIMTAD
 70
0
  9
$DIMZIN
 70
0
  9
$DIMBLK
  1

  9
$DIMASO
 70
1
  9
$DIMSHO
 70
1
  9
$DIMPOST
  1

  9
$DIMAPOST
  1

  9
$DIMALT
 70
0
  9
$DIMALTD
 70
2
  9
$DIMALTF
 40
25.4
  9
$DIMLFAC
 40
1
  9
$DIMTOFL
 70
0
  9
$DIMTVP
 40
0
  9
$DIMTIX
 70
0
  9
$DIMSOXD
 70
0
  9
$DIMSAH
 70
0
  9
$DIMBLK1
  1

  9
$DIMBLK2
  1

  9
$DIMSTYLE
  2
*UNNAMED
  9
$DIMCLRD
 70
0
  9
$DIMCLRE
 70
0
  9
$DIMCLRT
 70
0
  9
$DIMTFAC
 40
1
  9
$DIMGAP
 40
0.09
  9
$LUNITS
 70
2
  9
$LUPREC
 70
4
  9
$AXISMODE
 70
0
  9
$AXISUNIT
 10
0
 20
0
  9
$SKETCHINC
 40
0.1
  9
$FILLETRAD
 40
2
  9
$AUNITS
 70
0
  9
$AUPREC
 70
0
  9
$MENU
  1
ACAD
  9
$ELEVATION
 40
0
  9
$THICKNESS
 40
0
  9
$VIEWDIR
 10
0
 20
0
 30
1
  9
$LIMCHECK
 70
0
  9
$BLIPMODE
 70
1
  9
$CHAMFERA
 40
0
  9
$CHAMFERB
 40
0
  9
$FASTZOOM
 70
1
  9
$SKPOLY
 70
0
  9
$ANGBASE
 50
0
  9
$ANGDIR
 70
0
  9
$PDMODE
 70
0
  9
$PDSIZE
 40
0
  9
$PLINEWID
 40
0
  9
$COORDS
 70
2
  0
ENDSEC
  0
SECTION
  2
TABLES
  0
TABLE
  2
DIMSTYLE
 70
1
  0
DIMSTYLE
  2
DMST_1
 70
0
  3

  4

  5

  6

  7

 40
1
 41
1.066666666666667
 42
0.3333333333333333
 43
7
 44
0.3333333333333333
 45
0
 46
0
 47
0
 48
0
140
1.066666666666667
141
0
142
0
143
25.4
144
1
145
0
146
1
147
0.09
 71
0
 72
0
 73
0
 74
0
 75
0
 76
0
 77
1
 78
9
170
0
171
2
172
0
173
0
174
0
175
0
176
2
177
2
178
2
  0
ENDTAB
  0
TABLE
  2
LTYPE
 70
9
  0
LTYPE
  2
CONTINUOUS
 70
64
  3
Solid line
 72
65
 73
0
 40
0
  0
LTYPE
  2
BORDER
 70
64
  3
__ __ . __ __ .
 72
65
 73
6
 40
13.67763157894737
 49
3.907894736842105
 49
-1.953947368421053
 49
3.907894736842105
 49
-1.953947368421053
 49
0
 49
-1.953947368421053
  0
LTYPE
  2
CENTER
 70
64
  3
____ _ ____ _
 72
65
 73
4
 40
15.63157894736842
 49
9.769736842105264
 49
-1.953947368421053
 49
1.953947368421053
 49
-1.953947368421053
  0
LTYPE
  2
DASHDOT
 70
64
  3
__ . __ . __ .
 72
65
 73
4
 40
7.815789473684211
 49
3.907894736842105
 49
-1.953947368421053
 49
0
 49
-1.953947368421053
  0
LTYPE
  2
DASHED
 70
64
  3
__ __ __ __ __
 72
65
 73
2
 40
5.861842105263158
 49
3.907894736842105
 49
-1.953947368421053
  0
LTYPE
  2
DIVIDE
 70
64
  3
__ . . __ . . 
 72
65
 73
6
 40
9.769736842105264
 49
3.907894736842105
 49
-1.953947368421053
 49
0
 49
-1.953947368421053
 49
0
 49
-1.953947368421053
  0
LTYPE
  2
DOT
 70
64
  3
..............
 72
65
 73
4
 40
3.907894736842105
 49
0
 49
-1.953947368421053
 49
0
 49
-1.953947368421053
  0
LTYPE
  2
HIDDEN
 70
64
  3
_ _ _ _ _ _ _
 72
65
 73
2
 40
2.930921052631579
 49
1.953947368421053
 49
-0.9769736842105263
  0
LTYPE
  2
PHANTOM
 70
64
  3
_____ _ _ _____ _ _ 
 72
65
 73
6
 40
19.53947368421053
 49
9.769736842105264
 49
-1.953947368421053
 49
1.953947368421053
 49
-1.953947368421053
 49
1.953947368421053
 49
-1.953947368421053
  0
ENDTAB
  0
TABLE
  2
LAYER
 70
3
  0
LAYER
  2
1
 70
0
 62
7
  6
CONTINUOUS
  0
LAYER
  2
0
 70
0
 62
7
  6
CONTINUOUS
  0
ENDTAB
  0
TABLE
  2
STYLE
 70
4
  0
STYLE
  2
STANDARD
 70
0
 40
0
 41
1
 50
0
 71
0
 42
3.5
  3
txt
  4

  0
STYLE
  2
SIMPLEX
 70
0
 40
0
 41
1
 50
0
 71
0
 42
3.5
  3
simplex
  4

  0
STYLE
  2
COMPLEX
 70
0
 40
0
 41
1
 50
0
 71
0
 42
3.5
  3
complex
  4

  0
STYLE
  2
ITALIC
 70
0
 40
0
 41
1
 50
0
 71
0
 42
3.5
  3
italic
  4

  0
ENDTAB
  0
TABLE
  2
VIEW
 70
0
  0
ENDTAB
  0
ENDSEC
  0
SECTION
  2
BLOCKS
  0
BLOCK
  8
0
  2
TOP__1
 70
0
 10
2237.945287727321
 20
-1601.04869242224
 30
0
  0
LINE
  8
1
 62
2
 10
2237.945287727321
 20
-1304.04869242224
 30
0
 11
2027.945287727321
 21
-1304.04869242224
 31
0
  0
LINE
  8
1
 62
2
 10
2237.945287727321
 20
-1601.04869242224
 30
0
 11
2237.945287727321
 21
-1304.04869242224
 31
0
  0
LINE
  8
1
 62
2
 10
2027.945287727321
 20
-1601.04869242224
 30
0
 11
2237.945287727321
 21
-1601.04869242224
 31
0
  0
LINE
  8
1
 62
2
 10
2027.945287727321
 20
-1304.04869242224
 30
0
 11
2027.945287727321
 21
-1601.04869242224
 31
0
  0
LINE
  8
1
 62
7
 10
2032.945287727321
 20
-1596.04869242224
 30
0
 11
2032.945287727321
 21
-1309.04869242224
 31
0
  0
LINE
  8
1
 62
7
 10
2032.945287727321
 20
-1596.04869242224
 30
0
 11
2232.945287727321
 21
-1596.04869242224
 31
0
  0
LINE
  8
1
 62
7
 10
2232.945287727321
 20
-1309.04869242224
 30
0
 11
2032.945287727321
 21
-1309.04869242224
 31
0
  0
LINE
  8
1
 62
7
 10
2232.945287727321
 20
-1596.04869242224
 30
0
 11
2232.945287727321
 21
-1309.04869242224
 31
0
  0
TEXT
  8
1
 62
2
 10
2220.447996179265
 20
-1599.515839774862
 30
0
 40
2
  1
 UNI A/4
 41
0.9
  0
ENDBLK
  8
0
  0
BLOCK
  8
0
  2
FORMAT_A4
 70
0
 10
2263.21628987044
 20
-1561.72220668906
 30
0
  0
INSERT
  8
0
  2
TOP__1
 10
2237.945287727321
 20
-1601.04869242224
 30
0
  0
ENDBLK
  8
0
  0
BLOCK
  8
0
  2
TOP__2
 70
0
 10
2250.779773391651
 20
-1596.40358301563
 30
0
  0
INSERT
  8
0
  2
FORMAT_A4
 10
2263.21628987044
 20
-1561.72220668906
 30
0
  0
ENDBLK
  8
0
  0
BLOCK
  8
0
  2
TOP__3
 70
0
 10
2242.779450541661
 20
-1586.98509897715
 30
0
  0
INSERT
  8
0
  2
TOP__2
 10
2250.779773391651
 20
-1596.40358301563
 30
0
  0
ENDBLK
  8
0
  0
BLOCK
  8
1
  2
*D0
 70
1
 10
0
 20
0
 30
0
  0
LINE
  8
1
 62
2
 10
2054
 20
-1496.753912944253
 30
0
 11
2096
 21
-1496.753912944253
 31
0
  0
LINE
  8
1
 62
2
 10
2096
 20
-1503.275639394227
 30
0
 11
2096
 21
-1496.42057961092
 31
0
  0
LINE
  8
1
 62
2
 10
2054
 20
-1503.275639394227
 30
0
 11
2054
 21
-1496.42057961092
 31
0
  0
SOLID
  8
1
 62
2
 10
2054
 20
-1496.753912944253
 30
0
 11
2055.066666666667
 21
-1496.615246277587
 31
0
 12
2055.066666666667
 22
-1496.89257961092
 32
0
 13
2055.066666666667
 23
-1496.89257961092
 33
0
  0
SOLID
  8
1
 62
2
 10
2096
 20
-1496.753912944253
 30
0
 11
2094.933333333333
 21
-1496.89257961092
 31
0
 12
2094.933333333333
 22
-1496.615246277587
 32
0
 13
2094.933333333333
 23
-1496.615246277587
 33
0
  0
TEXT
  8
1
 62
2
 10
2074.2
 20
-1496.353912944253
 30
0
 40
1.066666666666667
  1
42
 41
0.9
  0
ENDBLK
  8
0
  0
BLOCK
  8
1
  2
*D1
 70
1
 10
0
 20
0
 30
0
  0
LINE
  8
1
 62
2
 10
2069
 20
-1530.399088396803
 30
0
 11
2081
 21
-1530.399088396803
 31
0
  0
LINE
  8
1
 62
2
 10
2081
 20
-1507.142306060893
 30
0
 11
2081
 21
-1530.732421730137
 31
0
  0
LINE
  8
1
 62
2
 10
2069
 20
-1507.142306060893
 30
0
 11
2069
 21
-1530.732421730137
 31
0
  0
SOLID
  8
1
 62
2
 10
2069
 20
-1530.399088396803
 30
0
 11
2070.066666666667
 21
-1530.260421730137
 31
0
 12
2070.066666666667
 22
-1530.53775506347
 32
0
 13
2070.066666666667
 23
-1530.53775506347
 33
0
  0
SOLID
  8
1
 62
2
 10
2081
 20
-1530.399088396803
 30
0
 11
2079.933333333333
 21
-1530.53775506347
 31
0
 12
2079.933333333333
 22
-1530.260421730137
 32
0
 13
2079.933333333333
 23
-1530.260421730137
 33
0
  0
TEXT
  8
1
 62
2
 10
2074.36
 20
-1529.999088396803
 30
0
 40
1.066666666666667
  1
12
 41
0.9
  0
ENDBLK
  8
0
  0
BLOCK
  8
1
  2
*D2
 70
1
 10
0
 20
0
 30
0
  0
LINE
  8
1
 62
2
 10
2073.1
 20
-1526.142403203577
 30
0
 11
2076.9
 21
-1526.142403203577
 31
0
  0
LINE
  8
1
 62
2
 10
2073.1
 20
-1518.942306060893
 30
0
 11
2073.1
 21
-1526.47573653691
 31
0
  0
LINE
  8
1
 62
2
 10
2076.9
 20
-1518.942306060893
 30
0
 11
2076.9
 21
-1526.47573653691
 31
0
  0
SOLID
  8
1
 62
2
 10
2073.1
 20
-1526.142403203577
 30
0
 11
2074.166666666667
 21
-1526.00373653691
 31
0
 12
2074.166666666667
 22
-1526.281069870243
 32
0
 13
2074.166666666667
 23
-1526.281069870243
 33
0
  0
SOLID
  8
1
 62
2
 10
2076.9
 20
-1526.142403203577
 30
0
 11
2075.833333333334
 21
-1526.281069870243
 31
0
 12
2075.833333333334
 22
-1526.00373653691
 32
0
 13
2075.833333333334
 23
-1526.00373653691
 33
0
  0
TEXT
  8
1
 62
2
 10
2074.013333333333
 20
-1525.63573653691
 30
0
 40
1.066666666666667
  1
3,8
 41
0.9
  0
ENDBLK
  8
0
  0
BLOCK
  8
1
  2
*D3
 70
1
 10
0
 20
0
 30
0
  0
LINE
  8
1
 62
2
 10
2099.502419525953
 20
-1508.10897272756
 30
0
 11
2099.502419525953
 21
-1503.10897272756
 31
0
  0
LINE
  8
1
 62
2
 10
2095.833333333334
 20
-1503.10897272756
 30
0
 11
2099.835752859287
 21
-1503.10897272756
 31
0
  0
LINE
  8
1
 62
2
 10
2096.333333333334
 20
-1508.10897272756
 30
0
 11
2099.835752859287
 21
-1508.10897272756
 31
0
  0
SOLID
  8
1
 62
2
 10
2099.502419525953
 20
-1508.10897272756
 30
0
 11
2099.363752859287
 21
-1507.042306060894
 31
0
 12
2099.64108619262
 22
-1507.042306060894
 32
0
 13
2099.64108619262
 23
-1507.042306060894
 33
0
  0
SOLID
  8
1
 62
2
 10
2099.502419525953
 20
-1503.10897272756
 30
0
 11
2099.64108619262
 21
-1504.175639394227
 31
0
 12
2099.363752859287
 22
-1504.175639394227
 32
0
 13
2099.363752859287
 23
-1504.175639394227
 33
0
  0
TEXT
  8
1
 62
2
 10
2099.102419525953
 20
-1505.92897272756
 30
0
 40
1.066666666666667
  1
5
 50
90
 41
0.9
  0
ENDBLK
  8
0
  0
BLOCK
  8
1
  2
*D4
 70
1
 10
0
 20
0
 30
0
  0
LINE
  8
1
 62
2
 10
2103.270679176634
 20
-1520.10897272756
 30
0
 11
2103.270679176634
 21
-1503.10897272756
 31
0
  0
LINE
  8
1
 62
2
 10
2095.833333333334
 20
-1503.10897272756
 30
0
 11
2103.604012509967
 21
-1503.10897272756
 31
0
  0
LINE
  8
1
 62
2
 10
2079.9354470043
 20
-1520.10897272756
 30
0
 11
2103.604012509967
 21
-1520.10897272756
 31
0
  0
SOLID
  8
1
 62
2
 10
2103.270679176634
 20
-1503.10897272756
 30
0
 11
2103.4093458433
 21
-1504.175639394227
 31
0
 12
2103.132012509967
 22
-1504.175639394227
 32
0
 13
2103.132012509967
 23
-1504.175639394227
 33
0
  0
SOLID
  8
1
 62
2
 10
2103.270679176634
 20
-1520.10897272756
 30
0
 11
2103.132012509967
 21
-1519.042306060894
 31
0
 12
2103.4093458433
 22
-1519.042306060894
 32
0
 13
2103.4093458433
 23
-1519.042306060894
 33
0
  0
TEXT
  8
1
 62
2
 10
2102.870679176634
 20
-1512.24897272756
 30
0
 40
1.066666666666667
  1
17
 50
90
 41
0.9
  0
ENDBLK
  8
0
  0
BLOCK
  8
0
  2
_2__S
 70
0
 10
2075.983262915271
 20
-1488.058956726266
 30
0
  0
LINE
  8
1
 62
7
 10
2054.5
 20
-1503.10897272756
 30
0
 11
2075
 21
-1503.10897272756
 31
0
  0
LINE
  8
1
 62
7
 10
2073.5
 20
-1507.60897272756
 30
0
 11
2075
 21
-1507.60897272756
 31
0
  0
LINE
  8
1
 62
7
 10
2068.099595955702
 20
-1506.80897272756
 30
0
 11
2058.277123820754
 21
-1506.80897272756
 31
0
  0
LINE
  8
1
 62
7
 10
2057.853124668751
 20
-1507.043973257559
 30
0
 11
2057.623190045482
 21
-1507.411868654788
 31
0
  0
LINE
  8
1
 62
7
 10
2057.269901571598
 20
-1507.641843931617
 30
0
 11
2054.570710678119
 21
-1508.027442630686
 31
0
  0
LINE
  8
1
 62
7
 10
2054
 20
-1507.532467883855
 30
0
 11
2054
 21
-1503.60897272756
 31
0
  0
LINE
  8
1
 62
7
 10
2075
 20
-1503.10897272756
 30
0
 11
2095.5
 21
-1503.10897272756
 31
0
  0
LINE
  8
1
 62
2
  6
DASHDOT
 10
2075
 20
-1502.65235813487
 30
0
 11
2075
 21
-1520.95235813487
 31
0
  0
LINE
  8
1
 62
7
 10
2075
 20
-1507.60897272756
 30
0
 11
2076.5
 21
-1507.60897272756
 31
0
  0
LINE
  8
1
 62
7
 10
2091.722876179246
 20
-1506.80897272756
 30
0
 11
2081.900404044298
 21
-1506.80897272756
 31
0
  0
LINE
  8
1
 62
7
 10
2092.376809954518
 20
-1507.411868654788
 30
0
 11
2092.146875331249
 21
-1507.043973257559
 31
0
  0
LINE
  8
1
 62
7
 10
2095.429289321881
 20
-1508.027442630686
 30
0
 11
2092.730098428402
 21
-1507.641843931617
 31
0
  0
LINE
  8
1
 62
7
 10
2077.838516480713
 20
-1520.10897272756
 30
0
 11
2078.25150760452
 21
-1520.10897272756
 31
0
  0
LINE
  8
1
 62
7
 10
2076.9
 20
-1518.60897272756
 30
0
 11
2077.039916076848
 21
-1507.602241348872
 31
0
  0
LINE
  8
1
 62
7
 10
2096
 20
-1503.60897272756
 30
0
 11
2096
 21
-1507.532467883855
 31
0
  0
LINE
  8
1
 62
7
 10
2080.90588214893
 20
-1507.704444264293
 30
0
 11
2079.743290447572
 21
-1518.765765422462
 31
0
  0
LINE
  8
1
 62
7
 10
2071.74849239548
 20
-1520.10897272756
 30
0
 11
2072.161483519287
 21
-1520.10897272756
 31
0
  0
LINE
  8
1
 62
7
 10
2070.256709552428
 20
-1518.765765422462
 30
0
 11
2069.09411785107
 21
-1507.704444264293
 31
0
  0
LINE
  8
1
 62
7
 10
2077.374278135271
 20
-1519.794668065737
 30
0
 11
2076.9
 21
-1518.60897272756
 31
0
  0
LINE
  8
1
 62
7
 10
2072.960083923152
 20
-1507.602241348873
 30
0
 11
2073.1
 21
-1518.60897272756
 31
0
  0
LINE
  8
1
 62
7
 10
2073.1
 20
-1518.60897272756
 30
0
 11
2072.625721864729
 21
-1519.794668065737
 31
0
  0
LINE
  8
1
 62
2
  6
DASHED
 10
2077.5
 20
-1520.10897272756
 30
0
 11
2077.361164714515
 21
-1519.761884513848
 31
0
  0
LINE
  8
1
 62
2
  6
DASHED
 10
2077.5
 20
-1520.10897272756
 30
0
 11
2077.838516480713
 21
-1520.10897272756
 31
0
  0
LINE
  8
1
 62
2
  6
DASHED
 10
2079.602113670966
 20
-1520.10897272756
 30
0
 11
2079.770131384406
 21
-1518.510390967131
 31
0
  0
LINE
  8
1
 62
2
  6
DASHED
 10
2079.602113670966
 20
-1520.10897272756
 30
0
 11
2078.25150760452
 21
-1520.10897272756
 31
0
  0
LINE
  8
1
 62
2
  6
DASHED
 10
2081
 20
-1506.80897272756
 30
0
 11
2081.99750899937
 21
-1506.80897272756
 31
0
  0
LINE
  8
1
 62
2
  6
DASHED
 10
2081
 20
-1506.80897272756
 30
0
 11
2080.90588214893
 21
-1507.704444264293
 31
0
  0
LINE
  8
1
 62
2
  6
DASHED
 10
2091.999999999999
 20
-1506.80897272756
 30
0
 11
2091.69261113914
 21
-1506.80897272756
 31
0
  0
LINE
  8
1
 62
2
  6
DASHED
 10
2091.999999999999
 20
-1506.80897272756
 30
0
 11
2092.146875331248
 21
-1507.043973257557
 31
0
  0
LINE
  8
1
 62
2
  6
DASHED
 10
2092.500000000001
 20
-1507.60897272756
 30
0
 11
2092.352723065036
 21
-1507.373329631616
 31
0
  0
LINE
  8
1
 62
2
  6
DASHED
 10
2092.500000000001
 20
-1507.60897272756
 30
0
 11
2092.788769548445
 21
-1507.650225520195
 31
0
  0
LINE
  8
1
 62
2
  6
DASHED
 10
2096
 20
-1508.10897272756
 30
0
 11
2096
 21
-1507.532467883855
 31
0
  0
LINE
  8
1
 62
2
  6
DASHED
 10
2096
 20
-1508.10897272756
 30
0
 11
2095.356100405603
 21
-1508.016987071218
 31
0
  0
LINE
  8
1
 62
2
  6
DASHED
 10
2068.00249100063
 20
-1506.80897272756
 30
0
 11
2069
 21
-1506.80897272756
 31
0
  0
LINE
  8
1
 62
2
  6
DASHED
 10
2069.09411785107
 20
-1507.704444264293
 30
0
 11
2069
 21
-1506.80897272756
 31
0
  0
LINE
  8
1
 62
7
 10
2057.853124668751
 20
-1507.043973257559
 30
0
 11
2057.623190045482
 21
-1507.411868654788
 31
0
  0
LINE
  8
1
 62
7
 10
2057.269901571598
 20
-1507.641843931617
 30
0
 11
2054.570710678119
 21
-1508.027442630686
 31
0
  0
LINE
  8
1
 62
2
  6
DASHED
 10
2058.30738886086
 20
-1506.80897272756
 30
0
 11
2058.000000000001
 21
-1506.80897272756
 31
0
  0
LINE
  8
1
 62
2
  6
DASHED
 10
2057.853124668752
 20
-1507.043973257557
 30
0
 11
2058.000000000001
 21
-1506.80897272756
 31
0
  0
LINE
  8
1
 62
2
  6
DASHED
 10
2057.647276934964
 20
-1507.373329631616
 30
0
 11
2057.499999999999
 21
-1507.60897272756
 31
0
  0
LINE
  8
1
 62
2
  6
DASHED
 10
2057.211230451555
 20
-1507.650225520195
 30
0
 11
2057.499999999999
 21
-1507.60897272756
 31
0
  0
LINE
  8
1
 62
2
  6
DASHED
 10
2054
 20
-1507.532467883855
 30
0
 11
2054
 21
-1508.10897272756
 31
0
  0
LINE
  8
1
 62
2
  6
DASHED
 10
2054.643899594397
 20
-1508.016987071218
 30
0
 11
2054
 21
-1508.10897272756
 31
0
  0
LINE
  8
1
 62
7
 10
2071.74849239548
 20
-1520.10897272756
 30
0
 11
2072.161483519287
 21
-1520.10897272756
 31
0
  0
LINE
  8
1
 62
2
  6
DASHED
 10
2072.638835285485
 20
-1519.761884513848
 30
0
 11
2072.5
 21
-1520.10897272756
 31
0
  0
LINE
  8
1
 62
2
  6
DASHED
 10
2072.161483519287
 20
-1520.10897272756
 30
0
 11
2072.5
 21
-1520.10897272756
 31
0
  0
LINE
  8
1
 62
2
  6
DASHED
 10
2070.229868615594
 20
-1518.510390967131
 30
0
 11
2070.397886329034
 21
-1520.10897272756
 31
0
  0
LINE
  8
1
 62
2
  6
DASHED
 10
2071.74849239548
 20
-1520.10897272756
 30
0
 11
2070.397886329034
 21
-1520.10897272756
 31
0
  0
ARC
  8
1
 62
7
 10
2073.23
 20
-1507.60897272756
 30
0
 40
0.2699999999999818
 50
0
 51
178.5714090597833
  0
ARC
  8
1
 62
7
 10
2076.77
 20
-1507.60897272756
 30
0
 40
0.2700000000000556
 50
1.428590940409643
 51
180
  0
ARC
  8
1
 62
7
 10
2054.5
 20
-1507.532467883855
 30
0
 40
0.5
 50
180
 51
278.1301023542113
  0
ARC
  8
1
 62
7
 10
2054.5
 20
-1503.60897272756
 30
0
 40
0.5
 50
90
 51
180
  0
ARC
  8
1
 62
7
 10
2057.19919089348
 20
-1507.146869184787
 30
0
 40
0.4999999999992484
 50
278.1301023540749
 51
327.9946167919276
  0
ARC
  8
1
 62
7
 10
2058.277123820754
 20
-1507.30897272756
 30
0
 40
0.5
 50
90
 51
147.9946167919607
  0
ARC
  8
1
 62
7
 10
2095.5
 20
-1507.532467883855
 30
0
 40
0.5000000000005668
 50
261.8698976457887
 51
0
  0
ARC
  8
1
 62
7
 10
2095.5
 20
-1503.60897272756
 30
0
 40
0.5
 50
0
 51
90
  0
ARC
  8
1
 62
7
 10
2092.80080910652
 20
-1507.146869184787
 30
0
 40
0.4999999999989093
 50
212.0053832080724
 51
261.8698976459251
  0
ARC
  8
1
 62
7
 10
2091.722876179246
 20
-1507.30897272756
 30
0
 40
0.499999999999801
 50
32.00538320803931
 51
90
  0
ARC
  8
1
 62
7
 10
2081.900404044298
 20
-1507.80897272756
 30
0
 40
1
 50
90
 51
174.0000000000293
  0
ARC
  8
1
 62
7
 10
2078.25150760452
 20
-1518.60897272756
 30
0
 40
1.5
 50
270
 51
353.9999999999801
  0
ARC
  8
1
 62
7
 10
2071.74849239548
 20
-1518.60897272756
 30
0
 40
1.499999999999264
 50
186.00000000002
 51
270
  0
ARC
  8
1
 62
7
 10
2068.099595955702
 20
-1507.80897272756
 30
0
 40
0.9999999999997239
 50
5.99999999997067
 51
90
  0
ARC
  8
1
 62
7
 10
2077.838516480713
 20
-1519.60897272756
 30
0
 40
0.4999999999993677
 50
201.8014094863567
 51
270
  0
ARC
  8
1
 62
7
 10
2072.161483519287
 20
-1519.60897272756
 30
0
 40
0.5
 50
270
 51
338.1985905136433
  0
ARC
  8
1
 62
7
 10
2068.099595955702
 20
-1507.80897272756
 30
0
 40
0.9999999999997239
 50
5.99999999997067
 51
90
  0
ARC
  8
1
 62
7
 10
2054.5
 20
-1507.532467883855
 30
0
 40
0.5
 50
180
 51
278.1301023542113
  0
ARC
  8
1
 62
7
 10
2057.19919089348
 20
-1507.146869184787
 30
0
 40
0.4999999999992484
 50
278.1301023540749
 51
327.9946167919276
  0
ARC
  8
1
 62
7
 10
2058.277123820754
 20
-1507.30897272756
 30
0
 40
0.5
 50
90
 51
147.9946167919607
  0
ARC
  8
1
 62
7
 10
2071.74849239548
 20
-1518.60897272756
 30
0
 40
1.499999999999264
 50
186.00000000002
 51
270
  0
ARC
  8
1
 62
7
 10
2072.161483519287
 20
-1519.60897272756
 30
0
 40
0.5
 50
270
 51
338.1985905136433
  0
DIMENSION
  8
1
  6
CONTINUOUS
 62
2
  2
*D0
  3
DMST_1
 10
2096
 20
-1496.753912944253
 30
0
 11
2075
 21
-1495.82057961092
 31
0
 12
0
 22
0
 32
0
 70
0
 13
2054
 23
-1503.60897272756
 33
0
 14
2096
 24
-1503.60897272756
 34
0
 53
0
  0
DIMENSION
  8
1
  6
CONTINUOUS
 62
2
  2
*D1
  3
DMST_1
 10
2081
 20
-1530.399088396803
 30
0
 11
2075
 21
-1529.46575506347
 31
0
 12
0
 22
0
 32
0
 70
0
 13
2069
 23
-1506.80897272756
 33
0
 14
2081
 24
-1506.80897272756
 34
0
 53
0
  0
DIMENSION
  8
1
  6
CONTINUOUS
 62
2
  2
*D2
  3
DMST_1
 10
2073.1
 20
-1526.142403203577
 30
0
 11
2075
 21
-1525.15573653691
 31
0
 12
0
 22
0
 32
0
 70
0
 13
2076.9
 23
-1518.60897272756
 33
0
 14
2073.1
 24
-1518.60897272756
 34
0
 53
0
  0
DIMENSION
  8
1
  6
CONTINUOUS
 62
2
  2
*D3
  3
DMST_1
 10
2099.502419525953
 20
-1503.10897272756
 30
0
 11
2098.56908619262
 21
-1505.60897272756
 31
0
 12
0
 22
0
 32
0
 70
0
 13
2096
 23
-1508.10897272756
 33
0
 14
2095.5
 24
-1503.10897272756
 34
0
 50
90
 53
0
  0
DIMENSION
  8
1
  6
CONTINUOUS
 62
2
  2
*D4
  3
DMST_1
 10
2103.270679176634
 20
-1503.10897272756
 30
0
 11
2102.3373458433
 21
-1511.60897272756
 31
0
 12
0
 22
0
 32
0
 70
0
 13
2079.602113670966
 23
-1520.10897272756
 33
0
 14
2095.5
 24
-1503.10897272756
 34
0
 50
90
 53
0
  0
ENDBLK
  8
0
  0
ENDSEC
  0
SECTION
  2
ENTITIES
  0
LINE
  8
1
 62
7
 10
2064.5
 20
-1539.10897272756
 30
0
 11
2085
 21
-1539.10897272756
 31
0
  0
LINE
  8
1
 62
7
 10
2083.5
 20
-1543.60897272756
 30
0
 11
2085
 21
-1543.60897272756
 31
0
  0
LINE
  8
1
 62
7
 10
2078.099595955702
 20
-1542.80897272756
 30
0
 11
2068.277123820754
 21
-1542.80897272756
 31
0
  0
LINE
  8
1
 62
7
 10
2067.853124668751
 20
-1543.043973257559
 30
0
 11
2067.623190045482
 21
-1543.411868654788
 31
0
  0
LINE
  8
1
 62
7
 10
2067.269901571598
 20
-1543.641843931617
 30
0
 11
2064.570710678119
 21
-1544.027442630686
 31
0
  0
LINE
  8
1
 62
7
 10
2064
 20
-1543.532467883855
 30
0
 11
2064
 21
-1539.60897272756
 31
0
  0
LINE
  8
1
 62
7
 10
2085
 20
-1539.10897272756
 30
0
 11
2105.5
 21
-1539.10897272756
 31
0
  0
LINE
  8
1
 62
2
  6
DASHDOT
 10
2085
 20
-1536.65235813487
 30
0
 11
2085
 21
-1559.95235813487
 31
0
  0
LINE
  8
1
 62
7
 10
2085
 20
-1543.60897272756
 30
0
 11
2086.5
 21
-1543.60897272756
 31
0
  0
LINE
  8
1
 62
7
 10
2101.722876179246
 20
-1542.80897272756
 30
0
 11
2091.900404044298
 21
-1542.80897272756
 31
0
  0
LINE
  8
1
 62
7
 10
2102.376809954518
 20
-1543.411868654788
 30
0
 11
2102.146875331249
 21
-1543.043973257559
 31
0
  0
LINE
  8
1
 62
7
 10
2105.429289321881
 20
-1544.027442630686
 30
0
 11
2102.730098428402
 21
-1543.641843931617
 31
0
  0
LINE
  8
1
 62
7
 10
2087.838516480713
 20
-1556.10897272756
 30
0
 11
2088.25150760452
 21
-1556.10897272756
 31
0
  0
LINE
  8
1
 62
7
 10
2086.9
 20
-1554.60897272756
 30
0
 11
2087.039916076848
 21
-1543.602241348872
 31
0
  0
LINE
  8
1
 62
7
 10
2106
 20
-1539.60897272756
 30
0
 11
2106
 21
-1543.532467883855
 31
0
  0
LINE
  8
1
 62
7
 10
2090.90588214893
 20
-1543.704444264293
 30
0
 11
2089.743290447572
 21
-1554.765765422462
 31
0
  0
LINE
  8
1
 62
7
 10
2081.74849239548
 20
-1556.10897272756
 30
0
 11
2082.161483519287
 21
-1556.10897272756
 31
0
  0
LINE
  8
1
 62
7
 10
2080.256709552428
 20
-1554.765765422462
 30
0
 11
2079.09411785107
 21
-1543.704444264293
 31
0
  0
LINE
  8
1
 62
7
 10
2087.374278135271
 20
-1555.794668065737
 30
0
 11
2086.9
 21
-1554.60897272756
 31
0
  0
LINE
  8
1
 62
7
 10
2082.960083923152
 20
-1543.602241348873
 30
0
 11
2083.1
 21
-1554.60897272756
 31
0
  0
LINE
  8
1
 62
7
 10
2083.1
 20
-1554.60897272756
 30
0
 11
2082.625721864729
 21
-1555.794668065737
 31
0
  0
LINE
  8
1
 62
2
  6
DASHED
 10
2087.5
 20
-1556.10897272756
 30
0
 11
2087.361164714515
 21
-1555.761884513848
 31
0
  0
LINE
  8
1
 62
2
  6
DASHED
 10
2087.5
 20
-1556.10897272756
 30
0
 11
2087.838516480713
 21
-1556.10897272756
 31
0
  0
LINE
  8
1
 62
2
  6
DASHED
 10
2089.602113670966
 20
-1556.10897272756
 30
0
 11
2089.770131384406
 21
-1554.510390967131
 31
0
  0
LINE
  8
1
 62
2
  6
DASHED
 10
2089.602113670966
 20
-1556.10897272756
 30
0
 11
2088.25150760452
 21
-1556.10897272756
 31
0
  0
LINE
  8
1
 62
2
  6
DASHED
 10
2091
 20
-1542.80897272756
 30
0
 11
2091.99750899937
 21
-1542.80897272756
 31
0
  0
LINE
  8
1
 62
2
  6
DASHED
 10
2091
 20
-1542.80897272756
 30
0
 11
2090.90588214893
 21
-1543.704444264293
 31
0
  0
LINE
  8
1
 62
2
  6
DASHED
 10
2101.999999999999
 20
-1542.80897272756
 30
0
 11
2101.69261113914
 21
-1542.80897272756
 31
0
  0
LINE
  8
1
 62
2
  6
DASHED
 10
2101.999999999999
 20
-1542.80897272756
 30
0
 11
2102.146875331248
 21
-1543.043973257557
 31
0
  0
LINE
  8
1
 62
2
  6
DASHED
 10
2102.500000000001
 20
-1543.60897272756
 30
0
 11
2102.352723065036
 21
-1543.373329631616
 31
0
  0
LINE
  8
1
 62
2
  6
DASHED
 10
2102.500000000001
 20
-1543.60897272756
 30
0
 11
2102.788769548445
 21
-1543.650225520195
 31
0
  0
LINE
  8
1
 62
2
  6
DASHED
 10
2106
 20
-1544.10897272756
 30
0
 11
2106
 21
-1543.532467883855
 31
0
  0
LINE
  8
1
 62
2
  6
DASHED
 10
2106
 20
-1544.10897272756
 30
0
 11
2105.356100405603
 21
-1544.016987071218
 31
0
  0
LINE
  8
1
 62
2
  6
DASHED
 10
2078.00249100063
 20
-1542.80897272756
 30
0
 11
2079
 21
-1542.80897272756
 31
0
  0
LINE
  8
1
 62
2
  6
DASHED
 10
2079.09411785107
 20
-1543.704444264293
 30
0
 11
2079
 21
-1542.80897272756
 31
0
  0
LINE
  8
1
 62
7
 10
2067.853124668751
 20
-1543.043973257559
 30
0
 11
2067.623190045482
 21
-1543.411868654788
 31
0
  0
LINE
  8
1
 62
7
 10
2067.269901571598
 20
-1543.641843931617
 30
0
 11
2064.570710678119
 21
-1544.027442630686
 31
0
  0
LINE
  8
1
 62
2
  6
DASHED
 10
2068.30738886086
 20
-1542.80897272756
 30
0
 11
2068.000000000001
 21
-1542.80897272756
 31
0
  0
LINE
  8
1
 62
2
  6
DASHED
 10
2067.853124668752
 20
-1543.043973257557
 30
0
 11
2068.000000000001
 21
-1542.80897272756
 31
0
  0
LINE
  8
1
 62
2
  6
DASHED
 10
2067.647276934964
 20
-1543.373329631616
 30
0
 11
2067.499999999999
 21
-1543.60897272756
 31
0
  0
LINE
  8
1
 62
2
  6
DASHED
 10
2067.211230451555
 20
-1543.650225520195
 30
0
 11
2067.499999999999
 21
-1543.60897272756
 31
0
  0
LINE
  8
1
 62
2
  6
DASHED
 10
2064
 20
-1543.532467883855
 30
0
 11
2064
 21
-1544.10897272756
 31
0
  0
LINE
  8
1
 62
2
  6
DASHED
 10
2064.643899594397
 20
-1544.016987071218
 30
0
 11
2064
 21
-1544.10897272756
 31
0
  0
LINE
  8
1
 62
7
 10
2081.74849239548
 20
-1556.10897272756
 30
0
 11
2082.161483519287
 21
-1556.10897272756
 31
0
  0
LINE
  8
1
 62
2
  6
DASHED
 10
2082.638835285485
 20
-1555.761884513848
 30
0
 11
2082.5
 21
-1556.10897272756
 31
0
  0
LINE
  8
1
 62
2
  6
DASHED
 10
2082.161483519287
 20
-1556.10897272756
 30
0
 11
2082.5
 21
-1556.10897272756
 31
0
  0
LINE
  8
1
 62
2
  6
DASHED
 10
2080.229868615594
 20
-1554.510390967131
 30
0
 11
2080.397886329034
 21
-1556.10897272756
 31
0
  0
LINE
  8
1
 62
2
  6
DASHED
 10
2081.74849239548
 20
-1556.10897272756
 30
0
 11
2080.397886329034
 21
-1556.10897272756
 31
0
  0
ARC
  8
1
 62
7
 10
2083.23
 20
-1543.60897272756
 30
0
 40
0.2699999999999818
 50
0
 51
178.5714090597833
  0
ARC
  8
1
 62
7
 10
2086.77
 20
-1543.60897272756
 30
0
 40
0.2700000000000556
 50
1.428590940409643
 51
180
  0
ARC
  8
1
 62
7
 10
2064.5
 20
-1543.532467883855
 30
0
 40
0.5
 50
180
 51
278.1301023542113
  0
ARC
  8
1
 62
7
 10
2064.5
 20
-1539.60897272756
 30
0
 40
0.5
 50
90
 51
180
  0
ARC
  8
1
 62
7
 10
2067.19919089348
 20
-1543.146869184787
 30
0
 40
0.4999999999992484
 50
278.1301023540749
 51
327.9946167919276
  0
ARC
  8
1
 62
7
 10
2068.277123820754
 20
-1543.30897272756
 30
0
 40
0.5
 50
90
 51
147.9946167919607
  0
ARC
  8
1
 62
7
 10
2105.5
 20
-1543.532467883855
 30
0
 40
0.5000000000005668
 50
261.8698976457887
 51
0
  0
ARC
  8
1
 62
7
 10
2105.5
 20
-1539.60897272756
 30
0
 40
0.5
 50
0
 51
90
  0
ARC
  8
1
 62
7
 10
2102.80080910652
 20
-1543.146869184787
 30
0
 40
0.4999999999989093
 50
212.0053832080724
 51
261.8698976459251
  0
ARC
  8
1
 62
7
 10
2101.722876179246
 20
-1543.30897272756
 30
0
 40
0.499999999999801
 50
32.00538320803931
 51
90
  0
ARC
  8
1
 62
7
 10
2091.900404044298
 20
-1543.80897272756
 30
0
 40
1
 50
90
 51
174.0000000000293
  0
ARC
  8
1
 62
7
 10
2088.25150760452
 20
-1554.60897272756
 30
0
 40
1.5
 50
270
 51
353.9999999999801
  0
ARC
  8
1
 62
7
 10
2081.74849239548
 20
-1554.60897272756
 30
0
 40
1.499999999999264
 50
186.00000000002
 51
270
  0
ARC
  8
1
 62
7
 10
2078.099595955702
 20
-1543.80897272756
 30
0
 40
0.9999999999997239
 50
5.99999999997067
 51
90
  0
ARC
  8
1
 62
7
 10
2087.838516480713
 20
-1555.60897272756
 30
0
 40
0.4999999999993677
 50
201.8014094863567
 51
270
  0
ARC
  8
1
 62
7
 10
2082.161483519287
 20
-1555.60897272756
 30
0
 40
0.5
 50
270
 51
338.1985905136433
  0
ARC
  8
1
 62
7
 10
2078.099595955702
 20
-1543.80897272756
 30
0
 40
0.9999999999997239
 50
5.99999999997067
 51
90
  0
ARC
  8
1
 62
7
 10
2064.5
 20
-1543.532467883855
 30
0
 40
0.5
 50
180
 51
278.1301023542113
  0
ARC
  8
1
 62
7
 10
2067.19919089348
 20
-1543.146869184787
 30
0
 40
0.4999999999992484
 50
278.1301023540749
 51
327.9946167919276
  0
ARC
  8
1
 62
7
 10
2068.277123820754
 20
-1543.30897272756
 30
0
 40
0.5
 50
90
 51
147.9946167919607
  0
ARC
  8
1
 62
7
 10
2081.74849239548
 20
-1554.60897272756
 30
0
 40
1.499999999999264
 50
186.00000000002
 51
270
  0
ARC
  8
1
 62
7
 10
2082.161483519287
 20
-1555.60897272756
 30
0
 40
0.5
 50
270
 51
338.1985905136433
  0
TEXT
  8
1
 62
2
 10
2070.90446653687
 20
-1566.57518250615
 30
0
 40
3.2
  1
SCALA 1:1
 41
0.9
  0
INSERT
  8
0
  2
TOP__3
 10
2242.779450541661
 20
-1586.98509897715
 30
0
  0
INSERT
  8
0
  2
_2__S
 10
2128.888690310951
 20
-1366.966596167461
 30
0
 41
3
 42
3
 43
3
  0
ENDSEC
  0
EOF
