999
DXF file: S0672675592.dxf
999
Pro/ENGINEER 2005310 by Parametric Technology Corporation
0
SECTION
2
HEADER
9
$ACADVER
1
AC1015
9
$DWGCODEPAGE
3
ANSI_1252
9
$EXTMAX
10
210.0000000000
20
297.0000000000
30
0.0000000000
9
$EXTMIN
10
0.0000000000
20
0.0000000000
30
0.0000000000
9
$LIMMIN
10
0.0000000000
20
0.0000000000
9
$LIMMAX
10
210.0000000000
20
297.0000000000
9
$VIEWCTR
10
105.0000000000
20
148.5000000000
9
$VIEWSIZE
40
297.0000000000
9
$CLAYER
8
0
9
$LTSCALE
40
19.3600000000
9
$CELTYPE
6
BYLAYER
9
$DIMSCALE
40
1
9
$DIMASZ
40
3.5000000000
9
$DIMEXO
40
2.2000000000
9
$DIMDLI
40
13.3760000000
9
$DIMEXE
40
6.3360000000
9
$DIMCEN
40
3.1680000000
9
$DIMLFAC
40
1.0000000000
9
$DIMBLK
1
_FILLED
9
$DIMTXT
40
3.5000000000
9
$DIMTOL
70
1
9
$DIMLIM
70
0
9
$DIMTFAC
40
1.0000000000
9
$DIMTP
40
0.0010000000
9
$DIMTM
40
0.0010000000
9
$PDMODE
70
3
9
$PDSIZE
40
0.3125000000
9
$HANDSEED
5
46A
9
$MEASUREMENT
70
1
9
$INSUNITS
70
4
0
ENDSEC
0
SECTION
2
CLASSES
0
CLASS
1
ACDBDICTIONARYWDFLT
2
AcDbDictionaryWithDefault
3
AutoCAD 2000
90
0
280
0
281
0
0
CLASS
1
ACDBPLACEHOLDER
2
AcDbPlaceHolder
3
AutoCAD 2000
90
0
280
0
281
0
0
CLASS
1
LAYOUT
2
AcDbLayout
3
AutoCAD 2000
90
0
280
0
281
0
0
ENDSEC
0
SECTION
2
TABLES
0
TABLE
2
VPORT
5
8
100
AcDbSymbolTable
70
2
0
VPORT
5
1F4
100
AcDbSymbolTableRecord
100
AcDbViewportTableRecord
2
*ACTIVE
70
0
10
0.0
20
0.0
11
1.0
21
1.0
12
105.0000000000
22
148.5000000000
13
0.0
23
0.0
14
1.0
24
1.0
15
0.0
25
0.0
16
0.0
26
0.0
36
1.0
17
0.0
27
0.0
37
0.0
40
297.0000000000
41
0.7070707071
42
50.0
43
0.0
44
0.0
50
0.0
51
0.0
71
0
72
100
73
1
74
1
75
0
76
0
77
0
78
0
0
ENDTAB
0
TABLE
2
LTYPE
5
5
100
AcDbSymbolTable
70
6
0
LTYPE
5
14
100
AcDbSymbolTableRecord
100
AcDbLinetypeTableRecord
2
BYBLOCK
70
0
3

72
65
73
0
40
0.0
0
LTYPE
5
15
100
AcDbSymbolTableRecord
100
AcDbLinetypeTableRecord
2
BYLAYER
70
0
3

72
65
73
0
40
0.0
0
LTYPE
5
16
100
AcDbSymbolTableRecord
100
AcDbLinetypeTableRecord
2
CONTINUOUS
70
64
3
Solid line
72
65
73
0
40
0
0
LTYPE
5
1F5
100
AcDbSymbolTableRecord
100
AcDbLinetypeTableRecord
2
CENTER
70
64
3
____ _ ____ _ ____ _ ____ _ ____ _ ____ _ ____
72
65
73
4
40
0.6
49
0.375
74
0
49
-0.075
74
0
49
0.075
74
0
49
-0.075
74
0
0
LTYPE
5
1F6
100
AcDbSymbolTableRecord
100
AcDbLinetypeTableRecord
2
HIDDEN
70
64
3
- - - - - - - - - - - - - - - - - - - -
72
65
73
2
40
0.2
49
0.1
74
0
49
-0.1
74
0
0
LTYPE
5
1F7
100
AcDbSymbolTableRecord
100
AcDbLinetypeTableRecord
2
PHANTOM
70
64
3
_____ _ _ _____ _ _ _____ _ _ _____
72
65
73
6
40
0.8
49
0.45
74
0
49
-0.05
74
0
49
0.1
74
0
49
-0.05
74
0
49
0.1
74
0
49
-0.05
74
0
0
LTYPE
5
1F8
100
AcDbSymbolTableRecord
100
AcDbLinetypeTableRecord
2
DOT
70
64
3
. . . . . . . . . . . . . . . . . . . .
72
65
73
2
40
0.2
49
0.1
74
0
49
-0.1
74
0
0
LTYPE
5
1F9
100
AcDbSymbolTableRecord
100
AcDbLinetypeTableRecord
2
DASHED
70
64
3
- - - - - - - - - - - - - - - - - - - -
72
65
73
2
40
0.2
49
0.1
74
0
49
-0.1
74
0
0
ENDTAB
0
TABLE
2
LAYER
5
2
100
AcDbSymbolTable
70
36
0
LAYER
5
10
100
AcDbSymbolTableRecord
100
AcDbLayerTableRecord
2
0
70
0
62
7
6
CONTINUOUS
370
-3
390
F
0
LAYER
5
1FA
100
AcDbSymbolTableRecord
100
AcDbLayerTableRecord
2
DEFAULT_1
70
0
62
7
6
CENTER
370
-3
390
F
0
LAYER
5
1FB
100
AcDbSymbolTableRecord
100
AcDbLayerTableRecord
2
DEFAULT_2
70
0
62
8
6
HIDDEN
370
-3
390
F
0
LAYER
5
1FC
100
AcDbSymbolTableRecord
100
AcDbLayerTableRecord
2
DEFAULT_3
70
0
62
7
6
PHANTOM
370
-3
390
F
0
LAYER
5
1FD
100
AcDbSymbolTableRecord
100
AcDbLayerTableRecord
2
_2D_DELETED_OBJS
70
0
62
7
6
CONTINUOUS
370
-3
390
F
0
LAYER
5
1FE
100
AcDbSymbolTableRecord
100
AcDbLayerTableRecord
2
ASSI
70
0
62
7
6
CONTINUOUS
370
-3
390
F
0
LAYER
5
1FF
100
AcDbSymbolTableRecord
100
AcDbLayerTableRecord
2
CURVE
70
0
62
7
6
CONTINUOUS
370
-3
390
F
0
LAYER
5
200
100
AcDbSymbolTableRecord
100
AcDbLayerTableRecord
2
PIANI
70
0
62
7
6
CONTINUOUS
370
-3
390
F
0
LAYER
5
201
100
AcDbSymbolTableRecord
100
AcDbLayerTableRecord
2
SURF_FILETTI
70
0
62
7
6
CONTINUOUS
370
-3
390
F
0
ENDTAB
0
TABLE
2
STYLE
5
3
100
AcDbSymbolTable
70
1
0
STYLE
5
11
100
AcDbSymbolTableRecord
100
AcDbTextStyleTableRecord
2
STANDARD
70
0
40
0.0
41
0.7143000000
50
0.0
71
0
42
0.2
3
txt
4

0
ENDTAB
0
TABLE
2
VIEW
5
6
100
AcDbSymbolTable
70
0
0
ENDTAB
0
TABLE
2
UCS
5
7
100
AcDbSymbolTable
70
0
0
ENDTAB
0
TABLE
2
APPID
5
9
100
AcDbSymbolTable
70
1
0
APPID
5
202
100
AcDbSymbolTableRecord
100
AcDbRegAppTableRecord
2
ACAD
70
0
0
ENDTAB
0
TABLE
2
BLOCK_RECORD
5
1
100
AcDbSymbolTable
70
0
0
BLOCK_RECORD
5
1F
100
AcDbSymbolTableRecord
100
AcDbBlockTableRecord
2
*MODEL_SPACE
0
BLOCK_RECORD
5
1B
100
AcDbSymbolTableRecord
100
AcDbBlockTableRecord
2
*PAPER_SPACE
0
BLOCK_RECORD
5
203
100
AcDbSymbolTableRecord
100
AcDbBlockTableRecord
2
_FILLED
0
BLOCK_RECORD
5
204
100
AcDbSymbolTableRecord
100
AcDbBlockTableRecord
2
*D0
0
BLOCK_RECORD
5
205
100
AcDbSymbolTableRecord
100
AcDbBlockTableRecord
2
*D1
0
BLOCK_RECORD
5
206
100
AcDbSymbolTableRecord
100
AcDbBlockTableRecord
2
*D2
0
BLOCK_RECORD
5
207
100
AcDbSymbolTableRecord
100
AcDbBlockTableRecord
2
*D3
0
BLOCK_RECORD
5
208
100
AcDbSymbolTableRecord
100
AcDbBlockTableRecord
2
*D4
0
BLOCK_RECORD
5
209
100
AcDbSymbolTableRecord
100
AcDbBlockTableRecord
2
*D5
0
BLOCK_RECORD
5
20A
100
AcDbSymbolTableRecord
100
AcDbBlockTableRecord
2
*D6
0
BLOCK_RECORD
5
20B
100
AcDbSymbolTableRecord
100
AcDbBlockTableRecord
2
*D7
0
BLOCK_RECORD
5
20C
100
AcDbSymbolTableRecord
100
AcDbBlockTableRecord
2
*D8
0
BLOCK_RECORD
5
20D
100
AcDbSymbolTableRecord
100
AcDbBlockTableRecord
2
*D9
0
BLOCK_RECORD
5
20E
100
AcDbSymbolTableRecord
100
AcDbBlockTableRecord
2
*D10
0
ENDTAB
0
TABLE
2
DIMSTYLE
5
A
100
AcDbSymbolTable
70
1
100
AcDbDimStyleTable
71
0
0
DIMSTYLE
105
20F
100
AcDbSymbolTableRecord
100
AcDbDimStyleTableRecord
2
STANDARD
70
0
3

4

40
1.0
41
3.5000000000
42
0.0625
43
0.38
44
0.18
45
0.0
46
0.0
47
0.0010000000
48
0.0010000000
140
3.5000000000
141
0.09
142
0.0
143
25.4
144
1.0000000000
145
0.0
146
1.0000000000
147
0.09
71
1
72
0
73
0
74
0
75
0
76
0
77
1
78
8
170
0
171
2
172
0
173
0
174
0
175
0
176
0
177
0
178
0
270
2
271
3
272
3
273
2
274
2
275
0
280
0
281
0
282
0
283
1
284
8
285
0
286
0
287
3
288
0
340
11
341
203
342
203
343
203
344
203
0
DIMSTYLE
105
210
100
AcDbSymbolTableRecord
100
AcDbDimStyleTableRecord
2
DIMSTYLE_1
70
0
3

4

40
1.0
41
3.5000000000
42
0.0625
43
0.38
44
0.18
45
0.0
46
0.0
47
0.1500000000
48
0.1500000000
140
3.5000000000
141
0.09
142
0.0
143
25.4
144
1.0000000000
145
0.0
146
1.0000000000
147
0.09
71
0
72
0
73
0
74
0
75
0
76
0
77
1
78
8
170
0
171
2
172
0
173
0
174
0
175
0
176
0
177
0
178
0
270
2
271
1
272
1
273
2
274
2
275
0
280
0
281
0
282
0
283
1
284
8
285
0
286
0
287
3
288
0
340
11
341
203
342
203
343
203
344
203
0
DIMSTYLE
105
211
100
AcDbSymbolTableRecord
100
AcDbDimStyleTableRecord
2
DIMSTYLE_2
70
0
3

4

40
1.0
41
3.5000000000
42
0.0625
43
0.38
44
0.18
45
0.0
46
0.0
47
0.1500000000
48
0.1500000000
140
3.5000000000
141
0.09
142
0.0
143
25.4
144
1.0000000000
145
0.0
146
1.0000000000
147
0.09
71
0
72
0
73
0
74
0
75
0
76
0
77
1
78
8
170
0
171
2
172
0
173
0
174
0
175
0
176
0
177
0
178
0
270
2
271
3
272
3
273
2
274
2
275
0
280
0
281
0
282
0
283
1
284
8
285
0
286
0
287
3
288
0
340
11
341
203
342
203
343
203
344
203
0
DIMSTYLE
105
212
100
AcDbSymbolTableRecord
100
AcDbDimStyleTableRecord
2
DIMSTYLE_3
70
0
3

4

40
1.0
41
3.5000000000
42
0.0625
43
0.38
44
0.18
45
0.0
46
0.0
47
0.1000000000
48
0.1000000000
140
3.5000000000
141
0.09
142
0.0
143
25.4
144
1.0000000000
145
0.0
146
1.0000000000
147
0.09
71
0
72
0
73
0
74
0
75
0
76
0
77
1
78
8
170
0
171
2
172
0
173
0
174
0
175
0
176
0
177
0
178
0
270
2
271
3
272
3
273
2
274
2
275
0
280
0
281
0
282
0
283
1
284
8
285
0
286
0
287
3
288
0
340
11
341
203
342
203
343
203
344
203
0
DIMSTYLE
105
213
100
AcDbSymbolTableRecord
100
AcDbDimStyleTableRecord
2
DIMSTYLE_4
70
0
3

4

40
1.0
41
3.5000000000
42
0.0625
43
0.38
44
0.18
45
0.0
46
0.0
47
0.0500000000
48
0.0500000000
140
3.5000000000
141
0.09
142
0.0
143
25.4
144
1.0000000000
145
0.0
146
1.0000000000
147
0.09
71
0
72
0
73
0
74
0
75
0
76
0
77
1
78
8
170
0
171
2
172
0
173
0
174
0
175
0
176
0
177
0
178
0
270
2
271
3
272
3
273
2
274
2
275
0
280
0
281
0
282
0
283
1
284
8
285
0
286
0
287
3
288
0
340
11
341
203
342
203
343
203
344
203
0
DIMSTYLE
105
214
100
AcDbSymbolTableRecord
100
AcDbDimStyleTableRecord
2
DIMSTYLE_5
70
0
3

4

40
1.0
41
3.5000000000
42
0.0625
43
0.38
44
0.18
45
0.0
46
0.0
47
0.0500000000
48
0.0500000000
140
3.5000000000
141
0.09
142
0.0
143
25.4
144
0.5000000000
145
0.0
146
1.0000000000
147
0.09
71
0
72
0
73
0
74
0
75
0
76
0
77
1
78
8
170
0
171
2
172
0
173
0
174
0
175
0
176
0
177
0
178
0
270
2
271
3
272
3
273
2
274
2
275
0
280
0
281
0
282
0
283
1
284
8
285
0
286
0
287
3
288
0
340
11
341
203
342
203
343
203
344
203
0
DIMSTYLE
105
215
100
AcDbSymbolTableRecord
100
AcDbDimStyleTableRecord
2
DIMSTYLE_6
70
0
3

4

40
1.0
41
3.5000000000
42
0.0625
43
0.38
44
0.18
45
0.0
46
0.0
47
0.1000000000
48
0.1000000000
140
3.5000000000
141
0.09
142
0.0
143
25.4
144
0.5000000000
145
0.0
146
1.0000000000
147
0.09
71
0
72
0
73
0
74
0
75
0
76
0
77
1
78
8
170
0
171
2
172
0
173
0
174
0
175
0
176
0
177
0
178
0
270
2
271
3
272
3
273
2
274
2
275
0
280
0
281
0
282
0
283
1
284
8
285
0
286
0
287
3
288
0
340
11
341
203
342
203
343
203
344
203
0
ENDTAB
0
ENDSEC
0
SECTION
2
BLOCKS
0
BLOCK
5
20
100
AcDbEntity
8
0
100
AcDbBlockBegin
2
*MODEL_SPACE
70
0
10
0.0
20
0.0
30
0.0
3
*MODEL_SPACE
1

0
ENDBLK
5
21
100
AcDbEntity
8
0
100
AcDbBlockEnd
0
BLOCK
5
1C
100
AcDbEntity
8
0
100
AcDbBlockBegin
2
*PAPER_SPACE
70
0
10
0.0
20
0.0
30
0.0
3
*PAPER_SPACE
1

0
ENDBLK
5
1D
100
AcDbEntity
8
0
100
AcDbBlockEnd
0
BLOCK
5
216
100
AcDbEntity
8
0
100
AcDbBlockBegin
62
2
6
CONTINUOUS
2
*D0
70
65
10
0.0000000000
20
0.0000000000
3
*D0
1

0
TEXT
5
217
100
AcDbEntity
8
0
100
AcDbText
62
2
6
CONTINUOUS
10
67.1444870495
20
71.5185490413
7
STANDARD
40
3.5000000000
1
42.4
41
0.7143000000
72
0
100
AcDbText
0
LINE
5
218
100
AcDbEntity
8
0
100
AcDbLine
62
2
6
CONTINUOUS
10
51.2351055684
20
83.4593906082
11
51.2351055684
21
69.1435490413
0
LINE
5
219
100
AcDbEntity
8
0
100
AcDbLine
62
2
6
CONTINUOUS
10
93.5917903041
20
83.4593908756
11
93.5917903041
21
69.1435490413
0
LINE
5
21A
100
AcDbEntity
8
0
100
AcDbLine
62
2
6
CONTINUOUS
10
51.2351055684
20
70.6435490413
11
72.4134479362
21
70.6435490413
0
LINE
5
21B
100
AcDbEntity
8
0
100
AcDbLine
62
2
6
CONTINUOUS
10
93.5917903041
20
70.6435490413
11
72.4134479362
21
70.6435490413
0
INSERT
5
21C
100
AcDbEntity
8
0
100
AcDbBlockReference
62
2
6
CONTINUOUS
2
_FILLED
10
51.2351055684
20
70.6435490413
41
  3.500000
42
  3.500000
43
  3.500000
50
180.000000
0
INSERT
5
21D
100
AcDbEntity
8
0
100
AcDbBlockReference
62
2
6
CONTINUOUS
2
_FILLED
10
93.5917903041
20
70.6435490413
41
  3.500000
42
  3.500000
43
  3.500000
0
ENDBLK
5
21E
100
AcDbEntity
8
0
6
BYBLOCK
62
0
100
AcDbBlockEnd
0
BLOCK
5
21F
100
AcDbEntity
8
0
100
AcDbBlockBegin
62
2
6
CONTINUOUS
2
*D1
70
65
10
0.0000000000
20
0.0000000000
3
*D1
1

0
TEXT
5
220
100
AcDbEntity
8
0
100
AcDbText
62
2
6
CONTINUOUS
10
111.3403679511
20
134.2707485834
7
STANDARD
40
3.5000000000
1
97
50
90.0000000000
41
0.7143000000
72
0
100
AcDbText
0
LINE
5
221
100
AcDbEntity
8
0
100
AcDbLine
62
2
6
CONTINUOUS
10
86.9917903041
20
188.9593908756
11
113.7153679511
21
188.9593908756
0
LINE
5
222
100
AcDbEntity
8
0
100
AcDbLine
62
2
6
CONTINUOUS
10
86.9917903041
20
91.9593908756
11
113.7153679511
21
91.9593908756
0
LINE
5
223
100
AcDbEntity
8
0
100
AcDbLine
62
2
6
CONTINUOUS
10
112.2153679511
20
188.9593908756
11
112.2153679511
21
140.4593908756
0
LINE
5
224
100
AcDbEntity
8
0
100
AcDbLine
62
2
6
CONTINUOUS
10
112.2153679511
20
91.9593908756
11
112.2153679511
21
140.4593908756
0
INSERT
5
225
100
AcDbEntity
8
0
100
AcDbBlockReference
62
2
6
CONTINUOUS
2
_FILLED
10
112.2153679511
20
188.9593908756
41
  3.500000
42
  3.500000
43
  3.500000
50
 90.000000
0
INSERT
5
226
100
AcDbEntity
8
0
100
AcDbBlockReference
62
2
6
CONTINUOUS
2
_FILLED
10
112.2153679511
20
91.9593908756
41
  3.500000
42
  3.500000
43
  3.500000
50
270.000000
0
ENDBLK
5
227
100
AcDbEntity
8
0
6
BYBLOCK
62
0
100
AcDbBlockEnd
0
BLOCK
5
228
100
AcDbEntity
8
0
100
AcDbBlockBegin
62
2
6
CONTINUOUS
2
*D2
70
65
10
0.0000000000
20
0.0000000000
3
*D2
1

0
TEXT
5
229
100
AcDbEntity
8
0
100
AcDbText
62
2
6
CONTINUOUS
10
125.7453045685
20
132.0636305838
7
STANDARD
40
3.5000000000
1
115
50
90.0000000000
41
0.7143000000
72
0
100
AcDbText
0
LINE
5
22A
100
AcDbEntity
8
0
100
AcDbLine
62
2
6
CONTINUOUS
10
80.5896710763
20
197.9593908756
11
128.1203045685
21
197.9593908756
0
LINE
5
22B
100
AcDbEntity
8
0
100
AcDbLine
62
2
6
CONTINUOUS
10
80.5896710763
20
82.9593908756
11
128.1203045685
21
82.9593908756
0
LINE
5
22C
100
AcDbEntity
8
0
100
AcDbLine
62
2
6
CONTINUOUS
10
126.6203045685
20
197.9593908756
11
126.6203045685
21
140.4593908756
0
LINE
5
22D
100
AcDbEntity
8
0
100
AcDbLine
62
2
6
CONTINUOUS
10
126.6203045685
20
82.9593908756
11
126.6203045685
21
140.4593908756
0
INSERT
5
22E
100
AcDbEntity
8
0
100
AcDbBlockReference
62
2
6
CONTINUOUS
2
_FILLED
10
126.6203045685
20
197.9593908756
41
  3.500000
42
  3.500000
43
  3.500000
50
 90.000000
0
INSERT
5
22F
100
AcDbEntity
8
0
100
AcDbBlockReference
62
2
6
CONTINUOUS
2
_FILLED
10
126.6203045685
20
82.9593908756
41
  3.500000
42
  3.500000
43
  3.500000
50
270.000000
0
ENDBLK
5
230
100
AcDbEntity
8
0
6
BYBLOCK
62
0
100
AcDbBlockEnd
0
BLOCK
5
231
100
AcDbEntity
8
0
100
AcDbBlockBegin
62
2
6
CONTINUOUS
2
*D3
70
65
10
0.0000000000
20
0.0000000000
3
*D3
1

0
TEXT
5
232
100
AcDbEntity
8
0
100
AcDbText
62
2
6
CONTINUOUS
10
76.0787023397
20
274.6956709195
7
STANDARD
40
3.5000000000
1
12.6
41
0.7143000000
72
0
100
AcDbText
0
LINE
5
233
100
AcDbEntity
8
0
100
AcDbLine
62
2
6
CONTINUOUS
10
73.8917903041
20
268.8912436548
11
73.8917903041
21
275.3206709195
0
LINE
5
234
100
AcDbEntity
8
0
100
AcDbLine
62
2
6
CONTINUOUS
10
86.4917903041
20
268.8912436548
11
86.4917903041
21
275.3206709195
0
LINE
5
235
100
AcDbEntity
8
0
100
AcDbLine
62
2
6
CONTINUOUS
10
73.8917903041
20
273.8206709195
11
80.1917903041
21
273.8206709195
0
LINE
5
236
100
AcDbEntity
8
0
100
AcDbLine
62
2
6
CONTINUOUS
10
86.4917903041
20
273.8206709195
11
80.1917903041
21
273.8206709195
0
INSERT
5
237
100
AcDbEntity
8
0
100
AcDbBlockReference
62
2
6
CONTINUOUS
2
_FILLED
10
73.8917903041
20
273.8206709195
41
  3.500000
42
  3.500000
43
  3.500000
50
180.000000
0
INSERT
5
238
100
AcDbEntity
8
0
100
AcDbBlockReference
62
2
6
CONTINUOUS
2
_FILLED
10
86.4917903041
20
273.8206709195
41
  3.500000
42
  3.500000
43
  3.500000
0
ENDBLK
5
239
100
AcDbEntity
8
0
6
BYBLOCK
62
0
100
AcDbBlockEnd
0
BLOCK
5
23A
100
AcDbEntity
8
0
100
AcDbBlockBegin
62
2
6
CONTINUOUS
2
*D4
70
65
10
0.0000000000
20
0.0000000000
3
*D4
1

0
TEXT
5
23B
100
AcDbEntity
8
0
100
AcDbText
62
2
6
CONTINUOUS
10
111.8341689499
20
252.0617317423
7
STANDARD
40
3.5000000000
1
21.4
50
90.0000000000
41
0.7143000000
72
0
100
AcDbText
0
LINE
5
23C
100
AcDbEntity
8
0
100
AcDbLine
62
2
6
CONTINUOUS
10
93.5917903041
20
246.0662436548
11
114.2091689499
21
246.0662436548
0
LINE
5
23D
100
AcDbEntity
8
0
100
AcDbLine
62
2
6
CONTINUOUS
10
87.8467923057
20
267.4662436548
11
114.2091689499
21
267.4662436548
0
LINE
5
23E
100
AcDbEntity
8
0
100
AcDbLine
62
2
6
CONTINUOUS
10
112.7091689499
20
246.0662436548
11
112.7091689499
21
256.7662436548
0
LINE
5
23F
100
AcDbEntity
8
0
100
AcDbLine
62
2
6
CONTINUOUS
10
112.7091689499
20
267.4662436548
11
112.7091689499
21
256.7662436548
0
INSERT
5
240
100
AcDbEntity
8
0
100
AcDbBlockReference
62
2
6
CONTINUOUS
2
_FILLED
10
112.7091689499
20
246.0662436548
41
  3.500000
42
  3.500000
43
  3.500000
50
270.000000
0
INSERT
5
241
100
AcDbEntity
8
0
100
AcDbBlockReference
62
2
6
CONTINUOUS
2
_FILLED
10
112.7091689499
20
267.4662436548
41
  3.500000
42
  3.500000
43
  3.500000
50
 90.000000
0
ENDBLK
5
242
100
AcDbEntity
8
0
6
BYBLOCK
62
0
100
AcDbBlockEnd
0
BLOCK
5
243
100
AcDbEntity
8
0
100
AcDbBlockBegin
62
2
6
CONTINUOUS
2
*D5
70
65
10
0.0000000000
20
0.0000000000
3
*D5
1

0
TEXT
5
244
100
AcDbEntity
8
0
100
AcDbText
62
2
6
CONTINUOUS
10
101.4761860842
20
273.7866481127
7
STANDARD
40
3.5000000000
1
1.1
50
90.0000000000
41
0.7143000000
72
0
100
AcDbText
0
LINE
5
245
100
AcDbEntity
8
0
100
AcDbLine
62
2
6
CONTINUOUS
10
87.8467923057
20
267.4662436548
11
103.8511860842
21
267.4662436548
0
LINE
5
246
100
AcDbEntity
8
0
100
AcDbLine
62
2
6
CONTINUOUS
10
86.9917903041
20
268.5662436548
11
103.8511860842
21
268.5662436548
0
LINE
5
247
100
AcDbEntity
8
0
100
AcDbLine
62
2
6
CONTINUOUS
10
102.3511860842
20
267.4662436548
11
102.3511860842
21
259.4662436548
0
LINE
5
248
100
AcDbEntity
8
0
100
AcDbLine
62
2
6
CONTINUOUS
10
102.3511860842
20
259.4662436548
11
102.3511860842
21
268.0162436548
0
LINE
5
249
100
AcDbEntity
8
0
100
AcDbLine
62
2
6
CONTINUOUS
10
102.3511860842
20
268.5662436548
11
102.3511860842
21
281.2867981127
0
LINE
5
24A
100
AcDbEntity
8
0
100
AcDbLine
62
2
6
CONTINUOUS
10
102.3511860842
20
281.2867981127
11
102.3511860842
21
268.0162436548
0
INSERT
5
24B
100
AcDbEntity
8
0
100
AcDbBlockReference
62
2
6
CONTINUOUS
2
_FILLED
10
102.3511860842
20
267.4662436548
41
  3.500000
42
  3.500000
43
  3.500000
50
 90.000000
0
INSERT
5
24C
100
AcDbEntity
8
0
100
AcDbBlockReference
62
2
6
CONTINUOUS
2
_FILLED
10
102.3511860842
20
268.5662436548
41
  3.500000
42
  3.500000
43
  3.500000
50
270.000000
0
ENDBLK
5
24D
100
AcDbEntity
8
0
6
BYBLOCK
62
0
100
AcDbBlockEnd
0
BLOCK
5
24E
100
AcDbEntity
8
0
100
AcDbBlockBegin
62
2
6
CONTINUOUS
2
*D6
70
65
10
0.0000000000
20
0.0000000000
3
*D6
1

0
TEXT
5
24F
100
AcDbEntity
8
0
100
AcDbText
62
2
6
CONTINUOUS
10
194.3214966889
20
193.8588960976
7
STANDARD
40
3.5000000000
1
3.5
50
90.0000000000
41
0.7143000000
72
0
100
AcDbText
0
LINE
5
250
100
AcDbEntity
8
0
100
AcDbLine
62
2
6
CONTINUOUS
10
178.4455095421
20
207.0005076142
11
196.6964966889
21
207.0005076142
0
LINE
5
251
100
AcDbEntity
8
0
100
AcDbLine
62
2
6
CONTINUOUS
10
178.4455095421
20
214.0005076142
11
196.6964966889
21
214.0005076142
0
LINE
5
252
100
AcDbEntity
8
0
100
AcDbLine
62
2
6
CONTINUOUS
10
195.1964966889
20
207.0005076142
11
195.1964966889
21
193.8588960976
0
LINE
5
253
100
AcDbEntity
8
0
100
AcDbLine
62
2
6
CONTINUOUS
10
195.1964966889
20
193.8588960976
11
195.1964966889
21
210.5005076142
0
LINE
5
254
100
AcDbEntity
8
0
100
AcDbLine
62
2
6
CONTINUOUS
10
195.1964966889
20
214.0005076142
11
195.1964966889
21
222.0005076142
0
LINE
5
255
100
AcDbEntity
8
0
100
AcDbLine
62
2
6
CONTINUOUS
10
195.1964966889
20
222.0005076142
11
195.1964966889
21
210.5005076142
0
INSERT
5
256
100
AcDbEntity
8
0
100
AcDbBlockReference
62
2
6
CONTINUOUS
2
_FILLED
10
195.1964966889
20
207.0005076142
41
  3.500000
42
  3.500000
43
  3.500000
50
 90.000000
0
INSERT
5
257
100
AcDbEntity
8
0
100
AcDbBlockReference
62
2
6
CONTINUOUS
2
_FILLED
10
195.1964966889
20
214.0005076142
41
  3.500000
42
  3.500000
43
  3.500000
50
270.000000
0
ENDBLK
5
258
100
AcDbEntity
8
0
6
BYBLOCK
62
0
100
AcDbBlockEnd
0
BLOCK
5
259
100
AcDbEntity
8
0
100
AcDbBlockBegin
62
2
6
CONTINUOUS
2
*D7
70
65
10
0.0000000000
20
0.0000000000
3
*D7
1

0
TEXT
5
25A
100
AcDbEntity
8
0
100
AcDbText
62
2
6
CONTINUOUS
10
202.1631086861
20
227.5236326625
7
STANDARD
40
3.5000000000
1
4
50
90.0000000000
41
0.7143000000
72
0
100
AcDbText
0
LINE
5
25B
100
AcDbEntity
8
0
100
AcDbLine
62
2
6
CONTINUOUS
10
178.4455095421
20
214.0005076142
11
204.5381086861
21
214.0005076142
0
LINE
5
25C
100
AcDbEntity
8
0
100
AcDbLine
62
2
6
CONTINUOUS
10
182.4455095421
20
222.0005076142
11
204.5381086861
21
222.0005076142
0
LINE
5
25D
100
AcDbEntity
8
0
100
AcDbLine
62
2
6
CONTINUOUS
10
203.0381086861
20
214.0005076142
11
203.0381086861
21
206.0005076142
0
LINE
5
25E
100
AcDbEntity
8
0
100
AcDbLine
62
2
6
CONTINUOUS
10
203.0381086861
20
206.0005076142
11
203.0381086861
21
218.0005076142
0
LINE
5
25F
100
AcDbEntity
8
0
100
AcDbLine
62
2
6
CONTINUOUS
10
203.0381086861
20
222.0005076142
11
203.0381086861
21
230.0236826625
0
LINE
5
260
100
AcDbEntity
8
0
100
AcDbLine
62
2
6
CONTINUOUS
10
203.0381086861
20
230.0236826625
11
203.0381086861
21
218.0005076142
0
INSERT
5
261
100
AcDbEntity
8
0
100
AcDbBlockReference
62
2
6
CONTINUOUS
2
_FILLED
10
203.0381086861
20
214.0005076142
41
  3.500000
42
  3.500000
43
  3.500000
50
 90.000000
0
INSERT
5
262
100
AcDbEntity
8
0
100
AcDbBlockReference
62
2
6
CONTINUOUS
2
_FILLED
10
203.0381086861
20
222.0005076142
41
  3.500000
42
  3.500000
43
  3.500000
50
270.000000
0
ENDBLK
5
263
100
AcDbEntity
8
0
6
BYBLOCK
62
0
100
AcDbBlockEnd
0
BLOCK
5
264
100
AcDbEntity
8
0
100
AcDbBlockBegin
62
2
6
CONTINUOUS
2
*D8
70
65
10
0.0000000000
20
0.0000000000
3
*D8
1

0
TEXT
5
265
100
AcDbEntity
8
0
100
AcDbText
62
2
6
CONTINUOUS
10
167.3864924056
20
196.7951271057
7
STANDARD
40
3.5000000000
1
6.5
41
0.7143000000
72
0
100
AcDbText
0
LINE
5
266
100
AcDbEntity
8
0
100
AcDbLine
62
2
6
CONTINUOUS
10
164.9455095421
20
206.5005076142
11
164.9455095421
21
194.4201271057
0
LINE
5
267
100
AcDbEntity
8
0
100
AcDbLine
62
2
6
CONTINUOUS
10
177.9455095421
20
207.5005076142
11
177.9455095421
21
194.4201271057
0
LINE
5
268
100
AcDbEntity
8
0
100
AcDbLine
62
2
6
CONTINUOUS
10
164.9455095421
20
195.9201271057
11
171.4455095421
21
195.9201271057
0
LINE
5
269
100
AcDbEntity
8
0
100
AcDbLine
62
2
6
CONTINUOUS
10
177.9455095421
20
195.9201271057
11
171.4455095421
21
195.9201271057
0
INSERT
5
26A
100
AcDbEntity
8
0
100
AcDbBlockReference
62
2
6
CONTINUOUS
2
_FILLED
10
164.9455095421
20
195.9201271057
41
  3.500000
42
  3.500000
43
  3.500000
50
180.000000
0
INSERT
5
26B
100
AcDbEntity
8
0
100
AcDbBlockReference
62
2
6
CONTINUOUS
2
_FILLED
10
177.9455095421
20
195.9201271057
41
  3.500000
42
  3.500000
43
  3.500000
0
ENDBLK
5
26C
100
AcDbEntity
8
0
6
BYBLOCK
62
0
100
AcDbBlockEnd
0
BLOCK
5
26D
100
AcDbEntity
8
0
100
AcDbBlockBegin
62
2
6
CONTINUOUS
2
*D9
70
65
10
0.0000000000
20
0.0000000000
3
*D9
1

0
TEXT
5
26E
100
AcDbEntity
8
0
100
AcDbText
62
2
6
CONTINUOUS
10
164.9634867969
20
234.3768913139
7
STANDARD
40
3.5000000000
1
11.5
41
0.7143000000
72
0
100
AcDbText
0
LINE
5
26F
100
AcDbEntity
8
0
100
AcDbLine
62
2
6
CONTINUOUS
10
159.9455095421
20
221.5005076142
11
159.9455095421
21
235.0018913139
0
LINE
5
270
100
AcDbEntity
8
0
100
AcDbLine
62
2
6
CONTINUOUS
10
182.9455095421
20
221.5005076142
11
182.9455095421
21
235.0018913139
0
LINE
5
271
100
AcDbEntity
8
0
100
AcDbLine
62
2
6
CONTINUOUS
10
159.9455095421
20
233.5018913139
11
171.4455095421
21
233.5018913139
0
LINE
5
272
100
AcDbEntity
8
0
100
AcDbLine
62
2
6
CONTINUOUS
10
182.9455095421
20
233.5018913139
11
171.4455095421
21
233.5018913139
0
INSERT
5
273
100
AcDbEntity
8
0
100
AcDbBlockReference
62
2
6
CONTINUOUS
2
_FILLED
10
159.9455095421
20
233.5018913139
41
  3.500000
42
  3.500000
43
  3.500000
50
180.000000
0
INSERT
5
274
100
AcDbEntity
8
0
100
AcDbBlockReference
62
2
6
CONTINUOUS
2
_FILLED
10
182.9455095421
20
233.5018913139
41
  3.500000
42
  3.500000
43
  3.500000
0
ENDBLK
5
275
100
AcDbEntity
8
0
6
BYBLOCK
62
0
100
AcDbBlockEnd
0
BLOCK
5
276
100
AcDbEntity
8
0
100
AcDbBlockBegin
62
2
6
CONTINUOUS
2
*D10
70
65
10
0.0000000000
20
0.0000000000
3
*D10
1

0
TEXT
5
277
100
AcDbEntity
8
0
100
AcDbText
62
2
6
CONTINUOUS
10
61.9025596923
20
226.9133195209
7
STANDARD
40
3.5000000000
1
30.3
41
0.7143000000
72
0
100
AcDbText
0
LINE
5
278
100
AcDbEntity
8
0
100
AcDbLine
62
2
6
CONTINUOUS
10
81.4917903041
20
240.5697357991
11
81.4917903041
21
224.5383195209
0
LINE
5
279
100
AcDbEntity
8
0
100
AcDbLine
62
2
6
CONTINUOUS
10
51.2351055465
20
263.7527165270
11
51.2351055465
21
224.5383195209
0
LINE
5
27A
100
AcDbEntity
8
0
100
AcDbLine
62
2
6
CONTINUOUS
10
81.4917903041
20
226.0383195209
11
66.3634479253
21
226.0383195209
0
LINE
5
27B
100
AcDbEntity
8
0
100
AcDbLine
62
2
6
CONTINUOUS
10
51.2351055465
20
226.0383195209
11
66.3634479253
21
226.0383195209
0
INSERT
5
27C
100
AcDbEntity
8
0
100
AcDbBlockReference
62
2
6
CONTINUOUS
2
_FILLED
10
81.4917903041
20
226.0383195209
41
  3.500000
42
  3.500000
43
  3.500000
0
INSERT
5
27D
100
AcDbEntity
8
0
100
AcDbBlockReference
62
2
6
CONTINUOUS
2
_FILLED
10
51.2351055465
20
226.0383195209
41
  3.500000
42
  3.500000
43
  3.500000
50
180.000000
0
ENDBLK
5
27E
100
AcDbEntity
8
0
6
BYBLOCK
62
0
100
AcDbBlockEnd
0
BLOCK
5
27F
100
AcDbEntity
8
0
100
AcDbBlockBegin
2
_FILLED
70
64
10
0.0000000000
20
0.0000000000
3
_FILLED
1

0
SOLID
5
280
100
AcDbEntity
8
0
6
BYBLOCK
62
0
100
AcDbTrace
10
0.0000000000
20
0.0000000000
11
-1.0000000000
21
0.1857142857
12
-1.0000000000
22
-0.1857142857
13
-1.0000000000
23
-0.1857142857
0
ENDBLK
5
281
100
AcDbEntity
8
0
6
BYBLOCK
62
0
100
AcDbBlockEnd
0
ENDSEC
0
SECTION
2
ENTITIES
0
DIMENSION
5
282
100
AcDbEntity
8
0
100
AcDbDimension
62
2
6
CONTINUOUS
2
*D0
10
93.5917903041
20
70.6435490413
11
72.1445870495
21
73.2685490413
70
160
42
42.356685
3
DIMSTYLE_1
100
AcDbAlignedDimension
13
51.2351055684
23
83.4593906082
14
93.5917903041
24
83.4593908756
100
AcDbRotatedDimension
0
DIMENSION
5
283
100
AcDbEntity
8
0
100
AcDbDimension
62
2
6
CONTINUOUS
2
*D1
10
112.2153679511
20
91.9593908756
11
109.5903679511
21
136.7707985834
70
160
42
97.000000
3
DIMSTYLE_2
100
AcDbAlignedDimension
13
86.9917903041
23
188.9593908756
14
86.9917903041
24
91.9593908756
50
270.000000
100
AcDbRotatedDimension
0
DIMENSION
5
284
100
AcDbEntity
8
0
100
AcDbDimension
62
2
6
CONTINUOUS
2
*D2
10
126.6203045685
20
82.9593908756
11
123.9953045685
21
135.8137055838
70
160
42
115.000000
3
DIMSTYLE_2
100
AcDbAlignedDimension
13
80.5896710763
23
197.9593908756
14
80.5896710763
24
82.9593908756
50
270.000000
100
AcDbRotatedDimension
0
DIMENSION
5
285
100
AcDbEntity
8
0
100
AcDbDimension
62
2
6
CONTINUOUS
2
*D3
10
86.4917903041
20
273.8206709195
11
81.0788023397
21
276.4456709195
70
160
42
12.600000
3
DIMSTYLE_3
100
AcDbAlignedDimension
13
73.8917903041
23
268.8912436548
14
86.4917903041
24
268.8912436548
100
AcDbRotatedDimension
0
DIMENSION
5
286
100
AcDbEntity
8
0
100
AcDbDimension
62
2
6
CONTINUOUS
2
*D4
10
112.7091689499
20
267.4662436548
11
110.0841689499
21
257.0618317423
70
160
42
21.400000
3
DIMSTYLE_3
100
AcDbAlignedDimension
13
93.5917903041
23
246.0662436548
14
87.8467923057
24
267.4662436548
50
90.000000
100
AcDbRotatedDimension
0
DIMENSION
5
287
100
AcDbEntity
8
0
100
AcDbDimension
62
2
6
CONTINUOUS
2
*D5
10
102.3511860842
20
268.5662436548
11
99.7261860842
21
277.5367231127
70
160
42
1.100000
3
DIMSTYLE_4
100
AcDbAlignedDimension
13
87.8467923057
23
267.4662436548
14
86.9917903041
24
268.5662436548
50
90.000000
100
AcDbRotatedDimension
0
DIMENSION
5
288
100
AcDbEntity
8
0
100
AcDbDimension
62
2
6
CONTINUOUS
2
*D6
10
195.1964966889
20
214.0005076142
11
192.5714966889
21
197.6089710976
70
160
42
3.500000
3
DIMSTYLE_5
100
AcDbAlignedDimension
13
178.4455095421
23
207.0005076142
14
178.4455095421
24
214.0005076142
50
90.000000
100
AcDbRotatedDimension
0
DIMENSION
5
289
100
AcDbEntity
8
0
100
AcDbDimension
62
2
6
CONTINUOUS
2
*D7
10
203.0381086861
20
222.0005076142
11
200.4131086861
21
228.7736576625
70
160
42
4.000000
3
DIMSTYLE_5
100
AcDbAlignedDimension
13
178.4455095421
23
214.0005076142
14
182.4455095421
24
222.0005076142
50
90.000000
100
AcDbRotatedDimension
0
DIMENSION
5
28A
100
AcDbEntity
8
0
100
AcDbDimension
62
2
6
CONTINUOUS
2
*D8
10
177.9455095421
20
195.9201271057
11
171.1365674056
21
198.5451271057
70
160
42
6.500000
3
DIMSTYLE_6
100
AcDbAlignedDimension
13
164.9455095421
23
206.5005076142
14
177.9455095421
24
207.5005076142
100
AcDbRotatedDimension
0
DIMENSION
5
28B
100
AcDbEntity
8
0
100
AcDbDimension
62
2
6
CONTINUOUS
2
*D9
10
182.9455095421
20
233.5018913139
11
169.9635867969
21
236.1268913139
70
160
42
11.500000
3
DIMSTYLE_6
100
AcDbAlignedDimension
13
159.9455095421
23
221.5005076142
14
182.9455095421
24
221.5005076142
100
AcDbRotatedDimension
0
DIMENSION
5
28C
100
AcDbEntity
8
0
100
AcDbDimension
62
2
6
CONTINUOUS
2
*D10
10
51.2351055465
20
226.0383195209
11
66.9026596923
21
228.6633195209
70
160
42
30.256685
3
DIMSTYLE_1
100
AcDbAlignedDimension
13
81.4917903041
23
240.5697357991
14
51.2351055465
24
263.7527165270
50
180.000000
100
AcDbRotatedDimension
0
MTEXT
5
28D
100
AcDbEntity
8
0
100
AcDbMText
62
2
6
CONTINUOUS
7
STANDARD
71
1
72
1
10
91.8414504831
20
241.1830189415
30
0.0000000000
11
1.0000000000
21
0.0000000000
31
0.0000000000
1
VEDI DETTAGLIO A
40
3.5000000000
41
40.0008000000
0
LINE
5
28E
100
AcDbEntity
8
0
100
AcDbLine
62
2
6
CONTINUOUS
10
87.6818661485
20
242.0926032424
11
90.3414504831
21
239.4330189415
0
LINE
5
28F
100
AcDbEntity
8
0
100
AcDbLine
62
2
6
CONTINUOUS
10
90.3414504831
20
239.4330189415
11
91.8414504831
21
239.4330189415
0
SOLID
5
290
100
AcDbEntity
8
0
100
AcDbTrace
62
2
6
CONTINUOUS
10
90.6163593032
20
240.0773489346
11
87.6818661485
21
242.0926032424
12
89.6971204935
22
239.1581101132
13
89.6971204935
23
239.1581101132
0
MTEXT
5
291
100
AcDbEntity
8
0
100
AcDbMText
62
2
6
CONTINUOUS
7
STANDARD
71
1
72
1
10
159.4974619289
20
190.2208492875
30
0.0000000000
11
1.0000000000
21
0.0000000000
31
0.0000000000
1
DETTAGLIO A\PSCALA 2/1
40
3.5000000000
41
27.5005500000
0
LINE
5
292
100
AcDbEntity
8
0
100
AcDbLine
62
7
6
CONTINUOUS
10
0.0000000000
20
0.0000000000
11
210.0000000000
21
0.0000000000
0
LINE
5
293
100
AcDbEntity
8
0
100
AcDbLine
62
7
6
CONTINUOUS
10
0.0000000000
20
0.0000000000
11
0.0000000000
21
297.0000000000
0
LINE
5
294
100
AcDbEntity
8
0
100
AcDbLine
62
7
6
CONTINUOUS
10
210.0000000000
20
0.0000000000
11
210.0000000000
21
297.0000000000
0
LINE
5
295
100
AcDbEntity
8
0
100
AcDbLine
62
7
6
CONTINUOUS
10
0.0000000000
20
297.0000000000
11
210.0000000000
21
297.0000000000
0
LINE
5
296
100
AcDbEntity
8
0
100
AcDbLine
62
7
6
CONTINUOUS
10
52.4292925790
20
82.9593913666
11
93.0917903041
21
82.9593908756
0
LINE
5
297
100
AcDbEntity
8
0
100
AcDbLine
62
7
6
CONTINUOUS
10
93.5917903041
20
83.9593908756
11
91.5880021038
21
83.9593908756
0
LINE
5
298
100
AcDbEntity
8
0
100
AcDbLine
62
7
6
CONTINUOUS
10
90.7910971402
20
83.9593908756
11
51.2351055684
21
83.9593906129
0
LINE
5
299
100
AcDbEntity
8
0
100
AcDbLine
62
7
6
CONTINUOUS
10
93.5917903041
20
84.5453168723
11
93.2390979450
21
84.5453168723
0
LINE
5
29A
100
AcDbEntity
8
0
100
AcDbLine
62
7
6
CONTINUOUS
10
90.5917903041
20
84.8815541762
11
90.1621748682
21
84.8815541759
0
LINE
5
29B
100
AcDbEntity
8
0
100
AcDbLine
62
7
6
CONTINUOUS
10
90.5917903041
20
87.4372275751
11
90.1621748681
21
87.4372275751
0
LINE
5
29C
100
AcDbEntity
8
0
100
AcDbLine
62
7
6
CONTINUOUS
10
84.5553878215
20
87.8593908756
11
63.0510172271
21
87.8593908756
0
LINE
5
29D
100
AcDbEntity
8
0
100
AcDbLine
62
7
6
CONTINUOUS
10
70.3917903041
20
88.3593908756
11
77.3917903041
21
88.3593908756
0
LINE
5
29E
100
AcDbEntity
8
0
100
AcDbLine
62
7
6
CONTINUOUS
10
82.9917903041
20
88.3593908756
11
86.4917903041
21
88.3593908756
0
LINE
5
29F
100
AcDbEntity
8
0
100
AcDbLine
62
7
6
CONTINUOUS
10
70.3917903041
20
88.8593908756
11
77.3917903041
21
88.8593908756
0
LINE
5
2A0
100
AcDbEntity
8
0
100
AcDbLine
62
7
6
CONTINUOUS
10
82.9917903041
20
88.8593908756
11
93.5917903041
21
88.8593908756
0
LINE
5
2A1
100
AcDbEntity
8
0
100
AcDbLine
62
7
6
CONTINUOUS
10
70.8917903041
20
89.3593908756
11
76.8917903041
21
89.3593908756
0
LINE
5
2A2
100
AcDbEntity
8
0
100
AcDbLine
62
7
6
CONTINUOUS
10
83.4917903041
20
89.3593908756
11
93.0917903041
21
89.3593908756
0
LINE
5
2A3
100
AcDbEntity
8
0
100
AcDbLine
62
7
6
CONTINUOUS
10
71.3921774973
20
89.9593908756
11
76.3914031108
21
89.9593908756
0
LINE
5
2A4
100
AcDbEntity
8
0
100
AcDbLine
62
7
6
CONTINUOUS
10
83.9921774973
20
89.9593908756
11
88.9914031108
21
89.9593908756
0
LINE
5
2A5
100
AcDbEntity
8
0
100
AcDbLine
62
7
6
CONTINUOUS
10
92.2601943327
20
195.5570819528
11
94.1207802324
21
196.2342798386
0
LINE
5
2A6
100
AcDbEntity
8
0
100
AcDbLine
62
7
6
CONTINUOUS
10
92.4312044044
20
195.0872356424
11
94.2917903041
21
195.7644335282
0
LINE
5
2A7
100
AcDbEntity
8
0
100
AcDbLine
62
7
6
CONTINUOUS
10
70.1417903041
20
91.9593908756
11
77.6417903041
21
91.9593908756
0
LINE
5
2A8
100
AcDbEntity
8
0
100
AcDbLine
62
7
6
CONTINUOUS
10
82.7417903041
20
91.9593908756
11
90.2417903041
21
91.9593908756
0
LINE
5
2A9
100
AcDbEntity
8
0
100
AcDbLine
62
7
6
CONTINUOUS
10
68.3917903041
20
92.3093908756
11
79.3917903041
21
92.3093908756
0
LINE
5
2AA
100
AcDbEntity
8
0
100
AcDbLine
62
7
6
CONTINUOUS
10
80.9917903041
20
92.3093908756
11
91.9917903041
21
92.3093908756
0
LINE
5
2AB
100
AcDbEntity
8
0
100
AcDbLine
62
7
6
CONTINUOUS
10
93.5917903041
20
95.6453168723
11
93.0917903041
21
95.6453168723
0
LINE
5
2AC
100
AcDbEntity
8
0
100
AcDbLine
62
7
6
CONTINUOUS
10
92.9207802324
20
87.3036185686
11
91.2628003757
21
87.9070738855
0
LINE
5
2AD
100
AcDbEntity
8
0
100
AcDbLine
62
7
6
CONTINUOUS
10
68.3917903041
20
101.3093908756
11
79.3917903041
21
101.3093908756
0
LINE
5
2AE
100
AcDbEntity
8
0
100
AcDbLine
62
7
6
CONTINUOUS
10
80.9917903041
20
101.3093908756
11
91.9917903041
21
101.3093908756
0
LINE
5
2AF
100
AcDbEntity
8
0
100
AcDbLine
62
7
6
CONTINUOUS
10
70.1417903041
20
101.6593908756
11
77.6417903041
21
101.6593908756
0
LINE
5
2B0
100
AcDbEntity
8
0
100
AcDbLine
62
7
6
CONTINUOUS
10
82.7417903041
20
101.6593908756
11
90.2417903041
21
101.6593908756
0
LINE
5
2B1
100
AcDbEntity
8
0
100
AcDbLine
62
7
6
CONTINUOUS
10
68.3917903041
20
102.0093908756
11
79.3917903041
21
102.0093908756
0
LINE
5
2B2
100
AcDbEntity
8
0
100
AcDbLine
62
7
6
CONTINUOUS
10
80.9917903041
20
102.0093908756
11
91.9917903041
21
102.0093908756
0
LINE
5
2B3
100
AcDbEntity
8
0
100
AcDbLine
62
7
6
CONTINUOUS
10
92.2601943327
20
184.5747295780
11
92.9207802324
21
184.8151631827
0
LINE
5
2B4
100
AcDbEntity
8
0
100
AcDbLine
62
7
6
CONTINUOUS
10
92.4312044044
20
184.1048832676
11
93.0917903041
21
184.3453168723
0
LINE
5
2B5
100
AcDbEntity
8
0
100
AcDbLine
62
7
6
CONTINUOUS
10
68.3917903041
20
111.0093908756
11
79.3917903041
21
111.0093908756
0
LINE
5
2B6
100
AcDbEntity
8
0
100
AcDbLine
62
7
6
CONTINUOUS
10
80.9917903041
20
111.0093908756
11
91.9917903041
21
111.0093908756
0
LINE
5
2B7
100
AcDbEntity
8
0
100
AcDbLine
62
7
6
CONTINUOUS
10
70.1417903041
20
111.3593908756
11
77.6417903041
21
111.3593908756
0
LINE
5
2B8
100
AcDbEntity
8
0
100
AcDbLine
62
7
6
CONTINUOUS
10
82.7417903041
20
111.3593908756
11
90.2417903041
21
111.3593908756
0
LINE
5
2B9
100
AcDbEntity
8
0
100
AcDbLine
62
7
6
CONTINUOUS
10
68.3917903041
20
111.7093908756
11
79.3917903041
21
111.7093908756
0
LINE
5
2BA
100
AcDbEntity
8
0
100
AcDbLine
62
7
6
CONTINUOUS
10
80.9917903041
20
111.7093908756
11
91.9917903041
21
111.7093908756
0
LWPOLYLINE
5
2BB
100
AcDbEntity
8
0
100
AcDbPolyline
62
7
6
CONTINUOUS
90
12
70
0
10
51.2351054444
20
83.9593906127
10
51.2363223806
20
83.9139188388
10
51.2605977979
20
83.7516574421
10
51.3160685568
20
83.5939011851
10
51.4018814596
20
83.4455027030
10
51.5149640597
20
83.3121107524
10
51.6532966353
20
83.1960498686
10
51.8122521119
20
83.1010860538
10
51.9890320124
20
83.0287839947
10
52.1806823258
20
82.9810339073
10
52.3844984041
20
82.9601070559
10
52.4293017999
20
82.9593910156
0
LINE
5
2BC
100
AcDbEntity
8
0
100
AcDbLine
62
7
6
CONTINUOUS
10
51.2351055684
20
196.9593908754
11
51.2351055684
21
83.9593906204
0
LINE
5
2BD
100
AcDbEntity
8
0
100
AcDbLine
62
7
6
CONTINUOUS
10
51.6402742456
20
196.9593908756
11
51.6402742456
21
83.9593908756
0
LINE
5
2BE
100
AcDbEntity
8
0
100
AcDbLine
62
7
6
CONTINUOUS
10
93.5917903041
20
119.6734648790
11
93.0917903041
21
119.6734648790
0
LINE
5
2BF
100
AcDbEntity
8
0
100
AcDbLine
62
7
6
CONTINUOUS
10
68.3917903041
20
120.7093908756
11
79.3917903041
21
120.7093908756
0
LINE
5
2C0
100
AcDbEntity
8
0
100
AcDbLine
62
7
6
CONTINUOUS
10
80.9917903041
20
120.7093908756
11
91.9917903041
21
120.7093908756
0
LINE
5
2C1
100
AcDbEntity
8
0
100
AcDbLine
62
7
6
CONTINUOUS
10
70.1417903041
20
121.0593908756
11
77.6417903041
21
121.0593908756
0
LINE
5
2C2
100
AcDbEntity
8
0
100
AcDbLine
62
7
6
CONTINUOUS
10
82.7417903041
20
121.0593908756
11
90.2417903041
21
121.0593908756
0
LINE
5
2C3
100
AcDbEntity
8
0
100
AcDbLine
62
7
6
CONTINUOUS
10
68.3917903041
20
121.4093908756
11
79.3917903041
21
121.4093908756
0
LINE
5
2C4
100
AcDbEntity
8
0
100
AcDbLine
62
7
6
CONTINUOUS
10
80.9917903041
20
121.4093908756
11
91.9917903041
21
121.4093908756
0
LINE
5
2C5
100
AcDbEntity
8
0
100
AcDbLine
62
7
6
CONTINUOUS
10
92.9207802324
20
119.2036185686
11
92.2601943327
21
119.4440521733
0
LINE
5
2C6
100
AcDbEntity
8
0
100
AcDbLine
62
7
6
CONTINUOUS
10
93.0917903041
20
119.6734648790
11
92.4312044044
21
119.9138984837
0
LINE
5
2C7
100
AcDbEntity
8
0
100
AcDbLine
62
7
6
CONTINUOUS
10
63.0510172271
20
193.0593908756
11
63.0510172271
21
87.8593908756
0
LINE
5
2C8
100
AcDbEntity
8
0
100
AcDbLine
62
7
6
CONTINUOUS
10
68.3917903041
20
130.4093908756
11
79.3917903041
21
130.4093908756
0
LINE
5
2C9
100
AcDbEntity
8
0
100
AcDbLine
62
7
6
CONTINUOUS
10
80.9917903041
20
130.4093908756
11
91.9917903041
21
130.4093908756
0
LINE
5
2CA
100
AcDbEntity
8
0
100
AcDbLine
62
7
6
CONTINUOUS
10
70.1417903041
20
130.7593908756
11
77.6417903041
21
130.7593908756
0
LINE
5
2CB
100
AcDbEntity
8
0
100
AcDbLine
62
7
6
CONTINUOUS
10
82.7417903041
20
130.7593908756
11
90.2417903041
21
130.7593908756
0
LINE
5
2CC
100
AcDbEntity
8
0
100
AcDbLine
62
7
6
CONTINUOUS
10
68.3917903041
20
131.1093908756
11
79.3917903041
21
131.1093908756
0
LINE
5
2CD
100
AcDbEntity
8
0
100
AcDbLine
62
7
6
CONTINUOUS
10
80.9917903041
20
131.1093908756
11
91.9917903041
21
131.1093908756
0
LINE
5
2CE
100
AcDbEntity
8
0
100
AcDbLine
62
7
6
CONTINUOUS
10
66.3917903041
20
193.0593908756
11
66.3917903041
21
87.8593908756
0
LINE
5
2CF
100
AcDbEntity
8
0
100
AcDbLine
62
7
6
CONTINUOUS
10
68.3917903041
20
92.3093908756
11
68.3917903041
21
101.3093908756
0
LINE
5
2D0
100
AcDbEntity
8
0
100
AcDbLine
62
7
6
CONTINUOUS
10
68.3917903041
20
102.0093908756
11
68.3917903041
21
111.0093908756
0
LINE
5
2D1
100
AcDbEntity
8
0
100
AcDbLine
62
7
6
CONTINUOUS
10
68.3917903041
20
111.7093908756
11
68.3917903041
21
120.7093908756
0
LINE
5
2D2
100
AcDbEntity
8
0
100
AcDbLine
62
7
6
CONTINUOUS
10
68.3917903041
20
121.4093908756
11
68.3917903041
21
130.4093908756
0
LINE
5
2D3
100
AcDbEntity
8
0
100
AcDbLine
62
7
6
CONTINUOUS
10
68.3917903041
20
131.1093908756
11
68.3917903041
21
140.1093908756
0
LINE
5
2D4
100
AcDbEntity
8
0
100
AcDbLine
62
7
6
CONTINUOUS
10
68.3917903041
20
140.8093908756
11
68.3917903041
21
149.8093908756
0
LINE
5
2D5
100
AcDbEntity
8
0
100
AcDbLine
62
7
6
CONTINUOUS
10
68.3917903041
20
150.5093908756
11
68.3917903041
21
159.5093908756
0
LINE
5
2D6
100
AcDbEntity
8
0
100
AcDbLine
62
7
6
CONTINUOUS
10
68.3917903041
20
160.2093908756
11
68.3917903041
21
169.2093908756
0
LINE
5
2D7
100
AcDbEntity
8
0
100
AcDbLine
62
7
6
CONTINUOUS
10
68.3917903041
20
169.9093908756
11
68.3917903041
21
178.9093908756
0
LINE
5
2D8
100
AcDbEntity
8
0
100
AcDbLine
62
7
6
CONTINUOUS
10
68.3917903041
20
179.6093908756
11
68.3917903041
21
188.6093908756
0
LINE
5
2D9
100
AcDbEntity
8
0
100
AcDbLine
62
7
6
CONTINUOUS
10
70.1417903041
20
91.9593908756
11
70.1417903041
21
92.3093908756
0
LINE
5
2DA
100
AcDbEntity
8
0
100
AcDbLine
62
7
6
CONTINUOUS
10
70.1417903041
20
101.3093908756
11
70.1417903041
21
102.0093908756
0
LINE
5
2DB
100
AcDbEntity
8
0
100
AcDbLine
62
7
6
CONTINUOUS
10
70.1417903041
20
111.0093908756
11
70.1417903041
21
111.7093908756
0
LINE
5
2DC
100
AcDbEntity
8
0
100
AcDbLine
62
7
6
CONTINUOUS
10
70.1417903041
20
120.7093908756
11
70.1417903041
21
121.4093908756
0
LINE
5
2DD
100
AcDbEntity
8
0
100
AcDbLine
62
7
6
CONTINUOUS
10
70.1417903041
20
130.4093908756
11
70.1417903041
21
131.1093908756
0
LINE
5
2DE
100
AcDbEntity
8
0
100
AcDbLine
62
7
6
CONTINUOUS
10
70.1417903041
20
140.1093908756
11
70.1417903041
21
140.8093908756
0
LINE
5
2DF
100
AcDbEntity
8
0
100
AcDbLine
62
7
6
CONTINUOUS
10
70.1417903041
20
149.8093908756
11
70.1417903041
21
150.5093908756
0
LINE
5
2E0
100
AcDbEntity
8
0
100
AcDbLine
62
7
6
CONTINUOUS
10
70.1417903041
20
159.5093908756
11
70.1417903041
21
160.2093908756
0
LINE
5
2E1
100
AcDbEntity
8
0
100
AcDbLine
62
7
6
CONTINUOUS
10
70.1417903041
20
169.2093908756
11
70.1417903041
21
169.9093908756
0
LINE
5
2E2
100
AcDbEntity
8
0
100
AcDbLine
62
7
6
CONTINUOUS
10
70.1417903041
20
178.9093908756
11
70.1417903041
21
179.6093908756
0
LINE
5
2E3
100
AcDbEntity
8
0
100
AcDbLine
62
7
6
CONTINUOUS
10
70.1417903041
20
188.6093908756
11
70.1417903041
21
188.9593908756
0
LINE
5
2E4
100
AcDbEntity
8
0
100
AcDbLine
62
7
6
CONTINUOUS
10
70.3917903041
20
192.5593908756
11
70.3917903041
21
192.0593908756
0
LINE
5
2E5
100
AcDbEntity
8
0
100
AcDbLine
62
7
6
CONTINUOUS
10
70.3917903041
20
88.3593908756
11
70.3917903041
21
88.8593908756
0
LINE
5
2E6
100
AcDbEntity
8
0
100
AcDbLine
62
7
6
CONTINUOUS
10
71.3917903041
20
89.9593908756
11
71.3917903041
21
91.9593908756
0
LINE
5
2E7
100
AcDbEntity
8
0
100
AcDbLine
62
7
6
CONTINUOUS
10
71.3917903041
20
188.9593908756
11
71.3917903041
21
191.5593908756
0
LINE
5
2E8
100
AcDbEntity
8
0
100
AcDbLine
62
7
6
CONTINUOUS
10
92.2601943327
20
193.9616997985
11
92.4312044045
21
194.4315461088
0
LINE
5
2E9
100
AcDbEntity
8
0
100
AcDbLine
62
7
6
CONTINUOUS
10
92.1917903041
20
139.9593908756
11
93.5917903041
21
139.9593908756
0
LINE
5
2EA
100
AcDbEntity
8
0
100
AcDbLine
62
7
6
CONTINUOUS
10
68.3917903041
20
140.1093908756
11
79.3917903041
21
140.1093908756
0
LINE
5
2EB
100
AcDbEntity
8
0
100
AcDbLine
62
7
6
CONTINUOUS
10
80.9917903041
20
140.1093908756
11
91.9917903041
21
140.1093908756
0
LINE
5
2EC
100
AcDbEntity
8
0
100
AcDbLine
62
7
6
CONTINUOUS
10
70.1417903041
20
140.4593908756
11
77.6417903041
21
140.4593908756
0
LINE
5
2ED
100
AcDbEntity
8
0
100
AcDbLine
62
7
6
CONTINUOUS
10
82.7417903041
20
140.4593908756
11
90.2417903041
21
140.4593908756
0
LINE
5
2EE
100
AcDbEntity
8
0
100
AcDbLine
62
7
6
CONTINUOUS
10
92.1917903041
20
140.4593908756
11
93.0917903041
21
140.4593908756
0
LINE
5
2EF
100
AcDbEntity
8
0
100
AcDbLine
62
7
6
CONTINUOUS
10
91.9917903041
20
140.6593908756
11
91.4917903049
21
140.6593908843
0
LINE
5
2F0
100
AcDbEntity
8
0
100
AcDbLine
62
7
6
CONTINUOUS
10
68.3917903041
20
140.8093908756
11
79.3917903041
21
140.8093908756
0
LINE
5
2F1
100
AcDbEntity
8
0
100
AcDbLine
62
7
6
CONTINUOUS
10
80.9917903041
20
140.8093908756
11
91.9917903041
21
140.8093908756
0
LINE
5
2F2
100
AcDbEntity
8
0
100
AcDbLine
62
7
6
CONTINUOUS
10
76.1191766101
20
89.3593908756
11
76.0917903041
21
89.9593908756
0
LINE
5
2F3
100
AcDbEntity
8
0
100
AcDbLine
62
7
6
CONTINUOUS
10
76.3917903041
20
89.9593908756
11
76.3917903041
21
91.9593908756
0
LINE
5
2F4
100
AcDbEntity
8
0
100
AcDbLine
62
7
6
CONTINUOUS
10
76.3917903041
20
188.9593908756
11
76.3917903041
21
191.5593908756
0
LINE
5
2F5
100
AcDbEntity
8
0
100
AcDbLine
62
7
6
CONTINUOUS
10
77.3917903041
20
192.5593908756
11
77.3917903041
21
192.0593908756
0
LINE
5
2F6
100
AcDbEntity
8
0
100
AcDbLine
62
7
6
CONTINUOUS
10
77.3917903041
20
88.3593908756
11
77.3917903041
21
88.8593908756
0
LINE
5
2F7
100
AcDbEntity
8
0
100
AcDbLine
62
7
6
CONTINUOUS
10
77.6417903041
20
91.9593908756
11
77.6417903041
21
92.3093908756
0
LINE
5
2F8
100
AcDbEntity
8
0
100
AcDbLine
62
7
6
CONTINUOUS
10
77.6417903041
20
101.3093908756
11
77.6417903041
21
102.0093908756
0
LINE
5
2F9
100
AcDbEntity
8
0
100
AcDbLine
62
7
6
CONTINUOUS
10
77.6417903041
20
111.0093908756
11
77.6417903041
21
111.7093908756
0
LINE
5
2FA
100
AcDbEntity
8
0
100
AcDbLine
62
7
6
CONTINUOUS
10
77.6417903041
20
120.7093908756
11
77.6417903041
21
121.4093908756
0
LINE
5
2FB
100
AcDbEntity
8
0
100
AcDbLine
62
7
6
CONTINUOUS
10
77.6417903041
20
130.4093908756
11
77.6417903041
21
131.1093908756
0
LINE
5
2FC
100
AcDbEntity
8
0
100
AcDbLine
62
7
6
CONTINUOUS
10
77.6417903041
20
140.1093908756
11
77.6417903041
21
140.8093908756
0
LINE
5
2FD
100
AcDbEntity
8
0
100
AcDbLine
62
7
6
CONTINUOUS
10
77.6417903041
20
149.8093908756
11
77.6417903041
21
150.5093908756
0
LINE
5
2FE
100
AcDbEntity
8
0
100
AcDbLine
62
7
6
CONTINUOUS
10
77.6417903041
20
159.5093908756
11
77.6417903041
21
160.2093908756
0
LINE
5
2FF
100
AcDbEntity
8
0
100
AcDbLine
62
7
6
CONTINUOUS
10
77.6417903041
20
169.2093908756
11
77.6417903041
21
169.9093908756
0
LINE
5
300
100
AcDbEntity
8
0
100
AcDbLine
62
7
6
CONTINUOUS
10
77.6417903041
20
178.9093908756
11
77.6417903041
21
179.6093908756
0
LINE
5
301
100
AcDbEntity
8
0
100
AcDbLine
62
7
6
CONTINUOUS
10
77.6417903041
20
188.6093908756
11
77.6417903041
21
188.9593908756
0
LINE
5
302
100
AcDbEntity
8
0
100
AcDbLine
62
7
6
CONTINUOUS
10
71.6644039981
20
89.3593908756
11
71.6917903041
21
89.9593908756
0
LINE
5
303
100
AcDbEntity
8
0
100
AcDbLine
62
7
6
CONTINUOUS
10
94.1207802324
20
193.2845019127
11
94.2917903041
21
193.7543482231
0
LINE
5
304
100
AcDbEntity
8
0
100
AcDbLine
62
7
6
CONTINUOUS
10
92.2601943327
20
95.8747295780
11
92.4312044044
21
95.4048832676
0
LINE
5
305
100
AcDbEntity
8
0
100
AcDbLine
62
7
6
CONTINUOUS
10
92.9207802324
20
96.1151631827
11
93.0917903041
21
95.6453168723
0
LINE
5
306
100
AcDbEntity
8
0
100
AcDbLine
62
7
6
CONTINUOUS
10
78.4917903041
20
189.7593908756
11
78.4917903041
21
188.7593908756
0
LINE
5
307
100
AcDbEntity
8
0
100
AcDbLine
62
7
6
CONTINUOUS
10
78.4917903041
20
91.1593908756
11
78.4917903041
21
92.1593908756
0
LINE
5
308
100
AcDbEntity
8
0
100
AcDbLine
62
7
6
CONTINUOUS
10
79.3917903041
20
92.3093908756
11
79.3917903041
21
101.3093908756
0
LINE
5
309
100
AcDbEntity
8
0
100
AcDbLine
62
7
6
CONTINUOUS
10
79.3917903041
20
102.0093908756
11
79.3917903041
21
111.0093908756
0
LINE
5
30A
100
AcDbEntity
8
0
100
AcDbLine
62
7
6
CONTINUOUS
10
79.3917903041
20
111.7093908756
11
79.3917903041
21
120.7093908756
0
LINE
5
30B
100
AcDbEntity
8
0
100
AcDbLine
62
7
6
CONTINUOUS
10
79.3917903041
20
121.4093908756
11
79.3917903041
21
130.4093908756
0
LINE
5
30C
100
AcDbEntity
8
0
100
AcDbLine
62
7
6
CONTINUOUS
10
79.3917903041
20
131.1093908756
11
79.3917903041
21
140.1093908756
0
LINE
5
30D
100
AcDbEntity
8
0
100
AcDbLine
62
7
6
CONTINUOUS
10
79.3917903041
20
140.8093908756
11
79.3917903041
21
149.8093908756
0
LINE
5
30E
100
AcDbEntity
8
0
100
AcDbLine
62
7
6
CONTINUOUS
10
79.3917903041
20
150.5093908756
11
79.3917903041
21
159.5093908756
0
LINE
5
30F
100
AcDbEntity
8
0
100
AcDbLine
62
7
6
CONTINUOUS
10
79.3917903041
20
160.2093908756
11
79.3917903041
21
169.2093908756
0
LINE
5
310
100
AcDbEntity
8
0
100
AcDbLine
62
7
6
CONTINUOUS
10
79.3917903041
20
169.9093908756
11
79.3917903041
21
178.9093908756
0
LINE
5
311
100
AcDbEntity
8
0
100
AcDbLine
62
7
6
CONTINUOUS
10
79.3917903041
20
179.6093908756
11
79.3917903041
21
188.6093908756
0
LINE
5
312
100
AcDbEntity
8
0
100
AcDbLine
62
7
6
CONTINUOUS
10
80.0896710763
20
197.9593908756
11
80.0896710763
21
193.0593908756
0
LINE
5
313
100
AcDbEntity
8
0
100
AcDbLine
62
7
6
CONTINUOUS
10
80.0896710763
20
82.9593908756
11
80.0896710763
21
87.8593908756
0
LINE
5
314
100
AcDbEntity
8
0
100
AcDbLine
62
7
6
CONTINUOUS
10
80.9917903041
20
92.3093908756
11
80.9917903041
21
101.3093908756
0
LINE
5
315
100
AcDbEntity
8
0
100
AcDbLine
62
7
6
CONTINUOUS
10
80.9917903041
20
102.0093908756
11
80.9917903041
21
111.0093908756
0
LINE
5
316
100
AcDbEntity
8
0
100
AcDbLine
62
7
6
CONTINUOUS
10
80.9917903041
20
111.7093908756
11
80.9917903041
21
120.7093908756
0
LINE
5
317
100
AcDbEntity
8
0
100
AcDbLine
62
7
6
CONTINUOUS
10
80.9917903041
20
121.4093908756
11
80.9917903041
21
130.4093908756
0
LINE
5
318
100
AcDbEntity
8
0
100
AcDbLine
62
7
6
CONTINUOUS
10
80.9917903041
20
131.1093908756
11
80.9917903041
21
140.1093908756
0
LINE
5
319
100
AcDbEntity
8
0
100
AcDbLine
62
7
6
CONTINUOUS
10
80.9917903041
20
140.8093908756
11
80.9917903041
21
149.8093908756
0
LINE
5
31A
100
AcDbEntity
8
0
100
AcDbLine
62
7
6
CONTINUOUS
10
80.9917903041
20
150.5093908756
11
80.9917903041
21
159.5093908756
0
LINE
5
31B
100
AcDbEntity
8
0
100
AcDbLine
62
7
6
CONTINUOUS
10
80.9917903041
20
160.2093908756
11
80.9917903041
21
169.2093908756
0
LINE
5
31C
100
AcDbEntity
8
0
100
AcDbLine
62
7
6
CONTINUOUS
10
80.9917903041
20
169.9093908756
11
80.9917903041
21
178.9093908756
0
LINE
5
31D
100
AcDbEntity
8
0
100
AcDbLine
62
7
6
CONTINUOUS
10
80.9917903041
20
179.6093908756
11
80.9917903041
21
188.6093908756
0
LINE
5
31E
100
AcDbEntity
8
0
100
AcDbLine
62
7
6
CONTINUOUS
10
82.7417903041
20
91.9593908756
11
82.7417903041
21
92.3093908756
0
LINE
5
31F
100
AcDbEntity
8
0
100
AcDbLine
62
7
6
CONTINUOUS
10
82.7417903041
20
101.3093908756
11
82.7417903041
21
102.0093908756
0
LINE
5
320
100
AcDbEntity
8
0
100
AcDbLine
62
7
6
CONTINUOUS
10
82.7417903041
20
111.0093908756
11
82.7417903041
21
111.7093908756
0
LINE
5
321
100
AcDbEntity
8
0
100
AcDbLine
62
7
6
CONTINUOUS
10
82.7417903041
20
120.7093908756
11
82.7417903041
21
121.4093908756
0
LINE
5
322
100
AcDbEntity
8
0
100
AcDbLine
62
7
6
CONTINUOUS
10
82.7417903041
20
130.4093908756
11
82.7417903041
21
131.1093908756
0
LINE
5
323
100
AcDbEntity
8
0
100
AcDbLine
62
7
6
CONTINUOUS
10
82.7417903041
20
140.1093908756
11
82.7417903041
21
140.8093908756
0
LINE
5
324
100
AcDbEntity
8
0
100
AcDbLine
62
7
6
CONTINUOUS
10
82.7417903041
20
149.8093908756
11
82.7417903041
21
150.5093908756
0
LINE
5
325
100
AcDbEntity
8
0
100
AcDbLine
62
7
6
CONTINUOUS
10
82.7417903041
20
159.5093908756
11
82.7417903041
21
160.2093908756
0
LINE
5
326
100
AcDbEntity
8
0
100
AcDbLine
62
7
6
CONTINUOUS
10
82.7417903041
20
169.2093908756
11
82.7417903041
21
169.9093908756
0
LINE
5
327
100
AcDbEntity
8
0
100
AcDbLine
62
7
6
CONTINUOUS
10
82.7417903041
20
178.9093908756
11
82.7417903041
21
179.6093908756
0
LINE
5
328
100
AcDbEntity
8
0
100
AcDbLine
62
7
6
CONTINUOUS
10
82.7417903041
20
188.6093908756
11
82.7417903041
21
188.9593908756
0
LINE
5
329
100
AcDbEntity
8
0
100
AcDbLine
62
7
6
CONTINUOUS
10
82.9917903041
20
192.5593908756
11
82.9917903041
21
192.0593908756
0
LINE
5
32A
100
AcDbEntity
8
0
100
AcDbLine
62
7
6
CONTINUOUS
10
82.9917903041
20
88.3593908756
11
82.9917903041
21
88.8593908756
0
LINE
5
32B
100
AcDbEntity
8
0
100
AcDbLine
62
7
6
CONTINUOUS
10
83.9917903041
20
89.9593908756
11
83.9917903041
21
91.9593908756
0
LINE
5
32C
100
AcDbEntity
8
0
100
AcDbLine
62
7
6
CONTINUOUS
10
83.9917903041
20
188.9593908756
11
83.9917903041
21
191.5593908756
0
LINE
5
32D
100
AcDbEntity
8
0
100
AcDbLine
62
7
6
CONTINUOUS
10
85.7467923057
20
197.9593908756
11
85.7467923057
21
192.8282074119
0
LINE
5
32E
100
AcDbEntity
8
0
100
AcDbLine
62
7
6
CONTINUOUS
10
92.2601943327
20
161.9440521733
11
92.4312043995
21
162.4138984855
0
LINE
5
32F
100
AcDbEntity
8
0
100
AcDbLine
62
7
6
CONTINUOUS
10
92.9207802324
20
161.7036185686
11
93.0917903041
21
162.1734648790
0
LINE
5
330
100
AcDbEntity
8
0
100
AcDbLine
62
7
6
CONTINUOUS
10
68.3917903041
20
149.8093908756
11
79.3917903041
21
149.8093908756
0
LINE
5
331
100
AcDbEntity
8
0
100
AcDbLine
62
7
6
CONTINUOUS
10
80.9917903041
20
149.8093908756
11
91.9917903041
21
149.8093908756
0
LINE
5
332
100
AcDbEntity
8
0
100
AcDbLine
62
7
6
CONTINUOUS
10
70.1417903041
20
150.1593908756
11
77.6417903041
21
150.1593908756
0
LINE
5
333
100
AcDbEntity
8
0
100
AcDbLine
62
7
6
CONTINUOUS
10
82.7417903041
20
150.1593908756
11
90.2417903041
21
150.1593908756
0
LINE
5
334
100
AcDbEntity
8
0
100
AcDbLine
62
7
6
CONTINUOUS
10
68.3917903041
20
150.5093908756
11
79.3917903041
21
150.5093908756
0
LINE
5
335
100
AcDbEntity
8
0
100
AcDbLine
62
7
6
CONTINUOUS
10
80.9917903041
20
150.5093908756
11
91.9917903041
21
150.5093908756
0
LINE
5
336
100
AcDbEntity
8
0
100
AcDbLine
62
7
6
CONTINUOUS
10
88.7191766101
20
89.3593908756
11
88.6917903041
21
89.9593908756
0
LINE
5
337
100
AcDbEntity
8
0
100
AcDbLine
62
7
6
CONTINUOUS
10
86.2721195471
20
192.5593908756
11
86.2721195471
21
192.0593908756
0
LINE
5
338
100
AcDbEntity
8
0
100
AcDbLine
62
7
6
CONTINUOUS
10
86.4917903041
20
88.3593908756
11
86.4917903041
21
89.3593908756
0
LINE
5
339
100
AcDbEntity
8
0
100
AcDbLine
62
7
6
CONTINUOUS
10
87.3467923057
20
82.9593908756
11
87.3467923057
21
89.3593908756
0
LINE
5
33A
100
AcDbEntity
8
0
100
AcDbLine
62
7
6
CONTINUOUS
10
88.9917903041
20
89.9593908756
11
88.9917903041
21
91.9593908756
0
LINE
5
33B
100
AcDbEntity
8
0
100
AcDbLine
62
7
6
CONTINUOUS
10
88.9917903041
20
188.9593908756
11
88.9917903041
21
191.5593908756
0
LINE
5
33C
100
AcDbEntity
8
0
100
AcDbLine
62
7
6
CONTINUOUS
10
84.2644039981
20
89.3593908756
11
84.2917903041
21
89.9593908756
0
LINE
5
33D
100
AcDbEntity
8
0
100
AcDbLine
62
7
6
CONTINUOUS
10
90.1621748681
20
87.4372275751
11
90.1621748682
21
84.8815541759
0
LINE
5
33E
100
AcDbEntity
8
0
100
AcDbLine
62
7
6
CONTINUOUS
10
90.2417903041
20
91.9593908756
11
90.2417903041
21
92.3093908756
0
LINE
5
33F
100
AcDbEntity
8
0
100
AcDbLine
62
7
6
CONTINUOUS
10
90.2417903041
20
101.3093908756
11
90.2417903041
21
102.0093908756
0
LINE
5
340
100
AcDbEntity
8
0
100
AcDbLine
62
7
6
CONTINUOUS
10
90.2417903041
20
111.0093908756
11
90.2417903041
21
111.7093908756
0
LINE
5
341
100
AcDbEntity
8
0
100
AcDbLine
62
7
6
CONTINUOUS
10
90.2417903041
20
120.7093908756
11
90.2417903041
21
121.4093908756
0
LINE
5
342
100
AcDbEntity
8
0
100
AcDbLine
62
7
6
CONTINUOUS
10
90.2417903041
20
130.4093908756
11
90.2417903041
21
131.1093908756
0
LINE
5
343
100
AcDbEntity
8
0
100
AcDbLine
62
7
6
CONTINUOUS
10
90.2417903041
20
140.1093908756
11
90.2417903041
21
140.8093908756
0
LINE
5
344
100
AcDbEntity
8
0
100
AcDbLine
62
7
6
CONTINUOUS
10
90.2417903041
20
149.8093908756
11
90.2417903041
21
150.5093908756
0
LINE
5
345
100
AcDbEntity
8
0
100
AcDbLine
62
7
6
CONTINUOUS
10
90.2417903041
20
159.5093908756
11
90.2417903041
21
160.2093908756
0
LINE
5
346
100
AcDbEntity
8
0
100
AcDbLine
62
7
6
CONTINUOUS
10
90.2417903041
20
169.2093908756
11
90.2417903041
21
169.9093908756
0
LINE
5
347
100
AcDbEntity
8
0
100
AcDbLine
62
7
6
CONTINUOUS
10
90.2417903041
20
178.9093908756
11
90.2417903041
21
179.6093908756
0
LINE
5
348
100
AcDbEntity
8
0
100
AcDbLine
62
7
6
CONTINUOUS
10
90.2417903041
20
188.6093908756
11
90.2417903041
21
188.9593908756
0
LINE
5
349
100
AcDbEntity
8
0
100
AcDbLine
62
7
6
CONTINUOUS
10
90.5917903041
20
87.4372275751
11
90.5917903041
21
84.8815541762
0
LINE
5
34A
100
AcDbEntity
8
0
100
AcDbLine
62
7
6
CONTINUOUS
10
91.4917903041
20
191.5593908756
11
91.4917903041
21
188.6093908756
0
LINE
5
34B
100
AcDbEntity
8
0
100
AcDbLine
62
7
6
CONTINUOUS
10
91.4917903041
20
160.2093908756
11
91.4917903041
21
159.5093908756
0
LINE
5
34C
100
AcDbEntity
8
0
100
AcDbLine
62
7
6
CONTINUOUS
10
91.4917903041
20
150.5093908756
11
91.4917903041
21
149.8093908756
0
LINE
5
34D
100
AcDbEntity
8
0
100
AcDbLine
62
7
6
CONTINUOUS
10
91.4917903041
20
140.8093908756
11
91.4917903041
21
140.6593908756
0
LINE
5
34E
100
AcDbEntity
8
0
100
AcDbLine
62
7
6
CONTINUOUS
10
91.4917903041
20
111.7093908756
11
91.4917903041
21
111.0093908756
0
LINE
5
34F
100
AcDbEntity
8
0
100
AcDbLine
62
7
6
CONTINUOUS
10
91.4917903041
20
102.0093908756
11
91.4917903041
21
101.3093908756
0
LINE
5
350
100
AcDbEntity
8
0
100
AcDbLine
62
7
6
CONTINUOUS
10
91.6390979450
20
192.0593908756
11
91.6390979450
21
193.7737612743
0
LINE
5
351
100
AcDbEntity
8
0
100
AcDbLine
62
7
6
CONTINUOUS
10
91.6390979450
20
195.7450204770
11
91.6390979450
21
196.9593908756
0
LINE
5
352
100
AcDbEntity
8
0
100
AcDbLine
62
7
6
CONTINUOUS
10
91.9917903041
20
92.3093908756
11
91.9917903041
21
120.7093908756
0
LINE
5
353
100
AcDbEntity
8
0
100
AcDbLine
62
7
6
CONTINUOUS
10
91.9917903041
20
121.4093908756
11
91.9917903041
21
130.4093908756
0
LINE
5
354
100
AcDbEntity
8
0
100
AcDbLine
62
7
6
CONTINUOUS
10
91.9917903041
20
131.1093908756
11
91.9917903041
21
140.1093908756
0
LINE
5
355
100
AcDbEntity
8
0
100
AcDbLine
62
7
6
CONTINUOUS
10
91.9917903041
20
140.6593908756
11
91.9917903041
21
169.2093908756
0
LINE
5
356
100
AcDbEntity
8
0
100
AcDbLine
62
7
6
CONTINUOUS
10
91.9917903041
20
169.9093908756
11
91.9917903041
21
178.9093908756
0
LINE
5
357
100
AcDbEntity
8
0
100
AcDbLine
62
7
6
CONTINUOUS
10
91.9917903041
20
179.6093908756
11
91.9917903041
21
193.7737612743
0
LINE
5
358
100
AcDbEntity
8
0
100
AcDbLine
62
7
6
CONTINUOUS
10
91.9917903041
20
194.4445482756
11
91.9917903041
21
195.0742334757
0
LINE
5
359
100
AcDbEntity
8
0
100
AcDbLine
62
7
6
CONTINUOUS
10
91.9917903041
20
195.7450204770
11
91.9917903041
21
197.4593908756
0
LINE
5
35A
100
AcDbEntity
8
0
100
AcDbLine
62
7
6
CONTINUOUS
10
92.1917903041
20
140.4593908756
11
92.1917903041
21
139.9593908756
0
LINE
5
35B
100
AcDbEntity
8
0
100
AcDbLine
62
7
6
CONTINUOUS
10
93.0917903041
20
184.3453168723
11
93.0917903041
21
162.1734648790
0
LINE
5
35C
100
AcDbEntity
8
0
100
AcDbLine
62
7
6
CONTINUOUS
10
93.0917903041
20
140.4593908756
11
93.0917903041
21
119.6734648790
0
LINE
5
35D
100
AcDbEntity
8
0
100
AcDbLine
62
7
6
CONTINUOUS
10
93.0917903041
20
95.6453168723
11
93.0917903041
21
89.3593908756
0
LINE
5
35E
100
AcDbEntity
8
0
100
AcDbLine
62
7
6
CONTINUOUS
10
93.2390979450
20
88.8593908756
11
93.2390979450
21
87.7734648790
0
LINE
5
35F
100
AcDbEntity
8
0
100
AcDbLine
62
7
6
CONTINUOUS
10
93.2390979450
20
84.5453168723
11
93.2390979450
21
83.9593908756
0
LINE
5
360
100
AcDbEntity
8
0
100
AcDbLine
62
7
6
CONTINUOUS
10
93.5917903041
20
184.3453168723
11
93.5917903041
21
162.1734648790
0
LINE
5
361
100
AcDbEntity
8
0
100
AcDbLine
62
7
6
CONTINUOUS
10
93.5917903041
20
139.9593908756
11
93.5917903041
21
119.6734648790
0
LINE
5
362
100
AcDbEntity
8
0
100
AcDbLine
62
7
6
CONTINUOUS
10
93.5917903041
20
95.6453168723
11
93.5917903041
21
87.7734648790
0
LINE
5
363
100
AcDbEntity
8
0
100
AcDbLine
62
7
6
CONTINUOUS
10
93.5917903041
20
84.5453168723
11
93.5917903041
21
83.4593908756
0
LINE
5
364
100
AcDbEntity
8
0
100
AcDbLine
62
7
6
CONTINUOUS
10
68.3917903041
20
159.5093908756
11
79.3917903041
21
159.5093908756
0
LINE
5
365
100
AcDbEntity
8
0
100
AcDbLine
62
7
6
CONTINUOUS
10
80.9917903041
20
159.5093908756
11
91.9917903041
21
159.5093908756
0
LINE
5
366
100
AcDbEntity
8
0
100
AcDbLine
62
7
6
CONTINUOUS
10
70.1417903041
20
159.8593908756
11
77.6417903041
21
159.8593908756
0
LINE
5
367
100
AcDbEntity
8
0
100
AcDbLine
62
7
6
CONTINUOUS
10
82.7417903041
20
159.8593908756
11
90.2417903041
21
159.8593908756
0
LINE
5
368
100
AcDbEntity
8
0
100
AcDbLine
62
7
6
CONTINUOUS
10
68.3917903041
20
160.2093908756
11
79.3917903041
21
160.2093908756
0
LINE
5
369
100
AcDbEntity
8
0
100
AcDbLine
62
7
6
CONTINUOUS
10
80.9917903041
20
160.2093908756
11
91.9917903041
21
160.2093908756
0
LINE
5
36A
100
AcDbEntity
8
0
100
AcDbLine
62
7
6
CONTINUOUS
10
94.2917903041
20
195.7644335282
11
94.2917903041
21
193.7543482231
0
LINE
5
36B
100
AcDbEntity
8
0
100
AcDbLine
62
7
6
CONTINUOUS
10
94.7917903041
20
195.7644335282
11
94.7917903041
21
193.7543482231
0
LINE
5
36C
100
AcDbEntity
8
0
100
AcDbLine
62
7
6
CONTINUOUS
10
93.5917903041
20
162.1734648790
11
93.0917903041
21
162.1734648790
0
LINE
5
36D
100
AcDbEntity
8
0
100
AcDbLine
62
7
6
CONTINUOUS
10
92.2601943327
20
119.4440521733
11
92.4312043995
21
119.9138984855
0
LINE
5
36E
100
AcDbEntity
8
0
100
AcDbLine
62
7
6
CONTINUOUS
10
92.9207802324
20
119.2036185686
11
93.0917903041
21
119.6734648790
0
LINE
5
36F
100
AcDbEntity
8
0
100
AcDbLine
62
7
6
CONTINUOUS
10
68.3917903041
20
169.2093908756
11
79.3917903041
21
169.2093908756
0
LINE
5
370
100
AcDbEntity
8
0
100
AcDbLine
62
7
6
CONTINUOUS
10
80.9917903041
20
169.2093908756
11
91.9917903041
21
169.2093908756
0
LINE
5
371
100
AcDbEntity
8
0
100
AcDbLine
62
7
6
CONTINUOUS
10
70.1417903041
20
169.5593908756
11
77.6417903041
21
169.5593908756
0
LINE
5
372
100
AcDbEntity
8
0
100
AcDbLine
62
7
6
CONTINUOUS
10
82.7417903041
20
169.5593908756
11
90.2417903041
21
169.5593908756
0
LINE
5
373
100
AcDbEntity
8
0
100
AcDbLine
62
7
6
CONTINUOUS
10
92.9207802324
20
161.7036185686
11
92.2601943327
21
161.9440521733
0
LINE
5
374
100
AcDbEntity
8
0
100
AcDbLine
62
7
6
CONTINUOUS
10
93.0917903041
20
162.1734648790
11
92.4312044044
21
162.4138984837
0
LINE
5
375
100
AcDbEntity
8
0
100
AcDbLine
62
7
6
CONTINUOUS
10
68.3917903041
20
169.9093908756
11
79.3917903041
21
169.9093908756
0
LINE
5
376
100
AcDbEntity
8
0
100
AcDbLine
62
7
6
CONTINUOUS
10
80.9917903041
20
169.9093908756
11
91.9917903041
21
169.9093908756
0
LINE
5
377
100
AcDbEntity
8
0
100
AcDbLine
62
7
6
CONTINUOUS
10
92.2601943327
20
184.5747295780
11
92.4312044044
21
184.1048832676
0
LINE
5
378
100
AcDbEntity
8
0
100
AcDbLine
62
7
6
CONTINUOUS
10
92.9207802324
20
184.8151631827
11
93.0917903041
21
184.3453168723
0
LINE
5
379
100
AcDbEntity
8
0
100
AcDbLine
62
7
6
CONTINUOUS
10
92.2601943327
20
195.5570819528
11
92.4312044044
21
195.0872356424
0
LINE
5
37A
100
AcDbEntity
8
0
100
AcDbLine
62
7
6
CONTINUOUS
10
68.3917903041
20
178.9093908756
11
79.3917903041
21
178.9093908756
0
LINE
5
37B
100
AcDbEntity
8
0
100
AcDbLine
62
7
6
CONTINUOUS
10
80.9917903041
20
178.9093908756
11
91.9917903041
21
178.9093908756
0
LINE
5
37C
100
AcDbEntity
8
0
100
AcDbLine
62
7
6
CONTINUOUS
10
70.1417903041
20
179.2593908756
11
77.6417903041
21
179.2593908756
0
LINE
5
37D
100
AcDbEntity
8
0
100
AcDbLine
62
7
6
CONTINUOUS
10
82.7417903041
20
179.2593908756
11
90.2417903041
21
179.2593908756
0
LINE
5
37E
100
AcDbEntity
8
0
100
AcDbLine
62
7
6
CONTINUOUS
10
68.3917903041
20
179.6093908756
11
79.3917903041
21
179.6093908756
0
LINE
5
37F
100
AcDbEntity
8
0
100
AcDbLine
62
7
6
CONTINUOUS
10
80.9917903041
20
179.6093908756
11
91.9917903041
21
179.6093908756
0
LINE
5
380
100
AcDbEntity
8
0
100
AcDbLine
62
7
6
CONTINUOUS
10
94.1207802324
20
196.2342798386
11
94.2917903041
21
195.7644335282
0
LINE
5
381
100
AcDbEntity
8
0
100
AcDbLine
62
7
6
CONTINUOUS
10
93.5917903041
20
184.3453168723
11
93.0917903041
21
184.3453168723
0
LINE
5
382
100
AcDbEntity
8
0
100
AcDbLine
62
7
6
CONTINUOUS
10
92.2601943327
20
95.8747295780
11
92.9207802324
21
96.1151631827
0
LINE
5
383
100
AcDbEntity
8
0
100
AcDbLine
62
7
6
CONTINUOUS
10
92.4312044044
20
95.4048832676
11
93.0917903041
21
95.6453168723
0
LINE
5
384
100
AcDbEntity
8
0
100
AcDbLine
62
7
6
CONTINUOUS
10
68.3917903041
20
188.6093908756
11
79.3917903041
21
188.6093908756
0
LINE
5
385
100
AcDbEntity
8
0
100
AcDbLine
62
7
6
CONTINUOUS
10
80.9917903041
20
188.6093908756
11
91.9917903041
21
188.6093908756
0
LINE
5
386
100
AcDbEntity
8
0
100
AcDbLine
62
7
6
CONTINUOUS
10
70.1417903041
20
188.9593908756
11
77.6417903041
21
188.9593908756
0
LINE
5
387
100
AcDbEntity
8
0
100
AcDbLine
62
7
6
CONTINUOUS
10
82.7417903041
20
188.9593908756
11
90.2417903041
21
188.9593908756
0
LINE
5
388
100
AcDbEntity
8
0
100
AcDbLine
62
7
6
CONTINUOUS
10
91.4917903041
20
191.5593908756
11
83.4917903041
21
191.5593908756
0
LINE
5
389
100
AcDbEntity
8
0
100
AcDbLine
62
7
6
CONTINUOUS
10
76.8917903041
20
191.5593908756
11
70.8917903041
21
191.5593908756
0
LINE
5
38A
100
AcDbEntity
8
0
100
AcDbLine
62
7
6
CONTINUOUS
10
77.3917903041
20
192.0593908756
11
70.3917903041
21
192.0593908756
0
LINE
5
38B
100
AcDbEntity
8
0
100
AcDbLine
62
7
6
CONTINUOUS
10
82.9917903041
20
192.0593908756
11
91.9917903041
21
192.0593908756
0
LINE
5
38C
100
AcDbEntity
8
0
100
AcDbLine
62
7
6
CONTINUOUS
10
86.2721195471
20
192.5593908756
11
82.9917903041
21
192.5593908756
0
LINE
5
38D
100
AcDbEntity
8
0
100
AcDbLine
62
7
6
CONTINUOUS
10
77.3917903041
20
192.5593908756
11
70.3917903041
21
192.5593908756
0
LINE
5
38E
100
AcDbEntity
8
0
100
AcDbLine
62
7
6
CONTINUOUS
10
63.0510172271
20
193.0593908756
11
84.5552986310
21
193.0593908756
0
LINE
5
38F
100
AcDbEntity
8
0
100
AcDbLine
62
7
6
CONTINUOUS
10
94.7917903041
20
193.7543482231
11
94.2917903041
21
193.7543482231
0
LINE
5
390
100
AcDbEntity
8
0
100
AcDbLine
62
7
6
CONTINUOUS
10
91.6390979450
20
193.7737612743
11
91.9917903041
21
193.7737612712
0
LINE
5
391
100
AcDbEntity
8
0
100
AcDbLine
62
7
6
CONTINUOUS
10
91.2628003757
20
84.4117078658
11
92.9207802324
21
85.0151631827
0
LWPOLYLINE
5
392
100
AcDbEntity
8
0
100
AcDbPolyline
62
7
6
CONTINUOUS
90
12
70
0
10
52.4292896027
20
197.9593906984
10
52.4004342628
20
197.9590878907
10
52.1969612304
20
197.9405071716
10
52.0053360171
20
197.8952123426
10
51.8282036907
20
197.8255066144
10
51.6683947985
20
197.7332586246
10
51.5286341269
20
197.6199979125
10
51.4134276635
20
197.4892754221
10
51.3247887044
20
197.3432584898
10
51.2658822761
20
197.1873501247
10
51.2377259207
20
197.0261728589
10
51.2351075296
20
196.9593908764
0
LINE
5
393
100
AcDbEntity
8
0
100
AcDbLine
62
7
6
CONTINUOUS
10
91.6390979450
20
195.7450204770
11
91.9917903041
21
195.7450204770
0
LINE
5
394
100
AcDbEntity
8
0
100
AcDbLine
62
7
6
CONTINUOUS
10
94.7917903041
20
195.7644335282
11
94.2917903041
21
195.7644335282
0
LINE
5
395
100
AcDbEntity
8
0
100
AcDbLine
62
7
6
CONTINUOUS
10
51.2351055684
20
196.9593908754
11
91.9917903041
21
196.9593908756
0
LINE
5
396
100
AcDbEntity
8
0
100
AcDbLine
62
7
6
CONTINUOUS
10
52.4292816751
20
197.9593903706
11
91.4917903041
21
197.9593908756
0
LINE
5
397
100
AcDbEntity
8
0
100
AcDbLine
62
7
6
CONTINUOUS
10
94.1207802324
20
193.2845019127
11
92.2601943327
21
193.9616997985
0
LINE
5
398
100
AcDbEntity
8
0
100
AcDbLine
62
7
6
CONTINUOUS
10
94.2917903041
20
193.7543482231
11
92.4312044044
21
194.4315461088
0
LINE
5
399
100
AcDbEntity
8
0
100
AcDbLine
62
7
6
CONTINUOUS
10
52.4300706178
20
263.8764431031
11
52.1893620360
21
263.4381973060
0
LINE
5
39A
100
AcDbEntity
8
0
100
AcDbLine
62
7
6
CONTINUOUS
10
72.4417903041
20
246.0662436548
11
94.2917903041
21
246.0662436548
0
LINE
5
39B
100
AcDbEntity
8
0
100
AcDbLine
62
7
6
CONTINUOUS
10
84.7417903041
20
246.5662436548
11
94.7917903041
21
246.5662436548
0
LINE
5
39C
100
AcDbEntity
8
0
100
AcDbLine
62
7
6
CONTINUOUS
10
76.2417903041
20
249.5662436548
11
86.7417903041
21
249.5662436548
0
LINE
5
39D
100
AcDbEntity
8
0
100
AcDbLine
62
7
6
CONTINUOUS
10
75.7417903041
20
250.0662436548
11
87.2417903041
21
250.0662436548
0
LINE
5
39E
100
AcDbEntity
8
0
100
AcDbLine
62
7
6
CONTINUOUS
10
75.7417903041
20
253.0662436548
11
87.2417903041
21
253.0662436548
0
LINE
5
39F
100
AcDbEntity
8
0
100
AcDbLine
62
7
6
CONTINUOUS
10
86.7417903041
20
253.5662436548
11
76.2417903041
21
253.5662436548
0
LINE
5
3A0
100
AcDbEntity
8
DEFAULT_1
100
AcDbLine
62
2
6
CENTER
10
73.8917903041
20
263.0662436548
11
73.8917903041
21
257.7412436548
0
LINE
5
3A1
100
AcDbEntity
8
DEFAULT_1
100
AcDbLine
62
2
6
CENTER
10
73.8917903041
20
263.0662436548
11
73.8917903041
21
268.3912436548
0
LINE
5
3A2
100
AcDbEntity
8
0
100
AcDbLine
62
7
6
CONTINUOUS
10
75.7417903041
20
253.0662436548
11
75.7417903041
21
250.0662436548
0
LINE
5
3A3
100
AcDbEntity
8
0
100
AcDbLine
62
7
6
CONTINUOUS
10
75.9917903041
20
250.0662436548
11
75.9917903041
21
253.0662436548
0
LINE
5
3A4
100
AcDbEntity
8
0
100
AcDbLine
62
7
6
CONTINUOUS
10
78.2417903041
20
246.0662436548
11
78.2417903041
21
249.5662436548
0
LINE
5
3A5
100
AcDbEntity
8
DEFAULT_1
100
AcDbLine
62
2
6
CENTER
10
86.4917903041
20
263.0662436548
11
81.1667903041
21
263.0662436548
0
LINE
5
3A6
100
AcDbEntity
8
DEFAULT_1
100
AcDbLine
62
2
6
CENTER
10
73.8917903041
20
263.0662436548
11
68.5667903041
21
263.0662436548
0
LINE
5
3A7
100
AcDbEntity
8
DEFAULT_1
100
AcDbLine
62
2
6
CENTER
10
73.8917903041
20
263.0662436548
11
79.2167903041
21
263.0662436548
0
LINE
5
3A8
100
AcDbEntity
8
DEFAULT_1
100
AcDbLine
62
2
6
CENTER
10
86.4917903041
20
263.0662436548
11
91.8167903041
21
263.0662436548
0
LINE
5
3A9
100
AcDbEntity
8
0
100
AcDbLine
62
7
6
CONTINUOUS
10
80.0896710763
20
266.4662436548
11
80.0896710763
21
267.4662436548
0
LINE
5
3AA
100
AcDbEntity
8
0
100
AcDbLine
62
7
6
CONTINUOUS
10
93.5917903041
20
265.5768758359
11
93.0917903041
21
265.5768758359
0
LINE
5
3AB
100
AcDbEntity
8
DEFAULT_1
100
AcDbLine
62
2
6
CENTER
10
81.4917903041
20
249.7607611052
11
81.4917903041
21
241.0697357991
0
LINE
5
3AC
100
AcDbEntity
8
0
100
AcDbLine
62
7
6
CONTINUOUS
10
81.4917903041
20
250.0662436548
11
81.4917903041
21
253.0662436548
0
LINE
5
3AD
100
AcDbEntity
8
0
100
AcDbLine
62
7
6
CONTINUOUS
10
94.7917903041
20
265.9662436548
11
93.5917903041
21
265.9662436548
0
LINE
5
3AE
100
AcDbEntity
8
0
100
AcDbLine
62
7
6
CONTINUOUS
10
94.2917903041
20
266.4662436548
11
93.4319777049
21
266.4662436548
0
LINE
5
3AF
100
AcDbEntity
8
0
100
AcDbLine
62
7
6
CONTINUOUS
10
87.3467923057
20
266.4662436548
11
80.0896710763
21
266.4662436548
0
LINE
5
3B0
100
AcDbEntity
8
0
100
AcDbLine
62
7
6
CONTINUOUS
10
87.3467923057
20
267.4662436548
11
80.0896710763
21
267.4662436548
0
LINE
5
3B1
100
AcDbEntity
8
0
100
AcDbLine
62
7
6
CONTINUOUS
10
84.7417903041
20
246.0662436548
11
84.7417903041
21
249.5662436548
0
LINE
5
3B2
100
AcDbEntity
8
0
100
AcDbLine
62
7
6
CONTINUOUS
10
90.7914143179
20
267.1673716420
11
90.7910966776
21
267.1674278834
0
LINE
5
3B3
100
AcDbEntity
8
0
100
AcDbLine
62
7
6
CONTINUOUS
10
91.5335857283
20
267.0227525163
11
91.2152650989
21
267.0823930770
0
LWPOLYLINE
5
3B4
100
AcDbEntity
8
0
100
AcDbPolyline
62
7
6
CONTINUOUS
90
4
70
0
10
91.2152650989
20
267.0823930770
10
91.0568066366
20
267.1142374110
10
90.9009253514
20
267.1466164954
10
90.7914143179
20
267.1673716420
0
LINE
5
3B5
100
AcDbEntity
8
DEFAULT_1
100
AcDbLine
62
2
6
CENTER
10
86.4917903041
20
263.0662436548
11
86.4917903041
21
257.7412436548
0
LINE
5
3B6
100
AcDbEntity
8
DEFAULT_1
100
AcDbLine
62
2
6
CENTER
10
86.4917903041
20
263.0662436548
11
86.4917903041
21
268.3912436548
0
LINE
5
3B7
100
AcDbEntity
8
0
100
AcDbLine
62
7
6
CONTINUOUS
10
86.9917903041
20
253.0662436548
11
86.9917903041
21
250.0662436548
0
LINE
5
3B8
100
AcDbEntity
8
0
100
AcDbLine
62
7
6
CONTINUOUS
10
87.2417903041
20
253.0662436548
11
87.2417903041
21
250.0662436548
0
LINE
5
3B9
100
AcDbEntity
8
0
100
AcDbLine
62
7
6
CONTINUOUS
10
87.3467923057
20
266.4662436548
11
87.3467923057
21
267.4662436548
0
LINE
5
3BA
100
AcDbEntity
8
0
100
AcDbLine
62
7
6
CONTINUOUS
10
91.5324789803
20
267.0229871892
11
91.5335857955
21
267.0227528472
0
LWPOLYLINE
5
3BB
100
AcDbEntity
8
0
100
AcDbPolyline
62
7
6
CONTINUOUS
90
3
70
0
10
91.5880087677
20
267.0113739275
10
91.5610296798
20
267.0171252106
10
91.5324789803
20
267.0229871892
0
LINE
5
3BC
100
AcDbEntity
8
0
100
AcDbLine
62
7
6
CONTINUOUS
10
91.5335857955
20
267.0227528472
11
91.5385430829
21
267.0214130332
0
LINE
5
3BD
100
AcDbEntity
8
0
100
AcDbLine
62
7
6
CONTINUOUS
10
93.0917903041
20
246.0662436548
11
93.0917903041
21
265.5768758359
0
LINE
5
3BE
100
AcDbEntity
8
0
100
AcDbLine
62
7
6
CONTINUOUS
10
93.5917903041
20
266.1007545955
11
93.5917903041
21
246.5662436548
0
LINE
5
3BF
100
AcDbEntity
8
0
100
AcDbLine
62
7
6
CONTINUOUS
10
94.1207802324
20
265.9662436548
11
94.1207802324
21
246.5662436548
0
LINE
5
3C0
100
AcDbEntity
8
0
100
AcDbLine
62
7
6
CONTINUOUS
10
94.7917903041
20
265.9662436548
11
94.7917903041
21
246.5662436548
0
LINE
5
3C1
100
AcDbEntity
8
0
100
AcDbLine
62
7
6
CONTINUOUS
10
151.7833726854
20
220.3942190255
11
151.6355329949
21
217.3502536894
0
LINE
5
3C2
100
AcDbEntity
8
0
100
AcDbLine
62
7
6
CONTINUOUS
10
152.4611148462
20
223.1899945061
11
151.7833726854
21
220.3942190255
0
LINE
5
3C3
100
AcDbEntity
8
0
100
AcDbLine
62
7
6
CONTINUOUS
10
153.7796954315
20
225.2121826234
11
152.4611148462
21
223.1899945061
0
LINE
5
3C4
100
AcDbEntity
8
0
100
AcDbLine
62
7
6
CONTINUOUS
10
151.6355329949
20
217.3502536894
11
152.7399386178
21
211.6594623820
0
LINE
5
3C5
100
AcDbEntity
8
0
100
AcDbLine
62
7
6
CONTINUOUS
10
152.7399386178
20
211.6594623820
11
155.7751665964
21
207.0005076142
0
LINE
5
3C6
100
AcDbEntity
8
0
100
AcDbLine
62
7
6
CONTINUOUS
10
156.7872736957
20
226.1810046103
11
153.7796954315
21
225.2121826234
0
LWPOLYLINE
5
3C7
100
AcDbEntity
8
0
100
AcDbPolyline
62
7
6
CONTINUOUS
90
9
70
0
10
160.4455095421
20
215.0005076142
10
160.4551169019
20
214.8054172922
10
160.4835697759
20
214.6178241818
10
160.5297747360
20
214.4449373812
10
160.5919561515
20
214.2934008330
10
160.6677244256
20
214.1690380019
10
160.7541678260
20
214.0766280817
10
160.8479643811
20
214.0197223338
10
160.9455095421
20
214.0005076142
0
LINE
5
3C8
100
AcDbEntity
8
0
100
AcDbLine
62
7
6
CONTINUOUS
10
159.9455095421
20
221.0005076142
11
159.9455095421
21
215.0005076142
0
LINE
5
3C9
100
AcDbEntity
8
0
100
AcDbLine
62
7
6
CONTINUOUS
10
160.4455095421
20
215.0005076142
11
160.4455095421
21
221.0005076142
0
LINE
5
3CA
100
AcDbEntity
8
0
100
AcDbLine
62
7
6
CONTINUOUS
10
155.7751665964
20
207.0005076142
11
183.1769391056
21
207.0005076142
0
LINE
5
3CB
100
AcDbEntity
8
0
100
AcDbLine
62
7
6
CONTINUOUS
10
183.1392794348
20
208.0005076142
11
177.9455095421
21
208.0005076142
0
LINE
5
3CC
100
AcDbEntity
8
0
100
AcDbLine
62
7
6
CONTINUOUS
10
164.9455095421
20
207.0005076142
11
164.9455095421
21
214.0005076142
0
LWPOLYLINE
5
3CD
100
AcDbEntity
8
0
100
AcDbPolyline
62
7
6
CONTINUOUS
90
9
70
0
10
181.9455095421
20
214.0005076142
10
182.0430547031
20
214.0197223338
10
182.1368512583
20
214.0766280817
10
182.2232946586
20
214.1690380019
10
182.2990629327
20
214.2934008330
10
182.3612443483
20
214.4449373812
10
182.4074493084
20
214.6178241818
10
182.4359021823
20
214.8054172922
10
182.4455095421
20
215.0005076142
0
LINE
5
3CE
100
AcDbEntity
8
0
100
AcDbLine
62
7
6
CONTINUOUS
10
160.9455095421
20
214.0005076142
11
181.9455095421
21
214.0005076142
0
LINE
5
3CF
100
AcDbEntity
8
0
100
AcDbLine
62
7
6
CONTINUOUS
10
159.9455095421
20
215.0005076142
11
182.9455095421
21
215.0005076142
0
LWPOLYLINE
5
3D0
100
AcDbEntity
8
0
100
AcDbPolyline
62
7
6
CONTINUOUS
90
3
70
0
10
171.4455095421
20
222.0005076142
10
171.4471825565
20
221.9842458576
10
171.4455095421
20
221.9345937003
0
LWPOLYLINE
5
3D1
100
AcDbEntity
8
0
100
AcDbPolyline
62
7
6
CONTINUOUS
90
3
70
0
10
171.4455095421
20
214.5887278288
10
171.4438576686
20
214.7869684630
10
171.4455095421
20
215.0005076142
0
LINE
5
3D2
100
AcDbEntity
8
0
100
AcDbLine
62
7
6
CONTINUOUS
10
171.4455095421
20
215.0005076142
11
171.4455095421
21
221.0005076142
0
LINE
5
3D3
100
AcDbEntity
8
DEFAULT_1
100
AcDbLine
62
2
6
CENTER
10
171.4455095421
20
203.7188206821
11
171.4455095421
21
214.0664215281
0
LINE
5
3D4
100
AcDbEntity
8
DEFAULT_1
100
AcDbLine
62
2
6
CENTER
10
171.4455095421
20
221.9345937003
11
171.4455095421
21
227.0005076142
0
LINE
5
3D5
100
AcDbEntity
8
DEFAULT_1
100
AcDbLine
62
2
6
CENTER
10
171.4455095421
20
214.5887278288
11
171.4455095421
21
215.0005076142
0
LINE
5
3D6
100
AcDbEntity
8
DEFAULT_1
100
AcDbLine
62
2
6
CENTER
10
171.4455095421
20
221.0005076142
11
171.4455095421
21
221.4122873996
0
LINE
5
3D7
100
AcDbEntity
8
0
100
AcDbLine
62
7
6
CONTINUOUS
10
171.4455095421
20
221.9345937003
11
171.4455095421
21
221.4122873996
0
LWPOLYLINE
5
3D8
100
AcDbEntity
8
0
100
AcDbPolyline
62
7
6
CONTINUOUS
90
3
70
0
10
171.4455095421
20
221.4122873996
10
171.4438576686
20
221.2140467654
10
171.4455095421
20
221.0005076142
0
LWPOLYLINE
5
3D9
100
AcDbEntity
8
0
100
AcDbPolyline
62
7
6
CONTINUOUS
90
4
70
0
10
171.4455095421
20
214.0005076142
10
171.4471825565
20
214.0167693709
10
171.4455095421
20
214.0664215281
10
171.4455095421
20
214.5887278288
0
LINE
5
3DA
100
AcDbEntity
8
0
100
AcDbLine
62
7
6
CONTINUOUS
10
159.9455095421
20
221.0005076142
11
182.9455095421
21
221.0005076142
0
LINE
5
3DB
100
AcDbEntity
8
0
100
AcDbLine
62
7
6
CONTINUOUS
10
181.9455095421
20
222.0005076142
11
160.9455095421
21
222.0005076142
0
LWPOLYLINE
5
3DC
100
AcDbEntity
8
0
100
AcDbPolyline
62
7
6
CONTINUOUS
90
9
70
0
10
160.9455095421
20
222.0005076142
10
160.8479643811
20
221.9812928946
10
160.7541678260
20
221.9243871467
10
160.6677244256
20
221.8319772265
10
160.5919561515
20
221.7076143954
10
160.5297747360
20
221.5560778472
10
160.4835697759
20
221.3831910466
10
160.4551169019
20
221.1955979362
10
160.4455095421
20
221.0005076142
0
LINE
5
3DD
100
AcDbEntity
8
0
100
AcDbLine
62
7
6
CONTINUOUS
10
177.9455095421
20
207.0005076142
11
177.9455095421
21
214.0005076142
0
LINE
5
3DE
100
AcDbEntity
8
0
100
AcDbLine
62
7
6
CONTINUOUS
10
181.3940630764
20
226.9869247324
11
173.7577832240
21
226.0100915790
0
LINE
5
3DF
100
AcDbEntity
8
0
100
AcDbLine
62
7
6
CONTINUOUS
10
173.7577832240
20
226.0100915790
11
165.2152284264
21
225.2121826234
0
LINE
5
3E0
100
AcDbEntity
8
0
100
AcDbLine
62
7
6
CONTINUOUS
10
160.7681558198
20
225.7837098628
11
156.7872736957
21
226.1810046103
0
LINE
5
3E1
100
AcDbEntity
8
0
100
AcDbLine
62
7
6
CONTINUOUS
10
165.2152284264
20
225.2121826234
11
160.7681558198
21
225.7837098628
0
LWPOLYLINE
5
3E2
100
AcDbEntity
8
0
100
AcDbPolyline
62
7
6
CONTINUOUS
90
9
70
0
10
182.4455095421
20
221.0005076142
10
182.4359021823
20
221.1955979362
10
182.4074493084
20
221.3831910466
10
182.3612443483
20
221.5560778472
10
182.2990629327
20
221.7076143954
10
182.2232946586
20
221.8319772265
10
182.1368512583
20
221.9243871467
10
182.0430547031
20
221.9812928946
10
181.9455095421
20
222.0005076142
0
LINE
5
3E3
100
AcDbEntity
8
0
100
AcDbLine
62
7
6
CONTINUOUS
10
183.1769391056
20
207.0005076142
11
183.0832487310
21
209.4883247553
0
LINE
5
3E4
100
AcDbEntity
8
0
100
AcDbLine
62
7
6
CONTINUOUS
10
182.4455095421
20
221.0005076142
11
182.4455095421
21
215.0005076142
0
LINE
5
3E5
100
AcDbEntity
8
0
100
AcDbLine
62
7
6
CONTINUOUS
10
182.9455095421
20
221.0005076142
11
182.9455095421
21
215.0005076142
0
LINE
5
3E6
100
AcDbEntity
8
0
100
AcDbLine
62
7
6
CONTINUOUS
10
184.9741251224
20
212.6953965428
11
187.7872465164
21
215.5901980660
0
LINE
5
3E7
100
AcDbEntity
8
0
100
AcDbLine
62
7
6
CONTINUOUS
10
187.3715736041
20
224.4974618112
11
181.3940630764
21
226.9869247324
0
LINE
5
3E8
100
AcDbEntity
8
0
100
AcDbLine
62
7
6
CONTINUOUS
10
187.7872465164
20
215.5901980660
11
189.5157360406
21
218.7796953137
0
LINE
5
3E9
100
AcDbEntity
8
0
100
AcDbLine
62
7
6
CONTINUOUS
10
183.0832487310
20
209.4883247553
11
184.9741251224
21
212.6953965428
0
LINE
5
3EA
100
AcDbEntity
8
0
100
AcDbLine
62
7
6
CONTINUOUS
10
188.5891565020
20
222.7743280421
11
187.3715736041
21
224.4974618112
0
LINE
5
3EB
100
AcDbEntity
8
0
100
AcDbLine
62
7
6
CONTINUOUS
10
189.5157360406
20
218.7796953137
11
189.3838490076
21
220.7791911529
0
LINE
5
3EC
100
AcDbEntity
8
0
100
AcDbLine
62
7
6
CONTINUOUS
10
189.3838490076
20
220.7791911529
11
188.5891565020
21
222.7743280421
0
ARC
5
3ED
100
AcDbEntity
8
0
100
AcDbCircle
62
7
6
CONTINUOUS
10
81.4917903041
20
91.1593908756
40
3.0000000000
100
AcDbArc
50
323.1301023542
51
336.3978602089
0
ARC
5
3EE
100
AcDbEntity
8
0
100
AcDbCircle
62
7
6
CONTINUOUS
10
81.4917903041
20
92.1593908756
40
3.0000000000
100
AcDbArc
50
177.1038399745
51
180.0000000000
0
ARC
5
3EF
100
AcDbEntity
8
0
100
AcDbCircle
62
7
6
CONTINUOUS
10
81.4917903041
20
92.1593908756
40
3.0000000000
100
AcDbArc
50
99.6245517751
51
134.4639124079
0
ARC
5
3F0
100
AcDbEntity
8
0
100
AcDbCircle
62
7
6
CONTINUOUS
10
81.4917903041
20
91.1593908756
40
3.0000000000
100
AcDbArc
50
180.0000000000
51
300.0000000000
0
ARC
5
3F1
100
AcDbEntity
8
0
100
AcDbCircle
62
7
6
CONTINUOUS
10
76.8917903041
20
88.8593908756
40
0.5000000000
100
AcDbArc
50
0.0000000000
51
90.0000000000
0
ARC
5
3F2
100
AcDbEntity
8
0
100
AcDbCircle
62
7
6
CONTINUOUS
10
70.8917903041
20
88.8593908756
40
0.5000000000
100
AcDbArc
50
90.0000000000
51
180.0000000000
0
ARC
5
3F3
100
AcDbEntity
8
0
100
AcDbCircle
62
7
6
CONTINUOUS
10
70.8917903041
20
192.0593908756
40
0.5000000000
100
AcDbArc
50
180.0000000000
51
270.0000000000
0
ARC
5
3F4
100
AcDbEntity
8
0
100
AcDbCircle
62
7
6
CONTINUOUS
10
76.8917903041
20
192.0593908756
40
0.5000000000
100
AcDbArc
50
270.0000000000
51
360.0000000000
0
ARC
5
3F5
100
AcDbEntity
8
0
100
AcDbCircle
62
7
6
CONTINUOUS
10
81.4917903041
20
189.7593908756
40
3.0000000000
100
AcDbArc
50
60.0000000000
51
180.0000000000
0
ARC
5
3F6
100
AcDbEntity
8
0
100
AcDbCircle
62
7
6
CONTINUOUS
10
81.4917903041
20
188.7593908756
40
3.0000000000
100
AcDbArc
50
180.0000000000
51
182.8961600255
0
ARC
5
3F7
100
AcDbEntity
8
0
100
AcDbCircle
62
7
6
CONTINUOUS
10
81.4917903041
20
188.7593908756
40
3.0000000000
100
AcDbArc
50
225.5360875921
51
260.3754482249
0
ARC
5
3F8
100
AcDbEntity
8
0
100
AcDbCircle
62
7
6
CONTINUOUS
10
81.4917903041
20
189.7593908756
40
3.0000000000
100
AcDbArc
50
33.4181838147
51
36.8698976458
0
ARC
5
3F9
100
AcDbEntity
8
0
100
AcDbCircle
62
7
6
CONTINUOUS
10
83.4917903041
20
88.8593908756
40
0.5000000000
100
AcDbArc
50
90.0000000000
51
180.0000000000
0
ARC
5
3FA
100
AcDbEntity
8
0
100
AcDbCircle
62
7
6
CONTINUOUS
10
83.4917903041
20
192.0593908756
40
0.5000000000
100
AcDbArc
50
180.0000000000
51
270.0000000000
0
ARC
5
3FB
100
AcDbEntity
8
0
100
AcDbCircle
62
7
6
CONTINUOUS
10
92.1917903041
20
96.0626681022
40
0.2000000000
100
AcDbArc
50
180.0000000000
51
290.0000000000
0
ARC
5
3FC
100
AcDbEntity
8
0
100
AcDbCircle
62
7
6
CONTINUOUS
10
92.1917903041
20
119.2561136491
40
0.2000000000
100
AcDbArc
50
70.0000000000
51
180.0000000000
0
ARC
5
3FD
100
AcDbEntity
8
0
100
AcDbCircle
62
7
6
CONTINUOUS
10
92.1917903041
20
140.6593908756
40
0.2000000000
100
AcDbArc
50
180.0000000000
51
270.0000000000
0
ARC
5
3FE
100
AcDbEntity
8
0
100
AcDbCircle
62
7
6
CONTINUOUS
10
92.1917903041
20
161.7561136491
40
0.2000000000
100
AcDbArc
50
70.0000000000
51
180.0000000000
0
ARC
5
3FF
100
AcDbEntity
8
0
100
AcDbCircle
62
7
6
CONTINUOUS
10
92.1917903041
20
184.7626681022
40
0.2000000000
100
AcDbArc
50
180.0000000000
51
290.0000000000
0
ARC
5
400
100
AcDbEntity
8
0
100
AcDbCircle
62
7
6
CONTINUOUS
10
93.0917903041
20
184.3453168723
40
0.5000000000
100
AcDbArc
50
0.0000000000
51
110.0000000000
0
ARC
5
401
100
AcDbEntity
8
0
100
AcDbCircle
62
7
6
CONTINUOUS
10
93.0917903041
20
139.9593908756
40
0.5000000000
100
AcDbArc
50
0.0000000000
51
90.0000000000
0
ARC
5
402
100
AcDbEntity
8
0
100
AcDbCircle
62
7
6
CONTINUOUS
10
93.0917903041
20
95.6453168723
40
0.5000000000
100
AcDbArc
50
0.0000000000
51
110.0000000000
0
ARC
5
403
100
AcDbEntity
8
0
100
AcDbCircle
62
7
6
CONTINUOUS
10
91.0917903041
20
87.4372275751
40
0.5000000000
100
AcDbArc
50
70.0000000000
51
180.0000000000
0
ARC
5
404
100
AcDbEntity
8
0
100
AcDbCircle
62
7
6
CONTINUOUS
10
93.0917903041
20
83.4593908756
40
0.5000000000
100
AcDbArc
50
270.0000000000
51
360.0000000000
0
ARC
5
405
100
AcDbEntity
8
0
100
AcDbCircle
62
7
6
CONTINUOUS
10
91.0917903041
20
84.8815541762
40
0.5000000000
100
AcDbArc
50
180.0000000000
51
290.0000000000
0
ARC
5
406
100
AcDbEntity
8
0
100
AcDbCircle
62
7
6
CONTINUOUS
10
93.0917903041
20
88.8593908756
40
0.5000000000
100
AcDbArc
50
0.0000000000
51
90.0000000000
0
ARC
5
407
100
AcDbEntity
8
0
100
AcDbCircle
62
7
6
CONTINUOUS
10
91.4917903041
20
192.0593908756
40
0.5000000000
100
AcDbArc
50
270.0000000000
51
360.0000000000
0
ARC
5
408
100
AcDbEntity
8
0
100
AcDbCircle
62
7
6
CONTINUOUS
10
77.8917903041
20
192.5593908756
40
0.5000000000
100
AcDbArc
50
101.2498899978
51
180.0000000000
0
ARC
5
409
100
AcDbEntity
8
0
100
AcDbCircle
62
7
6
CONTINUOUS
10
69.8917903041
20
192.5593908756
40
0.5000000000
100
AcDbArc
50
0.0000000000
51
78.7503881781
0
ARC
5
40A
100
AcDbEntity
8
0
100
AcDbCircle
62
7
6
CONTINUOUS
10
77.8917903041
20
88.3593908756
40
0.5000000000
100
AcDbArc
50
180.0000000000
51
258.7503881781
0
ARC
5
40B
100
AcDbEntity
8
0
100
AcDbCircle
62
7
6
CONTINUOUS
10
69.8917903041
20
88.3593908756
40
0.5000000000
100
AcDbArc
50
281.2498899978
51
360.0000000000
0
ARC
5
40C
100
AcDbEntity
8
0
100
AcDbCircle
62
7
6
CONTINUOUS
10
82.4917903041
20
88.3593908756
40
0.5000000000
100
AcDbArc
50
270.0000000000
51
360.0000000000
0
ARC
5
40D
100
AcDbEntity
8
0
100
AcDbCircle
62
7
6
CONTINUOUS
10
82.4917903041
20
192.5593908756
40
0.5000000000
100
AcDbArc
50
0.0000000000
51
78.7500000000
0
ARC
5
40E
100
AcDbEntity
8
0
100
AcDbCircle
62
7
6
CONTINUOUS
10
92.1917903041
20
193.7737612743
40
0.2000000000
100
AcDbArc
50
70.0000000000
51
180.0000000000
0
ARC
5
40F
100
AcDbEntity
8
0
100
AcDbCircle
62
7
6
CONTINUOUS
10
93.0917903041
20
87.7734648790
40
0.5000000000
100
AcDbArc
50
250.0000000000
51
360.0000000000
0
ARC
5
410
100
AcDbEntity
8
0
100
AcDbCircle
62
7
6
CONTINUOUS
10
93.0917903041
20
84.5453168723
40
0.5000000000
100
AcDbArc
50
0.0000000000
51
110.0000000000
0
ARC
5
411
100
AcDbEntity
8
0
100
AcDbCircle
62
7
6
CONTINUOUS
10
92.1917903041
20
195.7450204770
40
0.2000000000
100
AcDbArc
50
180.0000000000
51
290.0000000000
0
ARC
5
412
100
AcDbEntity
8
0
100
AcDbCircle
62
7
6
CONTINUOUS
10
93.0917903041
20
119.6734648790
40
0.5000000000
100
AcDbArc
50
250.0000000000
51
360.0000000000
0
ARC
5
413
100
AcDbEntity
8
0
100
AcDbCircle
62
7
6
CONTINUOUS
10
91.4917903041
20
197.4593908756
40
0.5000000000
100
AcDbArc
50
0.0000000000
51
90.0000000000
0
ARC
5
414
100
AcDbEntity
8
0
100
AcDbCircle
62
7
6
CONTINUOUS
10
93.0917903041
20
162.1734648790
40
0.5000000000
100
AcDbArc
50
250.0000000000
51
360.0000000000
0
ARC
5
415
100
AcDbEntity
8
0
100
AcDbCircle
62
7
6
CONTINUOUS
10
94.2917903041
20
193.7543482231
40
0.5000000000
100
AcDbArc
50
250.0000000000
51
360.0000000000
0
ARC
5
416
100
AcDbEntity
8
0
100
AcDbCircle
62
7
6
CONTINUOUS
10
94.2917903041
20
195.7644335282
40
0.5000000000
100
AcDbArc
50
0.0000000000
51
110.0000000000
0
ARC
5
417
100
AcDbEntity
8
0
100
AcDbCircle
62
7
6
CONTINUOUS
10
92.1917903041
20
96.0626681022
40
0.6999782264
100
AcDbArc
50
253.3456871819
51
290.0000000000
0
ARC
5
418
100
AcDbEntity
8
0
100
AcDbCircle
62
7
6
CONTINUOUS
10
92.1917903041
20
119.2561136491
40
0.6999782264
100
AcDbArc
50
70.0000000000
51
106.6374453556
0
ARC
5
419
100
AcDbEntity
8
0
100
AcDbCircle
62
7
6
CONTINUOUS
10
92.1917903041
20
140.6593908756
40
0.6999936605
100
AcDbArc
50
180.0000000000
51
232.0532523764
0
ARC
5
41A
100
AcDbEntity
8
0
100
AcDbCircle
62
7
6
CONTINUOUS
10
92.1917903041
20
140.6593908756
40
0.6999936605
100
AcDbArc
50
253.0223385567
51
270.0000000000
0
ARC
5
41B
100
AcDbEntity
8
0
100
AcDbCircle
62
7
6
CONTINUOUS
10
92.1917903041
20
161.7561136491
40
0.6999782264
100
AcDbArc
50
70.0000000000
51
106.6374453556
0
ARC
5
41C
100
AcDbEntity
8
0
100
AcDbCircle
62
7
6
CONTINUOUS
10
92.1917903041
20
193.7737612743
40
0.7000000000
100
AcDbArc
50
70.0000000000
51
106.6023305405
0
ARC
5
41D
100
AcDbEntity
8
0
100
AcDbCircle
62
7
6
CONTINUOUS
10
92.1917903041
20
195.7450204770
40
0.7000000000
100
AcDbArc
50
253.3976694595
51
290.0000000000
0
ARC
5
41E
100
AcDbEntity
8
0
100
AcDbCircle
62
7
6
CONTINUOUS
10
92.1917903041
20
184.7626681022
40
0.6999782264
100
AcDbArc
50
253.3456871819
51
290.0000000000
0
CIRCLE
5
41F
100
AcDbEntity
8
0
100
AcDbCircle
62
7
6
CONTINUOUS
10
73.8917903041
20
263.0662436548
40
2.5000000000
0
CIRCLE
5
420
100
AcDbEntity
8
0
100
AcDbCircle
62
7
6
CONTINUOUS
10
73.8917903041
20
263.0662436548
40
2.4500000000
0
CIRCLE
5
421
100
AcDbEntity
8
0
100
AcDbCircle
62
7
6
CONTINUOUS
10
73.8917903041
20
263.0662436548
40
1.4500000000
0
CIRCLE
5
422
100
AcDbEntity
8
0
100
AcDbCircle
62
7
6
CONTINUOUS
10
86.4917903041
20
263.0662436548
40
2.5000000000
0
CIRCLE
5
423
100
AcDbEntity
8
0
100
AcDbCircle
62
7
6
CONTINUOUS
10
86.4917903041
20
263.0662436548
40
2.4500000000
0
CIRCLE
5
424
100
AcDbEntity
8
0
100
AcDbCircle
62
7
6
CONTINUOUS
10
86.4917903041
20
263.0662436548
40
1.4500000000
0
ARC
5
425
100
AcDbEntity
8
0
100
AcDbCircle
62
7
6
CONTINUOUS
10
86.4917903041
20
263.0662436548
40
5.5000000000
100
AcDbArc
50
50.1407042464
51
126.8473899311
0
ARC
5
426
100
AcDbEntity
8
0
100
AcDbCircle
62
7
6
CONTINUOUS
10
73.8917903041
20
263.0662436548
40
5.5000000000
100
AcDbArc
50
52.3592305020
51
132.2761341491
0
CIRCLE
5
427
100
AcDbEntity
8
0
100
AcDbCircle
62
7
6
CONTINUOUS
10
86.4917903041
20
263.0662436548
40
2.5500000000
0
CIRCLE
5
428
100
AcDbEntity
8
0
100
AcDbCircle
62
7
6
CONTINUOUS
10
73.8917903041
20
263.0662436548
40
2.5500000000
0
ARC
5
429
100
AcDbEntity
8
0
100
AcDbCircle
62
7
6
CONTINUOUS
10
86.7417903041
20
253.0662436548
40
0.5000000000
100
AcDbArc
50
0.0000000000
51
90.0000000000
0
ARC
5
42A
100
AcDbEntity
8
0
100
AcDbCircle
62
7
6
CONTINUOUS
10
86.7417903041
20
250.0662436548
40
0.5000000000
100
AcDbArc
50
270.0000000000
51
360.0000000000
0
ARC
5
42B
100
AcDbEntity
8
0
100
AcDbCircle
62
7
6
CONTINUOUS
10
76.2417903041
20
250.0662436548
40
0.5000000000
100
AcDbArc
50
180.0000000000
51
270.0000000000
0
ARC
5
42C
100
AcDbEntity
8
0
100
AcDbCircle
62
7
6
CONTINUOUS
10
76.2417903041
20
253.0662436548
40
0.5000000000
100
AcDbArc
50
90.0000000000
51
180.0000000000
0
ARC
5
42D
100
AcDbEntity
8
0
100
AcDbCircle
62
7
6
CONTINUOUS
10
80.0896710763
20
117.4662436548
40
150.0000000000
100
AcDbArc
50
90.0000000000
51
100.9330972384
0
ARC
5
42E
100
AcDbEntity
8
0
100
AcDbCircle
62
7
6
CONTINUOUS
10
87.3467923057
20
247.4662436548
40
20.0000000000
100
AcDbArc
50
72.8655305650
51
77.7568703922
0
ARC
5
42F
100
AcDbEntity
8
0
100
AcDbCircle
62
7
6
CONTINUOUS
10
51.7351055465
20
264.2527165270
40
0.5000000000
100
AcDbArc
50
100.9330950301
51
241.9133088221
0
ARC
5
430
100
AcDbEntity
8
0
100
AcDbCircle
62
7
6
CONTINUOUS
10
20.8972464609
20
206.4662436548
40
65.0000000000
100
AcDbArc
50
37.5339033321
51
61.9133059888
0
ARC
5
431
100
AcDbEntity
8
0
100
AcDbCircle
62
7
6
CONTINUOUS
10
87.3467923057
20
247.4662436548
40
20.0000000000
100
AcDbArc
50
80.0833570624
51
90.0000000000
0
ARC
5
432
100
AcDbEntity
8
0
100
AcDbCircle
62
7
6
CONTINUOUS
10
87.3467923057
20
247.4662436548
40
20.0000000000
100
AcDbArc
50
77.8589580218
51
80.0689011526
0
ARC
5
433
100
AcDbEntity
8
0
100
AcDbCircle
62
7
6
CONTINUOUS
10
93.0917903041
20
266.1007543649
40
0.5000000000
100
AcDbArc
50
0.0000264261
51
72.8655383506
0
ARC
5
434
100
AcDbEntity
8
0
100
AcDbCircle
62
7
6
CONTINUOUS
10
94.2917903041
20
265.9662436548
40
0.5000000000
100
AcDbArc
50
0.0000000000
51
90.0000000000
0
ARC
5
435
100
AcDbEntity
8
0
100
AcDbCircle
62
7
6
CONTINUOUS
10
94.2917903041
20
246.5662436548
40
0.5000000000
100
AcDbArc
50
270.0000000000
51
360.0000000000
0
ARC
5
436
100
AcDbEntity
8
0
100
AcDbCircle
62
7
6
CONTINUOUS
10
93.0917903041
20
246.5662436548
40
0.5000000000
100
AcDbArc
50
270.0000000000
51
360.0000000000
0
ARC
5
437
100
AcDbEntity
8
0
100
AcDbCircle
62
7
6
CONTINUOUS
10
80.0896710763
20
117.4662436548
40
149.0000000000
100
AcDbArc
50
90.0000000000
51
100.6981508338
0
ARC
5
438
100
AcDbEntity
8
0
100
AcDbCircle
62
7
6
CONTINUOUS
10
87.3467923057
20
247.4662436548
40
19.0000000000
100
AcDbArc
50
72.4000946751
51
90.0000000000
0
ARC
5
439
100
AcDbEntity
8
0
100
AcDbCircle
62
7
6
CONTINUOUS
10
20.8972464609
20
206.4662436548
40
65.5000000000
100
AcDbArc
50
37.1986489323
51
61.2219998877
0
ARC
5
43A
100
AcDbEntity
8
0
100
AcDbCircle
62
7
6
CONTINUOUS
10
181.9455095421
20
221.0005076142
40
1.0000000000
100
AcDbArc
50
0.0000000000
51
90.0000000000
0
ARC
5
43B
100
AcDbEntity
8
0
100
AcDbCircle
62
7
6
CONTINUOUS
10
181.9455095421
20
215.0005076142
40
1.0000000000
100
AcDbArc
50
270.0000000000
51
360.0000000000
0
ARC
5
43C
100
AcDbEntity
8
0
100
AcDbCircle
62
7
6
CONTINUOUS
10
160.9455095421
20
215.0005076142
40
1.0000000000
100
AcDbArc
50
180.0000000000
51
270.0000000000
0
ARC
5
43D
100
AcDbEntity
8
0
100
AcDbCircle
62
7
6
CONTINUOUS
10
160.9455095421
20
221.0005076142
40
1.0000000000
100
AcDbArc
50
90.0000000000
51
180.0000000000
0
CIRCLE
5
43E
100
AcDbEntity
8
0
100
AcDbCircle
62
2
6
CONTINUOUS
10
81.0486413932
20
248.7258279137
40
9.3807963519
0
SPLINE
5
43F
100
AcDbEntity
8
0
100
AcDbSpline
62
7
6
CONTINUOUS
70
0
71
3
72
10
73
6
74
4
42
0.0000001000
43
0.0000001000
44
0.0000000001
12
1.6510914458
22
0.5859245874
32
0.0000000000
13
1.6510914757
23
0.5859245033
33
0.0000000000
40
0.0000000000
40
0.0000000000
40
0.0000000000
40
0.0000000000
40
0.3361089131
40
0.6695328233
40
1.0000000000
40
1.0000000000
40
1.0000000000
40
1.0000000000
10
91.5880021038
20
83.9593908756
30
0.0000000000
10
91.7729842876
20
84.0250357011
30
0.0000000000
10
92.1414715206
20
84.1557992750
30
0.0000000000
10
92.6918327246
20
84.3511148294
30
0.0000000000
10
93.0572207656
20
84.4807601379
30
0.0000000000
10
93.2390979450
20
84.5453030766
30
0.0000000000
11
91.5880021038
21
83.9593908756
31
0.0000000000
11
92.1429486612
21
84.1563253348
31
0.0000000000
11
92.6934620500
21
84.3516865374
31
0.0000000000
11
93.2390979450
21
84.5453030766
31
0.0000000000
0
SPLINE
5
440
100
AcDbEntity
8
0
100
AcDbSpline
62
7
6
CONTINUOUS
70
0
71
3
72
8
73
4
74
2
42
0.0000001000
43
0.0000001000
44
0.0000000001
12
0.0541703702
22
0.0197161852
32
0.0000000000
13
0.0461364858
23
-0.0474183125
33
0.0000000000
40
0.0000000000
40
0.0000000000
40
0.0000000000
40
0.0000000000
40
1.0000000000
40
1.0000000000
40
1.0000000000
40
1.0000000000
10
91.3109617872
20
84.4292371860
30
0.0000000000
10
91.3290185773
20
84.4358092478
30
0.0000000000
10
91.3473060717
20
84.4195898712
30
0.0000000000
10
91.3626849003
20
84.4037837670
30
0.0000000000
11
91.3109617872
21
84.4292371860
31
0.0000000000
11
91.3626849003
21
84.4037837670
31
0.0000000000
0
SPLINE
5
441
100
AcDbEntity
8
0
100
AcDbSpline
62
7
6
CONTINUOUS
70
0
71
3
72
10
73
6
74
4
42
0.0000001000
43
0.0000001000
44
0.0000000001
12
0.4006428630
22
-0.4117740681
32
0.0000000000
13
0.1643622111
23
-0.4728451300
33
0.0000000000
40
0.0000000000
40
0.0000000000
40
0.0000000000
40
0.0000000000
40
0.2447112247
40
0.5959686442
40
1.0000000000
40
1.0000000000
40
1.0000000000
40
1.0000000000
10
91.3626849003
20
84.4037837670
30
0.0000000000
10
91.3953655022
20
84.3701951882
30
0.0000000000
10
91.4429669724
20
84.2929387695
30
0.0000000000
10
91.5208944880
20
84.1395969497
30
0.0000000000
10
91.5658661992
20
84.0230722953
30
0.0000000000
10
91.5880020282
20
83.9593908756
30
0.0000000000
11
91.3626849003
21
84.4037837670
31
0.0000000000
11
91.4342614396
21
84.3043681116
31
0.0000000000
11
91.5137786084
21
84.1475364234
31
0.0000000000
11
91.5880020282
21
83.9593908756
31
0.0000000000
0
SPLINE
5
442
100
AcDbEntity
8
0
100
AcDbSpline
62
7
6
CONTINUOUS
70
0
71
3
72
11
73
7
74
5
42
0.0000001000
43
0.0000001000
44
0.0000000001
12
0.5538573719
22
0.2015875974
32
0.0000000000
13
0.1851917944
23
-0.5595529887
33
0.0000000000
40
0.0000000000
40
0.0000000000
40
0.0000000000
40
0.0000000000
40
0.1212617808
40
0.3443285912
40
0.6558812237
40
1.0000000000
40
1.0000000000
40
1.0000000000
40
1.0000000000
10
92.9207802324
20
85.0151631827
30
0.0000000000
10
92.9431674762
20
85.0233114730
30
0.0000000000
10
93.0140156177
20
84.9836704752
30
0.0000000000
10
93.0858845598
20
84.8825688065
30
0.0000000000
10
93.1711809405
20
84.7293856341
30
0.0000000000
10
93.2178552872
20
84.6095011022
30
0.0000000000
10
93.2390979451
20
84.5453168723
30
0.0000000000
11
92.9207802324
21
85.0151631827
31
0.0000000000
11
92.9889611025
21
84.9937244602
31
0.0000000000
11
93.0750243445
21
84.8943307752
31
0.0000000000
11
93.1641883993
21
84.7338012295
31
0.0000000000
11
93.2390979451
21
84.5453168723
31
0.0000000000
0
SPLINE
5
443
100
AcDbEntity
8
0
100
AcDbSpline
62
7
6
CONTINUOUS
70
0
71
3
72
9
73
5
74
3
42
0.0000001000
43
0.0000001000
44
0.0000000001
12
0.0494800965
22
0.0350289946
32
0.0000000000
13
0.0494354978
23
0.0350919076
33
0.0000000000
40
0.0000000000
40
0.0000000000
40
0.0000000000
40
0.0000000000
40
0.5010228577
40
1.0000000000
40
1.0000000000
40
1.0000000000
40
1.0000000000
10
91.5385430130
20
83.9243322352
30
0.0000000000
10
91.5468065661
20
83.9301823442
30
0.0000000000
10
91.5632984632
20
83.9418607529
30
0.0000000000
10
91.5797797093
20
83.9535541891
30
0.0000000000
10
91.5880021038
20
83.9593908756
30
0.0000000000
11
91.5385430130
21
83.9243322352
31
0.0000000000
11
91.5633295273
21
83.9418884159
31
0.0000000000
11
91.5880021038
21
83.9593908756
31
0.0000000000
0
SPLINE
5
444
100
AcDbEntity
8
0
100
AcDbSpline
62
7
6
CONTINUOUS
70
0
71
3
72
9
73
5
74
3
42
0.0000001000
43
0.0000001000
44
0.0000000001
12
0.1022229285
22
0.0372064094
32
0.0000000000
13
0.0620354870
23
-0.0888138218
33
0.0000000000
40
0.0000000000
40
0.0000000000
40
0.0000000000
40
0.0000000000
40
0.5278850451
40
1.0000000000
40
1.0000000000
40
1.0000000000
40
1.0000000000
10
91.2628003757
20
84.4117078658
30
0.0000000000
10
91.2807876941
20
84.4182547682
30
0.0000000000
10
91.3139757932
20
84.3849842430
30
0.0000000000
10
91.3374001726
20
84.3548871082
30
0.0000000000
10
91.3471627996
20
84.3409103304
30
0.0000000000
11
91.2628003757
21
84.4117078658
31
0.0000000000
11
91.3131059128
21
84.3840130481
31
0.0000000000
11
91.3471627996
21
84.3409103304
31
0.0000000000
0
SPLINE
5
445
100
AcDbEntity
8
0
100
AcDbSpline
62
7
6
CONTINUOUS
70
0
71
3
72
10
73
6
74
4
42
0.0000001000
43
0.0000001000
44
0.0000000001
12
0.2638692002
22
-0.3777713895
32
0.0000000000
13
0.1497298733
23
-0.4378173281
33
0.0000000000
40
0.0000000000
40
0.0000000000
40
0.0000000000
40
0.0000000000
40
0.1616384355
40
0.5530265509
40
1.0000000000
40
1.0000000000
40
1.0000000000
40
1.0000000000
10
91.3471627996
20
84.3409103304
30
0.0000000000
10
91.3613799345
20
84.3205562050
30
0.0000000000
10
91.4006157901
20
84.2526042168
30
0.0000000000
10
91.4708895559
20
84.1091310939
30
0.0000000000
10
91.5162346570
20
83.9895631306
30
0.0000000000
10
91.5385430829
20
83.9243322235
30
0.0000000000
11
91.3471627996
21
84.3409103304
31
0.0000000000
11
91.3842837928
21
84.2798610029
31
0.0000000000
11
91.4640258734
21
84.1172617947
31
0.0000000000
11
91.5385430829
21
83.9243322235
31
0.0000000000
0
SPLINE
5
446
100
AcDbEntity
8
0
100
AcDbSpline
62
7
6
CONTINUOUS
70
0
71
3
72
12
73
8
74
6
42
0.0000001000
43
0.0000001000
44
0.0000000001
12
0.6272793967
22
-0.5114778018
32
0.0000000000
13
0.6606617993
23
0.4675627980
33
0.0000000000
40
0.0000000000
40
0.0000000000
40
0.0000000000
40
0.0000000000
40
0.2454473879
40
0.4586753794
40
0.6502440492
40
0.8290832090
40
1.0000000000
40
1.0000000000
40
1.0000000000
40
1.0000000000
10
90.7910971402
20
83.9593908756
30
0.0000000000
10
90.8424185033
20
83.9175439122
30
0.0000000000
10
90.9473563297
20
83.8487373549
30
0.0000000000
10
91.1186735661
20
83.7994916818
30
0.0000000000
10
91.2784384353
20
83.8046310867
30
0.0000000000
10
91.4189103847
20
83.8496750449
30
0.0000000000
10
91.5009036148
20
83.8976941242
30
0.0000000000
10
91.5385430130
20
83.9243322352
30
0.0000000000
11
90.7910971402
21
83.9593908756
31
0.0000000000
11
90.9592828530
21
83.8536599815
31
0.0000000000
11
91.1255340934
21
83.8073467403
31
0.0000000000
11
91.2805117813
21
83.8121149145
31
0.0000000000
11
91.4186739735
21
83.8552798444
31
0.0000000000
11
91.5385430130
21
83.9243322352
31
0.0000000000
0
SPLINE
5
447
100
AcDbEntity
8
0
100
AcDbSpline
62
7
6
CONTINUOUS
70
0
71
3
72
11
73
7
74
5
42
0.0000001000
43
0.0000001000
44
0.0000000001
12
0.4440875424
22
-0.1863299524
32
0.0000000000
13
-0.1815415083
23
-0.4460664494
33
0.0000000000
40
0.0000000000
40
0.0000000000
40
0.0000000000
40
0.0000000000
40
0.0945788775
40
0.3085371083
40
0.6240884666
40
1.0000000000
40
1.0000000000
40
1.0000000000
40
1.0000000000
10
90.8983918020
20
84.4204770277
30
0.0000000000
10
90.9123922357
20
84.4146027352
30
0.0000000000
10
90.9129022360
20
84.3498878651
30
0.0000000000
10
90.8950050500
20
84.2626232130
30
0.0000000000
10
90.8526835580
20
84.1177200394
30
0.0000000000
10
90.8138445265
20
84.0152847168
30
0.0000000000
10
90.7910966776
20
83.9593908758
30
0.0000000000
11
90.8983918020
21
84.4204770277
31
0.0000000000
11
90.9118255653
21
84.3769545148
31
0.0000000000
11
90.8963566800
21
84.2750812952
31
0.0000000000
11
90.8541474127
21
84.1290932023
31
0.0000000000
11
90.7910966776
21
83.9593908758
31
0.0000000000
0
SPLINE
5
448
100
AcDbEntity
8
0
100
AcDbSpline
62
7
6
CONTINUOUS
70
0
71
3
72
11
73
7
74
5
42
0.0000001000
43
0.0000001000
44
0.0000000001
12
0.0000875939
22
-1.1798463633
32
0.0000000000
13
1.0920135072
23
-0.4467034237
33
0.0000000000
40
0.0000000000
40
0.0000000000
40
0.0000000000
40
0.0000000000
40
0.2473537498
40
0.4967672488
40
0.7468567526
40
1.0000000000
40
1.0000000000
40
1.0000000000
40
1.0000000000
10
90.1621748681
20
84.8815541762
30
0.0000000000
10
90.1621820903
20
84.7842743688
30
0.0000000000
10
90.1918700146
20
84.5876624493
30
0.0000000000
10
90.3217435889
20
84.3194583147
30
0.0000000000
10
90.5255407649
20
84.0991317429
30
0.0000000000
10
90.6989518584
20
83.9970841941
30
0.0000000000
10
90.7910971402
20
83.9593908756
30
0.0000000000
11
90.1621748681
21
84.8815541762
31
0.0000000000
11
90.2058037965
21
84.5929943637
31
0.0000000000
11
90.3336913541
21
84.3279672400
31
0.0000000000
11
90.5338886819
21
84.1112054399
31
0.0000000000
11
90.7910971402
21
83.9593908756
31
0.0000000000
0
SPLINE
5
449
100
AcDbEntity
8
0
100
AcDbSpline
62
7
6
CONTINUOUS
70
0
71
3
72
11
73
7
74
5
42
0.0000001000
43
0.0000001000
44
0.0000000001
12
0.5435010936
22
0.0000000000
32
0.0000000000
13
0.0000000000
23
-0.5435010936
33
0.0000000000
40
0.0000000000
40
0.0000000000
40
0.0000000000
40
0.0000000000
40
0.1239149253
40
0.3417971424
40
0.6465016213
40
1.0000000000
40
1.0000000000
40
1.0000000000
40
1.0000000000
10
93.0917903041
20
89.3593908756
30
0.0000000000
10
93.1142396032
20
89.3593908756
30
0.0000000000
10
93.1664747568
20
89.3090159529
30
0.0000000000
10
93.2024241872
20
89.2000264776
30
0.0000000000
10
93.2332608050
20
89.0426179033
30
0.0000000000
10
93.2390979450
20
88.9234331274
30
0.0000000000
10
93.2390979450
20
88.8593908756
30
0.0000000000
11
93.0917903041
21
89.3593908756
31
0.0000000000
11
93.1477467373
21
89.3219126570
31
0.0000000000
11
93.1957424526
21
89.2136559078
31
0.0000000000
11
93.2278293028
21
89.0511868815
31
0.0000000000
11
93.2390979450
21
88.8593908756
31
0.0000000000
0
SPLINE
5
44A
100
AcDbEntity
8
0
100
AcDbSpline
62
7
6
CONTINUOUS
70
0
71
3
72
14
73
10
74
8
42
0.0000001000
43
0.0000001000
44
0.0000000001
12
-1.8307665238
22
0.6495948925
32
0.0000000000
13
-0.0002390390
23
-1.9425960805
33
0.0000000000
40
0.0000000000
40
0.0000000000
40
0.0000000000
40
0.0000000000
40
0.1416543358
40
0.2875578339
40
0.4340065673
40
0.5771855650
40
0.7190014839
40
0.8599143385
40
1.0000000000
40
1.0000000000
40
1.0000000000
40
1.0000000000
10
91.5386057844
20
88.3769201959
30
0.0000000000
10
91.4521604457
20
88.4075928402
30
0.0000000000
10
91.2675300827
20
88.4467496868
30
0.0000000000
10
90.9836716985
20
88.4304056417
30
0.0000000000
10
90.7133547242
20
88.3382356633
30
0.0000000000
10
90.4801064153
20
88.1783088581
30
0.0000000000
10
90.3009295063
20
87.9640221996
30
0.0000000000
10
90.1879695480
20
87.7108958191
30
0.0000000000
10
90.1621860301
20
87.5279375274
30
0.0000000000
10
90.1621748681
20
87.4372275751
30
0.0000000000
11
91.5386057844
21
88.3769201959
31
0.0000000000
11
91.2694224637
21
88.4340411995
31
0.0000000000
11
90.9864589883
21
88.4177585704
31
0.0000000000
11
90.7172521874
21
88.3257657547
31
0.0000000000
11
90.4879962048
21
88.1682761470
31
0.0000000000
11
90.3114710158
21
87.9567715928
31
0.0000000000
11
90.2001433605
21
87.7066956692
31
0.0000000000
11
90.1621748681
21
87.4372275751
31
0.0000000000
0
SPLINE
5
44B
100
AcDbEntity
8
0
100
AcDbSpline
62
7
6
CONTINUOUS
70
0
71
3
72
11
73
7
74
5
42
0.0000001000
43
0.0000001000
44
0.0000000001
12
0.5237586582
22
-0.1906143829
32
0.0000000000
13
0.1831807576
23
0.5264045831
33
0.0000000000
40
0.0000000000
40
0.0000000000
40
0.0000000000
40
0.0000000000
40
0.1027712133
40
0.3221706689
40
0.6373429167
40
1.0000000000
40
1.0000000000
40
1.0000000000
40
1.0000000000
10
91.2628001510
20
87.9070732680
30
0.0000000000
10
91.2807425886
20
87.9005433775
30
0.0000000000
10
91.3374476656
20
87.9516114626
30
0.0000000000
10
91.3938698991
20
88.0434957104
30
0.0000000000
10
91.4715451532
20
88.1968829314
30
0.0000000000
10
91.5164619508
20
88.3132854123
30
0.0000000000
10
91.5386058838
20
88.3769201959
30
0.0000000000
11
91.2628001510
21
87.9070732680
31
0.0000000000
11
91.3140520125
21
87.9326541498
31
0.0000000000
11
91.3852153658
21
88.0321006125
31
0.0000000000
11
91.4644583912
21
88.1888781675
31
0.0000000000
11
91.5386058838
21
88.3769201959
31
0.0000000000
0
SPLINE
5
44C
100
AcDbEntity
8
0
100
AcDbSpline
62
7
6
CONTINUOUS
70
0
71
3
72
9
73
5
74
3
42
0.0000001000
43
0.0000001000
44
0.0000000001
12
-1.7004655331
22
0.6034468981
32
0.0000000000
13
-1.7004659592
23
0.6034456974
33
0.0000000000
40
0.0000000000
40
0.0000000000
40
0.0000000000
40
0.0000000000
40
0.4967886347
40
1.0000000000
40
1.0000000000
40
1.0000000000
40
1.0000000000
10
93.2390979450
20
87.7735483426
30
0.0000000000
10
92.9575072949
20
87.8734768628
30
0.0000000000
10
92.3906459415
20
88.0745144802
30
0.0000000000
10
91.8238370500
20
88.2756999514
30
0.0000000000
10
91.5386057844
20
88.3769201959
30
0.0000000000
11
93.2390979450
21
87.7735483426
31
0.0000000000
11
92.3942996868
21
88.0732597599
31
0.0000000000
11
91.5386057844
21
88.3769201959
31
0.0000000000
0
SPLINE
5
44D
100
AcDbEntity
8
0
100
AcDbSpline
62
7
6
CONTINUOUS
70
0
71
3
72
11
73
7
74
5
42
0.0000001000
43
0.0000001000
44
0.0000000001
12
0.5538850723
22
-0.2015976797
32
0.0000000000
13
0.1859262681
23
0.5593404336
33
0.0000000000
40
0.0000000000
40
0.0000000000
40
0.0000000000
40
0.0000000000
40
0.1204471414
40
0.3416208693
40
0.6499450198
40
1.0000000000
40
1.0000000000
40
1.0000000000
40
1.0000000000
10
92.9207802323
20
87.3036185686
30
0.0000000000
10
92.9430181902
20
87.2955246139
30
0.0000000000
10
93.0133848421
20
87.3345706356
30
0.0000000000
10
93.0848441652
20
87.4346928288
30
0.0000000000
10
93.1705809235
20
87.5877777972
30
0.0000000000
10
93.2174031397
20
87.7081982442
30
0.0000000000
10
93.2390979451
20
87.7734648790
30
0.0000000000
11
92.9207802323
21
87.3036185686
31
0.0000000000
11
92.9885591363
21
87.3247460397
31
0.0000000000
11
93.0741103047
21
87.4231153929
31
0.0000000000
11
93.1627069253
21
87.5817932956
31
0.0000000000
11
93.2390979451
21
87.7734648790
31
0.0000000000
0
SPLINE
5
44E
100
AcDbEntity
8
0
100
AcDbSpline
62
7
6
CONTINUOUS
70
0
71
3
72
14
73
10
74
8
42
0.0000001000
43
0.0000001000
44
0.0000000001
12
-0.0000143820
22
-1.0283487185
32
0.0000000000
13
-1.0283482253
23
0.0010072329
33
0.0000000000
40
0.0000000000
40
0.0000000000
40
0.0000000000
40
0.0000000000
40
0.1667740058
40
0.3437445381
40
0.5237194457
40
0.6954371362
40
0.8428214154
40
0.9474429760
40
1.0000000000
40
1.0000000000
40
1.0000000000
40
1.0000000000
10
93.2390979450
20
83.9593908756
30
0.0000000000
10
93.2390971455
20
83.9022235973
30
0.0000000000
10
93.2376447617
20
83.7843726561
30
0.0000000000
10
93.2308013727
20
83.6050366368
30
0.0000000000
10
93.2178123928
20
83.4239446943
30
0.0000000000
10
93.1994147732
20
83.2548525142
30
0.0000000000
10
93.1714678819
20
83.1088968147
30
0.0000000000
10
93.1468538670
20
83.0147760733
30
0.0000000000
10
93.1098059448
20
82.9593732299
30
0.0000000000
10
93.0917903041
20
82.9593908756
30
0.0000000000
11
93.2390979450
21
83.9593908756
31
0.0000000000
11
93.2369724299
21
83.7879022123
31
0.0000000000
11
93.2298313881
21
83.6060549506
31
0.0000000000
11
93.2164772541
21
83.4214603941
31
0.0000000000
11
93.1958294681
21
83.2460860325
31
0.0000000000
11
93.1673663847
21
83.0972202389
31
0.0000000000
11
93.1318599545
21
82.9956606389
31
0.0000000000
11
93.0917903041
21
82.9593908756
31
0.0000000000
0
SPLINE
5
44F
100
AcDbEntity
8
0
100
AcDbSpline
62
7
6
CONTINUOUS
70
0
71
3
72
19
73
15
74
13
42
0.0000001000
43
0.0000001000
44
0.0000000001
12
0.0000129485
22
-1.4077364193
32
0.0000000000
13
1.4077671092
23
-0.0018049059
33
0.0000000000
40
0.0000000000
40
0.0000000000
40
0.0000000000
40
0.0000000000
40
0.0814910458
40
0.1701017236
40
0.2637595695
40
0.3600674372
40
0.4564800141
40
0.5505713349
40
0.6404363324
40
0.7249867963
40
0.8036813980
40
0.8761626398
40
0.9420103936
40
1.0000000000
40
1.0000000000
40
1.0000000000
40
1.0000000000
10
51.6402742456
20
83.9593908756
30
0.0000000000
10
51.6402745973
20
83.9211515713
30
0.0000000000
10
51.6439320279
20
83.8412856922
30
0.0000000000
10
51.6614645233
20
83.7185614497
30
0.0000000000
10
51.6934837725
20
83.5915488020
30
0.0000000000
10
51.7410915093
20
83.4655420841
30
0.0000000000
10
51.8039885392
20
83.3461391640
30
0.0000000000
10
51.8803686486
20
83.2385146117
30
0.0000000000
10
51.9672559373
20
83.1466659701
30
0.0000000000
10
52.0610174851
20
83.0730302659
30
0.0000000000
10
52.1577549055
20
83.0184940596
30
0.0000000000
10
52.2534679302
20
82.9825448815
30
0.0000000000
10
52.3439055950
20
82.9633940426
30
0.0000000000
10
52.4020806255
20
82.9594262649
30
0.0000000000
10
52.4292925790
20
82.9593913763
30
0.0000000000
11
51.6402742456
21
83.9593908756
31
0.0000000000
11
51.6455345823
21
83.8447936312
31
0.0000000000
11
51.6632169302
21
83.7213127764
31
0.0000000000
11
51.6955480804
21
83.5934927914
31
0.0000000000
11
51.7436275940
21
83.4667282958
31
0.0000000000
11
51.8070899893
21
83.3467558336
31
0.0000000000
11
51.8839825132
21
83.2389037443
31
0.0000000000
11
51.9711446185
21
83.1472162665
31
0.0000000000
11
52.0649358641
21
83.0739353175
31
0.0000000000
11
52.1615601285
21
83.0197482491
31
0.0000000000
11
52.2571394420
21
82.9840322765
31
0.0000000000
11
52.3478442725
21
82.9649211731
31
0.0000000000
11
52.4292925790
21
82.9593913763
31
0.0000000000
0
SPLINE
5
450
100
AcDbEntity
8
0
100
AcDbSpline
62
7
6
CONTINUOUS
70
0
71
3
72
19
73
15
74
13
42
0.0000001000
43
0.0000001000
44
0.0000000001
12
-1.4077596439
22
-0.0018283317
32
0.0000000000
13
-0.0004186152
23
-1.4077295540
33
0.0000000000
40
0.0000000000
40
0.0000000000
40
0.0000000000
40
0.0000000000
40
0.0560936148
40
0.1200502308
40
0.1907144958
40
0.2677608634
40
0.3509831317
40
0.4401049114
40
0.5344014262
40
0.6320883424
40
0.7304351431
40
0.8264388294
40
0.9171647284
40
1.0000000000
40
1.0000000000
40
1.0000000000
40
1.0000000000
10
52.4292816751
20
197.9593903617
30
0.0000000000
10
52.4029595660
20
197.9593561758
30
0.0000000000
10
52.3465681543
20
197.9556332856
30
0.0000000000
10
52.2586118810
20
197.9375939626
30
0.0000000000
10
52.1649307958
20
197.9034740033
30
0.0000000000
10
52.0695011273
20
197.8512593817
30
0.0000000000
10
51.9761010867
20
197.7800291458
30
0.0000000000
10
51.8885054151
20
197.6900766103
30
0.0000000000
10
51.8104751797
20
197.5832011129
30
0.0000000000
10
51.7454438857
20
197.4630437502
30
0.0000000000
10
51.6958093818
20
197.3349453095
30
0.0000000000
10
51.6623242579
20
197.2051384568
30
0.0000000000
10
51.6440510584
20
197.0797523010
30
0.0000000000
10
51.6402858043
20
196.9982607623
30
0.0000000000
10
51.6402742456
20
196.9593908756
30
0.0000000000
11
52.4292816751
21
197.9593903617
31
0.0000000000
11
52.3504854451
21
197.9542107849
31
0.0000000000
11
52.2622707728
21
197.9362045423
31
0.0000000000
11
52.1687476589
21
197.9023085649
31
0.0000000000
11
52.0734874461
21
197.8504514360
31
0.0000000000
11
51.9801590193
21
197.7796349809
31
0.0000000000
11
51.8924109504
21
197.6899670957
31
0.0000000000
11
51.8138984916
21
197.5829308288
31
0.0000000000
11
51.7482218891
21
197.4621109440
31
0.0000000000
11
51.6980238366
21
197.3330862623
31
0.0000000000
11
51.6641560881
21
197.2022514426
31
0.0000000000
11
51.6457021757
21
197.0758741431
31
0.0000000000
11
51.6402742456
21
196.9593908756
31
0.0000000000
0
SPLINE
5
451
100
AcDbEntity
8
0
100
AcDbSpline
62
7
6
CONTINUOUS
70
0
71
3
72
11
73
7
74
5
42
0.0000001000
43
0.0000001000
44
0.0000000001
12
0.5434671137
22
0.0000000000
32
0.0000000000
13
-0.0000000000
23
0.5434671137
33
0.0000000000
40
0.0000000000
40
0.0000000000
40
0.0000000000
40
0.0000000000
40
0.1251551093
40
0.3431160588
40
0.6473199775
40
1.0000000000
40
1.0000000000
40
1.0000000000
40
1.0000000000
10
91.4917903041
20
191.5593908756
30
0.0000000000
10
91.5144628661
20
191.5593908756
30
0.0000000000
10
91.5667222936
20
191.6103095246
30
0.0000000000
10
91.6025742579
20
191.7193328185
30
0.0000000000
10
91.6332854548
20
191.8765799411
30
0.0000000000
10
91.6390979450
20
191.9955008777
30
0.0000000000
10
91.6390979450
20
192.0593908756
30
0.0000000000
11
91.4917903041
21
191.5593908756
31
0.0000000000
11
91.5481624977
21
191.5974511094
31
0.0000000000
11
91.5959525359
21
191.7058374851
31
0.0000000000
11
91.6278848186
21
191.8680491595
31
0.0000000000
11
91.6390979450
21
192.0593908756
31
0.0000000000
0
SPLINE
5
452
100
AcDbEntity
8
0
100
AcDbSpline
62
7
6
CONTINUOUS
70
0
71
3
72
11
73
7
74
5
42
0.0000001000
43
0.0000001000
44
0.0000000001
12
-0.5002652899
22
0.0000000000
32
0.0000000000
13
0.0000000000
23
0.5002652899
33
0.0000000000
40
0.0000000000
40
0.0000000000
40
0.0000000000
40
0.0000000000
40
0.0763914842
40
0.2930050789
40
0.6172980428
40
1.0000000000
40
1.0000000000
40
1.0000000000
40
1.0000000000
10
86.2819808607
20
191.5593908756
30
0.0000000000
10
86.2692421914
20
191.5593908756
30
0.0000000000
10
86.2903161001
20
191.6377950300
30
0.0000000000
10
86.2665047216
20
191.7139793139
30
0.0000000000
10
86.2755866166
20
191.8815223512
30
0.0000000000
10
86.2721195471
20
191.9955733738
30
0.0000000000
10
86.2721195471
20
192.0593908756
30
0.0000000000
11
86.2819808607
21
191.5593908756
31
0.0000000000
11
86.2780301348
21
191.5974021244
31
0.0000000000
11
86.2748573744
21
191.7057199301
31
0.0000000000
11
86.2728201385
21
191.8679396519
31
0.0000000000
11
86.2721195471
21
192.0593908756
31
0.0000000000
0
SPLINE
5
453
100
AcDbEntity
8
0
100
AcDbSpline
62
7
6
CONTINUOUS
70
0
71
3
72
14
73
10
74
8
42
0.0000001000
43
0.0000001000
44
0.0000000001
12
-1.8805272065
22
-0.7107724746
32
0.0000000000
13
-2.0103681467
23
0.0000000000
33
0.0000000000
40
0.0000000000
40
0.0000000000
40
0.0000000000
40
0.0000000000
40
0.1393017769
40
0.2769147962
40
0.4146362826
40
0.5541094588
40
0.6971726783
40
0.8450669513
40
1.0000000000
40
1.0000000000
40
1.0000000000
40
1.0000000000
10
86.4917903041
20
88.3593908756
30
0.0000000000
10
86.4044700436
20
88.3263869194
30
0.0000000000
10
86.2308878115
20
88.2607781034
30
0.0000000000
10
85.9698925244
20
88.1654239815
30
0.0000000000
10
85.7066956480
20
88.0758893624
30
0.0000000000
10
85.4369933461
20
87.9945488765
30
0.0000000000
10
85.1568200066
20
87.9252223551
30
0.0000000000
10
84.8621536682
20
87.8740446352
30
0.0000000000
10
84.6591227863
20
87.8593908756
30
0.0000000000
10
84.5552986310
20
87.8593908756
30
0.0000000000
11
86.4917903041
21
88.3593908756
31
0.0000000000
11
86.2296461517
21
88.2608655263
31
0.0000000000
11
85.9696136425
21
88.1664203952
31
0.0000000000
11
85.7073109528
21
88.0777931509
31
0.0000000000
11
85.4386666233
21
87.9974803907
31
0.0000000000
11
85.1592657356
21
87.9292564493
31
0.0000000000
11
84.8661117028
21
87.8796475148
31
0.0000000000
11
84.5552986310
21
87.8593908756
31
0.0000000000
0
SPLINE
5
454
100
AcDbEntity
8
0
100
AcDbSpline
62
7
6
CONTINUOUS
70
0
71
3
72
19
73
15
74
13
42
0.0000001000
43
0.0000001000
44
0.0000000001
12
0.5745657146
22
-0.1876024081
32
0.0000000000
13
-0.0000000000
23
-0.6044174252
33
0.0000000000
40
0.0000000000
40
0.0000000000
40
0.0000000000
40
0.0000000000
40
0.1263793113
40
0.2431289649
40
0.3497434490
40
0.4463808021
40
0.5338116450
40
0.6132349537
40
0.6860832604
40
0.7538581353
40
0.8179837374
40
0.8798320688
40
0.9408240056
40
1.0000000000
40
1.0000000000
40
1.0000000000
40
1.0000000000
10
85.7467923057
20
192.8282074119
30
0.0000000000
10
85.7709967121
20
192.8203043908
30
0.0000000000
10
85.8174551422
20
192.8047728614
30
0.0000000000
10
85.8839502827
20
192.7814516721
30
0.0000000000
10
85.9444569172
20
192.7591834830
30
0.0000000000
10
85.9990766543
20
192.7380448580
30
0.0000000000
10
86.0482200384
20
192.7179585431
30
0.0000000000
10
86.0925122166
20
192.6986991187
30
0.0000000000
10
86.1326759264
20
192.6799133704
30
0.0000000000
10
86.1693912635
20
192.6610777382
30
0.0000000000
10
86.2032023840
20
192.6415375604
30
0.0000000000
10
86.2341618577
20
192.6198942567
30
0.0000000000
10
86.2611814093
20
192.5950669170
30
0.0000000000
10
86.2721195471
20
192.5713132097
30
0.0000000000
10
86.2721195471
20
192.5593908756
30
0.0000000000
11
85.7467923057
21
192.8282074119
31
0.0000000000
11
85.8192321616
21
192.8039738285
31
0.0000000000
11
85.8858135813
21
192.7805984597
31
0.0000000000
11
85.9462773836
21
192.7583139951
31
0.0000000000
11
86.0007358892
21
192.7371972362
31
0.0000000000
11
86.0496343182
21
192.7171595566
31
0.0000000000
11
86.0936336832
21
192.6979626883
31
0.0000000000
11
86.1334810047
21
192.6792303346
31
0.0000000000
11
86.1698781785
21
192.6604335029
31
0.0000000000
11
86.2033085820
21
192.6408212715
31
0.0000000000
11
86.2337698354
21
192.6191523627
31
0.0000000000
11
86.2596733748
21
192.5929225210
31
0.0000000000
11
86.2721195471
21
192.5593908756
31
0.0000000000
0
SPLINE
5
455
100
AcDbEntity
8
0
100
AcDbSpline
62
7
6
CONTINUOUS
70
0
71
3
72
10
73
6
74
4
42
0.0000001000
43
0.0000001000
44
0.0000000001
12
1.2180600628
22
0.0000000000
32
0.0000000000
13
1.1579010154
23
-0.3780681884
33
0.0000000000
40
0.0000000000
40
0.0000000000
40
0.0000000000
40
0.0000000000
40
0.3069405543
40
0.6396394603
40
1.0000000000
40
1.0000000000
40
1.0000000000
40
1.0000000000
10
84.5552986310
20
193.0593908756
30
0.0000000000
10
84.6799226412
20
193.0593908756
30
0.0000000000
10
84.9397429479
20
193.0369680029
30
0.0000000000
10
85.3377815895
20
192.9541092344
30
0.0000000000
10
85.6077050274
20
192.8736210307
30
0.0000000000
10
85.7467923057
20
192.8282074119
30
0.0000000000
11
84.5552986310
21
193.0593908756
31
0.0000000000
11
84.9280781548
21
193.0308300285
31
0.0000000000
11
85.3254021335
21
192.9510867533
31
0.0000000000
11
85.7467923057
21
192.8282074119
31
0.0000000000
0
SPLINE
5
456
100
AcDbEntity
8
0
100
AcDbSpline
62
7
6
CONTINUOUS
70
0
71
3
72
11
73
7
74
5
42
0.0000001000
43
0.0000001000
44
0.0000000001
12
0.0000000000
22
0.3527214100
32
0.0000000000
13
-0.3527027691
23
-0.0036262566
33
0.0000000000
40
0.0000000000
40
0.0000000000
40
0.0000000000
40
0.0000000000
40
0.0736072539
40
0.2995723207
40
0.6277185077
40
1.0000000000
40
1.0000000000
40
1.0000000000
40
1.0000000000
10
93.5917903041
20
87.7734648790
30
0.0000000000
10
93.5917903041
20
87.7821191638
30
0.0000000000
10
93.5351849210
20
87.7626689167
30
0.0000000000
10
93.4812634850
20
87.7781623274
30
0.0000000000
10
93.3625356934
20
87.7724355548
30
0.0000000000
10
93.2828661828
20
87.7739148751
30
0.0000000000
10
93.2390979450
20
87.7734648790
30
0.0000000000
11
93.5917903041
21
87.7734648790
31
0.0000000000
11
93.5658373461
21
87.7741816632
31
0.0000000000
11
93.4861466710
21
87.7727962382
31
0.0000000000
11
93.3704085740
21
87.7739834372
31
0.0000000000
11
93.2390979450
21
87.7734648790
31
0.0000000000
0
SPLINE
5
457
100
AcDbEntity
8
0
100
AcDbSpline
62
7
6
CONTINUOUS
70
0
71
3
72
13
73
9
74
7
42
0.0000001000
43
0.0000001000
44
0.0000000001
12
0.0001913725
22
-0.7438482297
32
0.0000000000
13
0.6514424450
23
-0.3590723691
33
0.0000000000
40
0.0000000000
40
0.0000000000
40
0.0000000000
40
0.0000000000
40
0.2146065485
40
0.4066569333
40
0.5783812062
40
0.7335583237
40
0.8747289452
40
1.0000000000
40
1.0000000000
40
1.0000000000
40
1.0000000000
10
91.6390979450
20
195.7450204770
30
0.0000000000
10
91.6391116350
20
195.6918089099
30
0.0000000000
10
91.6510734810
20
195.5905690220
30
0.0000000000
10
91.6990555551
20
195.4543994428
30
0.0000000000
10
91.7649409914
20
195.3430130791
30
0.0000000000
10
91.8408230687
20
195.2545070968
30
0.0000000000
10
91.9206040030
20
195.1863910145
30
0.0000000000
10
91.9764438741
20
195.1506880918
30
0.0000000000
10
92.0036461682
20
195.1356943003
30
0.0000000000
11
91.6390979450
21
195.7450204770
31
0.0000000000
11
91.6578011232
21
195.5864852107
31
0.0000000000
11
91.7052029254
21
195.4517224414
31
0.0000000000
11
91.7702133009
21
195.3417663532
31
0.0000000000
11
91.8452965123
21
195.2540954506
31
0.0000000000
11
91.9251348092
21
195.1858836795
31
0.0000000000
11
92.0036461682
21
195.1356943003
31
0.0000000000
0
SPLINE
5
458
100
AcDbEntity
8
0
100
AcDbSpline
62
7
6
CONTINUOUS
70
0
71
3
72
10
73
6
74
4
42
0.0000001000
43
0.0000001000
44
0.0000000001
12
0.1689797784
22
-0.4117685603
32
0.0000000000
13
-0.4077976675
23
-0.1783495869
33
0.0000000000
40
0.0000000000
40
0.0000000000
40
0.0000000000
40
0.0000000000
40
0.5028408777
40
0.8580564981
40
1.0000000000
40
1.0000000000
40
1.0000000000
40
1.0000000000
10
92.0036481354
20
194.3830874854
30
0.0000000000
10
92.0319714487
20
194.3140694640
30
0.0000000000
10
92.0804904079
20
194.1866201258
30
0.0000000000
10
92.1099057240
20
194.0663149131
30
0.0000000000
10
92.1309362794
20
193.9654378243
30
0.0000000000
10
92.1116415364
20
193.9569993027
30
0.0000000000
11
92.0036481354
21
194.3830874854
31
0.0000000000
11
92.0808433756
21
194.1730109015
31
0.0000000000
11
92.1194496715
21
194.0196929612
31
0.0000000000
11
92.1116415364
21
193.9569993027
31
0.0000000000
0
SPLINE
5
459
100
AcDbEntity
8
0
100
AcDbSpline
62
7
6
CONTINUOUS
70
0
71
3
72
10
73
6
74
4
42
0.0000001000
43
0.0000001000
44
0.0000000001
12
-0.6489850136
22
-0.3577178860
32
0.0000000000
13
-0.0001921088
23
-0.7410422370
33
0.0000000000
40
0.0000000000
40
0.0000000000
40
0.0000000000
40
0.0000000000
40
0.3321215885
40
0.6727944547
40
1.0000000000
40
1.0000000000
40
1.0000000000
40
1.0000000000
10
92.0036461897
20
194.3830874854
30
0.0000000000
10
91.9317988785
20
194.3434855412
30
0.0000000000
10
91.7989161629
20
194.2372489028
30
0.0000000000
10
91.6690936416
20
194.0210389062
30
0.0000000000
10
91.6391188981
20
193.8545856507
30
0.0000000000
10
91.6390979450
20
193.7737612743
30
0.0000000000
11
92.0036461897
21
194.3830874854
31
0.0000000000
11
91.8117022627
21
194.2290398309
31
0.0000000000
11
91.6821057462
21
194.0123897542
31
0.0000000000
11
91.6390979450
21
193.7737612743
31
0.0000000000
0
SPLINE
5
45A
100
AcDbEntity
8
0
100
AcDbSpline
62
7
6
CONTINUOUS
70
0
71
3
72
10
73
6
74
4
42
0.0000001000
43
0.0000001000
44
0.0000000001
12
-0.0239132163
22
0.0582715325
32
0.0000000000
13
0.0000000000
23
0.0629874068
33
0.0000000000
40
0.0000000000
40
0.0000000000
40
0.0000000000
40
0.0000000000
40
0.3215763704
40
0.6548406154
40
1.0000000000
40
1.0000000000
40
1.0000000000
40
1.0000000000
10
92.0036461897
20
194.3830874854
30
0.0000000000
10
92.0010828812
20
194.3893337347
30
0.0000000000
10
91.9966599555
20
194.4024011547
30
0.0000000000
10
91.9926619284
20
194.4230718799
30
0.0000000000
10
91.9917903041
20
194.4373347694
30
0.0000000000
10
91.9917903041
20
194.4445816675
30
0.0000000000
11
92.0036461897
21
194.3830874854
31
0.0000000000
11
91.9971741484
21
194.4022809298
31
0.0000000000
11
91.9931536727
21
194.4228837638
31
0.0000000000
11
91.9917903041
21
194.4445816675
31
0.0000000000
0
SPLINE
5
45B
100
AcDbEntity
8
0
100
AcDbSpline
62
7
6
CONTINUOUS
70
0
71
3
72
10
73
6
74
4
42
0.0000001000
43
0.0000001000
44
0.0000000001
12
-0.0239132359
22
-0.0582715523
32
0.0000000000
13
0.0000000000
23
-0.0629874325
33
0.0000000000
40
0.0000000000
40
0.0000000000
40
0.0000000000
40
0.0000000000
40
0.3215763772
40
0.6548406185
40
1.0000000000
40
1.0000000000
40
1.0000000000
40
1.0000000000
10
92.0036461682
20
195.1356943003
30
0.0000000000
10
92.0010828576
20
195.1294480487
30
0.0000000000
10
91.9966599747
20
195.1163806082
30
0.0000000000
10
91.9926619245
20
195.0957098815
30
0.0000000000
10
91.9917903041
20
195.0814469848
30
0.0000000000
10
91.9917903041
20
195.0742000837
30
0.0000000000
11
92.0036461682
21
195.1356943003
31
0.0000000000
11
91.9971741528
21
195.1165008380
31
0.0000000000
11
91.9931536738
21
195.0958979961
31
0.0000000000
11
91.9917903041
21
195.0742000837
31
0.0000000000
0
SPLINE
5
45C
100
AcDbEntity
8
0
100
AcDbSpline
62
7
6
CONTINUOUS
70
0
71
3
72
10
73
6
74
4
42
0.0000001000
43
0.0000001000
44
0.0000000001
12
0.1689798372
22
0.4117685065
32
0.0000000000
13
-0.4077976350
23
0.1783495926
33
0.0000000000
40
0.0000000000
40
0.0000000000
40
0.0000000000
40
0.0000000000
40
0.5028408889
40
0.8580565072
40
1.0000000000
40
1.0000000000
40
1.0000000000
40
1.0000000000
10
92.0036481105
20
195.1356943003
30
0.0000000000
10
92.0319714343
20
195.2047123142
30
0.0000000000
10
92.0804904058
20
195.3321616416
30
0.0000000000
10
92.1099057211
20
195.4524668456
30
0.0000000000
10
92.1309362817
20
195.5533439250
30
0.0000000000
10
92.1116415414
20
195.5617824464
30
0.0000000000
11
92.0036481105
21
195.1356943003
31
0.0000000000
11
92.0808433718
21
195.3457708671
31
0.0000000000
11
92.1194496717
21
195.4990887953
31
0.0000000000
11
92.1116415414
21
195.5617824464
31
0.0000000000
0
SPLINE
5
45D
100
AcDbEntity
8
0
100
AcDbSpline
62
7
6
CONTINUOUS
70
0
71
3
72
13
73
9
74
7
42
0.0000001000
43
0.0000001000
44
0.0000000001
12
-0.0000150931
22
1.0279842129
32
0.0000000000
13
-1.0279841086
23
-0.0004632368
33
0.0000000000
40
0.0000000000
40
0.0000000000
40
0.0000000000
40
0.0000000000
40
0.2085086549
40
0.4283203831
40
0.6399530021
40
0.8193234963
40
0.9422537897
40
1.0000000000
40
1.0000000000
40
1.0000000000
40
1.0000000000
10
91.6390979450
20
196.9593908756
30
0.0000000000
10
91.6390968960
20
197.0308387441
30
0.0000000000
10
91.6369303761
20
197.1775258583
30
0.0000000000
10
91.6259775844
20
197.3970292143
30
0.0000000000
10
91.6078686781
20
197.6040984435
30
0.0000000000
10
91.5778587676
20
197.7824020396
30
0.0000000000
10
91.5516768756
20
197.8930991218
30
0.0000000000
10
91.5115776996
20
197.9593997924
30
0.0000000000
10
91.4917903041
20
197.9593908756
30
0.0000000000
11
91.6390979450
21
196.9593908756
31
0.0000000000
11
91.6357637443
21
197.1737085471
31
0.0000000000
11
91.6244341326
21
197.3993873258
31
0.0000000000
11
91.6036194810
21
197.6159443033
31
0.0000000000
11
91.5730384318
21
197.7977807269
31
0.0000000000
11
91.5344559072
21
197.9181172010
31
0.0000000000
11
91.4917903041
21
197.9593908756
31
0.0000000000
0
SPLINE
5
45E
100
AcDbEntity
8
0
100
AcDbSpline
62
7
6
CONTINUOUS
70
0
71
3
72
9
73
5
74
3
42
0.0000001000
43
0.0000001000
44
0.0000000001
12
0.0495911577
22
-0.0093701588
32
0.0000000000
13
0.0493208052
23
-0.0107023812
33
0.0000000000
40
0.0000000000
40
0.0000000000
40
0.0000000000
40
0.0000000000
40
0.5004688192
40
1.0000000000
40
1.0000000000
40
1.0000000000
40
1.0000000000
10
91.5385430130
20
267.0214127071
30
0.0000000000
10
91.5468159557
20
267.0198495496
30
0.0000000000
10
91.5633253208
20
267.0166138908
30
0.0000000000
10
91.5797896771
20
267.0131565499
30
0.0000000000
10
91.5880021038
20
267.0113744921
30
0.0000000000
11
91.5385430130
21
267.0214127071
31
0.0000000000
11
91.5633295273
21
267.0165553324
31
0.0000000000
11
91.5880021038
21
267.0113744921
31
0.0000000000
0
SPLINE
5
45F
100
AcDbEntity
8
0
100
AcDbSpline
62
7
6
CONTINUOUS
70
0
71
3
72
11
73
7
74
5
42
0.0000001000
43
0.0000001000
44
0.0000000001
12
0.0000000000
22
-0.5000000000
32
0.0000000000
13
-0.0000000000
23
-0.5000000000
33
0.0000000000
40
0.0000000000
40
0.0000000000
40
0.0000000000
40
0.0000000000
40
0.0659139139
40
0.2655420826
40
0.5882202146
40
1.0000000000
40
1.0000000000
40
1.0000000000
40
1.0000000000
10
81.4917903041
20
253.5662436548
30
0.0000000000
10
81.4917903041
20
253.5552580025
30
0.0000000000
10
81.4917903041
20
253.5110009887
30
0.0000000000
10
81.4917903041
20
253.4129642863
30
0.0000000000
10
81.4917903041
20
253.2572832720
30
0.0000000000
10
81.4917903041
20
253.1348736191
30
0.0000000000
10
81.4917903041
20
253.0662436548
30
0.0000000000
11
81.4917903041
21
253.5662436548
31
0.0000000000
11
81.4917903041
21
253.5332866979
31
0.0000000000
11
81.4917903041
21
253.4334726135
31
0.0000000000
11
81.4917903041
21
253.2721335475
31
0.0000000000
11
81.4917903041
21
253.0662436548
31
0.0000000000
0
SPLINE
5
460
100
AcDbEntity
8
0
100
AcDbSpline
62
7
6
CONTINUOUS
70
0
71
3
72
12
73
8
74
6
42
0.0000001000
43
0.0000001000
44
0.0000000001
12
0.7503793945
22
-0.1312443570
32
0.0000000000
13
0.7485242589
23
-0.1414416871
33
0.0000000000
40
0.0000000000
40
0.0000000000
40
0.0000000000
40
0.0000000000
40
0.2257408641
40
0.4494380637
40
0.6565930493
40
0.8403842899
40
1.0000000000
40
1.0000000000
40
1.0000000000
40
1.0000000000
10
90.7910971402
20
267.1674305279
30
0.0000000000
10
90.8475609045
20
267.1575547897
30
0.0000000000
10
90.9587959637
20
267.1316816527
30
0.0000000000
10
91.1211919571
20
267.0940170895
30
0.0000000000
10
91.2745393892
20
267.0646844848
30
0.0000000000
10
91.4126182270
20
267.0428386273
30
0.0000000000
10
91.4987176026
20
267.0289381455
30
0.0000000000
10
91.5385430130
20
267.0214127071
30
0.0000000000
11
90.7910971402
21
267.1674305279
31
0.0000000000
11
90.9592828530
21
267.1315871467
31
0.0000000000
11
91.1255340934
21
267.0941878639
31
0.0000000000
11
91.2805117813
21
267.0644524412
31
0.0000000000
11
91.4186739735
21
267.0418007718
31
0.0000000000
11
91.5385430130
21
267.0214127071
31
0.0000000000
0
SPLINE
5
461
100
AcDbEntity
8
0
100
AcDbSpline
62
7
6
CONTINUOUS
70
0
71
3
72
11
73
7
74
5
42
0.0000001000
43
0.0000001000
44
0.0000000001
12
0.6016468973
22
0.0000000000
32
0.0000000000
13
0.0000000000
23
0.6016468973
33
0.0000000000
40
0.0000000000
40
0.0000000000
40
0.0000000000
40
0.0000000000
40
0.1711361921
40
0.3961397340
40
0.6804010462
40
1.0000000000
40
1.0000000000
40
1.0000000000
40
1.0000000000
10
86.7417903041
20
249.5662436548
30
0.0000000000
10
86.7761114904
20
249.5662436548
30
0.0000000000
10
86.8545529441
20
249.6036186149
30
0.0000000000
10
86.9301505921
20
249.7208917930
30
0.0000000000
10
86.9805581241
20
249.8805300058
30
0.0000000000
10
86.9917903041
20
250.0021484152
30
0.0000000000
10
86.9917903041
20
250.0662436548
30
0.0000000000
11
86.7417903041
21
249.5662436548
31
0.0000000000
11
86.8374611622
21
249.6043038886
31
0.0000000000
11
86.9185669994
21
249.7126902642
31
0.0000000000
11
86.9727601872
21
249.8749019386
31
0.0000000000
11
86.9917903041
21
250.0662436548
31
0.0000000000
0
SPLINE
5
462
100
AcDbEntity
8
0
100
AcDbSpline
62
7
6
CONTINUOUS
70
0
71
3
72
14
73
10
74
8
42
0.0000001000
43
0.0000001000
44
0.0000000001
12
-0.1434438673
22
-1.0022496906
32
0.0000000000
13
-0.1514017457
23
-1.0010784760
33
0.0000000000
40
0.0000000000
40
0.0000000000
40
0.0000000000
40
0.0000000000
40
0.0148135558
40
0.0645021530
40
0.1570064511
40
0.2991377350
40
0.4933708074
40
0.7331147733
40
1.0000000000
40
1.0000000000
40
1.0000000000
40
1.0000000000
10
93.2390979450
20
266.5785625683
30
0.0000000000
10
93.2383896405
20
266.5736136078
30
0.0000000000
10
93.2353046834
20
266.5520646359
30
0.0000000000
10
93.2277849395
20
266.4996132075
30
0.0000000000
10
93.2140988065
20
266.4046383646
30
0.0000000000
10
93.1933328607
20
266.2613979279
30
0.0000000000
10
93.1651864271
20
266.0690165583
30
0.0000000000
10
93.1305940540
20
265.8350273840
30
0.0000000000
10
93.1052592671
20
265.6659335213
30
0.0000000000
10
93.0917903041
20
265.5768758359
30
0.0000000000
11
93.2390979450
21
266.5785625683
31
0.0000000000
11
93.2369724299
21
266.5637157725
31
0.0000000000
11
93.2298313881
21
266.5139173274
31
0.0000000000
11
93.2164772541
21
266.4212171217
31
0.0000000000
11
93.1958294681
21
266.2788035281
31
0.0000000000
11
93.1673663847
21
266.0842205321
31
0.0000000000
11
93.1318599545
21
265.8440996778
31
0.0000000000
11
93.0917903041
21
265.5768758359
31
0.0000000000
0
SPLINE
5
463
100
AcDbEntity
8
0
100
AcDbSpline
62
7
6
CONTINUOUS
70
0
71
3
72
11
73
7
74
5
42
0.0000001000
43
0.0000001000
44
0.0000000001
12
0.0000000000
22
0.6016468973
32
0.0000000000
13
-0.6016468973
23
0.0000000000
33
0.0000000000
40
0.0000000000
40
0.0000000000
40
0.0000000000
40
0.0000000000
40
0.3195989538
40
0.6038602660
40
0.8288638079
40
1.0000000000
40
1.0000000000
40
1.0000000000
40
1.0000000000
10
86.9917903041
20
253.0662436548
30
0.0000000000
10
86.9917903041
20
253.1303388945
30
0.0000000000
10
86.9805581241
20
253.2519573038
30
0.0000000000
10
86.9301505921
20
253.4115955166
30
0.0000000000
10
86.8545529441
20
253.5288686947
30
0.0000000000
10
86.7761114904
20
253.5662436548
30
0.0000000000
10
86.7417903041
20
253.5662436548
30
0.0000000000
11
86.9917903041
21
253.0662436548
31
0.0000000000
11
86.9727601872
21
253.2575853710
31
0.0000000000
11
86.9185669994
21
253.4197970454
31
0.0000000000
11
86.8374611622
21
253.5281834211
31
0.0000000000
11
86.7417903041
21
253.5662436548
31
0.0000000000
0
SPLINE
5
464
100
AcDbEntity
8
0
100
AcDbSpline
62
7
6
CONTINUOUS
70
0
71
3
72
19
73
15
74
13
42
0.0000001000
43
0.0000001000
44
0.0000000001
12
0.7960972238
22
-0.8614281832
32
0.0000000000
13
0.7841542419
23
-0.8723138349
33
0.0000000000
40
0.0000000000
40
0.0000000000
40
0.0000000000
40
0.0000000000
40
0.0066086918
40
0.0288373315
40
0.0695226382
40
0.1300763337
40
0.2100668838
40
0.3070913489
40
0.4172301691
40
0.5359382894
40
0.6584427401
40
0.7798331698
40
0.8952270173
40
1.0000000000
40
1.0000000000
40
1.0000000000
40
1.0000000000
10
51.6402742456
20
264.7436411738
30
0.0000000000
10
51.6420279660
20
264.7417435360
30
0.0000000000
10
51.6496791825
20
264.7334619754
30
0.0000000000
10
51.6681130522
20
264.7134851460
30
0.0000000000
10
51.7008134171
20
264.6779735212
30
0.0000000000
10
51.7487765322
20
264.6258158489
30
0.0000000000
10
51.8116054266
20
264.5574028307
30
0.0000000000
10
51.8874641596
20
264.4746338545
30
0.0000000000
10
51.9734279753
20
264.3805922541
30
0.0000000000
10
52.0659621794
20
264.2790595407
30
0.0000000000
10
52.1612952690
20
264.1741257556
30
0.0000000000
10
52.2555933172
20
264.0700026216
30
0.0000000000
10
52.3450854484
20
263.9708805583
30
0.0000000000
10
52.4026845582
20
263.9069080772
30
0.0000000000
10
52.4300706178
20
263.8764431031
30
0.0000000000
11
51.6402742456
21
264.7436411738
31
0.0000000000
11
51.6455345823
21
264.7379474986
31
0.0000000000
11
51.6632169302
21
264.7187863680
31
0.0000000000
11
51.6955480804
21
264.6836851009
31
0.0000000000
11
51.7436275940
21
264.6314052528
31
0.0000000000
11
51.8070899893
21
264.5622984383
31
0.0000000000
11
51.8839825132
21
264.4783982089
31
0.0000000000
11
51.9711446185
21
264.3830444103
31
0.0000000000
11
52.0649358641
21
264.2801324918
31
0.0000000000
11
52.1615601285
21
264.1737779422
31
0.0000000000
11
52.2571394420
21
264.0682397254
31
0.0000000000
11
52.3478442725
21
263.9677767021
31
0.0000000000
11
52.4300706178
21
263.8764431031
31
0.0000000000
0
SPLINE
5
465
100
AcDbEntity
8
0
100
AcDbSpline
62
7
6
CONTINUOUS
70
0
71
3
72
11
73
7
74
5
42
0.0000001000
43
0.0000001000
44
0.0000000001
12
-0.5556435948
22
0.0000000000
32
0.0000000000
13
0.0000000000
23
0.5556435948
33
0.0000000000
40
0.0000000000
40
0.0000000000
40
0.0000000000
40
0.0000000000
40
0.1362484087
40
0.3553824328
40
0.6548434900
40
1.0000000000
40
1.0000000000
40
1.0000000000
40
1.0000000000
10
94.2917903041
20
246.0662436548
30
0.0000000000
10
94.2665551189
20
246.0662436548
30
0.0000000000
10
94.2074168418
20
246.1132018029
30
0.0000000000
10
94.1628571947
20
246.2254799158
30
0.0000000000
10
94.1278202850
20
246.3827471160
30
0.0000000000
10
94.1207802324
20
246.5023156535
30
0.0000000000
10
94.1207802324
20
246.5662436548
30
0.0000000000
11
94.2917903041
21
246.0662436548
31
0.0000000000
11
94.2263475829
21
246.1043038886
31
0.0000000000
11
94.1708679227
21
246.2126902642
31
0.0000000000
11
94.1337975990
21
246.3749019386
31
0.0000000000
11
94.1207802324
21
246.5662436548
31
0.0000000000
0
SPLINE
5
466
100
AcDbEntity
8
0
100
AcDbSpline
62
7
6
CONTINUOUS
70
0
71
3
72
11
73
7
74
5
42
0.0000001000
43
0.0000001000
44
0.0000000001
12
0.0000000000
22
0.5556435948
32
0.0000000000
13
0.5556435948
23
0.0000000000
33
0.0000000000
40
0.0000000000
40
0.0000000000
40
0.0000000000
40
0.0000000000
40
0.3451565100
40
0.6446175672
40
0.8637515913
40
1.0000000000
40
1.0000000000
40
1.0000000000
40
1.0000000000
10
94.1207802324
20
265.9662436548
30
0.0000000000
10
94.1207802324
20
266.0301716562
30
0.0000000000
10
94.1278202850
20
266.1497401936
30
0.0000000000
10
94.1628571947
20
266.3070073939
30
0.0000000000
10
94.2074168418
20
266.4192855068
30
0.0000000000
10
94.2665551189
20
266.4662436548
30
0.0000000000
10
94.2917903041
20
266.4662436548
30
0.0000000000
11
94.1207802324
21
265.9662436548
31
0.0000000000
11
94.1337975990
21
266.1575853710
31
0.0000000000
11
94.1708679227
21
266.3197970454
31
0.0000000000
11
94.2263475829
21
266.4281834211
31
0.0000000000
11
94.2917903041
21
266.4662436548
31
0.0000000000
0
SPLINE
5
467
100
AcDbEntity
8
0
100
AcDbSpline
62
7
6
CONTINUOUS
70
0
71
3
72
11
73
7
74
5
42
0.0000001000
43
0.0000001000
44
0.0000000001
12
-0.6016468973
22
0.0000000000
32
0.0000000000
13
-0.0000000000
23
-0.6016468973
33
0.0000000000
40
0.0000000000
40
0.0000000000
40
0.0000000000
40
0.0000000000
40
0.1711361921
40
0.3961397340
40
0.6804010462
40
1.0000000000
40
1.0000000000
40
1.0000000000
40
1.0000000000
10
76.2417903041
20
253.5662436548
30
0.0000000000
10
76.2074691177
20
253.5662436548
30
0.0000000000
10
76.1290276640
20
253.5288686947
30
0.0000000000
10
76.0534300160
20
253.4115955166
30
0.0000000000
10
76.0030224841
20
253.2519573038
30
0.0000000000
10
75.9917903041
20
253.1303388945
30
0.0000000000
10
75.9917903041
20
253.0662436548
30
0.0000000000
11
76.2417903041
21
253.5662436548
31
0.0000000000
11
76.1461194460
21
253.5281834211
31
0.0000000000
11
76.0650136088
21
253.4197970454
31
0.0000000000
11
76.0108204209
21
253.2575853710
31
0.0000000000
11
75.9917903041
21
253.0662436548
31
0.0000000000
0
SPLINE
5
468
100
AcDbEntity
8
0
100
AcDbSpline
62
7
6
CONTINUOUS
70
0
71
3
72
11
73
7
74
5
42
0.0000001000
43
0.0000001000
44
0.0000000001
12
0.0000000000
22
-0.6016468973
32
0.0000000000
13
0.6016468973
23
-0.0000000000
33
0.0000000000
40
0.0000000000
40
0.0000000000
40
0.0000000000
40
0.0000000000
40
0.3195989538
40
0.6038602660
40
0.8288638079
40
1.0000000000
40
1.0000000000
40
1.0000000000
40
1.0000000000
10
75.9917903041
20
250.0662436548
30
0.0000000000
10
75.9917903041
20
250.0021484152
30
0.0000000000
10
76.0030224841
20
249.8805300058
30
0.0000000000
10
76.0534300160
20
249.7208917930
30
0.0000000000
10
76.1290276640
20
249.6036186149
30
0.0000000000
10
76.2074691177
20
249.5662436548
30
0.0000000000
10
76.2417903041
20
249.5662436548
30
0.0000000000
11
75.9917903041
21
250.0662436548
31
0.0000000000
11
76.0108204209
21
249.8749019386
31
0.0000000000
11
76.0650136088
21
249.7126902642
31
0.0000000000
11
76.1461194460
21
249.6043038886
31
0.0000000000
11
76.2417903041
21
249.5662436548
31
0.0000000000
0
SPLINE
5
469
100
AcDbEntity
8
0
100
AcDbSpline
62
7
6
CONTINUOUS
70
0
71
3
72
11
73
7
74
5
42
0.0000001000
43
0.0000001000
44
0.0000000001
12
0.0000000000
22
0.5000000000
32
0.0000000000
13
-0.0000000000
23
0.5000000000
33
0.0000000000
40
0.0000000000
40
0.0000000000
40
0.0000000000
40
0.0000000000
40
0.0659139139
40
0.2655420826
40
0.5882202146
40
1.0000000000
40
1.0000000000
40
1.0000000000
40
1.0000000000
10
81.4917903041
20
249.5662436548
30
0.0000000000
10
81.4917903041
20
249.5772293071
30
0.0000000000
10
81.4917903041
20
249.6214863209
30
0.0000000000
10
81.4917903041
20
249.7195230233
30
0.0000000000
10
81.4917903041
20
249.8752040377
30
0.0000000000
10
81.4917903041
20
249.9976136906
30
0.0000000000
10
81.4917903041
20
250.0662436548
30
0.0000000000
11
81.4917903041
21
249.5662436548
31
0.0000000000
11
81.4917903041
21
249.5992006118
31
0.0000000000
11
81.4917903041
21
249.6990146961
31
0.0000000000
11
81.4917903041
21
249.8603537621
31
0.0000000000
11
81.4917903041
21
250.0662436548
31
0.0000000000
0
ENDSEC
0
SECTION
2
OBJECTS
0
DICTIONARY
5
C
100
AcDbDictionary
280
0
281
1
3
ACAD_GROUP
350
D
3
ACAD_MLINESTYLE
350
17
3
ACAD_LAYOUT
350
1A
3
ACAD_PLOTSETTINGS
350
19
3
ACAD_PLOTSTYLENAME
350
E
0
DICTIONARY
5
D
102
{ACAD_REACTORS
330
C
102
}
100
AcDbDictionary
280
0
281
1
0
ACDBDICTIONARYWDFLT
5
E
102
{ACAD_REACTORS
330
C
102
}
100
AcDbDictionary
281
1
3
Normal
350
F
100
AcDbDictionaryWithDefault
340
F
0
DICTIONARY
5
17
102
{ACAD_REACTORS
330
C
102
}
100
AcDbDictionary
280
0
281
1
3
Standard
350
18
0
DICTIONARY
5
19
102
{ACAD_REACTORS
330
C
102
}
100
AcDbDictionary
281
1
0
DICTIONARY
5
1A
102
{ACAD_REACTORS
330
C
102
}
100
AcDbDictionary
281
1
3
Layout1
350
1E
3
Model
350
22
0
ACDBPLACEHOLDER
5
F
102
{ACAD_REACTORS
330
E
102
}
0
MLINESTYLE
5
18
102
{ACAD_REACTORS
330
17
102
}
100
AcDbMlineStyle
2
STANDARD
70
0
3

62
256
51
90.0
52
90.0
71
2
49
0.5
62
256
6
BYLAYER
49
-0.5
62
256
6
BYLAYER
0
LAYOUT
5
1E
102
{ACAD_REACTORS
330
1A
102
}
100
AcDbPlotSettings
1

2

4

6

40
0.0
41
0.0
42
0.0
43
0.0
44
0.0
45
0.0
46
0.0
47
0.0
48
0.0
49
0.0
140
0.0
141
0.0
142
1.0
143
1.0
70
0
72
0
73
0
74
0
7

75
0
147
1.0
148
0.0
149
0.0
100
AcDbLayout
1
Layout1
70
0
71
0
10
0.0
20
0.0
11
0.0
21
0.0
12
0.0
22
0.0
32
0.0
14
0.0
24
0.0
34
0.0
15
0.0
25
0.0
35
0.0
146
0.0
13
0.0
23
0.0
33
0.0
16
0.0
26
0.0
36
0.0
17
0.0
27
0.0
37
0.0
76
0
330
1B
331
0
345
0
346
0
0
LAYOUT
5
22
102
{ACAD_REACTORS
330
1A
102
}
100
AcDbPlotSettings
1

2

4

6

40
0.0
41
0.0
42
0.0
43
0.0
44
0.0
45
0.0
46
0.0
47
0.0
48
0.0
49
0.0
140
0.0
141
0.0
142
1.0
143
1.0
70
0
72
0
73
0
74
0
7

75
0
147
1.0
148
0.0
149
0.0
100
AcDbLayout
1
Model
70
0
71
0
10
0.0
20
0.0
11
0.0
21
0.0
12
0.0
22
0.0
32
0.0
14
0.0
24
0.0
34
0.0
15
0.0
25
0.0
35
0.0
146
0.0
13
0.0
23
0.0
33
0.0
16
0.0
26
0.0
36
0.0
17
0.0
27
0.0
37
0.0
76
0
330
1F
331
0
345
0
346
0
0
ENDSEC
0
EOF
