  0
SECTION
  2
HEADER
  9
$ACADVER
  1
AC1009
  9
$INSBASE
 10
0
 20
0
  9
$EXTMIN
 10
-514.7355413955011
 20
233.032168781875
  9
$EXTMAX
 10
-470.454838272565
 20
270
  9
$LIMMIN
 10
-514.7355413955011
 20
233.032168781875
  9
$LIMMAX
 10
-470.454838272565
 20
270
  9
$VIEWCTR
 10
10
 20
10
  9
$VIEWSIZE
 40
10
  9
$SNAPMODE
 70
0
  9
$SNAPUNIT
 10
1
 20
1
  9
$SNAPBASE
 10
0
 20
0
  9
$SNAPANG
 50
0
  9
$SNAPSTYLE
 70
0
  9
$SNAPISOPAIR
 70
0
  9
$GRIDMODE
 70
0
  9
$GRIDUNIT
 10
0
 20
0
  9
$ORTHOMODE
 70
0
  9
$REGENMODE
 70
1
  9
$FILLMODE
 70
1
  9
$QTEXTMODE
 70
0
  9
$DRAGMODE
 70
2
  9
$LTSCALE
 40
1
  9
$OSMODE
 70
0
  9
$ATTMODE
 70
1
  9
$TEXTSIZE
 40
3.5
  9
$TRACEWID
 40
0.5
  9
$TEXTSTYLE
  7
STANDARD
  9
$CLAYER
  8
0
  9
$CELTYPE
  6
BYLAYER
  9
$CECOLOR
 62
256
  9
$DIMSCALE
 40
1
  9
$DIMASZ
 40
0.18
  9
$DIMEXO
 40
0.0625
  9
$DIMDLI
 40
0.38
  9
$DIMRND
 40
0
  9
$DIMDLE
 40
0
  9
$DIMEXE
 40
0.18
  9
$DIMTP
 40
0
  9
$DIMTM
 40
0
  9
$DIMTXT
 40
0.18
  9
$DIMCEN
 40
0.09
  9
$DIMTSZ
 40
0
  9
$DIMTOL
 70
0
  9
$DIMLIM
 70
0
  9
$DIMTIH
 70
1
  9
$DIMTOH
 70
1
  9
$DIMSE1
 70
0
  9
$DIMSE2
 70
0
  9
$DIMTAD
 70
0
  9
$DIMZIN
 70
0
  9
$DIMBLK
  1

  9
$DIMASO
 70
1
  9
$DIMSHO
 70
1
  9
$DIMPOST
  1

  9
$DIMAPOST
  1

  9
$DIMALT
 70
0
  9
$DIMALTD
 70
2
  9
$DIMALTF
 40
25.4
  9
$DIMLFAC
 40
1
  9
$DIMTOFL
 70
0
  9
$DIMTVP
 40
0
  9
$DIMTIX
 70
0
  9
$DIMSOXD
 70
0
  9
$DIMSAH
 70
0
  9
$DIMBLK1
  1

  9
$DIMBLK2
  1

  9
$DIMSTYLE
  2
*UNNAMED
  9
$DIMCLRD
 70
0
  9
$DIMCLRE
 70
0
  9
$DIMCLRT
 70
0
  9
$DIMTFAC
 40
1
  9
$DIMGAP
 40
0.09
  9
$LUNITS
 70
2
  9
$LUPREC
 70
4
  9
$AXISMODE
 70
0
  9
$AXISUNIT
 10
0
 20
0
  9
$SKETCHINC
 40
0.1
  9
$FILLETRAD
 40
2
  9
$AUNITS
 70
0
  9
$AUPREC
 70
0
  9
$MENU
  1
ACAD
  9
$ELEVATION
 40
0
  9
$THICKNESS
 40
0
  9
$VIEWDIR
 10
0
 20
0
 30
1
  9
$LIMCHECK
 70
0
  9
$BLIPMODE
 70
1
  9
$CHAMFERA
 40
0
  9
$CHAMFERB
 40
0
  9
$FASTZOOM
 70
1
  9
$SKPOLY
 70
0
  9
$ANGBASE
 50
0
  9
$ANGDIR
 70
0
  9
$PDMODE
 70
0
  9
$PDSIZE
 40
0
  9
$PLINEWID
 40
0
  9
$COORDS
 70
2
  0
ENDSEC
  0
SECTION
  2
TABLES
  0
TABLE
  2
DIMSTYLE
 70
1
  0
DIMSTYLE
  2
DMST_1
 70
0
  3

  4

  5

  6

  7

 40
1
 41
3.200000000000001
 42
1
 43
7
 44
1
 45
0
 46
0
 47
0
 48
0
140
3.200000000000001
141
0
142
0
143
25.4
144
1
145
0
146
1
147
0.09
 71
0
 72
0
 73
0
 74
0
 75
0
 76
0
 77
1
 78
9
170
0
171
2
172
0
173
0
174
0
175
0
176
2
177
2
178
2
  0
ENDTAB
  0
TABLE
  2
LTYPE
 70
9
  0
LTYPE
  2
CONTINUOUS
 70
64
  3
Solid line
 72
65
 73
0
 40
0
  0
LTYPE
  2
BORDER
 70
64
  3
__ __ . __ __ .
 72
65
 73
6
 40
2.039242906977319
 49
0.5826408305649483
 49
-0.2913204152824742
 49
0.5826408305649483
 49
-0.2913204152824742
 49
0
 49
-0.2913204152824742
  0
LTYPE
  2
CENTER
 70
64
  3
____ _ ____ _
 72
65
 73
4
 40
2.330563322259793
 49
1.456602076412371
 49
-0.2913204152824742
 49
0.2913204152824742
 49
-0.2913204152824742
  0
LTYPE
  2
DASHDOT
 70
64
  3
__ . __ . __ .
 72
65
 73
4
 40
1.165281661129897
 49
0.5826408305649483
 49
-0.2913204152824742
 49
0
 49
-0.2913204152824742
  0
LTYPE
  2
DASHED
 70
64
  3
__ __ __ __ __
 72
65
 73
2
 40
0.8739612458474224
 49
0.5826408305649483
 49
-0.2913204152824742
  0
LTYPE
  2
DIVIDE
 70
64
  3
__ . . __ . . 
 72
65
 73
6
 40
1.456602076412371
 49
0.5826408305649483
 49
-0.2913204152824742
 49
0
 49
-0.2913204152824742
 49
0
 49
-0.2913204152824742
  0
LTYPE
  2
DOT
 70
64
  3
..............
 72
65
 73
4
 40
0.5826408305649483
 49
0
 49
-0.2913204152824742
 49
0
 49
-0.2913204152824742
  0
LTYPE
  2
HIDDEN
 70
64
  3
_ _ _ _ _ _ _
 72
65
 73
2
 40
0.4369806229237112
 49
0.2913204152824742
 49
-0.1456602076412371
  0
LTYPE
  2
PHANTOM
 70
64
  3
_____ _ _ _____ _ _ 
 72
65
 73
6
 40
2.913204152824742
 49
1.456602076412371
 49
-0.2913204152824742
 49
0.2913204152824742
 49
-0.2913204152824742
 49
0.2913204152824742
 49
-0.2913204152824742
  0
ENDTAB
  0
TABLE
  2
LAYER
 70
3
  0
LAYER
  2
1
 70
0
 62
7
  6
CONTINUOUS
  0
LAYER
  2
0
 70
0
 62
7
  6
CONTINUOUS
  0
ENDTAB
  0
TABLE
  2
STYLE
 70
4
  0
STYLE
  2
STANDARD
 70
0
 40
0
 41
1
 50
0
 71
0
 42
3.5
  3
txt
  4

  0
STYLE
  2
SIMPLEX
 70
0
 40
0
 41
1
 50
0
 71
0
 42
3.5
  3
simplex
  4

  0
STYLE
  2
COMPLEX
 70
0
 40
0
 41
1
 50
0
 71
0
 42
3.5
  3
complex
  4

  0
STYLE
  2
ITALIC
 70
0
 40
0
 41
1
 50
0
 71
0
 42
3.5
  3
italic
  4

  0
ENDTAB
  0
TABLE
  2
VIEW
 70
0
  0
ENDTAB
  0
ENDSEC
  0
SECTION
  2
BLOCKS
  0
BLOCK
  8
1
  2
*X0
 70
1
 10
0
 20
0
 30
0
  0
LINE
  8
1
 62
2
 10
-503.53906984518
 20
268.6215352105299
 30
0
 11
-502.1606050557098
 21
270
 31
0
  0
LINE
  8
1
 62
2
 10
-499.9179643685906
 20
268
 30
0
 11
-497.9179643685906
 21
270
 31
0
  0
LINE
  8
1
 62
2
 10
-495.6753236814713
 20
268
 30
0
 11
-493.6753236814713
 21
270
 31
0
  0
LINE
  8
1
 62
2
 10
-491.432682994352
 20
268
 30
0
 11
-489.432682994352
 21
270
 31
0
  0
LINE
  8
1
 62
2
 10
-487.1900423072328
 20
268
 30
0
 11
-485.3273498974764
 21
269.8626924097564
 31
0
  0
LINE
  8
1
 62
2
 10
-503.1900423072327
 20
252
 30
0
 11
-501.1900423072327
 21
254
 31
0
  0
LINE
  8
1
 62
2
 10
-487.03906984518
 20
263.9083317749335
 30
0
 11
-483.2959091002887
 21
267.6514925198249
 31
0
  0
LINE
  8
1
 62
2
 10
-498.9474016201134
 20
252
 30
0
 11
-496.9474016201134
 21
254
 31
0
  0
LINE
  8
1
 62
2
 10
-487.03906984518
 20
259.6656910878141
 30
0
 11
-482.8556389539614
 21
263.8491219790328
 31
0
  0
LINE
  8
1
 62
2
 10
-494.7047609329941
 20
252
 30
0
 11
-492.7047609329941
 21
254
 31
0
  0
LINE
  8
1
 62
2
 10
-487.03906984518
 20
255.4230504006949
 30
0
 11
-482.6736885450932
 21
259.7884317007818
 31
0
  0
LINE
  8
1
 62
2
 10
-490.4621202458749
 20
252
 30
0
 11
-488.4621202458749
 21
254
 31
0
  0
LINE
  8
1
 62
2
 10
-486.2194380170541
 20
252.0000415417015
 30
0
 11
-483.2040186309831
 21
255.0154609277726
 31
0
  0
ENDBLK
  8
0
  0
BLOCK
  8
1
  2
*D0
 70
1
 10
0
 20
0
 30
0
  0
LINE
  8
1
 62
2
 10
-471.454838272565
 20
252
 30
0
 11
-471.454838272565
 21
270
 31
0
  0
LINE
  8
1
 62
2
 10
-502.53906984518
 20
270
 30
0
 11
-470.454838272565
 21
270
 31
0
  0
LINE
  8
1
 62
2
 10
-502.53906984518
 20
252
 30
0
 11
-470.454838272565
 21
252
 31
0
  0
SOLID
  8
1
 62
2
 10
-471.454838272565
 20
270
 30
0
 11
-471.038838272565
 21
266.8
 31
0
 12
-471.870838272565
 22
266.8
 32
0
 13
-471.870838272565
 23
266.8
 33
0
  0
SOLID
  8
1
 62
2
 10
-471.454838272565
 20
252
 30
0
 11
-471.870838272565
 21
255.2
 31
0
 12
-471.038838272565
 22
255.2
 32
0
 13
-471.038838272565
 23
255.2
 33
0
  0
TEXT
  8
1
 62
2
 10
-472.654838272565
 20
260.84
 30
0
 40
3.200000000000001
  1
18
 50
90
 41
0.9
  0
TEXT
  8
1
 62
2
 10
-472.654838272565
 20
257.32
 30
0
 40
3.200000000000001
  1
Ö
 50
90
 41
0.9
  0
ENDBLK
  8
0
  0
BLOCK
  8
1
  2
*D1
 70
1
 10
0
 20
0
 30
0
  0
LINE
  8
1
 62
2
 10
-510.335541395501
 20
254
 30
0
 11
-510.335541395501
 21
268
 31
0
  0
LINE
  8
1
 62
2
 10
-504.53906984518
 20
268
 30
0
 11
-511.335541395501
 21
268
 31
0
  0
LINE
  8
1
 62
2
 10
-504.53906984518
 20
254
 30
0
 11
-511.335541395501
 21
254
 31
0
  0
SOLID
  8
1
 62
2
 10
-510.335541395501
 20
268
 30
0
 11
-509.919541395501
 21
264.8
 31
0
 12
-510.751541395501
 22
264.8
 32
0
 13
-510.751541395501
 23
264.8
 33
0
  0
SOLID
  8
1
 62
2
 10
-510.335541395501
 20
254
 30
0
 11
-510.751541395501
 21
257.2
 31
0
 12
-509.919541395501
 22
257.2
 32
0
 13
-509.919541395501
 23
257.2
 33
0
  0
TEXT
  8
1
 62
2
 10
-511.535541395501
 20
260.84
 30
0
 40
3.200000000000001
  1
14
 50
90
 41
0.9
  0
TEXT
  8
1
 62
2
 10
-511.535541395501
 20
257.32
 30
0
 40
3.200000000000001
  1
Ö
 50
90
 41
0.9
  0
ENDBLK
  8
0
  0
BLOCK
  8
1
  2
*D2
 70
1
 10
0
 20
0
 30
0
  0
LINE
  8
1
 62
2
 10
-503.53906984518
 20
234.032168781875
 30
0
 11
-482.53906984518
 21
234.032168781875
 31
0
  0
LINE
  8
1
 62
2
 10
-482.53906984518
 20
260
 30
0
 11
-482.53906984518
 21
233.032168781875
 31
0
  0
LINE
  8
1
 62
2
 10
-503.53906984518
 20
253
 30
0
 11
-503.53906984518
 21
233.032168781875
 31
0
  0
SOLID
  8
1
 62
2
 10
-503.53906984518
 20
234.032168781875
 30
0
 11
-500.33906984518
 21
234.448168781875
 31
0
 12
-500.33906984518
 22
233.616168781875
 32
0
 13
-500.33906984518
 23
233.616168781875
 33
0
  0
SOLID
  8
1
 62
2
 10
-482.53906984518
 20
234.032168781875
 30
0
 11
-485.73906984518
 21
233.616168781875
 31
0
 12
-485.73906984518
 22
234.448168781875
 32
0
 13
-485.73906984518
 23
234.448168781875
 33
0
  0
TEXT
  8
1
 62
2
 10
-494.95906984518
 20
235.232168781875
 30
0
 40
3.200000000000001
  1
21
 41
0.9
  0
ENDBLK
  8
0
  0
BLOCK
  8
1
  2
*D3
 70
1
 10
0
 20
0
 30
0
  0
LINE
  8
1
 62
2
 10
-503.53906984518
 20
242.563149479943
 30
0
 11
-487.03906984518
 21
242.563149479943
 31
0
  0
LINE
  8
1
 62
2
 10
-487.03906984518
 20
260
 30
0
 11
-487.03906984518
 21
241.563149479943
 31
0
  0
LINE
  8
1
 62
2
 10
-503.53906984518
 20
267
 30
0
 11
-503.53906984518
 21
241.563149479943
 31
0
  0
SOLID
  8
1
 62
2
 10
-487.03906984518
 20
242.563149479943
 30
0
 11
-490.23906984518
 21
242.147149479943
 31
0
 12
-490.23906984518
 22
242.979149479943
 32
0
 13
-490.23906984518
 23
242.979149479943
 33
0
  0
SOLID
  8
1
 62
2
 10
-503.53906984518
 20
242.563149479943
 30
0
 11
-500.33906984518
 21
242.979149479943
 31
0
 12
-500.33906984518
 22
242.147149479943
 32
0
 13
-500.33906984518
 23
242.147149479943
 33
0
  0
TEXT
  8
1
 62
2
 10
-499.20906984518
 20
244.083149479943
 30
0
 40
3.200000000000001
  1
16,5
 41
0.9
  0
ENDBLK
  8
0
  0
ENDSEC
  0
SECTION
  2
ENTITIES
  0
INSERT
  8
1
  2
*X0
 10
0
 20
0
 30
0
  0
LINE
  8
1
 62
2
  6
DASHDOT
 10
-506.071853333041
 20
261
 30
0
 11
-480.071853333041
 21
261
 31
0
  0
LINE
  8
1
 62
7
 10
-503.53906984518
 20
268
 30
0
 11
-503.53906984518
 21
254
 31
0
  0
LINE
  8
1
 62
7
 10
-503.53906984518
 20
254
 30
0
 11
-503.53906984518
 21
252
 31
0
  0
LINE
  8
1
 62
7
 10
-487.03906984518
 20
261
 30
0
 11
-487.03906984518
 21
254
 31
0
  0
LINE
  8
1
 62
7
 10
-487.03906984518
 20
254
 30
0
 11
-503.53906984518
 21
254
 31
0
  0
LINE
  8
1
 62
7
 10
-482.53906984518
 20
261
 30
0
 11
-483.2425470205383
 21
254.6687054217755
 31
0
  0
LINE
  8
1
 62
7
 10
-486.2241982245591
 20
252
 30
0
 11
-503.53906984518
 21
252
 31
0
  0
LINE
  8
1
 62
7
 10
-503.53906984518
 20
270
 30
0
 11
-503.53906984518
 21
268
 31
0
  0
LINE
  8
1
 62
7
 10
-487.03906984518
 20
268
 30
0
 11
-487.03906984518
 21
261
 31
0
  0
LINE
  8
1
 62
7
 10
-503.53906984518
 20
268
 30
0
 11
-487.03906984518
 21
268
 31
0
  0
LINE
  8
1
 62
7
 10
-483.2425470205383
 20
267.3312945782245
 30
0
 11
-482.53906984518
 21
261
 31
0
  0
LINE
  8
1
 62
7
 10
-503.53906984518
 20
270
 30
0
 11
-486.2241982245591
 21
270
 31
0
  0
ARC
  8
1
 62
7
 10
-486.2241982245591
 20
255
 30
0
 40
3
 50
270
 51
353.6598082540909
  0
ARC
  8
1
 62
7
 10
-486.2241982245591
 20
267
 30
0
 40
2.999999999999891
 50
6.340191745909669
 51
90
  0
DIMENSION
  8
1
  6
CONTINUOUS
 62
2
  2
*D0
  3
DMST_1
 10
-471.454838272565
 20
270
 30
0
 11
-474.254838272565
 21
261
 31
0
 12
0
 22
0
 32
0
 70
0
  1
Ö<>
 13
-503.53906984518
 23
252
 33
0
 14
-503.53906984518
 24
270
 34
0
 50
90
 53
0
  0
DIMENSION
  8
1
  6
CONTINUOUS
 62
2
  2
*D1
  3
DMST_1
 10
-510.335541395501
 20
268
 30
0
 11
-513.135541395501
 21
261
 31
0
 12
0
 22
0
 32
0
 70
0
  1
Ö<>
 13
-503.53906984518
 23
254
 33
0
 14
-503.53906984518
 24
268
 34
0
 50
90
 53
0
  0
DIMENSION
  8
1
  6
CONTINUOUS
 62
2
  2
*D2
  3
DMST_1
 10
-482.53906984518
 20
234.032168781875
 30
0
 11
-493.03906984518
 21
236.832168781875
 31
0
 12
0
 22
0
 32
0
 70
0
 13
-503.53906984518
 23
254
 33
0
 14
-482.53906984518
 24
261
 34
0
 53
0
  0
DIMENSION
  8
1
  6
CONTINUOUS
 62
2
  2
*D3
  3
DMST_1
 10
-487.03906984518
 20
242.563149479943
 30
0
 11
-495.28906984518
 21
245.523149479943
 31
0
 12
0
 22
0
 32
0
 70
0
 13
-503.53906984518
 23
268
 33
0
 14
-487.03906984518
 24
261
 34
0
 53
0
  0
ENDSEC
  0
EOF
