0
SECTION
2
HEADER
9
$EXTMAX
10
210.0000000000
20
297.0000000000
30
0.0000000000
9
$EXTMIN
10
0.0000000000
20
0.0000000000
30
0.0000000000
9
$LIMMIN
10
0.0000000000
20
0.0000000000
9
$LIMMAX
10
210.0000000000
20
297.0000000000
9
$VIEWCTR
10
105.0000000000
20
148.5000000000
9
$VIEWSIZE
40
297.0000000000
9
$CLAYER
8
0
9
$LTSCALE
40
19.3600000000
9
$CELTYPE
6
BYLAYER
9
$DIMSCALE
40
1
9
$DIMASZ
40
3.5000000000
9
$DIMEXO
40
2.2000000000
9
$DIMDLI
40
13.3760000000
9
$DIMEXE
40
6.3360000000
9
$DIMCEN
40
3.1680000000
9
$DIMLFAC
40
1.0000000000
9
$DIMBLK
1
_FILLED
9
$DIMTXT
40
3.5000000000
9
$PDMODE
70
3
9
$PDSIZE
40
0.3125000000
0
ENDSEC
0
SECTION
2
TABLES
0
TABLE
2
LTYPE
70
6
0
LTYPE
2
BYBLOCK
70
0
3

72
65
73
0
40
0.0
0
LTYPE
2
BYLAYER
70
0
3

72
65
73
0
40
0.0
0
LTYPE
2
CONTINUOUS
70
64
3
Solid line
72
65
73
0
40
0
0
LTYPE
2
CENTER
70
64
3
____ _ ____ _ ____ _ ____ _ ____ _ ____ _ ____
72
65
73
4
40
0.6
49
0.375
49
-0.075
49
0.075
49
-0.075
0
LTYPE
2
HIDDEN
70
64
3
- - - - - - - - - - - - - - - - - - - -
72
65
73
2
40
0.2
49
0.1
49
-0.1
0
LTYPE
2
PHANTOM
70
64
3
_____ _ _ _____ _ _ _____ _ _ _____
72
65
73
6
40
0.8
49
0.45
49
-0.05
49
0.1
49
-0.05
49
0.1
49
-0.05
0
LTYPE
2
DOT
70
64
3
. . . . . . . . . . . . . . . . . . . .
72
65
73
2
40
0.2
49
0.1
49
-0.1
0
LTYPE
2
DASHED
70
64
3
- - - - - - - - - - - - - - - - - - - -
72
65
73
2
40
0.2
49
0.1
49
-0.1
0
ENDTAB
0
TABLE
2
LAYER
70
36
0
LAYER
2
0
70
0
62
7
6
CONTINUOUS
0
LAYER
2
DEFAULT_1
70
0
62
7
6
CENTER
0
LAYER
2
DEFAULT_2
70
0
62
8
6
HIDDEN
0
LAYER
2
DEFAULT_3
70
0
62
7
6
PHANTOM
0
LAYER
2
ASSI
70
0
62
7
6
CONTINUOUS
0
LAYER
2
PIANI
70
0
62
7
6
CONTINUOUS
0
ENDTAB
0
TABLE
2
STYLE
70
1
0
STYLE
2
STANDARD
70
0
40
0.0
41
0.7143000000
50
0.0
71
0
42
0.2
3
txt
4

0
ENDTAB
0
ENDSEC
0
SECTION
2
BLOCKS
0
BLOCK
8
0
62
2
6
CONTINUOUS
2
*D0
70
65
10
0.0000000000
20
0.0000000000
0
TEXT
8
0
62
2
6
CONTINUOUS
10
65.2340035201
20
194.3692608906
7
STANDARD
40
3.5000000000
1
4.5
50
90.0000000000
41
0.7143000000
72
0
0
LINE
8
0
62
2
6
CONTINUOUS
10
77.2051153460
20
208.7291875627
11
64.6090035201
21
208.7291875627
0
LINE
8
0
62
2
6
CONTINUOUS
10
77.2051153460
20
213.2291875627
11
64.6090035201
21
213.2291875627
0
LINE
8
0
62
2
6
CONTINUOUS
10
66.1090035201
20
208.7291875627
11
66.1090035201
21
194.3692608906
0
LINE
8
0
62
2
6
CONTINUOUS
10
66.1090035201
20
194.3692608906
11
66.1090035201
21
210.9791875627
0
LINE
8
0
62
2
6
CONTINUOUS
10
66.1090035201
20
213.2291875627
11
66.1090035201
21
221.2291875627
0
LINE
8
0
62
2
6
CONTINUOUS
10
66.1090035201
20
221.2291875627
11
66.1090035201
21
210.9791875627
0
INSERT
8
0
62
2
6
CONTINUOUS
2
_FILLED
10
66.1090035201
20
208.7291875627
41
  3.500000
42
  3.500000
43
  3.500000
50
 90.000000
0
INSERT
8
0
62
2
6
CONTINUOUS
2
_FILLED
10
66.1090035201
20
213.2291875627
41
  3.500000
42
  3.500000
43
  3.500000
50
270.000000
0
ENDBLK
8
0
6
BYBLOCK
62
0
0
BLOCK
8
0
62
2
6
CONTINUOUS
2
*D1
70
65
10
0.0000000000
20
0.0000000000
0
TEXT
8
0
62
2
6
CONTINUOUS
10
56.1242268480
20
215.3576238737
7
STANDARD
40
3.5000000000
1
14.5
50
90.0000000000
41
0.7143000000
72
0
0
LINE
8
0
62
2
6
CONTINUOUS
10
80.2051153460
20
213.2291875627
11
55.4992268480
21
213.2291875627
0
LINE
8
0
62
2
6
CONTINUOUS
10
80.2051153460
20
227.7291875627
11
55.4992268480
21
227.7291875627
0
LINE
8
0
62
2
6
CONTINUOUS
10
56.9992268480
20
213.2291875627
11
56.9992268480
21
205.2291875627
0
LINE
8
0
62
2
6
CONTINUOUS
10
56.9992268480
20
205.2291875627
11
56.9992268480
21
220.4791875627
0
LINE
8
0
62
2
6
CONTINUOUS
10
56.9992268480
20
227.7291875627
11
56.9992268480
21
235.7291875627
0
LINE
8
0
62
2
6
CONTINUOUS
10
56.9992268480
20
235.7291875627
11
56.9992268480
21
220.4791875627
0
INSERT
8
0
62
2
6
CONTINUOUS
2
_FILLED
10
56.9992268480
20
213.2291875627
41
  3.500000
42
  3.500000
43
  3.500000
50
 90.000000
0
INSERT
8
0
62
2
6
CONTINUOUS
2
_FILLED
10
56.9992268480
20
227.7291875627
41
  3.500000
42
  3.500000
43
  3.500000
50
270.000000
0
ENDBLK
8
0
6
BYBLOCK
62
0
0
BLOCK
8
0
62
2
6
CONTINUOUS
2
*D2
70
65
10
0.0000000000
20
0.0000000000
0
TEXT
8
0
62
2
6
CONTINUOUS
10
141.2278256477
20
116.8725678536
7
STANDARD
40
3.5000000000
1
50
50
90.0000000000
41
0.7143000000
72
0
0
LINE
8
0
62
2
6
CONTINUOUS
10
126.2051153460
20
144.3726178536
11
143.6028256477
21
144.3726178536
0
LINE
8
0
62
2
6
CONTINUOUS
10
126.2051153460
20
94.3726178536
11
143.6028256477
21
94.3726178536
0
LINE
8
0
62
2
6
CONTINUOUS
10
142.1028256477
20
144.3726178536
11
142.1028256477
21
119.3726178536
0
LINE
8
0
62
2
6
CONTINUOUS
10
142.1028256477
20
94.3726178536
11
142.1028256477
21
119.3726178536
0
INSERT
8
0
62
2
6
CONTINUOUS
2
_FILLED
10
142.1028256477
20
144.3726178536
41
  3.500000
42
  3.500000
43
  3.500000
50
 90.000000
0
INSERT
8
0
62
2
6
CONTINUOUS
2
_FILLED
10
142.1028256477
20
94.3726178536
41
  3.500000
42
  3.500000
43
  3.500000
50
270.000000
0
ENDBLK
8
0
6
BYBLOCK
62
0
0
BLOCK
8
0
62
2
6
CONTINUOUS
2
*D3
70
65
10
0.0000000000
20
0.0000000000
0
TEXT
8
0
62
2
6
CONTINUOUS
10
99.4551289187
20
155.8534611210
7
STANDARD
40
3.5000000000
1
50
41
0.7143000000
72
0
0
LINE
8
0
62
2
6
CONTINUOUS
10
77.7051153460
20
142.8726178536
11
77.7051153460
21
156.4784611210
0
LINE
8
0
62
2
6
CONTINUOUS
10
127.7051153460
20
142.8726178536
11
127.7051153460
21
156.4784611210
0
LINE
8
0
62
2
6
CONTINUOUS
10
77.7051153460
20
154.9784611210
11
102.7051153460
21
154.9784611210
0
LINE
8
0
62
2
6
CONTINUOUS
10
127.7051153460
20
154.9784611210
11
102.7051153460
21
154.9784611210
0
INSERT
8
0
62
2
6
CONTINUOUS
2
_FILLED
10
77.7051153460
20
154.9784611210
41
  3.500000
42
  3.500000
43
  3.500000
50
180.000000
0
INSERT
8
0
62
2
6
CONTINUOUS
2
_FILLED
10
127.7051153460
20
154.9784611210
41
  3.500000
42
  3.500000
43
  3.500000
0
ENDBLK
8
0
6
BYBLOCK
62
0
0
BLOCK
8
0
2
_FILLED
70
64
10
0.0000000000
20
0.0000000000
0
SOLID
8
0
6
BYBLOCK
62
0
10
0.0000000000
20
0.0000000000
11
-1.0000000000
21
0.1857142857
12
-1.0000000000
22
-0.1857142857
13
-1.0000000000
23
-0.1857142857
0
ENDBLK
8
0
6
BYBLOCK
62
0
0
ENDSEC
0
SECTION
2
ENTITIES
0
DIMENSION
8
0
62
2
6
CONTINUOUS
2
*D0
10
66.1090035201
20
213.2291875627
11
63.4840035201
21
198.1193358906
70
128
13
77.2051153460
23
208.7291875627
14
77.2051153460
24
213.2291875627
50
90.000000
0
DIMENSION
8
0
62
2
6
CONTINUOUS
2
*D1
10
56.9992268480
20
227.7291875627
11
54.3742268480
21
220.3577238737
70
128
13
80.2051153460
23
213.2291875627
14
80.2051153460
24
227.7291875627
50
90.000000
0
DIMENSION
8
0
62
2
6
CONTINUOUS
2
*D2
10
142.1028256477
20
94.3726178536
11
139.4778256477
21
119.3726178536
70
128
13
126.2051153460
23
144.3726178536
14
126.2051153460
24
94.3726178536
50
270.000000
0
DIMENSION
8
0
62
2
6
CONTINUOUS
2
*D3
10
127.7051153460
20
154.9784611210
11
101.9551789187
21
157.6034611210
70
128
13
77.7051153460
23
142.8726178536
14
127.7051153460
24
142.8726178536
0
LINE
8
0
62
7
6
CONTINUOUS
10
0.0000000000
20
0.0000000000
11
210.0000000000
21
0.0000000000
0
LINE
8
0
62
7
6
CONTINUOUS
10
0.0000000000
20
0.0000000000
11
0.0000000000
21
297.0000000000
0
LINE
8
0
62
7
6
CONTINUOUS
10
210.0000000000
20
0.0000000000
11
210.0000000000
21
297.0000000000
0
LINE
8
0
62
7
6
CONTINUOUS
10
0.0000000000
20
297.0000000000
11
210.0000000000
21
297.0000000000
0
LINE
8
0
62
7
6
CONTINUOUS
10
77.7051153460
20
142.3726178536
11
77.7051153460
21
96.3726178536
0
LINE
8
0
62
7
6
CONTINUOUS
10
79.7051153460
20
94.3726178536
11
125.7051153460
21
94.3726178536
0
LINE
8
0
62
7
6
CONTINUOUS
10
80.7051153460
20
138.3726178536
11
80.7051153460
21
100.3726178536
0
LINE
8
0
62
7
6
CONTINUOUS
10
81.7051153460
20
100.3726178536
11
81.7051153460
21
138.3726178536
0
LINE
8
0
62
7
6
CONTINUOUS
10
83.7051153460
20
97.3726178536
11
121.7051153460
21
97.3726178536
0
LINE
8
0
62
7
6
CONTINUOUS
10
121.7051153460
20
98.3726178536
11
83.7051153460
21
98.3726178536
0
LINE
8
0
62
7
6
CONTINUOUS
10
123.7051153460
20
138.3726178536
11
123.7051153460
21
100.3726178536
0
LINE
8
0
62
7
6
CONTINUOUS
10
83.7051153460
20
140.3726178536
11
121.7051153460
21
140.3726178536
0
LINE
8
0
62
7
6
CONTINUOUS
10
124.7051153460
20
100.3726178536
11
124.7051153460
21
138.3726178536
0
LINE
8
0
62
7
6
CONTINUOUS
10
121.7051153460
20
141.3726178536
11
83.7051153460
21
141.3726178536
0
LINE
8
0
62
7
6
CONTINUOUS
10
127.7051153460
20
96.3726178536
11
127.7051153460
21
142.3726178536
0
LINE
8
0
62
7
6
CONTINUOUS
10
125.7051153460
20
144.3726178536
11
79.7051153460
21
144.3726178536
0
LINE
8
0
62
7
6
CONTINUOUS
10
77.7051153460
20
208.7291875627
11
77.7051153460
21
213.2291875627
0
LINE
8
0
62
7
6
CONTINUOUS
10
79.7051153460
20
208.7291875627
11
79.7051153460
21
213.2291875627
0
LINE
8
0
62
7
6
CONTINUOUS
10
80.7051153460
20
213.2291875627
11
80.7051153460
21
227.7291875627
0
LINE
8
0
62
7
6
CONTINUOUS
10
83.7051153460
20
213.2291875627
11
83.7051153460
21
227.7291875627
0
LINE
8
0
62
7
6
CONTINUOUS
10
77.7051153460
20
208.7291875627
11
127.7051153460
21
208.7291875627
0
LINE
8
0
62
7
6
CONTINUOUS
10
77.7051153460
20
213.2291875627
11
127.7051153460
21
213.2291875627
0
LINE
8
0
62
7
6
CONTINUOUS
10
80.7051153460
20
227.7291875627
11
124.7051153460
21
227.7291875627
0
LINE
8
0
62
7
6
CONTINUOUS
10
121.7051153460
20
213.2291875627
11
121.7051153460
21
227.7291875627
0
LINE
8
0
62
7
6
CONTINUOUS
10
124.7051153460
20
213.2291875627
11
124.7051153460
21
227.7291875627
0
LINE
8
0
62
7
6
CONTINUOUS
10
125.7051153460
20
208.7291875627
11
125.7051153460
21
213.2291875627
0
LINE
8
0
62
7
6
CONTINUOUS
10
127.7051153460
20
208.7291875627
11
127.7051153460
21
213.2291875627
0
ARC
8
0
62
7
6
CONTINUOUS
10
121.7051153460
20
138.3726178536
40
2.0000000000
50
0.0000000000
51
90.0000000000
0
ARC
8
0
62
7
6
CONTINUOUS
10
121.7051153460
20
100.3726178536
40
2.0000000000
50
270.0000000000
51
360.0000000000
0
ARC
8
0
62
7
6
CONTINUOUS
10
83.7051153460
20
100.3726178536
40
2.0000000000
50
180.0000000000
51
270.0000000000
0
ARC
8
0
62
7
6
CONTINUOUS
10
83.7051153460
20
138.3726178536
40
2.0000000000
50
90.0000000000
51
180.0000000000
0
ARC
8
0
62
7
6
CONTINUOUS
10
79.7051153460
20
142.3726178536
40
2.0000000000
50
90.0000000000
51
180.0000000000
0
ARC
8
0
62
7
6
CONTINUOUS
10
125.7051153460
20
142.3726178536
40
2.0000000000
50
0.0000000000
51
90.0000000000
0
ARC
8
0
62
7
6
CONTINUOUS
10
125.7051153460
20
96.3726178536
40
2.0000000000
50
270.0000000000
51
360.0000000000
0
ARC
8
0
62
7
6
CONTINUOUS
10
79.7051153460
20
96.3726178536
40
2.0000000000
50
180.0000000000
51
270.0000000000
0
ARC
8
0
62
7
6
CONTINUOUS
10
83.7051153460
20
100.3726178536
40
3.0000000000
50
180.0000000000
51
270.0000000000
0
ARC
8
0
62
7
6
CONTINUOUS
10
121.7051153460
20
100.3726178536
40
3.0000000000
50
270.0000000000
51
360.0000000000
0
ARC
8
0
62
7
6
CONTINUOUS
10
121.7051153460
20
138.3726178536
40
3.0000000000
50
0.0000000000
51
90.0000000000
0
ARC
8
0
62
7
6
CONTINUOUS
10
83.7051153460
20
138.3726178536
40
3.0000000000
50
90.0000000000
51
180.0000000000
0
ENDSEC
0
EOF
