  0
SECTION
  2
HEADER
  9
$ACADVER
  1
AC1009
  9
$INSBASE
 10
0
 20
0
  9
$EXTMIN
 10
-533.402625600481
 20
223.407117203706
  9
$EXTMAX
 10
-439.934668501072
 20
286.005098465255
  9
$LIMMIN
 10
-533.402625600481
 20
223.407117203706
  9
$LIMMAX
 10
-439.934668501072
 20
286.005098465255
  9
$VIEWCTR
 10
10
 20
10
  9
$VIEWSIZE
 40
10
  9
$SNAPMODE
 70
0
  9
$SNAPUNIT
 10
1
 20
1
  9
$SNAPBASE
 10
0
 20
0
  9
$SNAPANG
 50
0
  9
$SNAPSTYLE
 70
0
  9
$SNAPISOPAIR
 70
0
  9
$GRIDMODE
 70
0
  9
$GRIDUNIT
 10
0
 20
0
  9
$ORTHOMODE
 70
0
  9
$REGENMODE
 70
1
  9
$FILLMODE
 70
1
  9
$QTEXTMODE
 70
0
  9
$DRAGMODE
 70
2
  9
$LTSCALE
 40
1
  9
$OSMODE
 70
0
  9
$ATTMODE
 70
1
  9
$TEXTSIZE
 40
3.5
  9
$TRACEWID
 40
0.5
  9
$TEXTSTYLE
  7
STANDARD
  9
$CLAYER
  8
0
  9
$CELTYPE
  6
BYLAYER
  9
$CECOLOR
 62
256
  9
$DIMSCALE
 40
1
  9
$DIMASZ
 40
0.18
  9
$DIMEXO
 40
0.0625
  9
$DIMDLI
 40
0.38
  9
$DIMRND
 40
0
  9
$DIMDLE
 40
0
  9
$DIMEXE
 40
0.18
  9
$DIMTP
 40
0
  9
$DIMTM
 40
0
  9
$DIMTXT
 40
0.18
  9
$DIMCEN
 40
0.09
  9
$DIMTSZ
 40
0
  9
$DIMTOL
 70
0
  9
$DIMLIM
 70
0
  9
$DIMTIH
 70
1
  9
$DIMTOH
 70
1
  9
$DIMSE1
 70
0
  9
$DIMSE2
 70
0
  9
$DIMTAD
 70
0
  9
$DIMZIN
 70
0
  9
$DIMBLK
  1

  9
$DIMASO
 70
1
  9
$DIMSHO
 70
1
  9
$DIMPOST
  1

  9
$DIMAPOST
  1

  9
$DIMALT
 70
0
  9
$DIMALTD
 70
2
  9
$DIMALTF
 40
25.4
  9
$DIMLFAC
 40
1
  9
$DIMTOFL
 70
0
  9
$DIMTVP
 40
0
  9
$DIMTIX
 70
0
  9
$DIMSOXD
 70
0
  9
$DIMSAH
 70
0
  9
$DIMBLK1
  1

  9
$DIMBLK2
  1

  9
$DIMSTYLE
  2
*UNNAMED
  9
$DIMCLRD
 70
0
  9
$DIMCLRE
 70
0
  9
$DIMCLRT
 70
0
  9
$DIMTFAC
 40
1
  9
$DIMGAP
 40
0.09
  9
$LUNITS
 70
2
  9
$LUPREC
 70
4
  9
$AXISMODE
 70
0
  9
$AXISUNIT
 10
0
 20
0
  9
$SKETCHINC
 40
0.1
  9
$FILLETRAD
 40
2
  9
$AUNITS
 70
0
  9
$AUPREC
 70
0
  9
$MENU
  1
ACAD
  9
$ELEVATION
 40
0
  9
$THICKNESS
 40
0
  9
$VIEWDIR
 10
0
 20
0
 30
1
  9
$LIMCHECK
 70
0
  9
$BLIPMODE
 70
1
  9
$CHAMFERA
 40
0
  9
$CHAMFERB
 40
0
  9
$FASTZOOM
 70
1
  9
$SKPOLY
 70
0
  9
$ANGBASE
 50
0
  9
$ANGDIR
 70
0
  9
$PDMODE
 70
0
  9
$PDSIZE
 40
0
  9
$PLINEWID
 40
0
  9
$COORDS
 70
2
  0
ENDSEC
  0
SECTION
  2
TABLES
  0
TABLE
  2
DIMSTYLE
 70
1
  0
DIMSTYLE
  2
DMST_1
 70
0
  3

  4

  5

  6

  7

 40
1
 41
3.200000000000001
 42
1
 43
7
 44
1
 45
0
 46
0
 47
0
 48
0
140
3.200000000000001
141
0
142
0
143
25.4
144
1
145
0
146
1
147
0.09
 71
0
 72
0
 73
0
 74
0
 75
0
 76
0
 77
1
 78
9
170
0
171
2
172
0
173
0
174
0
175
0
176
2
177
2
178
2
  0
ENDTAB
  0
TABLE
  2
LTYPE
 70
9
  0
LTYPE
  2
CONTINUOUS
 70
64
  3
Solid line
 72
65
 73
0
 40
0
  0
LTYPE
  2
BORDER
 70
64
  3
__ __ . __ __ .
 72
65
 73
6
 40
4.30444539273594
 49
1.229841540781697
 49
-0.6149207703908486
 49
1.229841540781697
 49
-0.6149207703908486
 49
0
 49
-0.6149207703908486
  0
LTYPE
  2
CENTER
 70
64
  3
____ _ ____ _
 72
65
 73
4
 40
4.919366163126789
 49
3.074603851954243
 49
-0.6149207703908486
 49
0.6149207703908486
 49
-0.6149207703908486
  0
LTYPE
  2
DASHDOT
 70
64
  3
__ . __ . __ .
 72
65
 73
4
 40
2.459683081563394
 49
1.229841540781697
 49
-0.6149207703908486
 49
0
 49
-0.6149207703908486
  0
LTYPE
  2
DASHED
 70
64
  3
__ __ __ __ __
 72
65
 73
2
 40
1.844762311172546
 49
1.229841540781697
 49
-0.6149207703908486
  0
LTYPE
  2
DIVIDE
 70
64
  3
__ . . __ . . 
 72
65
 73
6
 40
3.074603851954243
 49
1.229841540781697
 49
-0.6149207703908486
 49
0
 49
-0.6149207703908486
 49
0
 49
-0.6149207703908486
  0
LTYPE
  2
DOT
 70
64
  3
..............
 72
65
 73
4
 40
1.229841540781697
 49
0
 49
-0.6149207703908486
 49
0
 49
-0.6149207703908486
  0
LTYPE
  2
HIDDEN
 70
64
  3
_ _ _ _ _ _ _
 72
65
 73
2
 40
0.9223811555862729
 49
0.6149207703908486
 49
-0.3074603851954243
  0
LTYPE
  2
PHANTOM
 70
64
  3
_____ _ _ _____ _ _ 
 72
65
 73
6
 40
6.149207703908486
 49
3.074603851954243
 49
-0.6149207703908486
 49
0.6149207703908486
 49
-0.6149207703908486
 49
0.6149207703908486
 49
-0.6149207703908486
  0
ENDTAB
  0
TABLE
  2
LAYER
 70
3
  0
LAYER
  2
1
 70
0
 62
7
  6
CONTINUOUS
  0
LAYER
  2
0
 70
0
 62
7
  6
CONTINUOUS
  0
ENDTAB
  0
TABLE
  2
STYLE
 70
4
  0
STYLE
  2
STANDARD
 70
0
 40
0
 41
1
 50
0
 71
0
 42
3.5
  3
txt
  4

  0
STYLE
  2
SIMPLEX
 70
0
 40
0
 41
1
 50
0
 71
0
 42
3.5
  3
simplex
  4

  0
STYLE
  2
COMPLEX
 70
0
 40
0
 41
1
 50
0
 71
0
 42
3.5
  3
complex
  4

  0
STYLE
  2
ITALIC
 70
0
 40
0
 41
1
 50
0
 71
0
 42
3.5
  3
italic
  4

  0
ENDTAB
  0
TABLE
  2
VIEW
 70
0
  0
ENDTAB
  0
ENDSEC
  0
SECTION
  2
BLOCKS
  0
BLOCK
  8
1
  2
*D0
 70
1
 10
0
 20
0
 30
0
  0
LINE
  8
1
 62
2
 10
-456.309740538755
 20
224.407117203706
 30
0
 11
-442.309740538755
 21
224.407117203706
 31
0
  0
LINE
  8
1
 62
2
 10
-442.309740538755
 20
269.387360637673
 30
0
 11
-442.309740538755
 21
223.407117203706
 31
0
  0
LINE
  8
1
 62
2
 10
-456.309740538755
 20
269.387360637673
 30
0
 11
-456.309740538755
 21
223.407117203706
 31
0
  0
SOLID
  8
1
 62
2
 10
-456.309740538755
 20
224.407117203706
 30
0
 11
-453.109740538755
 21
224.823117203706
 31
0
 12
-453.109740538755
 22
223.991117203706
 32
0
 13
-453.109740538755
 23
223.991117203706
 33
0
  0
SOLID
  8
1
 62
2
 10
-442.309740538755
 20
224.407117203706
 30
0
 11
-445.509740538755
 21
223.991117203706
 31
0
 12
-445.509740538755
 22
224.823117203706
 32
0
 13
-445.509740538755
 23
224.823117203706
 33
0
  0
TEXT
  8
1
 62
2
 10
-451.229740538755
 20
225.607117203706
 30
0
 40
3.200000000000001
  1
14
 41
0.9
  0
ENDBLK
  8
0
  0
BLOCK
  8
1
  2
*D1
 70
1
 10
0
 20
0
 30
0
  0
LINE
  8
1
 62
2
 10
-456.309740538755
 20
277.3372576000101
 30
0
 11
-449.9097405387551
 21
277.3372576000101
 31
0
  0
LINE
  8
1
 62
2
 10
-460.809740538755
 20
277.3372576000101
 30
0
 11
-467.209740538755
 21
277.3372576000101
 31
0
  0
LINE
  8
1
 62
2
 10
-460.809740538755
 20
277.3372576000101
 30
0
 11
-456.309740538755
 21
277.3372576000101
 31
0
  0
LINE
  8
1
 62
2
 10
-456.309740538755
 20
271.387360637673
 30
0
 11
-456.309740538755
 21
278.3372576000101
 31
0
  0
LINE
  8
1
 62
2
 10
-460.809740538755
 20
272.387360637673
 30
0
 11
-460.809740538755
 21
278.3372576000101
 31
0
  0
SOLID
  8
1
 62
2
 10
-456.309740538755
 20
277.3372576000101
 30
0
 11
-453.109740538755
 21
277.75325760001
 31
0
 12
-453.109740538755
 22
276.9212576000101
 32
0
 13
-453.109740538755
 23
276.9212576000101
 33
0
  0
SOLID
  8
1
 62
2
 10
-460.809740538755
 20
277.3372576000101
 30
0
 11
-464.009740538755
 21
276.9212576000101
 31
0
 12
-464.009740538755
 22
277.75325760001
 32
0
 13
-464.009740538755
 23
277.75325760001
 33
0
  0
TEXT
  8
1
 62
2
 10
-461.519740538755
 20
278.85725760001
 30
0
 40
3.200000000000001
  1
4,5
 41
0.9
  0
ENDBLK
  8
0
  0
BLOCK
  8
1
  2
*D2
 70
1
 10
0
 20
0
 30
0
  0
LINE
  8
1
 62
2
 10
-529.002625600481
 20
233.387360637673
 30
0
 11
-529.002625600481
 21
273.387360637673
 31
0
  0
LINE
  8
1
 62
2
 10
-519
 20
273.387360637673
 30
0
 11
-530.002625600481
 21
273.387360637673
 31
0
  0
LINE
  8
1
 62
2
 10
-519
 20
233.387360637673
 30
0
 11
-530.002625600481
 21
233.387360637673
 31
0
  0
SOLID
  8
1
 62
2
 10
-529.002625600481
 20
273.387360637673
 30
0
 11
-528.5866256004809
 21
270.187360637673
 31
0
 12
-529.4186256004811
 22
270.187360637673
 32
0
 13
-529.4186256004811
 23
270.187360637673
 33
0
  0
SOLID
  8
1
 62
2
 10
-529.002625600481
 20
233.387360637673
 30
0
 11
-529.4186256004811
 21
236.587360637673
 31
0
 12
-528.5866256004809
 22
236.587360637673
 32
0
 13
-528.5866256004809
 23
236.587360637673
 33
0
  0
TEXT
  8
1
 62
2
 10
-530.2026256004809
 20
250.987360637673
 30
0
 40
3.200000000000001
  1
40
 50
90
 41
0.9
  0
ENDBLK
  8
0
  0
BLOCK
  8
1
  2
*D3
 70
1
 10
0
 20
0
 30
0
  0
LINE
  8
1
 62
2
 10
-519
 20
281.605098465255
 30
0
 11
-479
 21
281.605098465255
 31
0
  0
LINE
  8
1
 62
2
 10
-479
 20
273.387360637673
 30
0
 11
-479
 21
282.605098465255
 31
0
  0
LINE
  8
1
 62
2
 10
-519
 20
273.387360637673
 30
0
 11
-519
 21
282.605098465255
 31
0
  0
SOLID
  8
1
 62
2
 10
-479
 20
281.605098465255
 30
0
 11
-482.2
 21
281.189098465255
 31
0
 12
-482.2
 22
282.021098465255
 32
0
 13
-482.2
 23
282.021098465255
 33
0
  0
SOLID
  8
1
 62
2
 10
-519
 20
281.605098465255
 30
0
 11
-515.8
 21
282.021098465255
 31
0
 12
-515.8
 22
281.189098465255
 32
0
 13
-515.8
 23
281.189098465255
 33
0
  0
TEXT
  8
1
 62
2
 10
-501.4
 20
282.805098465255
 30
0
 40
3.200000000000001
  1
40
 41
0.9
  0
ENDBLK
  8
0
  0
ENDSEC
  0
SECTION
  2
ENTITIES
  0
LINE
  8
1
 62
2
  6
DASHDOT
 10
-499
 20
275.371096384333
 30
0
 11
-499
 21
231.371096384333
 31
0
  0
LINE
  8
1
 62
2
  6
DASHDOT
 10
-462.934668501072
 20
253.387360637673
 30
0
 11
-439.934668501072
 21
253.387360637673
 31
0
  0
LINE
  8
1
 62
2
  6
DASHDOT
 10
-521.253269526924
 20
253.387360637673
 30
0
 11
-476.253269526924
 21
253.387360637673
 31
0
  0
LINE
  8
1
 62
7
 10
-456.309740538755
 20
270.387360637673
 30
0
 11
-456.309740538755
 21
236.387360637673
 31
0
  0
LINE
  8
1
 62
7
 10
-442.309740538755
 20
270.387360637673
 30
0
 11
-442.309740538755
 21
236.387360637673
 31
0
  0
LINE
  8
1
 62
7
 10
-456.309740538755
 20
270.387360637673
 30
0
 11
-442.309740538755
 21
270.387360637673
 31
0
  0
LINE
  8
1
 62
7
 10
-456.309740538755
 20
236.387360637673
 30
0
 11
-442.309740538755
 21
236.387360637673
 31
0
  0
LINE
  8
1
 62
7
 10
-456.309740538755
 20
233.387360637673
 30
0
 11
-456.309740538755
 21
236.387360637673
 31
0
  0
LINE
  8
1
 62
7
 10
-456.309740538755
 20
273.387360637673
 30
0
 11
-456.309740538755
 21
270.387360637673
 31
0
  0
LINE
  8
1
 62
7
 10
-458.809740538755
 20
233.387360637673
 30
0
 11
-456.309740538755
 21
233.387360637673
 31
0
  0
LINE
  8
1
 62
7
 10
-460.809740538755
 20
271.387360637673
 30
0
 11
-460.809740538755
 21
235.387360637673
 31
0
  0
LINE
  8
1
 62
7
 10
-458.809740538755
 20
273.387360637673
 30
0
 11
-456.309740538755
 21
273.387360637673
 31
0
  0
LINE
  8
1
 62
2
 10
-518
 20
271.387360637673
 30
0
 11
-518
 21
235.387360637673
 31
0
  0
LINE
  8
1
 62
2
 10
-481
 20
234.387360637673
 30
0
 11
-517
 21
234.387360637673
 31
0
  0
LINE
  8
1
 62
2
 10
-480
 20
271.387360637673
 30
0
 11
-480
 21
235.387360637673
 31
0
  0
LINE
  8
1
 62
2
 10
-517
 20
272.387360637673
 30
0
 11
-481
 21
272.387360637673
 31
0
  0
LINE
  8
1
 62
7
 10
-519
 20
234.387360637673
 30
0
 11
-519
 21
272.387360637673
 31
0
  0
LINE
  8
1
 62
7
 10
-480
 20
233.387360637673
 30
0
 11
-518
 21
233.387360637673
 31
0
  0
LINE
  8
1
 62
7
 10
-479
 20
272.387360637673
 30
0
 11
-479
 21
234.387360637673
 31
0
  0
LINE
  8
1
 62
7
 10
-518
 20
273.387360637673
 30
0
 11
-480
 21
273.387360637673
 31
0
  0
ARC
  8
1
 62
7
 10
-458.809740538755
 20
235.387360637673
 30
0
 40
2
 50
180
 51
270
  0
ARC
  8
1
 62
7
 10
-458.809740538755
 20
271.387360637673
 30
0
 40
2
 50
90
 51
180
  0
ARC
  8
1
 62
2
 10
-517
 20
235.387360637673
 30
0
 40
1
 50
180
 51
270
  0
ARC
  8
1
 62
7
 10
-518
 20
234.387360637673
 30
0
 40
1
 50
180
 51
270
  0
ARC
  8
1
 62
7
 10
-480
 20
234.387360637673
 30
0
 40
1
 50
270
 51
0
  0
ARC
  8
1
 62
2
 10
-481
 20
235.387360637673
 30
0
 40
1
 50
270
 51
0
  0
ARC
  8
1
 62
7
 10
-480
 20
272.387360637673
 30
0
 40
1
 50
0
 51
90
  0
ARC
  8
1
 62
2
 10
-481
 20
271.387360637673
 30
0
 40
1
 50
0
 51
90
  0
ARC
  8
1
 62
7
 10
-518
 20
272.387360637673
 30
0
 40
1
 50
90
 51
180
  0
ARC
  8
1
 62
2
 10
-517
 20
271.387360637673
 30
0
 40
1
 50
90
 51
180
  0
DIMENSION
  8
1
  6
CONTINUOUS
 62
2
  2
*D0
  3
DMST_1
 10
-442.309740538755
 20
224.407117203706
 30
0
 11
-449.309740538755
 21
227.207117203706
 31
0
 12
0
 22
0
 32
0
 70
0
 13
-456.309740538755
 23
270.387360637673
 33
0
 14
-442.309740538755
 24
270.387360637673
 34
0
 53
0
  0
DIMENSION
  8
1
  6
CONTINUOUS
 62
2
  2
*D1
  3
DMST_1
 10
-456.309740538755
 20
277.3372576000101
 30
0
 11
-458.559740538755
 21
280.29725760001
 31
0
 12
0
 22
0
 32
0
 70
0
 13
-460.809740538755
 23
271.387360637673
 33
0
 14
-456.309740538755
 24
270.387360637673
 34
0
 53
0
  0
DIMENSION
  8
1
  6
CONTINUOUS
 62
2
  2
*D2
  3
DMST_1
 10
-529.002625600481
 20
273.387360637673
 30
0
 11
-531.802625600481
 21
253.387360637673
 31
0
 12
0
 22
0
 32
0
 70
0
 13
-518
 23
233.387360637673
 33
0
 14
-518
 24
273.387360637673
 34
0
 50
90
 53
0
  0
DIMENSION
  8
1
  6
CONTINUOUS
 62
2
  2
*D3
  3
DMST_1
 10
-479
 20
281.605098465255
 30
0
 11
-499
 21
284.405098465255
 31
0
 12
0
 22
0
 32
0
 70
0
 13
-519
 23
272.387360637673
 33
0
 14
-479
 24
272.387360637673
 34
0
 53
0
  0
ENDSEC
  0
EOF
