999
DXF file: s0661-669122.dxf
999
Pro/ENGINEER 2005310 by Parametric Technology Corporation
0
SECTION
2
HEADER
9
$ACADVER
1
AC1015
9
$DWGCODEPAGE
3
ANSI_1252
9
$EXTMAX
10
210.0000000000
20
297.0000000000
30
0.0000000000
9
$EXTMIN
10
0.0000000000
20
0.0000000000
30
0.0000000000
9
$LIMMIN
10
0.0000000000
20
0.0000000000
9
$LIMMAX
10
210.0000000000
20
297.0000000000
9
$VIEWCTR
10
105.0000000000
20
148.5000000000
9
$VIEWSIZE
40
297.0000000000
9
$CLAYER
8
0
9
$LTSCALE
40
19.3600000000
9
$CELTYPE
6
BYLAYER
9
$DIMSCALE
40
1
9
$DIMASZ
40
3.5000000000
9
$DIMEXO
40
2.2000000000
9
$DIMDLI
40
13.3760000000
9
$DIMEXE
40
6.3360000000
9
$DIMCEN
40
3.1680000000
9
$DIMLFAC
40
1.0000000000
9
$DIMBLK
1
_FILLED
9
$DIMTXT
40
3.5000000000
9
$DIMTOL
70
1
9
$DIMLIM
70
0
9
$DIMTFAC
40
1.0000000000
9
$DIMTP
40
0.0010000000
9
$DIMTM
40
0.0010000000
9
$PDMODE
70
3
9
$PDSIZE
40
0.3125000000
9
$HANDSEED
5
310
9
$MEASUREMENT
70
1
9
$INSUNITS
70
4
0
ENDSEC
0
SECTION
2
CLASSES
0
CLASS
1
ACDBDICTIONARYWDFLT
2
AcDbDictionaryWithDefault
3
AutoCAD 2000
90
0
280
0
281
0
0
CLASS
1
ACDBPLACEHOLDER
2
AcDbPlaceHolder
3
AutoCAD 2000
90
0
280
0
281
0
0
CLASS
1
LAYOUT
2
AcDbLayout
3
AutoCAD 2000
90
0
280
0
281
0
0
ENDSEC
0
SECTION
2
TABLES
0
TABLE
2
VPORT
5
8
100
AcDbSymbolTable
70
2
0
VPORT
5
1F4
100
AcDbSymbolTableRecord
100
AcDbViewportTableRecord
2
*ACTIVE
70
0
10
0.0
20
0.0
11
1.0
21
1.0
12
105.0000000000
22
148.5000000000
13
0.0
23
0.0
14
1.0
24
1.0
15
0.0
25
0.0
16
0.0
26
0.0
36
1.0
17
0.0
27
0.0
37
0.0
40
297.0000000000
41
0.7070707071
42
50.0
43
0.0
44
0.0
50
0.0
51
0.0
71
0
72
100
73
1
74
1
75
0
76
0
77
0
78
0
0
ENDTAB
0
TABLE
2
LTYPE
5
5
100
AcDbSymbolTable
70
6
0
LTYPE
5
14
100
AcDbSymbolTableRecord
100
AcDbLinetypeTableRecord
2
BYBLOCK
70
0
3

72
65
73
0
40
0.0
0
LTYPE
5
15
100
AcDbSymbolTableRecord
100
AcDbLinetypeTableRecord
2
BYLAYER
70
0
3

72
65
73
0
40
0.0
0
LTYPE
5
16
100
AcDbSymbolTableRecord
100
AcDbLinetypeTableRecord
2
CONTINUOUS
70
64
3
Solid line
72
65
73
0
40
0
0
LTYPE
5
1F5
100
AcDbSymbolTableRecord
100
AcDbLinetypeTableRecord
2
CENTER
70
64
3
____ _ ____ _ ____ _ ____ _ ____ _ ____ _ ____
72
65
73
4
40
0.6
49
0.375
74
0
49
-0.075
74
0
49
0.075
74
0
49
-0.075
74
0
0
LTYPE
5
1F6
100
AcDbSymbolTableRecord
100
AcDbLinetypeTableRecord
2
HIDDEN
70
64
3
- - - - - - - - - - - - - - - - - - - -
72
65
73
2
40
0.2
49
0.1
74
0
49
-0.1
74
0
0
LTYPE
5
1F7
100
AcDbSymbolTableRecord
100
AcDbLinetypeTableRecord
2
PHANTOM
70
64
3
_____ _ _ _____ _ _ _____ _ _ _____
72
65
73
6
40
0.8
49
0.45
74
0
49
-0.05
74
0
49
0.1
74
0
49
-0.05
74
0
49
0.1
74
0
49
-0.05
74
0
0
LTYPE
5
1F8
100
AcDbSymbolTableRecord
100
AcDbLinetypeTableRecord
2
DOT
70
64
3
. . . . . . . . . . . . . . . . . . . .
72
65
73
2
40
0.2
49
0.1
74
0
49
-0.1
74
0
0
LTYPE
5
1F9
100
AcDbSymbolTableRecord
100
AcDbLinetypeTableRecord
2
DASHED
70
64
3
- - - - - - - - - - - - - - - - - - - -
72
65
73
2
40
0.2
49
0.1
74
0
49
-0.1
74
0
0
ENDTAB
0
TABLE
2
LAYER
5
2
100
AcDbSymbolTable
70
36
0
LAYER
5
10
100
AcDbSymbolTableRecord
100
AcDbLayerTableRecord
2
0
70
0
62
7
6
CONTINUOUS
370
-3
390
F
0
LAYER
5
1FA
100
AcDbSymbolTableRecord
100
AcDbLayerTableRecord
2
DEFAULT_1
70
0
62
7
6
CENTER
370
-3
390
F
0
LAYER
5
1FB
100
AcDbSymbolTableRecord
100
AcDbLayerTableRecord
2
DEFAULT_2
70
0
62
8
6
HIDDEN
370
-3
390
F
0
LAYER
5
1FC
100
AcDbSymbolTableRecord
100
AcDbLayerTableRecord
2
DEFAULT_3
70
0
62
7
6
PHANTOM
370
-3
390
F
0
LAYER
5
1FD
100
AcDbSymbolTableRecord
100
AcDbLayerTableRecord
2
_2D_DELETED_OBJS
70
0
62
7
6
CONTINUOUS
370
-3
390
F
0
LAYER
5
1FE
100
AcDbSymbolTableRecord
100
AcDbLayerTableRecord
2
ASSI
70
0
62
7
6
CONTINUOUS
370
-3
390
F
0
LAYER
5
1FF
100
AcDbSymbolTableRecord
100
AcDbLayerTableRecord
2
PIANI
70
0
62
7
6
CONTINUOUS
370
-3
390
F
0
ENDTAB
0
TABLE
2
STYLE
5
3
100
AcDbSymbolTable
70
1
0
STYLE
5
11
100
AcDbSymbolTableRecord
100
AcDbTextStyleTableRecord
2
STANDARD
70
0
40
0.0
41
0.7143000000
50
0.0
71
0
42
0.2
3
txt
4

0
ENDTAB
0
TABLE
2
VIEW
5
6
100
AcDbSymbolTable
70
0
0
ENDTAB
0
TABLE
2
UCS
5
7
100
AcDbSymbolTable
70
0
0
ENDTAB
0
TABLE
2
APPID
5
9
100
AcDbSymbolTable
70
1
0
APPID
5
200
100
AcDbSymbolTableRecord
100
AcDbRegAppTableRecord
2
ACAD
70
0
0
ENDTAB
0
TABLE
2
BLOCK_RECORD
5
1
100
AcDbSymbolTable
70
0
0
BLOCK_RECORD
5
1F
100
AcDbSymbolTableRecord
100
AcDbBlockTableRecord
2
*MODEL_SPACE
0
BLOCK_RECORD
5
1B
100
AcDbSymbolTableRecord
100
AcDbBlockTableRecord
2
*PAPER_SPACE
0
BLOCK_RECORD
5
201
100
AcDbSymbolTableRecord
100
AcDbBlockTableRecord
2
_FILLED
0
BLOCK_RECORD
5
202
100
AcDbSymbolTableRecord
100
AcDbBlockTableRecord
2
*D0
0
BLOCK_RECORD
5
203
100
AcDbSymbolTableRecord
100
AcDbBlockTableRecord
2
*D1
0
BLOCK_RECORD
5
204
100
AcDbSymbolTableRecord
100
AcDbBlockTableRecord
2
*D2
0
BLOCK_RECORD
5
205
100
AcDbSymbolTableRecord
100
AcDbBlockTableRecord
2
*D3
0
BLOCK_RECORD
5
206
100
AcDbSymbolTableRecord
100
AcDbBlockTableRecord
2
*D4
0
BLOCK_RECORD
5
207
100
AcDbSymbolTableRecord
100
AcDbBlockTableRecord
2
*D5
0
BLOCK_RECORD
5
208
100
AcDbSymbolTableRecord
100
AcDbBlockTableRecord
2
*D6
0
BLOCK_RECORD
5
209
100
AcDbSymbolTableRecord
100
AcDbBlockTableRecord
2
*D7
0
BLOCK_RECORD
5
20A
100
AcDbSymbolTableRecord
100
AcDbBlockTableRecord
2
*D8
0
BLOCK_RECORD
5
20B
100
AcDbSymbolTableRecord
100
AcDbBlockTableRecord
2
*D9
0
BLOCK_RECORD
5
20C
100
AcDbSymbolTableRecord
100
AcDbBlockTableRecord
2
*D10
0
BLOCK_RECORD
5
20D
100
AcDbSymbolTableRecord
100
AcDbBlockTableRecord
2
*D11
0
BLOCK_RECORD
5
20E
100
AcDbSymbolTableRecord
100
AcDbBlockTableRecord
2
*D12
0
ENDTAB
0
TABLE
2
DIMSTYLE
5
A
100
AcDbSymbolTable
70
1
100
AcDbDimStyleTable
71
0
0
DIMSTYLE
105
20F
100
AcDbSymbolTableRecord
100
AcDbDimStyleTableRecord
2
STANDARD
70
0
3

4

40
1.0
41
3.5000000000
42
0.0625
43
0.38
44
0.18
45
0.0
46
0.0
47
0.0010000000
48
0.0010000000
140
3.5000000000
141
0.09
142
0.0
143
25.4
144
1.0000000000
145
0.0
146
1.0000000000
147
0.09
71
1
72
0
73
0
74
0
75
0
76
0
77
1
78
8
170
0
171
2
172
0
173
0
174
0
175
0
176
0
177
0
178
5
270
2
271
3
272
3
273
2
274
2
275
0
280
0
281
0
282
0
283
1
284
8
285
0
286
0
287
3
288
0
340
11
341
201
342
201
343
201
344
201
0
DIMSTYLE
105
210
100
AcDbSymbolTableRecord
100
AcDbDimStyleTableRecord
2
DIMSTYLE_1
70
0
3

4

40
1.0
41
3.5000000000
42
0.0625
43
0.38
44
0.18
45
0.0
46
0.0
47
0.1000000000
48
0.1000000000
140
3.5000000000
141
0.09
142
0.0
143
25.4
144
1.0000000000
145
0.0
146
1.0000000000
147
0.09
71
0
72
0
73
0
74
0
75
0
76
0
77
1
78
8
170
0
171
2
172
0
173
0
174
0
175
0
176
0
177
0
178
5
270
2
271
3
272
3
273
2
274
2
275
0
280
0
281
0
282
0
283
1
284
8
285
0
286
0
287
3
288
0
340
11
341
201
342
201
343
201
344
201
0
DIMSTYLE
105
211
100
AcDbSymbolTableRecord
100
AcDbDimStyleTableRecord
2
DIMSTYLE_2
70
0
3

4

40
1.0
41
3.5000000000
42
0.0625
43
0.38
44
0.18
45
0.0
46
0.0
47
0.1500000000
48
0.1500000000
140
3.5000000000
141
0.09
142
0.0
143
25.4
144
1.0000000000
145
0.0
146
1.0000000000
147
0.09
71
0
72
0
73
0
74
0
75
0
76
0
77
1
78
8
170
0
171
2
172
0
173
0
174
0
175
0
176
0
177
0
178
5
270
2
271
3
272
3
273
2
274
2
275
0
280
0
281
0
282
0
283
1
284
8
285
0
286
0
287
3
288
0
340
11
341
201
342
201
343
201
344
201
0
DIMSTYLE
105
212
100
AcDbSymbolTableRecord
100
AcDbDimStyleTableRecord
2
DIMSTYLE_3
70
0
3

4

40
1.0
41
3.5000000000
42
0.0625
43
0.38
44
0.18
45
0.0
46
0.0
47
0.1000000000
48
0.1000000000
140
3.5000000000
141
0.09
142
0.0
143
25.4
144
1.0000000000
145
0.0
146
1.0000000000
147
0.09
71
0
72
0
73
0
74
0
75
0
76
0
77
1
78
8
170
0
171
2
172
0
173
0
174
0
175
0
176
0
177
0
178
5
270
2
271
3
272
3
273
2
274
2
275
0
280
0
281
0
282
0
283
1
284
8
285
0
286
0
287
3
288
0
340
11
341
201
342
201
343
201
344
201
0
DIMSTYLE
105
213
100
AcDbSymbolTableRecord
100
AcDbDimStyleTableRecord
2
DIMSTYLE_4
70
0
3

4

40
1.0
41
3.5000000000
42
0.0625
43
0.38
44
0.18
45
0.0
46
0.0
47
0.0500000000
48
0.0500000000
140
3.5000000000
141
0.09
142
0.0
143
25.4
144
1.0000000000
145
0.0
146
1.0000000000
147
0.09
71
0
72
0
73
0
74
0
75
0
76
0
77
1
78
8
170
0
171
2
172
0
173
0
174
0
175
0
176
0
177
0
178
5
270
2
271
3
272
3
273
2
274
2
275
0
280
0
281
0
282
0
283
1
284
8
285
0
286
0
287
3
288
0
340
11
341
201
342
201
343
201
344
201
0
DIMSTYLE
105
214
100
AcDbSymbolTableRecord
100
AcDbDimStyleTableRecord
2
DIMSTYLE_5
70
0
3

4

40
1.0
41
3.5000000000
42
0.0625
43
0.38
44
0.18
45
0.0
46
0.0
47
0.2000000000
48
-0.1000000000
140
3.5000000000
141
0.09
142
0.0
143
25.4
144
1.0000000000
145
0.0
146
1.0000000000
147
0.09
71
0
72
0
73
0
74
0
75
0
76
0
77
1
78
8
170
0
171
2
172
0
173
0
174
0
175
0
176
0
177
0
178
5
270
2
271
3
272
3
273
2
274
2
275
0
280
0
281
0
282
0
283
1
284
8
285
0
286
0
287
3
288
0
340
11
341
201
342
201
343
201
344
201
0
ENDTAB
0
ENDSEC
0
SECTION
2
BLOCKS
0
BLOCK
5
20
100
AcDbEntity
8
0
100
AcDbBlockBegin
2
*MODEL_SPACE
70
0
10
0.0
20
0.0
30
0.0
3
*MODEL_SPACE
1

0
ENDBLK
5
21
100
AcDbEntity
8
0
100
AcDbBlockEnd
0
BLOCK
5
1C
100
AcDbEntity
8
0
100
AcDbBlockBegin
2
*PAPER_SPACE
70
0
10
0.0
20
0.0
30
0.0
3
*PAPER_SPACE
1

0
ENDBLK
5
1D
100
AcDbEntity
8
0
100
AcDbBlockEnd
0
BLOCK
5
215
100
AcDbEntity
8
0
100
AcDbBlockBegin
62
2
6
CONTINUOUS
2
*D0
70
65
10
0.0000000000
20
0.0000000000
3
*D0
1

0
TEXT
5
216
100
AcDbEntity
8
0
100
AcDbText
62
5
6
CONTINUOUS
10
37.5573650833
20
203.4293813099
7
STANDARD
40
3.5000000000
1
16
50
90.0000000000
41
0.7143000000
72
0
100
AcDbText
0
LINE
5
217
100
AcDbEntity
8
0
100
AcDbLine
62
2
6
CONTINUOUS
10
48.0158685519
20
213.2510715571
11
36.9323650833
21
213.2510715571
0
LINE
5
218
100
AcDbEntity
8
0
100
AcDbLine
62
2
6
CONTINUOUS
10
52.0158685519
20
197.2510715571
11
36.9323650833
21
197.2510715571
0
LINE
5
219
100
AcDbEntity
8
0
100
AcDbLine
62
2
6
CONTINUOUS
10
38.4323650833
20
213.2510715571
11
38.4323650833
21
205.2510715571
0
LINE
5
21A
100
AcDbEntity
8
0
100
AcDbLine
62
2
6
CONTINUOUS
10
38.4323650833
20
197.2510715571
11
38.4323650833
21
205.2510715571
0
INSERT
5
21B
100
AcDbEntity
8
0
100
AcDbBlockReference
62
2
6
CONTINUOUS
2
_FILLED
10
38.4323650833
20
213.2510715571
41
  3.500000
42
  3.500000
43
  3.500000
50
 90.000000
0
INSERT
5
21C
100
AcDbEntity
8
0
100
AcDbBlockReference
62
2
6
CONTINUOUS
2
_FILLED
10
38.4323650833
20
197.2510715571
41
  3.500000
42
  3.500000
43
  3.500000
50
270.000000
0
ENDBLK
5
21D
100
AcDbEntity
8
0
6
BYBLOCK
62
0
100
AcDbBlockEnd
0
BLOCK
5
21E
100
AcDbEntity
8
0
100
AcDbBlockBegin
62
2
6
CONTINUOUS
2
*D1
70
65
10
0.0000000000
20
0.0000000000
3
*D1
1

0
TEXT
5
21F
100
AcDbEntity
8
0
100
AcDbText
62
5
6
CONTINUOUS
10
25.6355247788
20
203.1241310826
7
STANDARD
40
3.5000000000
1
40
50
90.0000000000
41
0.7143000000
72
0
100
AcDbText
0
LINE
5
220
100
AcDbEntity
8
0
100
AcDbLine
62
2
6
CONTINUOUS
10
52.0158685519
20
225.2510715571
11
25.0105247788
21
225.2510715571
0
LINE
5
221
100
AcDbEntity
8
0
100
AcDbLine
62
2
6
CONTINUOUS
10
52.0158685519
20
185.2510715571
11
25.0105247788
21
185.2510715571
0
LINE
5
222
100
AcDbEntity
8
0
100
AcDbLine
62
2
6
CONTINUOUS
10
26.5105247788
20
225.2510715571
11
26.5105247788
21
205.2510715571
0
LINE
5
223
100
AcDbEntity
8
0
100
AcDbLine
62
2
6
CONTINUOUS
10
26.5105247788
20
185.2510715571
11
26.5105247788
21
205.2510715571
0
INSERT
5
224
100
AcDbEntity
8
0
100
AcDbBlockReference
62
2
6
CONTINUOUS
2
_FILLED
10
26.5105247788
20
225.2510715571
41
  3.500000
42
  3.500000
43
  3.500000
50
 90.000000
0
INSERT
5
225
100
AcDbEntity
8
0
100
AcDbBlockReference
62
2
6
CONTINUOUS
2
_FILLED
10
26.5105247788
20
185.2510715571
41
  3.500000
42
  3.500000
43
  3.500000
50
270.000000
0
ENDBLK
5
226
100
AcDbEntity
8
0
6
BYBLOCK
62
0
100
AcDbBlockEnd
0
BLOCK
5
227
100
AcDbEntity
8
0
100
AcDbBlockBegin
62
2
6
CONTINUOUS
2
*D2
70
65
10
0.0000000000
20
0.0000000000
3
*D2
1

0
TEXT
5
228
100
AcDbEntity
8
0
100
AcDbText
62
5
6
CONTINUOUS
10
44.7238147676
20
188.8742790854
7
STANDARD
40
3.5000000000
1
12
50
90.0000000000
41
0.7143000000
72
0
100
AcDbText
0
LINE
5
229
100
AcDbEntity
8
0
100
AcDbLine
62
2
6
CONTINUOUS
10
70.0158685519
20
197.2510715571
11
44.0988147676
21
197.2510715571
0
LINE
5
22A
100
AcDbEntity
8
0
100
AcDbLine
62
2
6
CONTINUOUS
10
70.0158685519
20
185.2510715571
11
44.0988147676
21
185.2510715571
0
LINE
5
22B
100
AcDbEntity
8
0
100
AcDbLine
62
2
6
CONTINUOUS
10
45.5988147676
20
197.2510715571
11
45.5988147676
21
191.2510715571
0
LINE
5
22C
100
AcDbEntity
8
0
100
AcDbLine
62
2
6
CONTINUOUS
10
45.5988147676
20
185.2510715571
11
45.5988147676
21
191.2510715571
0
INSERT
5
22D
100
AcDbEntity
8
0
100
AcDbBlockReference
62
2
6
CONTINUOUS
2
_FILLED
10
45.5988147676
20
197.2510715571
41
  3.500000
42
  3.500000
43
  3.500000
50
 90.000000
0
INSERT
5
22E
100
AcDbEntity
8
0
100
AcDbBlockReference
62
2
6
CONTINUOUS
2
_FILLED
10
45.5988147676
20
185.2510715571
41
  3.500000
42
  3.500000
43
  3.500000
50
270.000000
0
ENDBLK
5
22F
100
AcDbEntity
8
0
6
BYBLOCK
62
0
100
AcDbBlockEnd
0
BLOCK
5
230
100
AcDbEntity
8
0
100
AcDbBlockBegin
62
2
6
CONTINUOUS
2
*D3
70
65
10
0.0000000000
20
0.0000000000
3
*D3
1

0
TEXT
5
231
100
AcDbEntity
8
0
100
AcDbText
62
5
6
CONTINUOUS
10
45.2677139919
20
215.4204340932
7
STANDARD
40
3.5000000000
1
12
50
90.0000000000
41
0.7143000000
72
0
100
AcDbText
0
LINE
5
232
100
AcDbEntity
8
0
100
AcDbLine
62
2
6
CONTINUOUS
10
70.0158685519
20
225.2510715571
11
44.6427139919
21
225.2510715571
0
LINE
5
233
100
AcDbEntity
8
0
100
AcDbLine
62
2
6
CONTINUOUS
10
74.0158685519
20
213.2510715571
11
44.6427139919
21
213.2510715571
0
LINE
5
234
100
AcDbEntity
8
0
100
AcDbLine
62
2
6
CONTINUOUS
10
46.1427139919
20
225.2510715571
11
46.1427139919
21
219.2510715571
0
LINE
5
235
100
AcDbEntity
8
0
100
AcDbLine
62
2
6
CONTINUOUS
10
46.1427139919
20
213.2510715571
11
46.1427139919
21
219.2510715571
0
INSERT
5
236
100
AcDbEntity
8
0
100
AcDbBlockReference
62
2
6
CONTINUOUS
2
_FILLED
10
46.1427139919
20
225.2510715571
41
  3.500000
42
  3.500000
43
  3.500000
50
 90.000000
0
INSERT
5
237
100
AcDbEntity
8
0
100
AcDbBlockReference
62
2
6
CONTINUOUS
2
_FILLED
10
46.1427139919
20
213.2510715571
41
  3.500000
42
  3.500000
43
  3.500000
50
270.000000
0
ENDBLK
5
238
100
AcDbEntity
8
0
6
BYBLOCK
62
0
100
AcDbBlockEnd
0
BLOCK
5
239
100
AcDbEntity
8
0
100
AcDbBlockBegin
62
2
6
CONTINUOUS
2
*D4
70
65
10
0.0000000000
20
0.0000000000
3
*D4
1

0
TEXT
5
23A
100
AcDbEntity
8
0
100
AcDbText
62
5
6
CONTINUOUS
10
39.2879133589
20
125.9357359444
7
STANDARD
40
3.5000000000
1
%%c
50
40.8045847916
41
1.3333333333
72
0
100
AcDbText
0
TEXT
5
23B
100
AcDbEntity
8
0
100
AcDbText
62
5
6
CONTINUOUS
10
42.8203129369
20
128.9853147677
7
STANDARD
40
3.5000000000
1
20
50
40.8045847916
41
0.7143000000
72
0
100
AcDbText
0
LINE
5
23C
100
AcDbEntity
8
0
100
AcDbLine
62
2
6
CONTINUOUS
10
53.9464408849
20
137.4347186881
11
61.5158685519
21
143.9695304523
0
LINE
5
23D
100
AcDbEntity
8
0
100
AcDbLine
62
2
6
CONTINUOUS
10
61.5158685519
20
143.9695304523
11
39.8597093883
21
125.2734110235
0
LINE
5
23E
100
AcDbEntity
8
0
100
AcDbLine
62
2
6
CONTINUOUS
10
69.0852962189
20
150.5043422165
11
61.5158685519
21
143.9695304523
0
INSERT
5
23F
100
AcDbEntity
8
0
100
AcDbBlockReference
62
2
6
CONTINUOUS
2
_FILLED
10
53.9464408849
20
137.4347186881
41
  3.500000
42
  3.500000
43
  3.500000
50
220.804585
0
INSERT
5
240
100
AcDbEntity
8
0
100
AcDbBlockReference
62
2
6
CONTINUOUS
2
_FILLED
10
69.0852962189
20
150.5043422165
41
  3.500000
42
  3.500000
43
  3.500000
50
 40.804585
0
ENDBLK
5
241
100
AcDbEntity
8
0
6
BYBLOCK
62
0
100
AcDbBlockEnd
0
BLOCK
5
242
100
AcDbEntity
8
0
100
AcDbBlockBegin
62
2
6
CONTINUOUS
2
*D5
70
65
10
0.0000000000
20
0.0000000000
3
*D5
1

0
TEXT
5
243
100
AcDbEntity
8
0
100
AcDbText
62
5
6
CONTINUOUS
10
153.8064875432
20
172.9380095899
7
STANDARD
40
3.5000000000
1
M
41
0.7143000000
72
0
100
AcDbText
0
TEXT
5
244
100
AcDbEntity
8
0
100
AcDbText
62
5
6
CONTINUOUS
10
156.3065375432
20
172.9380095899
7
STANDARD
40
3.5000000000
1
8
41
0.7143000000
72
0
100
AcDbText
0
LINE
5
245
100
AcDbEntity
8
0
100
AcDbLine
62
2
6
CONTINUOUS
10
152.2470828026
20
184.7510715571
11
152.2470828026
21
170.5630095899
0
LINE
5
246
100
AcDbEntity
8
0
100
AcDbLine
62
2
6
CONTINUOUS
10
160.2470828026
20
184.7510715571
11
160.2470828026
21
170.5630095899
0
LINE
5
247
100
AcDbEntity
8
0
100
AcDbLine
62
2
6
CONTINUOUS
10
152.2470828026
20
172.0630095899
11
144.2470828026
21
172.0630095899
0
LINE
5
248
100
AcDbEntity
8
0
100
AcDbLine
62
2
6
CONTINUOUS
10
144.2470828026
20
172.0630095899
11
156.2470828026
21
172.0630095899
0
LINE
5
249
100
AcDbEntity
8
0
100
AcDbLine
62
2
6
CONTINUOUS
10
160.2470828026
20
172.0630095899
11
168.2470828026
21
172.0630095899
0
LINE
5
24A
100
AcDbEntity
8
0
100
AcDbLine
62
2
6
CONTINUOUS
10
168.2470828026
20
172.0630095899
11
156.2470828026
21
172.0630095899
0
INSERT
5
24B
100
AcDbEntity
8
0
100
AcDbBlockReference
62
2
6
CONTINUOUS
2
_FILLED
10
152.2470828026
20
172.0630095899
41
  3.500000
42
  3.500000
43
  3.500000
0
INSERT
5
24C
100
AcDbEntity
8
0
100
AcDbBlockReference
62
2
6
CONTINUOUS
2
_FILLED
10
160.2470828026
20
172.0630095899
41
  3.500000
42
  3.500000
43
  3.500000
50
180.000000
0
ENDBLK
5
24D
100
AcDbEntity
8
0
6
BYBLOCK
62
0
100
AcDbBlockEnd
0
BLOCK
5
24E
100
AcDbEntity
8
0
100
AcDbBlockBegin
62
2
6
CONTINUOUS
2
*D6
70
65
10
0.0000000000
20
0.0000000000
3
*D6
1

0
TEXT
5
24F
100
AcDbEntity
8
0
100
AcDbText
62
5
6
CONTINUOUS
10
153.8914749012
20
234.9208563491
7
STANDARD
40
3.5000000000
1
M
41
0.7143000000
72
0
100
AcDbText
0
TEXT
5
250
100
AcDbEntity
8
0
100
AcDbText
62
5
6
CONTINUOUS
10
156.3915249012
20
234.9208563491
7
STANDARD
40
3.5000000000
1
8
41
0.7143000000
72
0
100
AcDbText
0
LINE
5
251
100
AcDbEntity
8
0
100
AcDbLine
62
2
6
CONTINUOUS
10
152.2470828026
20
225.7510715571
11
152.2470828026
21
235.5458563491
0
LINE
5
252
100
AcDbEntity
8
0
100
AcDbLine
62
2
6
CONTINUOUS
10
160.2470828026
20
225.7510715571
11
160.2470828026
21
235.5458563491
0
LINE
5
253
100
AcDbEntity
8
0
100
AcDbLine
62
2
6
CONTINUOUS
10
152.2470828026
20
234.0458563491
11
144.2470828026
21
234.0458563491
0
LINE
5
254
100
AcDbEntity
8
0
100
AcDbLine
62
2
6
CONTINUOUS
10
144.2470828026
20
234.0458563491
11
156.2470828026
21
234.0458563491
0
LINE
5
255
100
AcDbEntity
8
0
100
AcDbLine
62
2
6
CONTINUOUS
10
160.2470828026
20
234.0458563491
11
168.2470828026
21
234.0458563491
0
LINE
5
256
100
AcDbEntity
8
0
100
AcDbLine
62
2
6
CONTINUOUS
10
168.2470828026
20
234.0458563491
11
156.2470828026
21
234.0458563491
0
INSERT
5
257
100
AcDbEntity
8
0
100
AcDbBlockReference
62
2
6
CONTINUOUS
2
_FILLED
10
152.2470828026
20
234.0458563491
41
  3.500000
42
  3.500000
43
  3.500000
0
INSERT
5
258
100
AcDbEntity
8
0
100
AcDbBlockReference
62
2
6
CONTINUOUS
2
_FILLED
10
160.2470828026
20
234.0458563491
41
  3.500000
42
  3.500000
43
  3.500000
50
180.000000
0
ENDBLK
5
259
100
AcDbEntity
8
0
6
BYBLOCK
62
0
100
AcDbBlockEnd
0
BLOCK
5
25A
100
AcDbEntity
8
0
100
AcDbBlockBegin
62
2
6
CONTINUOUS
2
*D7
70
65
10
0.0000000000
20
0.0000000000
3
*D7
1

0
TEXT
5
25B
100
AcDbEntity
8
0
100
AcDbText
62
5
6
CONTINUOUS
10
74.9544970336
20
235.0590622609
7
STANDARD
40
3.5000000000
1
Sm 
50
90.0000000000
41
0.7143000000
72
0
100
AcDbText
0
TEXT
5
25C
100
AcDbEntity
8
0
100
AcDbText
62
5
6
CONTINUOUS
10
74.9544970336
20
245.0592622609
7
STANDARD
40
3.5000000000
1
x45°
50
90.0000000000
41
0.7143000000
72
0
100
AcDbText
0
TEXT
5
25D
100
AcDbEntity
8
0
100
AcDbText
62
5
6
CONTINUOUS
10
74.9544970336
20
242.5592122609
7
STANDARD
40
3.5000000000
1
1
50
90.0000000000
41
0.7143000000
72
0
100
AcDbText
0
LINE
5
25E
100
AcDbEntity
8
0
100
AcDbLine
62
2
6
CONTINUOUS
10
71.0158685519
20
225.2510715571
11
77.3294970336
21
225.2510715571
0
LINE
5
25F
100
AcDbEntity
8
0
100
AcDbLine
62
2
6
CONTINUOUS
10
72.0158685519
20
224.2510715571
11
77.3294970336
21
224.2510715571
0
LINE
5
260
100
AcDbEntity
8
0
100
AcDbLine
62
2
6
CONTINUOUS
10
75.8294970336
20
225.2510715571
11
75.8294970336
21
255.0594622609
0
LINE
5
261
100
AcDbEntity
8
0
100
AcDbLine
62
2
6
CONTINUOUS
10
75.8294970336
20
255.0594622609
11
75.8294970336
21
224.7510715571
0
LINE
5
262
100
AcDbEntity
8
0
100
AcDbLine
62
2
6
CONTINUOUS
10
75.8294970336
20
224.2510715571
11
75.8294970336
21
216.2510715571
0
LINE
5
263
100
AcDbEntity
8
0
100
AcDbLine
62
2
6
CONTINUOUS
10
75.8294970336
20
216.2510715571
11
75.8294970336
21
224.7510715571
0
INSERT
5
264
100
AcDbEntity
8
0
100
AcDbBlockReference
62
2
6
CONTINUOUS
2
_FILLED
10
75.8294970336
20
225.2510715571
41
  3.500000
42
  3.500000
43
  3.500000
50
270.000000
0
INSERT
5
265
100
AcDbEntity
8
0
100
AcDbBlockReference
62
2
6
CONTINUOUS
2
_FILLED
10
75.8294970336
20
224.2510715571
41
  3.500000
42
  3.500000
43
  3.500000
50
 90.000000
0
ENDBLK
5
266
100
AcDbEntity
8
0
6
BYBLOCK
62
0
100
AcDbBlockEnd
0
BLOCK
5
267
100
AcDbEntity
8
0
100
AcDbBlockBegin
62
2
6
CONTINUOUS
2
*D8
70
65
10
0.0000000000
20
0.0000000000
3
*D8
1

0
TEXT
5
268
100
AcDbEntity
8
0
100
AcDbText
62
5
6
CONTINUOUS
10
172.9112897493
20
220.7754306293
7
STANDARD
40
3.5000000000
1
6
50
90.0000000000
41
0.7143000000
72
0
100
AcDbText
0
LINE
5
269
100
AcDbEntity
8
0
100
AcDbLine
62
2
6
CONTINUOUS
10
160.7470828026
20
225.2510715571
11
175.2862897493
21
225.2510715571
0
LINE
5
26A
100
AcDbEntity
8
0
100
AcDbLine
62
2
6
CONTINUOUS
10
156.7470828026
20
219.2510715571
11
175.2862897493
21
219.2510715571
0
LINE
5
26B
100
AcDbEntity
8
0
100
AcDbLine
62
2
6
CONTINUOUS
10
173.7862897493
20
225.2510715571
11
173.7862897493
21
233.2510715571
0
LINE
5
26C
100
AcDbEntity
8
0
100
AcDbLine
62
2
6
CONTINUOUS
10
173.7862897493
20
233.2510715571
11
173.7862897493
21
222.2510715571
0
LINE
5
26D
100
AcDbEntity
8
0
100
AcDbLine
62
2
6
CONTINUOUS
10
173.7862897493
20
219.2510715571
11
173.7862897493
21
211.2510715571
0
LINE
5
26E
100
AcDbEntity
8
0
100
AcDbLine
62
2
6
CONTINUOUS
10
173.7862897493
20
211.2510715571
11
173.7862897493
21
222.2510715571
0
INSERT
5
26F
100
AcDbEntity
8
0
100
AcDbBlockReference
62
2
6
CONTINUOUS
2
_FILLED
10
173.7862897493
20
225.2510715571
41
  3.500000
42
  3.500000
43
  3.500000
50
270.000000
0
INSERT
5
270
100
AcDbEntity
8
0
100
AcDbBlockReference
62
2
6
CONTINUOUS
2
_FILLED
10
173.7862897493
20
219.2510715571
41
  3.500000
42
  3.500000
43
  3.500000
50
 90.000000
0
ENDBLK
5
271
100
AcDbEntity
8
0
6
BYBLOCK
62
0
100
AcDbBlockEnd
0
BLOCK
5
272
100
AcDbEntity
8
0
100
AcDbBlockBegin
62
2
6
CONTINUOUS
2
*D9
70
65
10
0.0000000000
20
0.0000000000
3
*D9
1

0
TEXT
5
273
100
AcDbEntity
8
0
100
AcDbText
62
5
6
CONTINUOUS
10
178.7885565468
20
204.2022493661
7
STANDARD
40
3.5000000000
1
4
50
90.0000000000
41
0.7143000000
72
0
100
AcDbText
0
LINE
5
274
100
AcDbEntity
8
0
100
AcDbLine
62
2
6
CONTINUOUS
10
166.7470828026
20
203.2510715571
11
181.1635565468
21
203.2510715571
0
LINE
5
275
100
AcDbEntity
8
0
100
AcDbLine
62
2
6
CONTINUOUS
10
156.7470828026
20
207.2510715571
11
181.1635565468
21
207.2510715571
0
LINE
5
276
100
AcDbEntity
8
0
100
AcDbLine
62
2
6
CONTINUOUS
10
179.6635565468
20
203.2510715571
11
179.6635565468
21
195.2510715571
0
LINE
5
277
100
AcDbEntity
8
0
100
AcDbLine
62
2
6
CONTINUOUS
10
179.6635565468
20
195.2510715571
11
179.6635565468
21
205.2510715571
0
LINE
5
278
100
AcDbEntity
8
0
100
AcDbLine
62
2
6
CONTINUOUS
10
179.6635565468
20
207.2510715571
11
179.6635565468
21
215.2510715571
0
LINE
5
279
100
AcDbEntity
8
0
100
AcDbLine
62
2
6
CONTINUOUS
10
179.6635565468
20
215.2510715571
11
179.6635565468
21
205.2510715571
0
INSERT
5
27A
100
AcDbEntity
8
0
100
AcDbBlockReference
62
2
6
CONTINUOUS
2
_FILLED
10
179.6635565468
20
203.2510715571
41
  3.500000
42
  3.500000
43
  3.500000
50
 90.000000
0
INSERT
5
27B
100
AcDbEntity
8
0
100
AcDbBlockReference
62
2
6
CONTINUOUS
2
_FILLED
10
179.6635565468
20
207.2510715571
41
  3.500000
42
  3.500000
43
  3.500000
50
270.000000
0
ENDBLK
5
27C
100
AcDbEntity
8
0
6
BYBLOCK
62
0
100
AcDbBlockEnd
0
BLOCK
5
27D
100
AcDbEntity
8
0
100
AcDbBlockBegin
62
2
6
CONTINUOUS
2
*D10
70
65
10
0.0000000000
20
0.0000000000
3
*D10
1

0
TEXT
5
27E
100
AcDbEntity
8
0
100
AcDbText
62
5
6
CONTINUOUS
10
173.3227096597
20
187.1928602953
7
STANDARD
40
3.5000000000
1
6
50
90.0000000000
41
0.7143000000
72
0
100
AcDbText
0
LINE
5
27F
100
AcDbEntity
8
0
100
AcDbLine
62
2
6
CONTINUOUS
10
166.7470828026
20
191.2510715571
11
175.6977096597
21
191.2510715571
0
LINE
5
280
100
AcDbEntity
8
0
100
AcDbLine
62
2
6
CONTINUOUS
10
160.7470828026
20
185.2510715571
11
175.6977096597
21
185.2510715571
0
LINE
5
281
100
AcDbEntity
8
0
100
AcDbLine
62
2
6
CONTINUOUS
10
174.1977096597
20
191.2510715571
11
174.1977096597
21
199.2510715571
0
LINE
5
282
100
AcDbEntity
8
0
100
AcDbLine
62
2
6
CONTINUOUS
10
174.1977096597
20
199.2510715571
11
174.1977096597
21
188.2510715571
0
LINE
5
283
100
AcDbEntity
8
0
100
AcDbLine
62
2
6
CONTINUOUS
10
174.1977096597
20
185.2510715571
11
174.1977096597
21
177.2510715571
0
LINE
5
284
100
AcDbEntity
8
0
100
AcDbLine
62
2
6
CONTINUOUS
10
174.1977096597
20
177.2510715571
11
174.1977096597
21
188.2510715571
0
INSERT
5
285
100
AcDbEntity
8
0
100
AcDbBlockReference
62
2
6
CONTINUOUS
2
_FILLED
10
174.1977096597
20
191.2510715571
41
  3.500000
42
  3.500000
43
  3.500000
50
270.000000
0
INSERT
5
286
100
AcDbEntity
8
0
100
AcDbBlockReference
62
2
6
CONTINUOUS
2
_FILLED
10
174.1977096597
20
185.2510715571
41
  3.500000
42
  3.500000
43
  3.500000
50
 90.000000
0
ENDBLK
5
287
100
AcDbEntity
8
0
6
BYBLOCK
62
0
100
AcDbBlockEnd
0
BLOCK
5
288
100
AcDbEntity
8
0
100
AcDbBlockBegin
62
2
6
CONTINUOUS
2
*D11
70
65
10
0.0000000000
20
0.0000000000
3
*D11
1

0
TEXT
5
289
100
AcDbEntity
8
0
100
AcDbText
62
5
6
CONTINUOUS
10
76.5657975170
20
203.0716080718
7
STANDARD
40
3.5000000000
1
%%c
50
18.0354727840
41
1.3333333333
72
0
100
AcDbText
0
TEXT
5
28A
100
AcDbEntity
8
0
100
AcDbText
62
5
6
CONTINUOUS
10
81.0031675936
20
204.5164349063
7
STANDARD
40
3.5000000000
1
12
50
18.0354727840
41
0.7143000000
72
0
100
AcDbText
0
LINE
5
28B
100
AcDbEntity
8
0
100
AcDbLine
62
2
6
CONTINUOUS
10
67.2210586503
20
199.1087060586
11
61.5158685519
21
197.2510715571
0
LINE
5
28C
100
AcDbEntity
8
0
100
AcDbLine
62
2
6
CONTINUOUS
10
61.5158685519
20
197.2510715571
11
86.0284927935
21
205.2324877288
0
LINE
5
28D
100
AcDbEntity
8
0
100
AcDbLine
62
2
6
CONTINUOUS
10
55.8106784535
20
195.3934370556
11
61.5158685519
21
197.2510715571
0
INSERT
5
28E
100
AcDbEntity
8
0
100
AcDbBlockReference
62
2
6
CONTINUOUS
2
_FILLED
10
67.2210586503
20
199.1087060586
41
  3.500000
42
  3.500000
43
  3.500000
50
 18.035473
0
INSERT
5
28F
100
AcDbEntity
8
0
100
AcDbBlockReference
62
2
6
CONTINUOUS
2
_FILLED
10
55.8106784535
20
195.3934370556
41
  3.500000
42
  3.500000
43
  3.500000
50
198.035473
0
ENDBLK
5
290
100
AcDbEntity
8
0
6
BYBLOCK
62
0
100
AcDbBlockEnd
0
BLOCK
5
291
100
AcDbEntity
8
0
100
AcDbBlockBegin
62
2
6
CONTINUOUS
2
*D12
70
65
10
0.0000000000
20
0.0000000000
3
*D12
1

0
TEXT
5
292
100
AcDbEntity
8
0
100
AcDbText
62
5
6
CONTINUOUS
10
132.9065275621
20
222.1141924033
7
STANDARD
40
3.5000000000
1
%%c
50
-18.7848594971
41
1.3333333333
72
0
100
AcDbText
0
TEXT
5
293
100
AcDbEntity
8
0
100
AcDbText
62
5
6
CONTINUOUS
10
137.3246213648
20
220.6114532616
7
STANDARD
40
3.5000000000
1
12
50
-18.7848594971
41
0.7143000000
72
0
100
AcDbText
0
LINE
5
294
100
AcDbEntity
8
0
100
AcDbLine
62
2
6
CONTINUOUS
10
150.5666764849
20
215.1831647394
11
156.2470828026
21
213.2510715571
0
LINE
5
295
100
AcDbEntity
8
0
100
AcDbLine
62
2
6
CONTINUOUS
10
156.2470828026
20
213.2510715571
11
132.6247639731
21
221.2857998153
0
LINE
5
296
100
AcDbEntity
8
0
100
AcDbLine
62
2
6
CONTINUOUS
10
161.9274891204
20
211.3189783749
11
156.2470828026
21
213.2510715571
0
INSERT
5
297
100
AcDbEntity
8
0
100
AcDbBlockReference
62
2
6
CONTINUOUS
2
_FILLED
10
150.5666764849
20
215.1831647394
41
  3.500000
42
  3.500000
43
  3.500000
50
161.215141
0
INSERT
5
298
100
AcDbEntity
8
0
100
AcDbBlockReference
62
2
6
CONTINUOUS
2
_FILLED
10
161.9274891204
20
211.3189783749
41
  3.500000
42
  3.500000
43
  3.500000
50
341.215141
0
ENDBLK
5
299
100
AcDbEntity
8
0
6
BYBLOCK
62
0
100
AcDbBlockEnd
0
BLOCK
5
29A
100
AcDbEntity
8
0
100
AcDbBlockBegin
2
_FILLED
70
64
10
0.0000000000
20
0.0000000000
3
_FILLED
1

0
SOLID
5
29B
100
AcDbEntity
8
0
6
BYBLOCK
62
0
100
AcDbTrace
10
0.0000000000
20
0.0000000000
11
-1.0000000000
21
0.1857142857
12
-1.0000000000
22
-0.1857142857
13
-1.0000000000
23
-0.1857142857
0
ENDBLK
5
29C
100
AcDbEntity
8
0
6
BYBLOCK
62
0
100
AcDbBlockEnd
0
ENDSEC
0
SECTION
2
ENTITIES
0
TEXT
5
29D
100
AcDbEntity
8
0
100
AcDbText
62
7
6
CONTINUOUS
10
48.5879396785
20
171.2848710727
7
STANDARD
40
3.5000000000
1
A
41
0.7143000000
72
0
100
AcDbText
0
LINE
5
29E
100
AcDbEntity
8
0
100
AcDbLine
62
7
6
CONTINUOUS
10
61.5158685519
20
176.5348710727
11
47.3379146785
21
176.5348710727
0
SOLID
5
29F
100
AcDbEntity
8
0
100
AcDbTrace
62
7
6
CONTINUOUS
10
54.5158685519
20
175.5348710727
11
61.5158685519
21
176.5348710727
12
54.5158685519
22
177.5348710727
13
54.5158685519
23
177.5348710727
0
TEXT
5
2A0
100
AcDbEntity
8
0
100
AcDbText
62
7
6
CONTINUOUS
10
48.5879396785
20
236.1277470437
7
STANDARD
40
3.5000000000
1
A
41
0.7143000000
72
0
100
AcDbText
0
LINE
5
2A1
100
AcDbEntity
8
0
100
AcDbLine
62
7
6
CONTINUOUS
10
61.5158685519
20
234.3777470437
11
47.3379146785
21
234.3777470437
0
SOLID
5
2A2
100
AcDbEntity
8
0
100
AcDbTrace
62
7
6
CONTINUOUS
10
54.5158685519
20
233.3777470437
11
61.5158685519
21
234.3777470437
12
54.5158685519
22
235.3777470437
13
54.5158685519
23
235.3777470437
0
DIMENSION
5
2A3
100
AcDbEntity
8
0
100
AcDbDimension
62
2
6
CONTINUOUS
2
*D0
10
38.4323650833
20
197.2510715571
11
35.8073650833
21
205.9294313099
70
160
42
16.000000
3
DIMSTYLE_1
100
AcDbAlignedDimension
13
48.0158685519
23
213.2510715571
14
52.0158685519
24
197.2510715571
50
270.000000
100
AcDbRotatedDimension
0
DIMENSION
5
2A4
100
AcDbEntity
8
0
100
AcDbDimension
62
2
6
CONTINUOUS
2
*D1
10
26.5105247788
20
185.2510715571
11
23.8855247788
21
205.6241810826
70
160
42
40.000000
3
DIMSTYLE_2
100
AcDbAlignedDimension
13
52.0158685519
23
225.2510715571
14
52.0158685519
24
185.2510715571
50
270.000000
100
AcDbRotatedDimension
0
DIMENSION
5
2A5
100
AcDbEntity
8
0
100
AcDbDimension
62
2
6
CONTINUOUS
2
*D2
10
45.5988147676
20
185.2510715571
11
42.9738147676
21
191.3743290854
70
160
42
12.000000
3
DIMSTYLE_1
100
AcDbAlignedDimension
13
70.0158685519
23
197.2510715571
14
70.0158685519
24
185.2510715571
50
270.000000
100
AcDbRotatedDimension
0
DIMENSION
5
2A6
100
AcDbEntity
8
0
100
AcDbDimension
62
2
6
CONTINUOUS
2
*D3
10
46.1427139919
20
213.2510715571
11
43.5177139919
21
217.9204840932
70
160
42
12.000000
3
DIMSTYLE_1
100
AcDbAlignedDimension
13
70.0158685519
23
225.2510715571
14
74.0158685519
24
213.2510715571
50
270.000000
100
AcDbRotatedDimension
0
DIMENSION
5
2A7
100
AcDbEntity
8
0
100
AcDbDimension
62
2
6
CONTINUOUS
2
*D4
10
53.9464408849
20
137.4347186881
11
41.8029158530
21
130.4189108129
70
163
42
20.000000
1
<>
3
DIMSTYLE_3
100
AcDbDiametricDimension
15
69.0852962189
25
150.5043422165
0
DIMENSION
5
2A8
100
AcDbEntity
8
0
100
AcDbDimension
62
2
6
CONTINUOUS
2
*D5
10
160.2470828026
20
172.0630095899
11
156.3065375432
21
174.6880095899
70
160
42
8.000000
1
M<>
3
DIMSTYLE_1
100
AcDbAlignedDimension
13
152.2470828026
23
184.7510715571
14
160.2470828026
24
184.7510715571
100
AcDbRotatedDimension
0
DIMENSION
5
2A9
100
AcDbEntity
8
0
100
AcDbDimension
62
2
6
CONTINUOUS
2
*D6
10
160.2470828026
20
234.0458563491
11
156.3915249012
21
236.6708563491
70
160
42
8.000000
1
M<>
3
DIMSTYLE_1
100
AcDbAlignedDimension
13
152.2470828026
23
225.7510715571
14
160.2470828026
24
225.7510715571
100
AcDbRotatedDimension
0
DIMENSION
5
2AA
100
AcDbEntity
8
0
100
AcDbDimension
62
2
6
CONTINUOUS
2
*D7
10
75.8294970336
20
224.2510715571
11
73.2044970336
21
245.0592622609
70
160
42
1.000000
1
Sm <>x45°
3
DIMSTYLE_4
100
AcDbAlignedDimension
13
71.0158685519
23
225.2510715571
14
72.0158685519
24
224.2510715571
50
270.000000
100
AcDbRotatedDimension
0
DIMENSION
5
2AB
100
AcDbEntity
8
0
100
AcDbDimension
62
2
6
CONTINUOUS
2
*D8
10
173.7862897493
20
219.2510715571
11
171.1612897493
21
222.0254556293
70
160
42
6.000000
3
DIMSTYLE_4
100
AcDbAlignedDimension
13
160.7470828026
23
225.2510715571
14
156.7470828026
24
219.2510715571
50
270.000000
100
AcDbRotatedDimension
0
DIMENSION
5
2AC
100
AcDbEntity
8
0
100
AcDbDimension
62
2
6
CONTINUOUS
2
*D9
10
179.6635565468
20
207.2510715571
11
177.0385565468
21
205.4522743661
70
160
42
4.000000
3
DIMSTYLE_4
100
AcDbAlignedDimension
13
166.7470828026
23
203.2510715571
14
156.7470828026
24
207.2510715571
50
90.000000
100
AcDbRotatedDimension
0
DIMENSION
5
2AD
100
AcDbEntity
8
0
100
AcDbDimension
62
2
6
CONTINUOUS
2
*D10
10
174.1977096597
20
185.2510715571
11
171.5727096597
21
188.4428852953
70
160
42
6.000000
3
DIMSTYLE_4
100
AcDbAlignedDimension
13
166.7470828026
23
191.2510715571
14
160.7470828026
24
185.2510715571
50
270.000000
100
AcDbRotatedDimension
0
DIMENSION
5
2AE
100
AcDbEntity
8
0
100
AcDbDimension
62
2
6
CONTINUOUS
2
*D11
10
67.2210586503
20
199.1087060586
11
80.6198825766
21
206.2320651237
70
163
42
12.000000
1
<>
3
DIMSTYLE_5
100
AcDbDiametricDimension
15
55.8106784535
25
195.3934370556
0
DIMENSION
5
2AF
100
AcDbEntity
8
0
100
AcDbDimension
62
2
6
CONTINUOUS
2
*D12
10
150.5666764849
20
215.1831647394
11
138.0459849441
21
222.2145530818
70
163
42
12.000000
1
<>
3
DIMSTYLE_5
100
AcDbDiametricDimension
15
161.9274891204
25
211.3189783749
0
MTEXT
5
2B0
100
AcDbEntity
8
0
100
AcDbMText
62
5
6
CONTINUOUS
7
STANDARD
71
1
72
1
10
157.4889685769
20
251.0607344100
30
0.0000000000
11
1.0000000000
21
0.0000000000
31
0.0000000000
1
SEZIONE A-A
40
3.5000000000
41
27.5005500000
0
LINE
5
2B1
100
AcDbEntity
8
0
100
AcDbLine
62
7
6
CONTINUOUS
10
0.0000000000
20
0.0000000000
11
210.0000000000
21
0.0000000000
0
LINE
5
2B2
100
AcDbEntity
8
0
100
AcDbLine
62
7
6
CONTINUOUS
10
0.0000000000
20
0.0000000000
11
0.0000000000
21
297.0000000000
0
LINE
5
2B3
100
AcDbEntity
8
0
100
AcDbLine
62
7
6
CONTINUOUS
10
210.0000000000
20
0.0000000000
11
210.0000000000
21
297.0000000000
0
LINE
5
2B4
100
AcDbEntity
8
0
100
AcDbLine
62
7
6
CONTINUOUS
10
0.0000000000
20
297.0000000000
11
210.0000000000
21
297.0000000000
0
LINE
5
2B5
100
AcDbEntity
8
0
100
AcDbLine
62
7
6
CONTINUOUS
10
51.5158685519
20
224.2510715571
11
52.5158685519
21
225.2510715571
0
LINE
5
2B6
100
AcDbEntity
8
0
100
AcDbLine
62
7
6
CONTINUOUS
10
52.5158685519
20
185.2510715571
11
70.5158685519
21
185.2510715571
0
LINE
5
2B7
100
AcDbEntity
8
0
100
AcDbLine
62
7
6
CONTINUOUS
10
52.5158685519
20
185.2510715571
11
51.5158685519
21
186.2510715571
0
LINE
5
2B8
100
AcDbEntity
8
0
100
AcDbLine
62
7
6
CONTINUOUS
10
51.5158685519
20
186.2510715571
11
71.5158685519
21
186.2510715571
0
LINE
5
2B9
100
AcDbEntity
8
0
100
AcDbLine
62
7
6
CONTINUOUS
10
51.5158685519
20
186.2510715571
11
51.5158685519
21
207.2510715571
0
LINE
5
2BA
100
AcDbEntity
8
0
100
AcDbLine
62
7
6
CONTINUOUS
10
51.5158685519
20
219.2510715571
11
51.5158685519
21
224.2510715571
0
LINE
5
2BB
100
AcDbEntity
8
DEFAULT_1
100
AcDbLine
62
2
6
CENTER
10
61.5158685519
20
197.2510715571
11
52.5158685519
21
197.2510715571
0
LINE
5
2BC
100
AcDbEntity
8
DEFAULT_1
100
AcDbLine
62
2
6
CENTER
10
61.5158685519
20
197.2510715571
11
70.5158685519
21
197.2510715571
0
LINE
5
2BD
100
AcDbEntity
8
DEFAULT_1
100
AcDbLine
62
2
6
CENTER
10
61.5158685519
20
228.2510715571
11
61.5158685519
21
206.2510715571
0
LINE
5
2BE
100
AcDbEntity
8
DEFAULT_1
100
AcDbLine
62
2
6
CENTER
10
61.5158685519
20
188.2510715571
11
61.5158685519
21
182.2510715571
0
LINE
5
2BF
100
AcDbEntity
8
DEFAULT_1
100
AcDbLine
62
2
6
CENTER
10
61.5158685519
20
197.2510715571
11
61.5158685519
21
188.2510715571
0
LINE
5
2C0
100
AcDbEntity
8
DEFAULT_1
100
AcDbLine
62
7
6
CENTER
10
61.5158685519
20
176.5348710727
11
61.5158685519
21
181.5348710727
0
LINE
5
2C1
100
AcDbEntity
8
DEFAULT_1
100
AcDbLine
62
2
6
CENTER
10
61.5158685519
20
197.2510715571
11
61.5158685519
21
206.2510715571
0
LINE
5
2C2
100
AcDbEntity
8
DEFAULT_1
100
AcDbLine
62
9
6
CENTER
10
61.5158685519
20
181.5348710727
11
61.5158685519
21
182.2510715571
0
LINE
5
2C3
100
AcDbEntity
8
DEFAULT_1
100
AcDbLine
62
9
6
CENTER
10
61.5158685519
20
228.2510715571
11
61.5158685519
21
229.3777470437
0
LINE
5
2C4
100
AcDbEntity
8
DEFAULT_1
100
AcDbLine
62
7
6
CENTER
10
61.5158685519
20
229.3777470437
11
61.5158685519
21
234.3777470437
0
LINE
5
2C5
100
AcDbEntity
8
DEFAULT_1
100
AcDbLine
62
2
6
CENTER
10
74.5158685519
20
213.2510715571
11
48.5158685519
21
213.2510715571
0
LINE
5
2C6
100
AcDbEntity
8
0
100
AcDbLine
62
7
6
CONTINUOUS
10
71.5158685519
20
186.2510715571
11
71.5158685519
21
207.2510715571
0
LINE
5
2C7
100
AcDbEntity
8
0
100
AcDbLine
62
7
6
CONTINUOUS
10
71.5158685519
20
219.2510715571
11
71.5158685519
21
224.2510715571
0
LINE
5
2C8
100
AcDbEntity
8
0
100
AcDbLine
62
7
6
CONTINUOUS
10
51.5158685519
20
224.2510715571
11
71.5158685519
21
224.2510715571
0
LINE
5
2C9
100
AcDbEntity
8
0
100
AcDbLine
62
7
6
CONTINUOUS
10
70.5158685519
20
185.2510715571
11
71.5158685519
21
186.2510715571
0
LINE
5
2CA
100
AcDbEntity
8
0
100
AcDbLine
62
7
6
CONTINUOUS
10
52.5158685519
20
225.2510715571
11
70.5158685519
21
225.2510715571
0
LINE
5
2CB
100
AcDbEntity
8
0
100
AcDbLine
62
7
6
CONTINUOUS
10
71.5158685519
20
224.2510715571
11
70.5158685519
21
225.2510715571
0
LINE
5
2CC
100
AcDbEntity
8
0
100
AcDbLine
62
7
6
CONTINUOUS
10
146.2470828026
20
224.2510715571
11
147.2470828026
21
225.2510715571
0
LINE
5
2CD
100
AcDbEntity
8
0
100
AcDbLine
62
2
6
CONTINUOUS
10
148.7365403077
20
225.2510715571
11
146.2470828026
21
222.7616140520
0
LINE
5
2CE
100
AcDbEntity
8
0
100
AcDbLine
62
7
6
CONTINUOUS
10
147.2470828026
20
185.2510715571
11
165.2470828026
21
185.2510715571
0
LINE
5
2CF
100
AcDbEntity
8
0
100
AcDbLine
62
7
6
CONTINUOUS
10
147.2470828026
20
185.2510715571
11
146.2470828026
21
186.2510715571
0
LINE
5
2D0
100
AcDbEntity
8
0
100
AcDbLine
62
2
6
CONTINUOUS
10
151.5649674325
20
225.2510715571
11
146.2470828026
21
219.9331869273
0
LINE
5
2D1
100
AcDbEntity
8
0
100
AcDbLine
62
2
6
CONTINUOUS
10
152.2470828026
20
223.1047598025
11
146.2470828026
21
217.1047598025
0
LINE
5
2D2
100
AcDbEntity
8
0
100
AcDbLine
62
2
6
CONTINUOUS
10
152.2470828026
20
220.2763326778
11
146.2470828026
21
214.2763326778
0
LINE
5
2D3
100
AcDbEntity
8
0
100
AcDbLine
62
7
6
CONTINUOUS
10
166.2470828026
20
191.2510715571
11
160.2470828026
21
191.2510715571
0
LINE
5
2D4
100
AcDbEntity
8
0
100
AcDbLine
62
7
6
CONTINUOUS
10
152.2470828026
20
191.2510715571
11
146.2470828026
21
191.2510715571
0
LINE
5
2D5
100
AcDbEntity
8
0
100
AcDbLine
62
2
6
CONTINUOUS
10
151.0660128801
20
216.2668356305
11
146.2470828026
21
211.4479055530
0
LINE
5
2D6
100
AcDbEntity
8
0
100
AcDbLine
62
7
6
CONTINUOUS
10
146.2470828026
20
186.2510715571
11
146.2470828026
21
191.2510715571
0
LINE
5
2D7
100
AcDbEntity
8
0
100
AcDbLine
62
7
6
CONTINUOUS
10
146.2470828026
20
203.2510715571
11
146.2470828026
21
224.2510715571
0
LINE
5
2D8
100
AcDbEntity
8
0
100
AcDbLine
62
2
6
CONTINUOUS
10
162.8786759314
20
225.2510715571
11
160.2470828026
21
222.6194784283
0
LINE
5
2D9
100
AcDbEntity
8
0
100
AcDbLine
62
2
6
CONTINUOUS
10
150.2787707932
20
212.6511664189
11
146.2470828026
21
208.6194784283
0
LINE
5
2DA
100
AcDbEntity
8
0
100
AcDbLine
62
2
6
CONTINUOUS
10
165.4770929294
20
225.0210614303
11
160.2470828026
21
219.7910513036
0
LINE
5
2DB
100
AcDbEntity
8
0
100
AcDbLine
62
2
6
CONTINUOUS
10
150.9328034055
20
210.4767719064
11
146.2470828026
21
205.7910513036
0
LINE
5
2DC
100
AcDbEntity
8
DEFAULT_1
100
AcDbLine
62
2
6
CENTER
10
169.2470828026
20
197.2510715571
11
143.2470828026
21
197.2510715571
0
LINE
5
2DD
100
AcDbEntity
8
0
100
AcDbLine
62
2
6
CONTINUOUS
10
166.2470828026
20
222.9626241788
11
160.6308461349
21
217.3463875111
0
LINE
5
2DE
100
AcDbEntity
8
0
100
AcDbLine
62
2
6
CONTINUOUS
10
152.1543371991
20
208.8698785752
11
146.5355301809
21
203.2510715571
0
LINE
5
2DF
100
AcDbEntity
8
0
100
AcDbLine
62
7
6
CONTINUOUS
10
152.2470828026
20
225.2510715571
11
152.2470828026
21
217.7232075121
0
LINE
5
2E0
100
AcDbEntity
8
0
100
AcDbLine
62
7
6
CONTINUOUS
10
152.2470828026
20
185.2510715571
11
152.2470828026
21
191.2510715571
0
LINE
5
2E1
100
AcDbEntity
8
0
100
AcDbLine
62
2
6
CONTINUOUS
10
166.2470828026
20
220.1341970541
11
161.7512493638
21
215.6383636153
0
LINE
5
2E2
100
AcDbEntity
8
0
100
AcDbLine
62
2
6
CONTINUOUS
10
153.8627364579
20
207.7498507093
11
149.3639573057
21
203.2510715571
0
LINE
5
2E3
100
AcDbEntity
8
0
100
AcDbLine
62
2
6
CONTINUOUS
10
166.2470828026
20
217.3057699293
11
162.2419048072
21
213.3005919339
0
LINE
5
2E4
100
AcDbEntity
8
0
100
AcDbLine
62
2
6
CONTINUOUS
10
156.1946643815
20
207.2533515082
11
152.1923844304
21
203.2510715571
0
LINE
5
2E5
100
AcDbEntity
8
0
100
AcDbLine
62
7
6
CONTINUOUS
10
166.2470828026
20
203.2510715571
11
146.2470828026
21
203.2510715571
0
LINE
5
2E6
100
AcDbEntity
8
DEFAULT_1
100
AcDbLine
62
2
6
CENTER
10
156.2470828026
20
228.2510715571
11
156.2470828026
21
222.2510715571
0
LINE
5
2E7
100
AcDbEntity
8
DEFAULT_1
100
AcDbLine
62
2
6
CENTER
10
156.2470828026
20
204.2510715571
11
156.2470828026
21
182.2510715571
0
LINE
5
2E8
100
AcDbEntity
8
DEFAULT_1
100
AcDbLine
62
2
6
CENTER
10
156.2470828026
20
213.2510715571
11
156.2470828026
21
204.2510715571
0
LINE
5
2E9
100
AcDbEntity
8
DEFAULT_1
100
AcDbLine
62
2
6
CENTER
10
156.2470828026
20
213.2510715571
11
156.2470828026
21
222.2510715571
0
LINE
5
2EA
100
AcDbEntity
8
0
100
AcDbLine
62
2
6
CONTINUOUS
10
166.2470828026
20
214.4773428046
11
155.0208115552
21
203.2510715571
0
LINE
5
2EB
100
AcDbEntity
8
0
100
AcDbLine
62
2
6
CONTINUOUS
10
166.2470828026
20
211.6489156798
11
157.8492386799
21
203.2510715571
0
LINE
5
2EC
100
AcDbEntity
8
0
100
AcDbLine
62
7
6
CONTINUOUS
10
160.2470828026
20
225.2510715571
11
160.2470828026
21
217.7232075121
0
LINE
5
2ED
100
AcDbEntity
8
0
100
AcDbLine
62
7
6
CONTINUOUS
10
160.2470828026
20
185.2510715571
11
160.2470828026
21
191.2510715571
0
LINE
5
2EE
100
AcDbEntity
8
0
100
AcDbLine
62
2
6
CONTINUOUS
10
166.2470828026
20
208.8204885551
11
160.6776658047
21
203.2510715571
0
LINE
5
2EF
100
AcDbEntity
8
0
100
AcDbLine
62
2
6
CONTINUOUS
10
148.6776658047
20
191.2510715571
11
146.2470828026
21
188.8204885551
0
LINE
5
2F0
100
AcDbEntity
8
0
100
AcDbLine
62
2
6
CONTINUOUS
10
166.2470828026
20
205.9920614303
11
163.5060929294
21
203.2510715571
0
LINE
5
2F1
100
AcDbEntity
8
0
100
AcDbLine
62
2
6
CONTINUOUS
10
151.5060929294
20
191.2510715571
11
146.3765878660
21
186.1215664937
0
LINE
5
2F2
100
AcDbEntity
8
0
100
AcDbLine
62
2
6
CONTINUOUS
10
152.2470828026
20
189.1636343056
11
148.3345200542
21
185.2510715571
0
LINE
5
2F3
100
AcDbEntity
8
DEFAULT_1
100
AcDbLine
62
2
6
CENTER
10
156.2470828026
20
213.2510715571
11
147.2470828026
21
213.2510715571
0
LINE
5
2F4
100
AcDbEntity
8
DEFAULT_1
100
AcDbLine
62
2
6
CENTER
10
156.2470828026
20
213.2510715571
11
165.2470828026
21
213.2510715571
0
LINE
5
2F5
100
AcDbEntity
8
0
100
AcDbLine
62
7
6
CONTINUOUS
10
166.2470828026
20
186.2510715571
11
166.2470828026
21
191.2510715571
0
LINE
5
2F6
100
AcDbEntity
8
0
100
AcDbLine
62
7
6
CONTINUOUS
10
166.2470828026
20
203.2510715571
11
166.2470828026
21
224.2510715571
0
LINE
5
2F7
100
AcDbEntity
8
0
100
AcDbLine
62
2
6
CONTINUOUS
10
152.2470828026
20
186.3352071808
11
151.1629471789
21
185.2510715571
0
LINE
5
2F8
100
AcDbEntity
8
0
100
AcDbLine
62
2
6
CONTINUOUS
10
162.8198014284
20
191.2510715571
11
160.2470828026
21
188.6783529313
0
LINE
5
2F9
100
AcDbEntity
8
0
100
AcDbLine
62
2
6
CONTINUOUS
10
165.6482285531
20
191.2510715571
11
160.2470828026
21
185.8499258066
0
LINE
5
2FA
100
AcDbEntity
8
0
100
AcDbLine
62
2
6
CONTINUOUS
10
166.2470828026
20
189.0214986819
11
162.4766556779
21
185.2510715571
0
LINE
5
2FB
100
AcDbEntity
8
0
100
AcDbLine
62
7
6
CONTINUOUS
10
165.2470828026
20
185.2510715571
11
166.2470828026
21
186.2510715571
0
LINE
5
2FC
100
AcDbEntity
8
0
100
AcDbLine
62
7
6
CONTINUOUS
10
147.2470828026
20
225.2510715571
11
165.2470828026
21
225.2510715571
0
LINE
5
2FD
100
AcDbEntity
8
0
100
AcDbLine
62
7
6
CONTINUOUS
10
166.2470828026
20
224.2510715571
11
165.2470828026
21
225.2510715571
0
LINE
5
2FE
100
AcDbEntity
8
DEFAULT_1
100
AcDbLine
62
2
6
CENTER
10
61.5158685519
20
143.9695304523
11
61.5158685519
21
140.9694304523
0
LINE
5
2FF
100
AcDbEntity
8
DEFAULT_1
100
AcDbLine
62
2
6
CENTER
10
61.5158685519
20
143.9695304523
11
61.5158685519
21
146.9696304523
0
LINE
5
300
100
AcDbEntity
8
DEFAULT_1
100
AcDbLine
62
2
6
CENTER
10
61.5158685519
20
130.9695304523
11
61.5158685519
21
140.9694304523
0
LINE
5
301
100
AcDbEntity
8
DEFAULT_1
100
AcDbLine
62
2
6
CENTER
10
61.5158685519
20
146.9696304523
11
61.5158685519
21
156.9695304523
0
LINE
5
302
100
AcDbEntity
8
DEFAULT_1
100
AcDbLine
62
2
6
CENTER
10
61.5158685519
20
143.9695304523
11
58.5157685519
21
143.9695304523
0
LINE
5
303
100
AcDbEntity
8
DEFAULT_1
100
AcDbLine
62
2
6
CENTER
10
74.5158685519
20
143.9695304523
11
64.5159685519
21
143.9695304523
0
LINE
5
304
100
AcDbEntity
8
DEFAULT_1
100
AcDbLine
62
2
6
CENTER
10
58.5157685519
20
143.9695304523
11
48.5158685519
21
143.9695304523
0
LINE
5
305
100
AcDbEntity
8
DEFAULT_1
100
AcDbLine
62
2
6
CENTER
10
61.5158685519
20
143.9695304523
11
64.5159685519
21
143.9695304523
0
CIRCLE
5
306
100
AcDbEntity
8
0
100
AcDbCircle
62
7
6
CONTINUOUS
10
61.5158685519
20
197.2510715571
40
6.0000000000
0
CIRCLE
5
307
100
AcDbEntity
8
0
100
AcDbCircle
62
7
6
CONTINUOUS
10
156.2470828026
20
213.2510715571
40
6.0000000000
0
CIRCLE
5
308
100
AcDbEntity
8
0
100
AcDbCircle
62
7
6
CONTINUOUS
10
61.5158685519
20
143.9695304523
40
4.0000000000
0
CIRCLE
5
309
100
AcDbEntity
8
0
100
AcDbCircle
62
7
6
CONTINUOUS
10
61.5158685519
20
143.9695304523
40
10.0000000000
0
CIRCLE
5
30A
100
AcDbEntity
8
0
100
AcDbCircle
62
7
6
CONTINUOUS
10
61.5158685519
20
143.9695304523
40
9.0000000000
0
SPLINE
5
30B
100
AcDbEntity
8
0
100
AcDbSpline
62
7
6
CONTINUOUS
70
0
71
3
72
29
73
25
74
23
42
0.0000001000
43
0.0000001000
44
0.0000000001
12
-6.5885979072
22
10.9810192928
32
0.0000000000
13
6.5885974119
23
10.9810191840
33
0.0000000000
40
0.0000000000
40
0.0000000000
40
0.0000000000
40
0.0000000000
40
0.0069789094
40
0.0273825132
40
0.0598731349
40
0.1028676360
40
0.1545098936
40
0.2120474508
40
0.2721885483
40
0.3309143439
40
0.3844663147
40
0.4399007316
40
0.4992775303
40
0.5587159724
40
0.6142522783
40
0.6677206560
40
0.7262754087
40
0.7863603741
40
0.8441254278
40
0.8961381019
40
0.9395217732
40
0.9723342985
40
0.9929509812
40
1.0000000000
40
1.0000000000
40
1.0000000000
40
1.0000000000
10
71.5158685519
20
207.2510715571
30
0.0000000000
10
71.5005414758
20
207.2766167369
30
0.0000000000
10
71.4405845019
20
207.3769545714
30
0.0000000000
10
71.3110709061
20
207.5972925075
30
0.0000000000
10
71.1088866736
20
207.9532149921
30
0.0000000000
10
70.8518492289
20
208.4312222034
30
0.0000000000
10
70.5632262044
20
209.0133389733
30
0.0000000000
10
70.2711468105
20
209.6748054274
30
0.0000000000
10
70.0063245594
20
210.3802427700
30
0.0000000000
10
69.7945890122
20
211.0857998997
30
0.0000000000
10
69.6396479979
20
211.7854015616
30
0.0000000000
10
69.5401709462
20
212.4980177159
30
0.0000000000
10
69.5037402888
20
213.2420647876
30
0.0000000000
10
69.5385068832
20
213.9866316093
30
0.0000000000
10
69.6365907778
20
214.6997922948
30
0.0000000000
10
69.7901042350
20
215.3990413713
30
0.0000000000
10
70.0001991596
20
216.1037040729
30
0.0000000000
10
70.2638622241
20
216.8095806996
30
0.0000000000
10
70.5560129030
20
217.4735502026
30
0.0000000000
10
70.8459938595
20
218.0597014901
30
0.0000000000
10
71.1049696696
20
218.5419104518
30
0.0000000000
10
71.3090107180
20
218.9013159819
30
0.0000000000
10
71.4398122889
20
219.1238931292
30
0.0000000000
10
71.5003875028
20
219.2252697534
30
0.0000000000
10
71.5158685519
20
219.2510715571
30
0.0000000000
11
71.5158685519
21
207.2510715571
31
0.0000000000
11
71.4700264118
21
207.3277904815
31
0.0000000000
11
71.3376465057
21
207.5530611874
31
0.0000000000
11
71.1322460657
21
207.9149009743
31
0.0000000000
11
70.8717801009
21
208.3999808639
31
0.0000000000
11
70.5786006015
21
208.9927723422
31
0.0000000000
11
70.2819334533
21
209.6672336902
31
0.0000000000
11
70.0125127235
21
210.3887364651
31
0.0000000000
11
69.7975785605
21
211.1094084961
31
0.0000000000
11
69.6501495638
21
211.7791586585
31
0.0000000000
11
69.5527187138
21
212.4823319882
31
0.0000000000
11
69.5158739060
21
213.2418159827
31
0.0000000000
11
69.5510504323
21
214.0021693210
31
0.0000000000
11
69.6472419378
21
214.7068301706
31
0.0000000000
11
69.7932162423
21
215.3758032550
31
0.0000000000
11
70.0062478092
21
216.0947557752
31
0.0000000000
11
70.2742307047
21
216.8160270407
31
0.0000000000
11
70.5711766225
21
217.4935477507
31
0.0000000000
11
70.8659227874
21
218.0908560778
31
0.0000000000
11
71.1284874361
21
218.5804656890
31
0.0000000000
11
71.3358269211
21
218.9459448985
31
0.0000000000
11
71.4695673095
21
219.1735810723
31
0.0000000000
11
71.5158685519
21
219.2510715571
31
0.0000000000
0
SPLINE
5
30C
100
AcDbEntity
8
0
100
AcDbSpline
62
7
6
CONTINUOUS
70
0
71
3
72
29
73
25
74
23
42
0.0000001000
43
0.0000001000
44
0.0000000001
12
6.5885842198
22
-10.9809962166
32
0.0000000000
13
-6.5885846290
23
-10.9809963087
33
0.0000000000
40
0.0000000000
40
0.0000000000
40
0.0000000000
40
0.0000000000
40
0.0069525061
40
0.0272602116
40
0.0595841621
40
0.1024261056
40
0.1539766206
40
0.2115333240
40
0.2717036407
40
0.3306162584
40
0.3844846151
40
0.4405191575
40
0.5005829676
40
0.5605925387
40
0.6165311114
40
0.6704770899
40
0.7295377347
40
0.7897733615
40
0.8471579459
40
0.8984109597
40
0.9409295196
40
0.9729802638
40
0.9931066289
40
1.0000000000
40
1.0000000000
40
1.0000000000
40
1.0000000000
10
51.5158685519
20
219.2510715571
30
0.0000000000
10
51.5311376092
20
219.2256230761
30
0.0000000000
10
51.5908273452
20
219.1257340107
30
0.0000000000
10
51.7197242494
20
218.9064651271
30
0.0000000000
10
51.9210745352
20
218.5521083324
30
0.0000000000
10
52.1773927227
20
218.0757084900
30
0.0000000000
10
52.4657996119
20
217.4945604213
30
0.0000000000
10
52.7581104963
20
216.8334011035
30
0.0000000000
10
53.0236555935
20
216.1271652341
30
0.0000000000
10
53.2363908721
20
215.4195318557
30
0.0000000000
10
53.3924979936
20
214.7153547586
30
0.0000000000
10
53.4925902830
20
213.9958869473
30
0.0000000000
10
53.5282585786
20
213.2438229199
30
0.0000000000
10
53.4912395808
20
212.4922385015
30
0.0000000000
10
53.3900320608
20
211.7732459294
30
0.0000000000
10
53.2327740510
20
211.0687576658
30
0.0000000000
10
53.0186654539
20
210.3602402742
30
0.0000000000
10
52.7521173452
20
209.6541968217
30
0.0000000000
10
52.4597999520
20
208.9949333416
30
0.0000000000
10
52.1724759717
20
208.4170310412
30
0.0000000000
10
51.9177611742
20
207.9441045226
30
0.0000000000
10
51.7179754194
20
207.5926788283
30
0.0000000000
10
51.5901724315
20
207.3753105735
30
0.0000000000
10
51.5310077382
20
207.2763035847
30
0.0000000000
10
51.5158685519
20
207.2510715571
30
0.0000000000
11
51.5158685519
21
219.2510715571
31
0.0000000000
11
51.5615376898
21
219.1746433607
31
0.0000000000
11
51.6933042451
21
218.9504372727
31
0.0000000000
11
51.8976943629
21
218.5904792705
31
0.0000000000
11
52.1573521076
21
218.1071842038
31
0.0000000000
11
52.4502289320
21
217.5155553146
31
0.0000000000
11
52.7473081331
21
216.8410091356
31
0.0000000000
11
53.0172376407
21
216.1192987733
31
0.0000000000
11
53.2331999290
21
215.3964385458
31
0.0000000000
11
53.3816279423
21
214.7227611625
31
0.0000000000
11
53.4797684838
21
214.0119291676
31
0.0000000000
11
53.5158650659
21
213.2436032041
31
0.0000000000
11
53.4784138669
21
212.4760374854
31
0.0000000000
11
53.3793022119
21
211.7665811381
31
0.0000000000
11
53.2296787088
21
211.0921500403
31
0.0000000000
11
53.0121425277
21
210.3677824120
31
0.0000000000
11
52.7409572629
21
209.6456495112
31
0.0000000000
11
52.4440376927
21
208.9734419403
31
0.0000000000
11
52.1524118401
21
208.3854450206
31
0.0000000000
11
51.8945005467
21
207.9059127858
31
0.0000000000
11
51.6917585380
21
207.5490423074
31
0.0000000000
11
51.5611504215
21
207.3268489874
31
0.0000000000
11
51.5158685519
21
207.2510715571
31
0.0000000000
0
SPLINE
5
30D
100
AcDbEntity
8
0
100
AcDbSpline
62
7
6
CONTINUOUS
70
0
71
3
72
28
73
24
74
22
42
0.0000001000
43
0.0000001000
44
0.0000000001
12
-6.5881617451
22
10.9802819626
32
0.0000000000
13
6.5881613787
23
10.9802818583
33
0.0000000000
40
0.0000000000
40
0.0000000000
40
0.0000000000
40
0.0000000000
40
0.0056261457
40
0.0230211844
40
0.0509803826
40
0.0863475781
40
0.1306834998
40
0.1888885693
40
0.2557518556
40
0.3264470057
40
0.3965232447
40
0.4651395155
40
0.5326764624
40
0.6011352757
40
0.6710004721
40
0.7416382857
40
0.8087848043
40
0.8676569511
40
0.9127452685
40
0.9485261665
40
0.9767156884
40
0.9942969867
40
1.0000000000
40
1.0000000000
40
1.0000000000
40
1.0000000000
10
166.2470828026
20
191.2510715571
30
0.0000000000
10
166.2347274833
20
191.2716637792
30
0.0000000000
10
166.1842940780
20
191.3559970181
30
0.0000000000
10
166.0737390620
20
191.5434270172
30
0.0000000000
10
165.9024145469
20
191.8423783671
30
0.0000000000
10
165.6815124417
20
192.2453870549
30
0.0000000000
10
165.4123260284
20
192.7689778193
30
0.0000000000
10
165.1068723686
20
193.4246736915
30
0.0000000000
10
164.7970069126
20
194.2013337618
30
0.0000000000
10
164.5307294019
20
195.0477500748
30
0.0000000000
10
164.3411655073
20
195.9226261225
30
0.0000000000
10
164.2440039501
20
196.7991958967
30
0.0000000000
10
164.2424602452
20
197.6742826005
30
0.0000000000
10
164.3363590325
20
198.5496227899
30
0.0000000000
10
164.5225307947
20
199.4233703343
30
0.0000000000
10
164.7862110457
20
200.2706789202
30
0.0000000000
10
165.0955902860
20
201.0516523203
30
0.0000000000
10
165.4030396906
20
201.7144491236
30
0.0000000000
10
165.6753307531
20
202.2452475285
30
0.0000000000
10
165.8989205586
20
202.6535817530
30
0.0000000000
10
166.0719424722
20
202.9556455075
30
0.0000000000
10
166.1835505211
20
203.1448998268
30
0.0000000000
10
166.2345586786
20
203.2301979926
30
0.0000000000
10
166.2470828026
20
203.2510715571
30
0.0000000000
11
166.2470828026
21
191.2510715571
31
0.0000000000
11
166.2101071187
21
191.3129023508
31
0.0000000000
11
166.0969562647
21
191.5047677695
31
0.0000000000
11
165.9190090490
21
191.8154338470
31
0.0000000000
11
165.7014820169
21
192.2126527077
31
0.0000000000
11
165.4422503894
21
192.7177386828
31
0.0000000000
11
165.1284500992
21
193.3937816981
31
0.0000000000
11
164.8128360683
21
194.1896782455
31
0.0000000000
11
164.5433241386
21
195.0538869258
31
0.0000000000
11
164.3552171701
21
195.9312825890
31
0.0000000000
11
164.2595263915
21
196.8046947379
31
0.0000000000
11
164.2580185517
21
197.6695110103
31
0.0000000000
11
164.3504494911
21
198.5412466181
31
0.0000000000
11
164.5350054947
21
199.4166344283
31
0.0000000000
11
164.8016303542
21
200.2809698742
31
0.0000000000
11
165.1166084338
21
201.0810173691
31
0.0000000000
11
165.4328646864
21
201.7653365933
31
0.0000000000
11
165.6960217517
21
202.2792369545
31
0.0000000000
11
165.9159140765
21
202.6812003035
31
0.0000000000
11
166.0952586139
21
202.9944648756
31
0.0000000000
11
166.2096031945
21
203.1883952436
31
0.0000000000
11
166.2470828026
21
203.2510715571
31
0.0000000000
0
SPLINE
5
30E
100
AcDbEntity
8
0
100
AcDbSpline
62
7
6
CONTINUOUS
70
0
71
3
72
28
73
24
74
22
42
0.0000001000
43
0.0000001000
44
0.0000000001
12
6.5881632903
22
-10.9802850901
32
0.0000000000
13
-6.5881636565
23
-10.9802851940
33
0.0000000000
40
0.0000000000
40
0.0000000000
40
0.0000000000
40
0.0000000000
40
0.0057099805
40
0.0233082674
40
0.0515283292
40
0.0873675470
40
0.1325078672
40
0.1913988986
40
0.2585234683
40
0.3291129559
40
0.3989256173
40
0.4673378884
40
0.5348307908
40
0.6033998832
40
0.6734228718
40
0.7440709651
40
0.8109161320
40
0.8691454193
40
0.9135370577
40
0.9489637964
40
0.9769541248
40
0.9943667101
40
1.0000000000
40
1.0000000000
40
1.0000000000
40
1.0000000000
10
146.2470828026
20
203.2510715571
30
0.0000000000
10
146.2596222307
20
203.2301724858
30
0.0000000000
10
146.3106827290
20
203.1447864445
30
0.0000000000
10
146.4224074174
20
202.9553307810
30
0.0000000000
10
146.5956472423
20
202.6528709990
30
0.0000000000
10
146.8195047263
20
202.2439974732
30
0.0000000000
10
147.0919958196
20
201.7126811935
30
0.0000000000
10
147.3994378355
20
201.0496498130
30
0.0000000000
10
147.7086009756
20
200.2688263888
30
0.0000000000
10
147.9719829047
20
199.4219750991
30
0.0000000000
10
148.1579137815
20
198.5488220524
30
0.0000000000
10
148.2516945974
20
197.6740867027
30
0.0000000000
10
148.2501627933
20
196.7995912040
30
0.0000000000
10
148.1531433520
20
195.9236291966
30
0.0000000000
10
147.9638422202
20
195.0493427987
30
0.0000000000
10
147.6978740250
20
194.2033600506
30
0.0000000000
10
147.3882171887
20
193.4268044628
30
0.0000000000
10
147.0827505301
20
192.7708226217
30
0.0000000000
10
146.8133443135
20
192.2466747905
30
0.0000000000
10
146.5921631317
20
191.8431061338
30
0.0000000000
10
146.4206156878
20
191.5437499629
30
0.0000000000
10
146.3099411703
20
191.3561137404
30
0.0000000000
10
146.2594538146
20
191.2716899338
30
0.0000000000
10
146.2470828026
20
191.2510715571
30
0.0000000000
11
146.2470828026
21
203.2510715571
31
0.0000000000
11
146.2846080954
21
203.1883185868
31
0.0000000000
11
146.3990615733
21
202.9941998104
31
0.0000000000
11
146.5785933267
21
202.6805916783
31
0.0000000000
11
146.7988226269
21
202.2779612861
31
0.0000000000
11
147.0622319567
21
201.7634417838
31
0.0000000000
11
147.3784899423
21
201.0788567290
31
0.0000000000
11
147.6932270355
21
200.2790161546
31
0.0000000000
11
147.9595274959
21
199.4152279661
31
0.0000000000
11
148.1438388027
21
198.5404758082
31
0.0000000000
11
148.2361566489
21
197.6693272699
31
0.0000000000
11
148.2346603736
21
196.8050747176
31
0.0000000000
11
148.1391066662
21
195.9322550315
31
0.0000000000
11
147.9512682395
21
195.0554989060
31
0.0000000000
11
147.6820933508
21
194.1918160415
31
0.0000000000
11
147.3667119628
21
193.3960765826
31
0.0000000000
11
147.0528841013
21
192.7197042403
31
0.0000000000
11
146.7933784794
21
192.2139567649
31
0.0000000000
11
146.5755068478
21
191.8160571642
31
0.0000000000
11
146.3973687028
21
191.5050409403
31
0.0000000000
11
146.2841053345
21
191.3129809524
31
0.0000000000
11
146.2470828026
21
191.2510715571
31
0.0000000000
0
SPLINE
5
30F
100
AcDbEntity
8
0
100
AcDbSpline
62
7
6
CONTINUOUS
70
0
71
3
72
24
73
20
74
18
42
0.0000001000
43
0.0000001000
44
0.0000000001
12
-7.2275188534
22
4.8183230941
32
0.0000000000
13
-7.2275188278
23
-4.8183230673
33
0.0000000000
40
0.0000000000
40
0.0000000000
40
0.0000000000
40
0.0000000000
40
0.0084191198
40
0.0347708063
40
0.0790552404
40
0.1409022433
40
0.2175446139
40
0.3002737002
40
0.3819800409
40
0.4610847347
40
0.5383915526
40
0.6176517690
40
0.6995390572
40
0.7823838646
40
0.8590416614
40
0.9209020346
40
0.9652116048
40
0.9915849445
40
1.0000000000
40
1.0000000000
40
1.0000000000
40
1.0000000000
10
160.2470828026
20
191.2510715571
30
0.0000000000
10
160.2267996869
20
191.2645935703
30
0.0000000000
10
160.1429218664
20
191.3202762759
30
0.0000000000
10
159.9511696844
20
191.4452959702
30
0.0000000000
10
159.6260077093
20
191.6488826965
30
0.0000000000
10
159.1685440080
20
191.9152429417
30
0.0000000000
10
158.5985698903
20
192.2084719917
30
0.0000000000
10
157.9536226963
20
192.4781833869
30
0.0000000000
10
157.2756157172
20
192.6783888911
30
0.0000000000
10
156.5916521965
20
192.7828860187
30
0.0000000000
10
155.9066246222
20
192.7832419824
30
0.0000000000
10
155.2215955116
20
192.6791517195
30
0.0000000000
10
154.5422384260
20
192.4788446153
30
0.0000000000
10
153.8964156008
20
192.2088722687
30
0.0000000000
10
153.3260530824
20
191.9154824654
30
0.0000000000
10
152.8684455407
20
191.6490585343
30
0.0000000000
10
152.5431325387
20
191.4453846604
30
0.0000000000
10
152.3512763242
20
191.3202979941
30
0.0000000000
10
152.2673561266
20
191.2645870424
30
0.0000000000
10
152.2470828026
20
191.2510715571
30
0.0000000000
11
160.2470828026
21
191.2510715571
31
0.0000000000
11
160.1861537104
21
191.2915179147
31
0.0000000000
11
159.9943830926
21
191.4164970685
31
0.0000000000
11
159.6682159233
21
191.6204275593
31
0.0000000000
11
159.2035417212
21
191.8900409345
31
0.0000000000
11
158.6106129629
21
192.1927838213
31
0.0000000000
11
157.9463623556
21
192.4669780172
31
0.0000000000
11
157.2647025732
21
192.6646186796
31
0.0000000000
11
156.5851146484
21
192.7661785228
31
0.0000000000
11
155.9135970583
21
192.7665188769
31
0.0000000000
11
155.2325907365
21
192.6653116253
31
0.0000000000
11
154.5493374786
21
192.4675227505
31
0.0000000000
11
153.8841156792
21
192.1930468808
31
0.0000000000
11
153.2910506284
21
191.8902762602
31
0.0000000000
11
152.8262668750
21
191.6206202776
31
0.0000000000
11
152.4999110704
21
191.4165796348
31
0.0000000000
11
152.3079824423
21
191.2914984475
31
0.0000000000
11
152.2470828026
21
191.2510715571
31
0.0000000000
0
ENDSEC
0
SECTION
2
OBJECTS
0
DICTIONARY
5
C
100
AcDbDictionary
280
0
281
1
3
ACAD_GROUP
350
D
3
ACAD_MLINESTYLE
350
17
3
ACAD_LAYOUT
350
1A
3
ACAD_PLOTSETTINGS
350
19
3
ACAD_PLOTSTYLENAME
350
E
0
DICTIONARY
5
D
102
{ACAD_REACTORS
330
C
102
}
100
AcDbDictionary
280
0
281
1
0
ACDBDICTIONARYWDFLT
5
E
102
{ACAD_REACTORS
330
C
102
}
100
AcDbDictionary
281
1
3
Normal
350
F
100
AcDbDictionaryWithDefault
340
F
0
DICTIONARY
5
17
102
{ACAD_REACTORS
330
C
102
}
100
AcDbDictionary
280
0
281
1
3
Standard
350
18
0
DICTIONARY
5
19
102
{ACAD_REACTORS
330
C
102
}
100
AcDbDictionary
281
1
0
DICTIONARY
5
1A
102
{ACAD_REACTORS
330
C
102
}
100
AcDbDictionary
281
1
3
Layout1
350
1E
3
Model
350
22
0
ACDBPLACEHOLDER
5
F
102
{ACAD_REACTORS
330
E
102
}
0
MLINESTYLE
5
18
102
{ACAD_REACTORS
330
17
102
}
100
AcDbMlineStyle
2
STANDARD
70
0
3

62
256
51
90.0
52
90.0
71
2
49
0.5
62
256
6
BYLAYER
49
-0.5
62
256
6
BYLAYER
0
LAYOUT
5
1E
102
{ACAD_REACTORS
330
1A
102
}
100
AcDbPlotSettings
1

2

4

6

40
0.0
41
0.0
42
0.0
43
0.0
44
0.0
45
0.0
46
0.0
47
0.0
48
0.0
49
0.0
140
0.0
141
0.0
142
1.0
143
1.0
70
0
72
0
73
0
74
0
7

75
0
147
1.0
148
0.0
149
0.0
100
AcDbLayout
1
Layout1
70
0
71
0
10
0.0
20
0.0
11
0.0
21
0.0
12
0.0
22
0.0
32
0.0
14
0.0
24
0.0
34
0.0
15
0.0
25
0.0
35
0.0
146
0.0
13
0.0
23
0.0
33
0.0
16
0.0
26
0.0
36
0.0
17
0.0
27
0.0
37
0.0
76
0
330
1B
331
0
345
0
346
0
0
LAYOUT
5
22
102
{ACAD_REACTORS
330
1A
102
}
100
AcDbPlotSettings
1

2

4

6

40
0.0
41
0.0
42
0.0
43
0.0
44
0.0
45
0.0
46
0.0
47
0.0
48
0.0
49
0.0
140
0.0
141
0.0
142
1.0
143
1.0
70
0
72
0
73
0
74
0
7

75
0
147
1.0
148
0.0
149
0.0
100
AcDbLayout
1
Model
70
0
71
0
10
0.0
20
0.0
11
0.0
21
0.0
12
0.0
22
0.0
32
0.0
14
0.0
24
0.0
34
0.0
15
0.0
25
0.0
35
0.0
146
0.0
13
0.0
23
0.0
33
0.0
16
0.0
26
0.0
36
0.0
17
0.0
27
0.0
37
0.0
76
0
330
1F
331
0
345
0
346
0
0
ENDSEC
0
EOF
