0
SECTION
2
HEADER
9
$EXTMAX
10
210.0000000000
20
297.0000000000
30
0.0000000000
9
$EXTMIN
10
0.0000000000
20
0.0000000000
30
0.0000000000
9
$LIMMIN
10
0.0000000000
20
0.0000000000
9
$LIMMAX
10
210.0000000000
20
297.0000000000
9
$VIEWCTR
10
105.0000000000
20
148.5000000000
9
$VIEWSIZE
40
297.0000000000
9
$CLAYER
8
0
9
$LTSCALE
40
19.3600000000
9
$CELTYPE
6
BYLAYER
9
$DIMSCALE
40
1
9
$DIMASZ
40
3.5000000000
9
$DIMEXO
40
2.2000000000
9
$DIMDLI
40
13.3760000000
9
$DIMEXE
40
6.3360000000
9
$DIMCEN
40
3.1680000000
9
$DIMLFAC
40
1.0000000000
9
$DIMBLK
1
_FILLED
9
$DIMTXT
40
3.5000000000
9
$PDMODE
70
3
9
$PDSIZE
40
0.3125000000
0
ENDSEC
0
SECTION
2
TABLES
0
TABLE
2
LTYPE
70
6
0
LTYPE
2
BYBLOCK
70
0
3

72
65
73
0
40
0.0
0
LTYPE
2
BYLAYER
70
0
3

72
65
73
0
40
0.0
0
LTYPE
2
CONTINUOUS
70
64
3
Solid line
72
65
73
0
40
0
0
LTYPE
2
CENTER
70
64
3
____ _ ____ _ ____ _ ____ _ ____ _ ____ _ ____
72
65
73
4
40
0.6
49
0.375
49
-0.075
49
0.075
49
-0.075
0
LTYPE
2
HIDDEN
70
64
3
- - - - - - - - - - - - - - - - - - - -
72
65
73
2
40
0.2
49
0.1
49
-0.1
0
LTYPE
2
PHANTOM
70
64
3
_____ _ _ _____ _ _ _____ _ _ _____
72
65
73
6
40
0.8
49
0.45
49
-0.05
49
0.1
49
-0.05
49
0.1
49
-0.05
0
LTYPE
2
DOT
70
64
3
. . . . . . . . . . . . . . . . . . . .
72
65
73
2
40
0.2
49
0.1
49
-0.1
0
LTYPE
2
DASHED
70
64
3
- - - - - - - - - - - - - - - - - - - -
72
65
73
2
40
0.2
49
0.1
49
-0.1
0
ENDTAB
0
TABLE
2
LAYER
70
36
0
LAYER
2
0
70
0
62
7
6
CONTINUOUS
0
LAYER
2
DEFAULT_1
70
0
62
7
6
CENTER
0
LAYER
2
DEFAULT_2
70
0
62
8
6
HIDDEN
0
LAYER
2
DEFAULT_3
70
0
62
7
6
PHANTOM
0
LAYER
2
ASSI
70
0
62
7
6
CONTINUOUS
0
LAYER
2
PIANI
70
0
62
7
6
CONTINUOUS
0
ENDTAB
0
TABLE
2
STYLE
70
1
0
STYLE
2
STANDARD
70
0
40
0.0
41
0.7143000000
50
0.0
71
0
42
0.2
3
txt
4

0
ENDTAB
0
ENDSEC
0
SECTION
2
BLOCKS
0
BLOCK
8
0
62
2
6
CONTINUOUS
2
*D0
70
65
10
0.0000000000
20
0.0000000000
0
TEXT
8
0
62
2
6
CONTINUOUS
10
91.4925552827
20
32.3663395387
7
STANDARD
40
3.5000000000
1
%%c
41
1.3333333333
72
0
0
TEXT
8
0
62
2
6
CONTINUOUS
10
96.1592219493
20
32.3663395387
7
STANDARD
40
3.5000000000
1
20.5
41
0.7143000000
72
0
0
LINE
8
0
62
2
6
CONTINUOUS
10
88.2193877551
20
44.8520408163
11
88.2193877551
21
29.9913395387
0
LINE
8
0
62
2
6
CONTINUOUS
10
108.7193877551
20
44.8520408163
11
108.7193877551
21
29.9913395387
0
LINE
8
0
62
2
6
CONTINUOUS
10
88.2193877551
20
31.4913395387
11
98.4693877551
21
31.4913395387
0
LINE
8
0
62
2
6
CONTINUOUS
10
108.7193877551
20
31.4913395387
11
98.4693877551
21
31.4913395387
0
INSERT
8
0
62
2
6
CONTINUOUS
2
_FILLED
10
88.2193877551
20
31.4913395387
41
  3.500000
42
  3.500000
43
  3.500000
50
180.000000
0
INSERT
8
0
62
2
6
CONTINUOUS
2
_FILLED
10
108.7193877551
20
31.4913395387
41
  3.500000
42
  3.500000
43
  3.500000
0
ENDBLK
8
0
6
BYBLOCK
62
0
0
BLOCK
8
0
62
2
6
CONTINUOUS
2
*D1
70
65
10
0.0000000000
20
0.0000000000
0
TEXT
8
0
62
2
6
CONTINUOUS
10
141.6249049529
20
84.2411635235
7
STANDARD
40
3.5000000000
1
76
50
90.0000000000
41
0.7143000000
72
0
0
LINE
8
0
62
2
6
CONTINUOUS
10
128.9693877551
20
125.6020408163
11
143.9999049529
21
125.6020408163
0
LINE
8
0
62
2
6
CONTINUOUS
10
128.9693877551
20
49.6020408163
11
143.9999049529
21
49.6020408163
0
LINE
8
0
62
2
6
CONTINUOUS
10
142.4999049529
20
125.6020408163
11
142.4999049529
21
87.6020408163
0
LINE
8
0
62
2
6
CONTINUOUS
10
142.4999049529
20
49.6020408163
11
142.4999049529
21
87.6020408163
0
INSERT
8
0
62
2
6
CONTINUOUS
2
_FILLED
10
142.4999049529
20
125.6020408163
41
  3.500000
42
  3.500000
43
  3.500000
50
 90.000000
0
INSERT
8
0
62
2
6
CONTINUOUS
2
_FILLED
10
142.4999049529
20
49.6020408163
41
  3.500000
42
  3.500000
43
  3.500000
50
270.000000
0
ENDBLK
8
0
6
BYBLOCK
62
0
0
BLOCK
8
0
62
2
6
CONTINUOUS
2
*D2
70
65
10
0.0000000000
20
0.0000000000
0
TEXT
8
0
62
2
6
CONTINUOUS
10
156.8602621191
20
81.5031756489
7
STANDARD
40
3.5000000000
1
84.5
50
90.0000000000
41
0.7143000000
72
0
0
LINE
8
0
62
2
6
CONTINUOUS
10
110.7193877551
20
45.3520408163
11
159.2352621191
21
45.3520408163
0
LINE
8
0
62
2
6
CONTINUOUS
10
110.7193877551
20
129.8520408163
11
159.2352621191
21
129.8520408163
0
LINE
8
0
62
2
6
CONTINUOUS
10
157.7352621191
20
45.3520408163
11
157.7352621191
21
87.6020408163
0
LINE
8
0
62
2
6
CONTINUOUS
10
157.7352621191
20
129.8520408163
11
157.7352621191
21
87.6020408163
0
INSERT
8
0
62
2
6
CONTINUOUS
2
_FILLED
10
157.7352621191
20
45.3520408163
41
  3.500000
42
  3.500000
43
  3.500000
50
270.000000
0
INSERT
8
0
62
2
6
CONTINUOUS
2
_FILLED
10
157.7352621191
20
129.8520408163
41
  3.500000
42
  3.500000
43
  3.500000
50
 90.000000
0
ENDBLK
8
0
6
BYBLOCK
62
0
0
BLOCK
8
0
62
2
6
CONTINUOUS
2
*D3
70
65
10
0.0000000000
20
0.0000000000
0
TEXT
8
0
62
2
6
CONTINUOUS
10
93.7846098684
20
152.5433588687
7
STANDARD
40
3.5000000000
1
%%c
41
1.3333333333
72
0
0
TEXT
8
0
62
2
6
CONTINUOUS
10
98.4512765350
20
152.5433588687
7
STANDARD
40
3.5000000000
1
60
41
0.7143000000
72
0
0
LINE
8
0
62
2
6
CONTINUOUS
10
68.4693877551
20
126.1020408163
11
68.4693877551
21
153.1683588687
0
LINE
8
0
62
2
6
CONTINUOUS
10
128.4693877551
20
126.1020408163
11
128.4693877551
21
153.1683588687
0
LINE
8
0
62
2
6
CONTINUOUS
10
68.4693877551
20
151.6683588687
11
98.4693877551
21
151.6683588687
0
LINE
8
0
62
2
6
CONTINUOUS
10
128.4693877551
20
151.6683588687
11
98.4693877551
21
151.6683588687
0
INSERT
8
0
62
2
6
CONTINUOUS
2
_FILLED
10
68.4693877551
20
151.6683588687
41
  3.500000
42
  3.500000
43
  3.500000
50
180.000000
0
INSERT
8
0
62
2
6
CONTINUOUS
2
_FILLED
10
128.4693877551
20
151.6683588687
41
  3.500000
42
  3.500000
43
  3.500000
0
ENDBLK
8
0
6
BYBLOCK
62
0
0
BLOCK
8
0
62
2
6
CONTINUOUS
2
*D4
70
65
10
0.0000000000
20
0.0000000000
0
TEXT
8
0
62
2
6
CONTINUOUS
10
90.9753820022
20
141.5111630681
7
STANDARD
40
3.5000000000
1
%%c
41
1.3333333333
72
0
0
TEXT
8
0
62
2
6
CONTINUOUS
10
95.6420486689
20
141.5111630681
7
STANDARD
40
3.5000000000
1
23.5
41
0.7143000000
72
0
0
LINE
8
0
62
2
6
CONTINUOUS
10
86.7193877551
20
130.3520408163
11
86.7193877551
21
142.1361630681
0
LINE
8
0
62
2
6
CONTINUOUS
10
110.2193877551
20
130.3520408163
11
110.2193877551
21
142.1361630681
0
LINE
8
0
62
2
6
CONTINUOUS
10
86.7193877551
20
140.6361630681
11
98.4693877551
21
140.6361630681
0
LINE
8
0
62
2
6
CONTINUOUS
10
110.2193877551
20
140.6361630681
11
98.4693877551
21
140.6361630681
0
INSERT
8
0
62
2
6
CONTINUOUS
2
_FILLED
10
86.7193877551
20
140.6361630681
41
  3.500000
42
  3.500000
43
  3.500000
50
180.000000
0
INSERT
8
0
62
2
6
CONTINUOUS
2
_FILLED
10
110.2193877551
20
140.6361630681
41
  3.500000
42
  3.500000
43
  3.500000
0
ENDBLK
8
0
6
BYBLOCK
62
0
0
BLOCK
8
0
2
_FILLED
70
64
10
0.0000000000
20
0.0000000000
0
SOLID
8
0
6
BYBLOCK
62
0
10
0.0000000000
20
0.0000000000
11
-1.0000000000
21
0.1857142857
12
-1.0000000000
22
-0.1857142857
13
-1.0000000000
23
-0.1857142857
0
ENDBLK
8
0
6
BYBLOCK
62
0
0
ENDSEC
0
SECTION
2
ENTITIES
0
TEXT
8
0
62
7
6
CONTINUOUS
10
46.5204350011
20
241.9928571429
7
STANDARD
40
3.5000000000
1
A
41
0.7143000000
72
0
0
LINE
8
0
62
7
6
CONTINUOUS
10
50.2705100011
20
229.6428571429
11
50.2705100011
21
247.2428571429
0
SOLID
8
0
62
7
6
CONTINUOUS
10
49.2705100011
20
236.6428571429
11
50.2705100011
21
229.6428571429
12
51.2705100011
22
236.6428571429
13
51.2705100011
23
236.6428571429
0
TEXT
8
0
62
7
6
CONTINUOUS
10
147.9182905091
20
241.9928571429
7
STANDARD
40
3.5000000000
1
A
41
0.7143000000
72
0
0
LINE
8
0
62
7
6
CONTINUOUS
10
146.6682655091
20
229.6428571429
11
146.6682655091
21
247.2428571429
0
SOLID
8
0
62
7
6
CONTINUOUS
10
145.6682655091
20
236.6428571429
11
146.6682655091
21
229.6428571429
12
147.6682655091
22
236.6428571429
13
147.6682655091
23
236.6428571429
0
DIMENSION
8
0
62
2
6
CONTINUOUS
2
*D0
10
108.7193877551
20
31.4913395387
11
98.8259886160
21
34.1163395387
70
128
13
88.2193877551
23
44.8520408163
14
108.7193877551
24
44.8520408163
0
DIMENSION
8
0
62
2
6
CONTINUOUS
2
*D1
10
142.4999049529
20
49.6020408163
11
139.8749049529
21
86.7412135235
70
128
13
128.9693877551
23
125.6020408163
14
128.9693877551
24
49.6020408163
50
270.000000
0
DIMENSION
8
0
62
2
6
CONTINUOUS
2
*D2
10
157.7352621191
20
129.8520408163
11
155.1102621191
21
86.5032756489
70
128
13
110.7193877551
23
45.3520408163
14
110.7193877551
24
129.8520408163
50
90.000000
0
DIMENSION
8
0
62
2
6
CONTINUOUS
2
*D3
10
128.4693877551
20
151.6683588687
11
98.6179932017
21
154.2933588687
70
128
13
68.4693877551
23
126.1020408163
14
128.4693877551
24
126.1020408163
0
DIMENSION
8
0
62
2
6
CONTINUOUS
2
*D4
10
110.2193877551
20
140.6361630681
11
98.3088153356
21
143.2611630681
70
128
13
86.7193877551
23
130.3520408163
14
110.2193877551
24
130.3520408163
0
TEXT
8
0
62
2
6
CONTINUOUS
10
84.3010151494
20
18.1721505349
7
STANDARD
40
3.5000000000
1
SEZIONE 
41
0.7143000000
72
0
0
TEXT
8
0
62
2
6
CONTINUOUS
10
104.3014151494
20
18.1721505349
7
STANDARD
40
3.5000000000
1
A-A
41
0.7143000000
72
0
0
LINE
8
0
62
7
6
CONTINUOUS
10
0.0000000000
20
0.0000000000
11
210.0000000000
21
0.0000000000
0
LINE
8
0
62
7
6
CONTINUOUS
10
0.0000000000
20
0.0000000000
11
0.0000000000
21
297.0000000000
0
LINE
8
0
62
7
6
CONTINUOUS
10
210.0000000000
20
0.0000000000
11
210.0000000000
21
297.0000000000
0
LINE
8
0
62
7
6
CONTINUOUS
10
0.0000000000
20
297.0000000000
11
210.0000000000
21
297.0000000000
0
LINE
8
0
62
2
6
CONTINUOUS
10
68.8408857673
20
125.6020408163
11
68.4693877551
21
125.2305428041
0
LINE
8
0
62
2
6
CONTINUOUS
10
71.6693128920
20
125.6020408163
11
68.4693877551
21
122.4021156794
0
LINE
8
0
62
2
6
CONTINUOUS
10
74.4977400168
20
125.6020408163
11
68.4693877551
21
119.5736885547
0
LINE
8
0
62
2
6
CONTINUOUS
10
77.3261671415
20
125.6020408163
11
68.4693877551
21
116.7452614299
0
LINE
8
0
62
7
6
CONTINUOUS
10
86.7193877551
20
45.3520408163
11
110.2193877551
21
45.3520408163
0
LINE
8
0
62
2
6
CONTINUOUS
10
80.1545942663
20
125.6020408163
11
68.4693877551
21
113.9168343052
0
LINE
8
0
62
2
6
CONTINUOUS
10
87.2330213910
20
129.8520408163
11
86.7193877551
21
129.3384071804
0
LINE
8
0
62
2
6
CONTINUOUS
10
82.9830213910
20
125.6020408163
11
68.4693877551
21
111.0884071804
0
LINE
8
0
62
7
6
CONTINUOUS
10
128.4693877551
20
49.6020408163
11
110.2193877551
21
49.6020408163
0
LINE
8
0
62
7
6
CONTINUOUS
10
86.7193877551
20
49.6020408163
11
68.4693877551
21
49.6020408163
0
LINE
8
0
62
2
6
CONTINUOUS
10
88.2193877551
20
128.0099800557
11
86.7193877551
21
126.5099800557
0
LINE
8
0
62
2
6
CONTINUOUS
10
85.8114485158
20
125.6020408163
11
68.4693877551
21
108.2599800557
0
LINE
8
0
62
2
6
CONTINUOUS
10
88.2193877551
20
125.1815529309
11
68.4693877551
21
105.4315529309
0
LINE
8
0
62
2
6
CONTINUOUS
10
88.2193877551
20
122.3531258062
11
68.4693877551
21
102.6031258062
0
LINE
8
0
62
7
6
CONTINUOUS
10
68.4693877551
20
125.6020408163
11
68.4693877551
21
49.6020408163
0
LINE
8
0
62
2
6
CONTINUOUS
10
88.2193877551
20
119.5246986814
11
68.4693877551
21
99.7746986814
0
LINE
8
0
62
2
6
CONTINUOUS
10
88.2193877551
20
116.6962715567
11
68.4693877551
21
96.9462715567
0
LINE
8
0
62
2
6
CONTINUOUS
10
88.2193877551
20
113.8678444319
11
68.4693877551
21
94.1178444319
0
LINE
8
0
62
2
6
CONTINUOUS
10
88.2193877551
20
111.0394173072
11
68.4693877551
21
91.2894173072
0
LINE
8
0
62
2
6
CONTINUOUS
10
109.8604383890
20
129.8520408163
11
108.7193877551
21
128.7109901824
0
LINE
8
0
62
2
6
CONTINUOUS
10
88.2193877551
20
108.2109901824
11
68.4693877551
21
88.4609901824
0
LINE
8
0
62
2
6
CONTINUOUS
10
110.2193877551
20
127.3825630577
11
108.7193877551
21
125.8825630577
0
LINE
8
0
62
2
6
CONTINUOUS
10
88.2193877551
20
105.3825630577
11
68.4693877551
21
85.6325630577
0
LINE
8
0
62
2
6
CONTINUOUS
10
111.2672926385
20
125.6020408163
11
108.7193877551
21
123.0541359330
0
LINE
8
0
62
2
6
CONTINUOUS
10
88.2193877551
20
102.5541359330
11
68.4693877551
21
82.8041359330
0
LINE
8
0
62
2
6
CONTINUOUS
10
114.0957197632
20
125.6020408163
11
108.7193877551
21
120.2257088082
0
LINE
8
0
62
2
6
CONTINUOUS
10
88.2193877551
20
99.7257088082
11
68.4693877551
21
79.9757088082
0
LINE
8
0
62
2
6
CONTINUOUS
10
116.9241468880
20
125.6020408163
11
108.7193877551
21
117.3972816835
0
LINE
8
0
62
2
6
CONTINUOUS
10
88.2193877551
20
96.8972816835
11
68.4693877551
21
77.1472816835
0
LINE
8
0
62
7
6
CONTINUOUS
10
86.7193877551
20
129.8520408163
11
86.7193877551
21
125.6020408163
0
LINE
8
0
62
7
6
CONTINUOUS
10
86.7193877551
20
49.6020408163
11
86.7193877551
21
45.3520408163
0
LINE
8
0
62
7
6
CONTINUOUS
10
88.2193877551
20
129.8520408163
11
88.2193877551
21
45.3520408163
0
LINE
8
0
62
2
6
CONTINUOUS
10
119.7525740127
20
125.6020408163
11
108.7193877551
21
114.5688545587
0
LINE
8
0
62
2
6
CONTINUOUS
10
88.2193877551
20
94.0688545587
11
68.4693877551
21
74.3188545587
0
LINE
8
0
62
2
6
CONTINUOUS
10
122.5810011375
20
125.6020408163
11
108.7193877551
21
111.7404274340
0
LINE
8
0
62
2
6
CONTINUOUS
10
88.2193877551
20
91.2404274340
11
68.4693877551
21
71.4904274340
0
LINE
8
0
62
2
6
CONTINUOUS
10
125.4094282622
20
125.6020408163
11
108.7193877551
21
108.9120003092
0
LINE
8
0
62
2
6
CONTINUOUS
10
88.2193877551
20
88.4120003092
11
68.4693877551
21
68.6620003092
0
LINE
8
0
62
2
6
CONTINUOUS
10
128.2378553870
20
125.6020408163
11
108.7193877551
21
106.0835731845
0
LINE
8
0
62
2
6
CONTINUOUS
10
88.2193877551
20
85.5835731845
11
68.4693877551
21
65.8335731845
0
LINE
8
0
62
2
6
CONTINUOUS
10
128.4693877551
20
123.0051460597
11
108.7193877551
21
103.2551460597
0
LINE
8
0
62
2
6
CONTINUOUS
10
88.2193877551
20
82.7551460597
11
68.4693877551
21
63.0051460597
0
LINE
8
DEFAULT_1
62
2
6
CENTER
10
98.4693877551
20
42.3520408163
11
98.4693877551
21
132.8520408163
0
LINE
8
0
62
2
6
CONTINUOUS
10
128.4693877551
20
120.1767189350
11
108.7193877551
21
100.4267189350
0
LINE
8
0
62
2
6
CONTINUOUS
10
88.2193877551
20
79.9267189350
11
68.4693877551
21
60.1767189350
0
LINE
8
0
62
2
6
CONTINUOUS
10
128.4693877551
20
117.3482918102
11
108.7193877551
21
97.5982918102
0
LINE
8
0
62
2
6
CONTINUOUS
10
88.2193877551
20
77.0982918102
11
68.4693877551
21
57.3482918102
0
LINE
8
0
62
2
6
CONTINUOUS
10
128.4693877551
20
114.5198646855
11
108.7193877551
21
94.7698646855
0
LINE
8
0
62
2
6
CONTINUOUS
10
88.2193877551
20
74.2698646855
11
68.4693877551
21
54.5198646855
0
LINE
8
0
62
2
6
CONTINUOUS
10
128.4693877551
20
111.6914375607
11
108.7193877551
21
91.9414375607
0
LINE
8
0
62
2
6
CONTINUOUS
10
88.2193877551
20
71.4414375607
11
68.4693877551
21
51.6914375607
0
LINE
8
0
62
2
6
CONTINUOUS
10
128.4693877551
20
108.8630104360
11
108.7193877551
21
89.1130104360
0
LINE
8
0
62
2
6
CONTINUOUS
10
88.2193877551
20
68.6130104360
11
69.2084181354
21
49.6020408163
0
LINE
8
0
62
7
6
CONTINUOUS
10
108.7193877551
20
129.8520408163
11
108.7193877551
21
45.3520408163
0
LINE
8
0
62
2
6
CONTINUOUS
10
128.4693877551
20
106.0345833113
11
108.7193877551
21
86.2845833113
0
LINE
8
0
62
2
6
CONTINUOUS
10
88.2193877551
20
65.7845833113
11
72.0368452602
21
49.6020408163
0
LINE
8
0
62
2
6
CONTINUOUS
10
128.4693877551
20
103.2061561865
11
108.7193877551
21
83.4561561865
0
LINE
8
0
62
2
6
CONTINUOUS
10
88.2193877551
20
62.9561561865
11
74.8652723849
21
49.6020408163
0
LINE
8
0
62
7
6
CONTINUOUS
10
110.2193877551
20
129.8520408163
11
110.2193877551
21
125.6020408163
0
LINE
8
0
62
7
6
CONTINUOUS
10
110.2193877551
20
49.6020408163
11
110.2193877551
21
45.3520408163
0
LINE
8
0
62
2
6
CONTINUOUS
10
128.4693877551
20
100.3777290618
11
108.7193877551
21
80.6277290618
0
LINE
8
0
62
2
6
CONTINUOUS
10
88.2193877551
20
60.1277290618
11
77.6936995097
21
49.6020408163
0
LINE
8
0
62
2
6
CONTINUOUS
10
128.4693877551
20
97.5493019370
11
108.7193877551
21
77.7993019370
0
LINE
8
0
62
2
6
CONTINUOUS
10
88.2193877551
20
57.2993019370
11
80.5221266344
21
49.6020408163
0
LINE
8
0
62
2
6
CONTINUOUS
10
128.4693877551
20
94.7208748123
11
108.7193877551
21
74.9708748123
0
LINE
8
0
62
2
6
CONTINUOUS
10
88.2193877551
20
54.4708748123
11
83.3505537592
21
49.6020408163
0
LINE
8
0
62
2
6
CONTINUOUS
10
128.4693877551
20
91.8924476875
11
108.7193877551
21
72.1424476875
0
LINE
8
0
62
2
6
CONTINUOUS
10
88.2193877551
20
51.6424476875
11
86.1789808839
21
49.6020408163
0
LINE
8
0
62
2
6
CONTINUOUS
10
128.4693877551
20
89.0640205628
11
108.7193877551
21
69.3140205628
0
LINE
8
0
62
2
6
CONTINUOUS
10
88.2193877551
20
48.8140205628
11
86.7193877551
21
47.3140205628
0
LINE
8
0
62
2
6
CONTINUOUS
10
128.4693877551
20
86.2355934380
11
108.7193877551
21
66.4855934380
0
LINE
8
0
62
2
6
CONTINUOUS
10
88.2193877551
20
45.9855934380
11
87.5858351334
21
45.3520408163
0
LINE
8
0
62
2
6
CONTINUOUS
10
128.4693877551
20
83.4071663133
11
108.7193877551
21
63.6571663133
0
LINE
8
0
62
2
6
CONTINUOUS
10
128.4693877551
20
80.5787391885
11
108.7193877551
21
60.8287391885
0
LINE
8
0
62
7
6
CONTINUOUS
10
128.4693877551
20
125.6020408163
11
128.4693877551
21
49.6020408163
0
LINE
8
0
62
2
6
CONTINUOUS
10
128.4693877551
20
77.7503120638
11
108.7193877551
21
58.0003120638
0
LINE
8
0
62
2
6
CONTINUOUS
10
128.4693877551
20
74.9218849390
11
108.7193877551
21
55.1718849390
0
LINE
8
0
62
2
6
CONTINUOUS
10
128.4693877551
20
72.0934578143
11
108.7193877551
21
52.3434578143
0
LINE
8
0
62
2
6
CONTINUOUS
10
128.4693877551
20
69.2650306895
11
108.7193877551
21
49.5150306895
0
LINE
8
0
62
2
6
CONTINUOUS
10
128.4693877551
20
66.4366035648
11
111.6348250066
21
49.6020408163
0
LINE
8
0
62
2
6
CONTINUOUS
10
110.2193877551
20
48.1866035648
11
108.7193877551
21
46.6866035648
0
LINE
8
0
62
2
6
CONTINUOUS
10
128.4693877551
20
63.6081764401
11
114.4632521314
21
49.6020408163
0
LINE
8
0
62
2
6
CONTINUOUS
10
110.2193877551
20
45.3581764401
11
110.2132521314
21
45.3520408163
0
LINE
8
0
62
7
6
CONTINUOUS
10
128.4693877551
20
125.6020408163
11
110.2193877551
21
125.6020408163
0
LINE
8
0
62
7
6
CONTINUOUS
10
86.7193877551
20
125.6020408163
11
68.4693877551
21
125.6020408163
0
LINE
8
0
62
2
6
CONTINUOUS
10
128.4693877551
20
60.7797493153
11
117.2916792561
21
49.6020408163
0
LINE
8
0
62
2
6
CONTINUOUS
10
128.4693877551
20
57.9513221906
11
120.1201063809
21
49.6020408163
0
LINE
8
0
62
2
6
CONTINUOUS
10
128.4693877551
20
55.1228950658
11
122.9485335056
21
49.6020408163
0
LINE
8
0
62
7
6
CONTINUOUS
10
86.7193877551
20
129.8520408163
11
110.2193877551
21
129.8520408163
0
LINE
8
0
62
2
6
CONTINUOUS
10
128.4693877551
20
52.2944679411
11
125.7769606304
21
49.6020408163
0
LINE
8
DEFAULT_1
62
2
6
CENTER
10
98.4693877551
20
229.6428571429
11
98.4693877551
21
192.1057815416
0
LINE
8
DEFAULT_1
62
2
6
CENTER
10
98.4693877551
20
229.6428571429
11
98.4693877551
21
266.8874620143
0
LINE
8
DEFAULT_1
62
2
6
CENTER
10
98.4693877551
20
229.6428571429
11
62.6979962053
21
229.6428571429
0
LINE
8
DEFAULT_1
62
7
6
CENTER
10
50.2705100011
20
229.6428571429
11
55.2705100011
21
229.6428571429
0
LINE
8
DEFAULT_1
62
9
6
CENTER
10
55.2705100011
20
229.6428571429
11
62.6979962053
21
229.6428571429
0
LINE
8
DEFAULT_1
62
9
6
CENTER
10
134.0440711432
20
229.6428571429
11
141.6682655091
21
229.6428571429
0
LINE
8
DEFAULT_1
62
2
6
CENTER
10
98.4693877551
20
229.6428571429
11
134.0440711432
21
229.6428571429
0
LINE
8
DEFAULT_1
62
7
6
CENTER
10
141.6682655091
20
229.6428571429
11
146.6682655091
21
229.6428571429
0
CIRCLE
8
0
62
7
6
CONTINUOUS
10
98.4693877551
20
229.6428571429
40
10.2500000000
0
CIRCLE
8
0
62
7
6
CONTINUOUS
10
98.4693877551
20
229.6428571429
40
11.7500000000
0
CIRCLE
8
0
62
7
6
CONTINUOUS
10
98.4693877551
20
229.6428571429
40
30.0000000000
0
ENDSEC
0
EOF
