999
DXF file: part656-731.dxf
999
Pro/ENGINEER 2005310 by Parametric Technology Corporation
0
SECTION
2
HEADER
9
$ACADVER
1
AC1015
9
$DWGCODEPAGE
3
ANSI_1252
9
$EXTMAX
10
420.0000000000
20
297.0000000000
30
0.0000000000
9
$EXTMIN
10
0.0000000000
20
0.0000000000
30
0.0000000000
9
$LIMMIN
10
0.0000000000
20
0.0000000000
9
$LIMMAX
10
420.0000000000
20
297.0000000000
9
$VIEWCTR
10
210.0000000000
20
148.5000000000
9
$VIEWSIZE
40
297.0000000000
9
$CLAYER
8
0
9
$LTSCALE
40
23.1000000000
9
$CELTYPE
6
BYLAYER
9
$DIMSCALE
40
1
9
$DIMASZ
40
3.5000000000
9
$DIMEXO
40
2.6250000000
9
$DIMDLI
40
15.9600000000
9
$DIMEXE
40
7.5600000000
9
$DIMCEN
40
3.7800000000
9
$DIMLFAC
40
1.0000000000
9
$DIMBLK
1
_FILLED
9
$DIMTXT
40
3.5000000000
9
$DIMTOL
70
1
9
$DIMLIM
70
0
9
$DIMTFAC
40
1.0000000000
9
$DIMTP
40
0.0010000000
9
$DIMTM
40
0.0010000000
9
$PDMODE
70
3
9
$PDSIZE
40
0.3125000000
9
$HANDSEED
5
4A8
9
$MEASUREMENT
70
1
9
$INSUNITS
70
4
0
ENDSEC
0
SECTION
2
CLASSES
0
CLASS
1
ACDBDICTIONARYWDFLT
2
AcDbDictionaryWithDefault
3
AutoCAD 2000
90
0
280
0
281
0
0
CLASS
1
ACDBPLACEHOLDER
2
AcDbPlaceHolder
3
AutoCAD 2000
90
0
280
0
281
0
0
CLASS
1
LAYOUT
2
AcDbLayout
3
AutoCAD 2000
90
0
280
0
281
0
0
ENDSEC
0
SECTION
2
TABLES
0
TABLE
2
VPORT
5
8
100
AcDbSymbolTable
70
2
0
VPORT
5
1F4
100
AcDbSymbolTableRecord
100
AcDbViewportTableRecord
2
*ACTIVE
70
0
10
0.0
20
0.0
11
1.0
21
1.0
12
210.0000000000
22
148.5000000000
13
0.0
23
0.0
14
1.0
24
1.0
15
0.0
25
0.0
16
0.0
26
0.0
36
1.0
17
0.0
27
0.0
37
0.0
40
297.0000000000
41
1.4141414141
42
50.0
43
0.0
44
0.0
50
0.0
51
0.0
71
0
72
100
73
1
74
1
75
0
76
0
77
0
78
0
0
ENDTAB
0
TABLE
2
LTYPE
5
5
100
AcDbSymbolTable
70
6
0
LTYPE
5
14
100
AcDbSymbolTableRecord
100
AcDbLinetypeTableRecord
2
BYBLOCK
70
0
3

72
65
73
0
40
0.0
0
LTYPE
5
15
100
AcDbSymbolTableRecord
100
AcDbLinetypeTableRecord
2
BYLAYER
70
0
3

72
65
73
0
40
0.0
0
LTYPE
5
16
100
AcDbSymbolTableRecord
100
AcDbLinetypeTableRecord
2
CONTINUOUS
70
64
3
Solid line
72
65
73
0
40
0
0
LTYPE
5
1F5
100
AcDbSymbolTableRecord
100
AcDbLinetypeTableRecord
2
CENTER
70
64
3
____ _ ____ _ ____ _ ____ _ ____ _ ____ _ ____
72
65
73
4
40
0.6
49
0.375
74
0
49
-0.075
74
0
49
0.075
74
0
49
-0.075
74
0
0
LTYPE
5
1F6
100
AcDbSymbolTableRecord
100
AcDbLinetypeTableRecord
2
HIDDEN
70
64
3
- - - - - - - - - - - - - - - - - - - -
72
65
73
2
40
0.2
49
0.1
74
0
49
-0.1
74
0
0
LTYPE
5
1F7
100
AcDbSymbolTableRecord
100
AcDbLinetypeTableRecord
2
PHANTOM
70
64
3
_____ _ _ _____ _ _ _____ _ _ _____
72
65
73
6
40
0.8
49
0.45
74
0
49
-0.05
74
0
49
0.1
74
0
49
-0.05
74
0
49
0.1
74
0
49
-0.05
74
0
0
LTYPE
5
1F8
100
AcDbSymbolTableRecord
100
AcDbLinetypeTableRecord
2
DOT
70
64
3
. . . . . . . . . . . . . . . . . . . .
72
65
73
2
40
0.2
49
0.1
74
0
49
-0.1
74
0
0
LTYPE
5
1F9
100
AcDbSymbolTableRecord
100
AcDbLinetypeTableRecord
2
DASHED
70
64
3
- - - - - - - - - - - - - - - - - - - -
72
65
73
2
40
0.2
49
0.1
74
0
49
-0.1
74
0
0
ENDTAB
0
TABLE
2
LAYER
5
2
100
AcDbSymbolTable
70
36
0
LAYER
5
10
100
AcDbSymbolTableRecord
100
AcDbLayerTableRecord
2
0
70
0
62
7
6
CONTINUOUS
370
-3
390
F
0
LAYER
5
1FA
100
AcDbSymbolTableRecord
100
AcDbLayerTableRecord
2
DEFAULT_1
70
0
62
7
6
CENTER
370
-3
390
F
0
LAYER
5
1FB
100
AcDbSymbolTableRecord
100
AcDbLayerTableRecord
2
DEFAULT_2
70
0
62
8
6
HIDDEN
370
-3
390
F
0
LAYER
5
1FC
100
AcDbSymbolTableRecord
100
AcDbLayerTableRecord
2
DEFAULT_3
70
0
62
7
6
PHANTOM
370
-3
390
F
0
LAYER
5
1FD
100
AcDbSymbolTableRecord
100
AcDbLayerTableRecord
2
_2D_DELETED_OBJS
70
0
62
7
6
CONTINUOUS
370
-3
390
F
0
LAYER
5
1FE
100
AcDbSymbolTableRecord
100
AcDbLayerTableRecord
2
_BLACK_HOLE
70
0
62
7
6
CONTINUOUS
370
-3
390
F
0
LAYER
5
1FF
100
AcDbSymbolTableRecord
100
AcDbLayerTableRecord
2
ASSI
70
0
62
7
6
CONTINUOUS
370
-3
390
F
0
LAYER
5
200
100
AcDbSymbolTableRecord
100
AcDbLayerTableRecord
2
PIANI
70
0
62
7
6
CONTINUOUS
370
-3
390
F
0
LAYER
5
201
100
AcDbSymbolTableRecord
100
AcDbLayerTableRecord
2
SURF_FILETTI
70
0
62
7
6
CONTINUOUS
370
-3
390
F
0
ENDTAB
0
TABLE
2
STYLE
5
3
100
AcDbSymbolTable
70
1
0
STYLE
5
11
100
AcDbSymbolTableRecord
100
AcDbTextStyleTableRecord
2
STANDARD
70
0
40
0.0
41
0.7143000000
50
0.0
71
0
42
0.2
3
txt
4

0
ENDTAB
0
TABLE
2
VIEW
5
6
100
AcDbSymbolTable
70
0
0
ENDTAB
0
TABLE
2
UCS
5
7
100
AcDbSymbolTable
70
0
0
ENDTAB
0
TABLE
2
APPID
5
9
100
AcDbSymbolTable
70
1
0
APPID
5
202
100
AcDbSymbolTableRecord
100
AcDbRegAppTableRecord
2
ACAD
70
0
0
ENDTAB
0
TABLE
2
BLOCK_RECORD
5
1
100
AcDbSymbolTable
70
0
0
BLOCK_RECORD
5
1F
100
AcDbSymbolTableRecord
100
AcDbBlockTableRecord
2
*MODEL_SPACE
0
BLOCK_RECORD
5
1B
100
AcDbSymbolTableRecord
100
AcDbBlockTableRecord
2
*PAPER_SPACE
0
BLOCK_RECORD
5
203
100
AcDbSymbolTableRecord
100
AcDbBlockTableRecord
2
_FILLED
0
BLOCK_RECORD
5
204
100
AcDbSymbolTableRecord
100
AcDbBlockTableRecord
2
*D0
0
BLOCK_RECORD
5
205
100
AcDbSymbolTableRecord
100
AcDbBlockTableRecord
2
*D1
0
BLOCK_RECORD
5
206
100
AcDbSymbolTableRecord
100
AcDbBlockTableRecord
2
*D2
0
ENDTAB
0
TABLE
2
DIMSTYLE
5
A
100
AcDbSymbolTable
70
1
100
AcDbDimStyleTable
71
0
0
DIMSTYLE
105
207
100
AcDbSymbolTableRecord
100
AcDbDimStyleTableRecord
2
STANDARD
70
0
3

4

40
1.0
41
3.5000000000
42
0.0625
43
0.38
44
0.18
45
0.0
46
0.0
47
0.0010000000
48
0.0010000000
140
3.5000000000
141
0.09
142
0.0
143
25.4
144
1.0000000000
145
0.0
146
1.0000000000
147
0.09
71
1
72
0
73
0
74
0
75
0
76
0
77
1
78
8
170
0
171
2
172
0
173
0
174
0
175
0
176
0
177
0
178
0
270
2
271
3
272
3
273
2
274
2
275
0
280
0
281
0
282
0
283
1
284
8
285
0
286
0
287
3
288
0
340
11
341
203
342
203
343
203
344
203
0
DIMSTYLE
105
208
100
AcDbSymbolTableRecord
100
AcDbDimStyleTableRecord
2
DIMSTYLE_1
70
0
3

4

40
1.0
41
3.5000000000
42
0.0625
43
0.38
44
0.18
45
0.0
46
0.0
47
0.1000000000
48
0.1000000000
140
3.5000000000
141
0.09
142
0.0
143
25.4
144
1.0000000000
145
0.0
146
1.0000000000
147
0.09
71
0
72
0
73
0
74
0
75
0
76
0
77
1
78
8
170
0
171
2
172
0
173
0
174
0
175
0
176
0
177
0
178
0
270
2
271
3
272
3
273
2
274
2
275
0
280
0
281
0
282
0
283
1
284
8
285
0
286
0
287
3
288
0
340
11
341
203
342
203
343
203
344
203
0
DIMSTYLE
105
209
100
AcDbSymbolTableRecord
100
AcDbDimStyleTableRecord
2
DIMSTYLE_2
70
0
3

4

40
1.0
41
3.5000000000
42
0.0625
43
0.38
44
0.18
45
0.0
46
0.0
47
0.1500000000
48
0.1500000000
140
3.5000000000
141
0.09
142
0.0
143
25.4
144
1.0000000000
145
0.0
146
1.0000000000
147
0.09
71
0
72
0
73
0
74
0
75
0
76
0
77
1
78
8
170
0
171
2
172
0
173
0
174
0
175
0
176
0
177
0
178
0
270
2
271
3
272
3
273
2
274
2
275
0
280
0
281
0
282
0
283
1
284
8
285
0
286
0
287
3
288
0
340
11
341
203
342
203
343
203
344
203
0
ENDTAB
0
ENDSEC
0
SECTION
2
BLOCKS
0
BLOCK
5
20
100
AcDbEntity
8
0
100
AcDbBlockBegin
2
*MODEL_SPACE
70
0
10
0.0
20
0.0
30
0.0
3
*MODEL_SPACE
1

0
ENDBLK
5
21
100
AcDbEntity
8
0
100
AcDbBlockEnd
0
BLOCK
5
1C
100
AcDbEntity
8
0
100
AcDbBlockBegin
2
*PAPER_SPACE
70
0
10
0.0
20
0.0
30
0.0
3
*PAPER_SPACE
1

0
ENDBLK
5
1D
100
AcDbEntity
8
0
100
AcDbBlockEnd
0
BLOCK
5
20A
100
AcDbEntity
8
0
100
AcDbBlockBegin
62
2
6
CONTINUOUS
2
*D0
70
65
10
0.0000000000
20
0.0000000000
3
*D0
1

0
TEXT
5
20B
100
AcDbEntity
8
0
100
AcDbText
62
2
6
CONTINUOUS
10
134.4608541342
20
117.6155168288
7
STANDARD
40
3.5000000000
1
23
41
0.7143000000
72
0
100
AcDbText
0
LINE
5
20C
100
AcDbEntity
8
0
100
AcDbLine
62
2
6
CONTINUOUS
10
125.5661162150
20
131.8143602190
11
125.5661162150
21
115.2405168288
0
LINE
5
20D
100
AcDbEntity
8
0
100
AcDbLine
62
2
6
CONTINUOUS
10
148.5661162150
20
130.4643602190
11
148.5661162150
21
115.2405168288
0
LINE
5
20E
100
AcDbEntity
8
0
100
AcDbLine
62
2
6
CONTINUOUS
10
125.5661162150
20
116.7405168288
11
137.0661162150
21
116.7405168288
0
LINE
5
20F
100
AcDbEntity
8
0
100
AcDbLine
62
2
6
CONTINUOUS
10
148.5661162150
20
116.7405168288
11
137.0661162150
21
116.7405168288
0
INSERT
5
210
100
AcDbEntity
8
0
100
AcDbBlockReference
62
2
6
CONTINUOUS
2
_FILLED
10
125.5661162150
20
116.7405168288
41
  3.500000
42
  3.500000
43
  3.500000
50
180.000000
0
INSERT
5
211
100
AcDbEntity
8
0
100
AcDbBlockReference
62
2
6
CONTINUOUS
2
_FILLED
10
148.5661162150
20
116.7405168288
41
  3.500000
42
  3.500000
43
  3.500000
0
ENDBLK
5
212
100
AcDbEntity
8
0
6
BYBLOCK
62
0
100
AcDbBlockEnd
0
BLOCK
5
213
100
AcDbEntity
8
0
100
AcDbBlockBegin
62
2
6
CONTINUOUS
2
*D1
70
65
10
0.0000000000
20
0.0000000000
3
*D1
1

0
TEXT
5
214
100
AcDbEntity
8
0
100
AcDbText
62
2
6
CONTINUOUS
10
110.9253795593
20
160.5407964466
7
STANDARD
40
3.5000000000
1
65
50
90.0000000000
41
0.7143000000
72
0
100
AcDbText
0
LINE
5
215
100
AcDbEntity
8
0
100
AcDbLine
62
2
6
CONTINUOUS
10
146.4161162150
20
194.3143602190
11
110.3003795593
21
194.3143602190
0
LINE
5
216
100
AcDbEntity
8
0
100
AcDbLine
62
2
6
CONTINUOUS
10
146.4161162150
20
129.3143602190
11
110.3003795593
21
129.3143602190
0
LINE
5
217
100
AcDbEntity
8
0
100
AcDbLine
62
2
6
CONTINUOUS
10
111.8003795593
20
194.3143602190
11
111.8003795593
21
161.8143602190
0
LINE
5
218
100
AcDbEntity
8
0
100
AcDbLine
62
2
6
CONTINUOUS
10
111.8003795593
20
129.3143602190
11
111.8003795593
21
161.8143602190
0
INSERT
5
219
100
AcDbEntity
8
0
100
AcDbBlockReference
62
2
6
CONTINUOUS
2
_FILLED
10
111.8003795593
20
194.3143602190
41
  3.500000
42
  3.500000
43
  3.500000
50
 90.000000
0
INSERT
5
21A
100
AcDbEntity
8
0
100
AcDbBlockReference
62
2
6
CONTINUOUS
2
_FILLED
10
111.8003795593
20
129.3143602190
41
  3.500000
42
  3.500000
43
  3.500000
50
270.000000
0
ENDBLK
5
21B
100
AcDbEntity
8
0
6
BYBLOCK
62
0
100
AcDbBlockEnd
0
BLOCK
5
21C
100
AcDbEntity
8
0
100
AcDbBlockBegin
62
2
6
CONTINUOUS
2
*D2
70
65
10
0.0000000000
20
0.0000000000
3
*D2
1

0
TEXT
5
21D
100
AcDbEntity
8
0
100
AcDbText
62
2
6
CONTINUOUS
10
134.7365782721
20
202.1954246450
7
STANDARD
40
3.5000000000
1
26
41
0.7143000000
72
0
100
AcDbText
0
LINE
5
21E
100
AcDbEntity
8
0
100
AcDbLine
62
2
6
CONTINUOUS
10
150.0661162150
20
178.9643602190
11
150.0661162150
21
202.8204246450
0
LINE
5
21F
100
AcDbEntity
8
0
100
AcDbLine
62
2
6
CONTINUOUS
10
124.0661162150
20
177.6643602190
11
124.0661162150
21
202.8204246450
0
LINE
5
220
100
AcDbEntity
8
0
100
AcDbLine
62
2
6
CONTINUOUS
10
150.0661162150
20
201.3204246450
11
137.0661162150
21
201.3204246450
0
LINE
5
221
100
AcDbEntity
8
0
100
AcDbLine
62
2
6
CONTINUOUS
10
124.0661162150
20
201.3204246450
11
137.0661162150
21
201.3204246450
0
INSERT
5
222
100
AcDbEntity
8
0
100
AcDbBlockReference
62
2
6
CONTINUOUS
2
_FILLED
10
150.0661162150
20
201.3204246450
41
  3.500000
42
  3.500000
43
  3.500000
0
INSERT
5
223
100
AcDbEntity
8
0
100
AcDbBlockReference
62
2
6
CONTINUOUS
2
_FILLED
10
124.0661162150
20
201.3204246450
41
  3.500000
42
  3.500000
43
  3.500000
50
180.000000
0
ENDBLK
5
224
100
AcDbEntity
8
0
6
BYBLOCK
62
0
100
AcDbBlockEnd
0
BLOCK
5
225
100
AcDbEntity
8
0
100
AcDbBlockBegin
2
_FILLED
70
64
10
0.0000000000
20
0.0000000000
3
_FILLED
1

0
SOLID
5
226
100
AcDbEntity
8
0
6
BYBLOCK
62
0
100
AcDbTrace
10
0.0000000000
20
0.0000000000
11
-1.0000000000
21
0.1857142857
12
-1.0000000000
22
-0.1857142857
13
-1.0000000000
23
-0.1857142857
0
ENDBLK
5
227
100
AcDbEntity
8
0
6
BYBLOCK
62
0
100
AcDbBlockEnd
0
ENDSEC
0
SECTION
2
ENTITIES
0
DIMENSION
5
228
100
AcDbEntity
8
0
100
AcDbDimension
62
2
6
CONTINUOUS
2
*D0
10
148.5661162150
20
116.7405168288
11
136.9609041342
21
119.3655168288
70
160
42
23.000000
3
DIMSTYLE_1
100
AcDbAlignedDimension
13
125.5661162150
23
131.8143602190
14
148.5661162150
24
130.4643602190
100
AcDbRotatedDimension
0
DIMENSION
5
229
100
AcDbEntity
8
0
100
AcDbDimension
62
2
6
CONTINUOUS
2
*D1
10
111.8003795593
20
129.3143602190
11
109.1753795593
21
163.0408464466
70
160
42
65.000000
3
DIMSTYLE_2
100
AcDbAlignedDimension
13
146.4161162150
23
194.3143602190
14
146.4161162150
24
129.3143602190
50
270.000000
100
AcDbRotatedDimension
0
DIMENSION
5
22A
100
AcDbEntity
8
0
100
AcDbDimension
62
2
6
CONTINUOUS
2
*D2
10
124.0661162150
20
201.3204246450
11
137.2366282721
21
203.9454246450
70
160
42
26.000000
3
DIMSTYLE_1
100
AcDbAlignedDimension
13
150.0661162150
23
178.9643602190
14
124.0661162150
24
177.6643602190
50
180.000000
100
AcDbRotatedDimension
0
LINE
5
22B
100
AcDbEntity
8
0
100
AcDbLine
62
7
6
CONTINUOUS
10
0.0000000000
20
0.0000000000
11
0.0000000000
21
297.0000000000
0
LINE
5
22C
100
AcDbEntity
8
0
100
AcDbLine
62
7
6
CONTINUOUS
10
0.0000000000
20
0.0000000000
11
420.0000000000
21
0.0000000000
0
LINE
5
22D
100
AcDbEntity
8
0
100
AcDbLine
62
7
6
CONTINUOUS
10
0.0000000000
20
297.0000000000
11
420.0000000000
21
297.0000000000
0
LINE
5
22E
100
AcDbEntity
8
0
100
AcDbLine
62
7
6
CONTINUOUS
10
420.0000000000
20
0.0000000000
11
420.0000000000
21
297.0000000000
0
LINE
5
22F
100
AcDbEntity
8
0
100
AcDbLine
62
7
6
CONTINUOUS
10
128.5661162150
20
129.3143602190
11
132.6661162150
21
129.3143602190
0
LINE
5
230
100
AcDbEntity
8
0
100
AcDbLine
62
7
6
CONTINUOUS
10
141.4661162150
20
129.3143602190
11
146.9161162150
21
129.3143602190
0
LINE
5
231
100
AcDbEntity
8
0
100
AcDbLine
62
7
6
CONTINUOUS
10
130.2161162150
20
131.8143602190
11
132.6661162150
21
131.8143602190
0
LINE
5
232
100
AcDbEntity
8
0
100
AcDbLine
62
7
6
CONTINUOUS
10
141.4661162150
20
131.8143602190
11
143.9161162150
21
131.8143602190
0
LINE
5
233
100
AcDbEntity
8
0
100
AcDbLine
62
7
6
CONTINUOUS
10
143.9161162150
20
137.8143602190
11
130.2161162150
21
137.8143602190
0
LINE
5
234
100
AcDbEntity
8
0
100
AcDbLine
62
7
6
CONTINUOUS
10
147.3661162150
20
139.8143602190
11
142.3661162150
21
139.8143602190
0
LINE
5
235
100
AcDbEntity
8
0
100
AcDbLine
62
7
6
CONTINUOUS
10
131.7661162150
20
139.8143602190
11
126.7661162150
21
139.8143602190
0
LINE
5
236
100
AcDbEntity
8
0
100
AcDbLine
62
9
6
CONTINUOUS
10
126.7661162150
20
139.8813475171
11
130.4661162150
21
139.8813475171
0
LINE
5
237
100
AcDbEntity
8
0
100
AcDbLine
62
7
6
CONTINUOUS
10
143.6661120206
20
140.1143602190
11
147.3661162150
21
140.1143602190
0
LINE
5
238
100
AcDbEntity
8
0
100
AcDbLine
62
9
6
CONTINUOUS
10
143.6661162150
20
140.1813475171
11
147.3661162150
21
140.1813475171
0
LINE
5
239
100
AcDbEntity
8
0
100
AcDbLine
62
9
6
CONTINUOUS
10
130.9661162150
20
140.3143602190
11
130.8991289169
21
140.3143602190
0
LINE
5
23A
100
AcDbEntity
8
0
100
AcDbLine
62
9
6
CONTINUOUS
10
129.8114156767
20
140.5360480554
11
127.4208167534
21
140.5360480554
0
LINE
5
23B
100
AcDbEntity
8
0
100
AcDbLine
62
9
6
CONTINUOUS
10
143.2331035132
20
140.6143602190
11
143.1661162150
21
140.6143602190
0
LINE
5
23C
100
AcDbEntity
8
0
100
AcDbLine
62
9
6
CONTINUOUS
10
146.7114156767
20
140.8360480554
11
144.3208167534
21
140.8360480554
0
LINE
5
23D
100
AcDbEntity
8
0
100
AcDbLine
62
9
6
CONTINUOUS
10
130.2444283786
20
140.9690607573
11
126.9878040515
21
140.9690607573
0
LINE
5
23E
100
AcDbEntity
8
0
100
AcDbLine
62
9
6
CONTINUOUS
10
129.8114156767
20
182.7926723825
11
130.4661162150
21
183.4473729209
0
LINE
5
23F
100
AcDbEntity
8
0
100
AcDbLine
62
9
6
CONTINUOUS
10
126.3331035132
20
179.2643602190
11
126.3831035132
21
179.3143602190
0
LINE
5
240
100
AcDbEntity
8
0
100
AcDbLine
62
9
6
CONTINUOUS
10
126.7661162150
20
179.6973729209
11
126.9878040515
21
179.9190607573
0
LINE
5
241
100
AcDbEntity
8
0
100
AcDbLine
62
9
6
CONTINUOUS
10
130.2444283786
20
182.3596596806
11
130.8991289169
21
183.0143602190
0
LINE
5
242
100
AcDbEntity
8
0
100
AcDbLine
62
9
6
CONTINUOUS
10
126.7661162150
20
178.8313475171
11
127.4208167534
21
179.4860480554
0
LINE
5
243
100
AcDbEntity
8
0
100
AcDbLine
62
9
6
CONTINUOUS
10
147.1444283786
20
141.2690607573
11
143.8878040515
21
141.2690607573
0
LINE
5
244
100
AcDbEntity
8
0
100
AcDbLine
62
9
6
CONTINUOUS
10
126.9878040515
20
143.4096596806
11
130.2444283786
21
143.4096596806
0
LINE
5
245
100
AcDbEntity
8
0
100
AcDbLine
62
9
6
CONTINUOUS
10
130.4661162150
20
139.8813475171
11
129.8114156767
21
140.5360480554
0
LINE
5
246
100
AcDbEntity
8
0
100
AcDbLine
62
9
6
CONTINUOUS
10
126.9878040515
20
143.4096596806
11
126.7661162150
21
143.6313475171
0
LINE
5
247
100
AcDbEntity
8
0
100
AcDbLine
62
9
6
CONTINUOUS
10
130.8991289169
20
140.3143602190
11
130.2444283786
21
140.9690607573
0
LINE
5
248
100
AcDbEntity
8
0
100
AcDbLine
62
9
6
CONTINUOUS
10
127.4208167534
20
143.8426723825
11
126.7661162150
21
144.4973729209
0
LINE
5
249
100
AcDbEntity
8
0
100
AcDbLine
62
9
6
CONTINUOUS
10
143.8878040515
20
143.7096596806
11
147.1444283786
21
143.7096596806
0
LINE
5
24A
100
AcDbEntity
8
0
100
AcDbLine
62
9
6
CONTINUOUS
10
127.4208167534
20
143.8426723825
11
129.8114156767
21
143.8426723825
0
LINE
5
24B
100
AcDbEntity
8
0
100
AcDbLine
62
9
6
CONTINUOUS
10
130.8991289169
20
144.0643602190
11
130.9661162150
21
144.0643602190
0
LINE
5
24C
100
AcDbEntity
8
0
100
AcDbLine
62
9
6
CONTINUOUS
10
144.3208167534
20
144.1426723825
11
146.7114156767
21
144.1426723825
0
LINE
5
24D
100
AcDbEntity
8
0
100
AcDbLine
62
7
6
CONTINUOUS
10
148.0661162150
20
144.3143602190
11
147.3661162150
21
144.3143602190
0
LINE
5
24E
100
AcDbEntity
8
0
100
AcDbLine
62
7
6
CONTINUOUS
10
141.8661162150
20
144.3143602190
11
138.0661162150
21
144.3143602190
0
LINE
5
24F
100
AcDbEntity
8
0
100
AcDbLine
62
7
6
CONTINUOUS
10
136.0661162150
20
144.3143602190
11
132.2661162150
21
144.3143602190
0
LINE
5
250
100
AcDbEntity
8
0
100
AcDbLine
62
7
6
CONTINUOUS
10
126.7661162150
20
144.3143602190
11
126.0661162150
21
144.3143602190
0
LINE
5
251
100
AcDbEntity
8
0
100
AcDbLine
62
9
6
CONTINUOUS
10
147.8661162150
20
144.3643644135
11
147.7991289169
21
144.3643602190
0
LINE
5
252
100
AcDbEntity
8
0
100
AcDbLine
62
9
6
CONTINUOUS
10
143.2331035132
20
144.3643602190
11
143.1661162150
21
144.3643602190
0
LINE
5
253
100
AcDbEntity
8
0
100
AcDbLine
62
9
6
CONTINUOUS
10
130.4661162150
20
144.4973729209
11
126.7661162150
21
144.4973729209
0
LINE
5
254
100
AcDbEntity
8
0
100
AcDbLine
62
7
6
CONTINUOUS
10
130.4661162150
20
144.5643602190
11
126.7661162150
21
144.5643602190
0
LINE
5
255
100
AcDbEntity
8
0
100
AcDbLine
62
9
6
CONTINUOUS
10
130.9504924595
20
144.7818446921
11
131.2278700662
21
144.7818455353
0
LINE
5
256
100
AcDbEntity
8
0
100
AcDbLine
62
9
6
CONTINUOUS
10
147.3661162150
20
144.7973729209
11
143.6661162150
21
144.7973729209
0
LINE
5
257
100
AcDbEntity
8
0
100
AcDbLine
62
7
6
CONTINUOUS
10
147.3661204095
20
144.8643602190
11
143.6661162150
21
144.8643602190
0
LINE
5
258
100
AcDbEntity
8
0
100
AcDbLine
62
9
6
CONTINUOUS
10
142.9043623639
20
144.8818455353
11
142.9505359819
21
144.8818456231
0
LINE
5
259
100
AcDbEntity
8
0
100
AcDbLine
62
7
6
CONTINUOUS
10
131.7911162150
20
145.0143602190
11
130.8225699364
21
145.0143602190
0
LINE
5
25A
100
AcDbEntity
8
0
100
AcDbLine
62
9
6
CONTINUOUS
10
143.1817400255
20
145.0818449209
11
142.9043623639
21
145.0818455353
0
LINE
5
25B
100
AcDbEntity
8
0
100
AcDbLine
62
7
6
CONTINUOUS
10
142.8939153652
20
145.1143602190
11
142.3411162150
21
145.1143602190
0
LINE
5
25C
100
AcDbEntity
8
0
100
AcDbLine
62
7
6
CONTINUOUS
10
135.2661162150
20
145.1643602190
11
124.0661162150
21
145.1643602190
0
LINE
5
25D
100
AcDbEntity
8
0
100
AcDbLine
62
7
6
CONTINUOUS
10
143.3096624937
20
145.3143602190
11
142.3411162150
21
145.3143602190
0
LINE
5
25E
100
AcDbEntity
8
0
100
AcDbLine
62
9
6
CONTINUOUS
10
142.1186225171
20
145.4143602190
11
142.0411162150
21
145.4143602190
0
LINE
5
25F
100
AcDbEntity
8
0
100
AcDbLine
62
7
6
CONTINUOUS
10
143.6661162150
20
145.4643602190
11
147.3661162150
21
145.4643602190
0
LINE
5
260
100
AcDbEntity
8
0
100
AcDbLine
62
9
6
CONTINUOUS
10
146.8911162150
20
145.6143602190
11
142.0411162150
21
145.6143602190
0
LINE
5
261
100
AcDbEntity
8
0
100
AcDbLine
62
7
6
CONTINUOUS
10
138.8661162150
20
146.4643602190
11
150.0661162150
21
146.4643602190
0
LINE
5
262
100
AcDbEntity
8
0
100
AcDbLine
62
7
6
CONTINUOUS
10
124.0661162150
20
177.1643602190
11
124.0661162150
21
145.1643602190
0
LINE
5
263
100
AcDbEntity
8
0
100
AcDbLine
62
7
6
CONTINUOUS
10
125.5661162150
20
192.6643602190
11
125.5661162150
21
179.8143602190
0
LINE
5
264
100
AcDbEntity
8
0
100
AcDbLine
62
7
6
CONTINUOUS
10
125.5661162150
20
143.8143602190
11
125.5661162150
21
132.3143602190
0
LINE
5
265
100
AcDbEntity
8
0
100
AcDbLine
62
7
6
CONTINUOUS
10
126.2661162150
20
144.3143602190
11
126.2661162150
21
144.6643602190
0
LINE
5
266
100
AcDbEntity
8
0
100
AcDbLine
62
7
6
CONTINUOUS
10
126.2661162150
20
178.6643602190
11
126.2661162150
21
179.3143602190
0
LINE
5
267
100
AcDbEntity
8
0
100
AcDbLine
62
9
6
CONTINUOUS
10
126.3331035132
20
179.3143602190
11
126.3331035132
21
179.2643602190
0
LINE
5
268
100
AcDbEntity
8
0
100
AcDbLine
62
7
6
CONTINUOUS
10
126.7661162150
20
139.8143602190
11
126.7661162150
21
144.3143602190
0
LINE
5
269
100
AcDbEntity
8
0
100
AcDbLine
62
9
6
CONTINUOUS
10
126.7661162150
20
144.4973729209
11
126.7661162150
21
144.5643602190
0
LINE
5
26A
100
AcDbEntity
8
0
100
AcDbLine
62
7
6
CONTINUOUS
10
126.7661162150
20
179.3143602190
11
126.7661162150
21
183.8143602190
0
LINE
5
26B
100
AcDbEntity
8
0
100
AcDbLine
62
9
6
CONTINUOUS
10
126.9878040515
20
140.9690607573
11
126.9878040515
21
143.4096596806
0
LINE
5
26C
100
AcDbEntity
8
0
100
AcDbLine
62
9
6
CONTINUOUS
10
126.9878040515
20
179.9190607573
11
126.9878040515
21
182.3596596806
0
LINE
5
26D
100
AcDbEntity
8
0
100
AcDbLine
62
7
6
CONTINUOUS
10
127.2411162150
20
177.1643602190
11
127.2411162150
21
178.1643602190
0
LINE
5
26E
100
AcDbEntity
8
0
100
AcDbLine
62
9
6
CONTINUOUS
10
127.4208167534
20
140.5360480554
11
127.4208167534
21
143.8426723825
0
LINE
5
26F
100
AcDbEntity
8
0
100
AcDbLine
62
9
6
CONTINUOUS
10
127.4208167534
20
179.4860480554
11
127.4208167534
21
182.7926723825
0
LINE
5
270
100
AcDbEntity
8
0
100
AcDbLine
62
9
6
CONTINUOUS
10
126.7661120206
20
178.7643602190
11
126.7661162150
21
178.8313475171
0
LINE
5
271
100
AcDbEntity
8
0
100
AcDbLine
62
9
6
CONTINUOUS
10
129.8114156767
20
140.5360480554
11
129.8114156767
21
143.8426723825
0
LINE
5
272
100
AcDbEntity
8
0
100
AcDbLine
62
9
6
CONTINUOUS
10
129.8114156767
20
179.4860480554
11
129.8114156767
21
182.7926723825
0
LINE
5
273
100
AcDbEntity
8
0
100
AcDbLine
62
7
6
CONTINUOUS
10
130.2161162150
20
137.8143602190
11
130.2161162150
21
131.8143602190
0
LINE
5
274
100
AcDbEntity
8
0
100
AcDbLine
62
7
6
CONTINUOUS
10
130.2161162150
20
185.8143602190
11
130.2161162150
21
191.8143602190
0
LINE
5
275
100
AcDbEntity
8
0
100
AcDbLine
62
9
6
CONTINUOUS
10
130.2444283786
20
182.3596596806
11
130.2444283786
21
179.9190607573
0
LINE
5
276
100
AcDbEntity
8
0
100
AcDbLine
62
9
6
CONTINUOUS
10
130.2444283786
20
143.4096596806
11
130.2444283786
21
140.9690607573
0
LINE
5
277
100
AcDbEntity
8
0
100
AcDbLine
62
9
6
CONTINUOUS
10
146.7114156767
20
183.0926723825
11
147.3661162150
21
183.7473729209
0
LINE
5
278
100
AcDbEntity
8
0
100
AcDbLine
62
9
6
CONTINUOUS
10
143.8878040515
20
180.2190607573
11
143.2331035132
21
179.5643602190
0
LINE
5
279
100
AcDbEntity
8
0
100
AcDbLine
62
9
6
CONTINUOUS
10
147.1444283786
20
182.6596596806
11
147.3661162150
21
182.8813475171
0
LINE
5
27A
100
AcDbEntity
8
0
100
AcDbLine
62
9
6
CONTINUOUS
10
144.3208167534
20
179.7860480554
11
143.6661162150
21
179.1313475171
0
LINE
5
27B
100
AcDbEntity
8
0
100
AcDbLine
62
9
6
CONTINUOUS
10
147.3661162150
20
140.1813475171
11
146.7114156767
21
140.8360480554
0
LINE
5
27C
100
AcDbEntity
8
0
100
AcDbLine
62
9
6
CONTINUOUS
10
143.8878040515
20
143.7096596806
11
143.2331035132
21
144.3643602190
0
LINE
5
27D
100
AcDbEntity
8
0
100
AcDbLine
62
9
6
CONTINUOUS
10
147.3661162150
20
141.0473729209
11
147.1444283786
21
141.2690607573
0
LINE
5
27E
100
AcDbEntity
8
0
100
AcDbLine
62
9
6
CONTINUOUS
10
144.3208167534
20
144.1426723825
11
143.6661162150
21
144.7973729209
0
LINE
5
27F
100
AcDbEntity
8
0
100
AcDbLine
62
9
6
CONTINUOUS
10
130.4661162150
20
178.8313475171
11
130.4661162150
21
178.7643602190
0
LINE
5
280
100
AcDbEntity
8
0
100
AcDbLine
62
9
6
CONTINUOUS
10
130.4661162150
20
139.8143602190
11
130.4661162150
21
139.8813475171
0
LINE
5
281
100
AcDbEntity
8
0
100
AcDbLine
62
9
6
CONTINUOUS
10
130.4661162150
20
144.4973729209
11
130.4661162150
21
144.5643602190
0
LINE
5
282
100
AcDbEntity
8
0
100
AcDbLine
62
9
6
CONTINUOUS
10
130.8991289169
20
140.3143602190
11
130.8991289169
21
144.0643602190
0
LINE
5
283
100
AcDbEntity
8
0
100
AcDbLine
62
9
6
CONTINUOUS
10
130.8991289169
20
179.2643602190
11
130.8991289169
21
183.0143602190
0
LINE
5
284
100
AcDbEntity
8
0
100
AcDbLine
62
7
6
CONTINUOUS
10
130.9661162150
20
140.3143602190
11
130.9661162150
21
144.6643602190
0
LINE
5
285
100
AcDbEntity
8
0
100
AcDbLine
62
7
6
CONTINUOUS
10
130.9661162150
20
178.6643602190
11
130.9661162150
21
183.0143602190
0
LINE
5
286
100
AcDbEntity
8
0
100
AcDbLine
62
7
6
CONTINUOUS
10
131.7661162150
20
183.8143602190
11
131.7661162150
21
179.8143602190
0
LINE
5
287
100
AcDbEntity
8
0
100
AcDbLine
62
7
6
CONTINUOUS
10
131.7661162150
20
143.8143602190
11
131.7661162150
21
139.8143602190
0
LINE
5
288
100
AcDbEntity
8
0
100
AcDbLine
62
7
6
CONTINUOUS
10
132.0911162150
20
177.1643602190
11
132.0911162150
21
178.2143602190
0
LINE
5
289
100
AcDbEntity
8
0
100
AcDbLine
62
7
6
CONTINUOUS
10
132.6661162150
20
194.3143602190
11
132.6661162150
21
191.8143602190
0
LINE
5
28A
100
AcDbEntity
8
0
100
AcDbLine
62
7
6
CONTINUOUS
10
132.6661162150
20
129.3143602190
11
132.6661162150
21
131.8143602190
0
LINE
5
28B
100
AcDbEntity
8
0
100
AcDbLine
62
9
6
CONTINUOUS
10
130.4661162150
20
183.4473729209
11
130.4661204095
21
183.5143602190
0
LINE
5
28C
100
AcDbEntity
8
0
100
AcDbLine
62
7
6
CONTINUOUS
10
135.2661162150
20
177.1643602190
11
135.2661162150
21
145.1643602190
0
LINE
5
28D
100
AcDbEntity
8
0
100
AcDbLine
62
7
6
CONTINUOUS
10
136.0661162150
20
179.3143602190
11
136.0661162150
21
144.3143602190
0
LINE
5
28E
100
AcDbEntity
8
0
100
AcDbLine
62
7
6
CONTINUOUS
10
131.2278700662
20
144.7818455353
11
130.9661162150
21
143.6480650441
0
LINE
5
28F
100
AcDbEntity
8
0
100
AcDbLine
62
7
6
CONTINUOUS
10
130.9661162150
20
179.6806553938
11
131.2278700662
21
178.5468749027
0
LINE
5
290
100
AcDbEntity
8
0
100
AcDbLine
62
7
6
CONTINUOUS
10
131.2278700662
20
178.7468749027
11
130.9661162150
21
179.8806553938
0
LINE
5
291
100
AcDbEntity
8
0
100
AcDbLine
62
7
6
CONTINUOUS
10
138.0661162150
20
144.3143602190
11
138.0661162150
21
179.3143602190
0
LINE
5
292
100
AcDbEntity
8
0
100
AcDbLine
62
7
6
CONTINUOUS
10
138.8661162150
20
146.4643602190
11
138.8661162150
21
178.4643602190
0
LINE
5
293
100
AcDbEntity
8
0
100
AcDbLine
62
7
6
CONTINUOUS
10
142.9043623639
20
178.8468749027
11
143.1661162150
21
179.9806553938
0
LINE
5
294
100
AcDbEntity
8
0
100
AcDbLine
62
7
6
CONTINUOUS
10
142.9043623639
20
144.8818455353
11
143.1661162150
21
143.7480650441
0
LINE
5
295
100
AcDbEntity
8
0
100
AcDbLine
62
7
6
CONTINUOUS
10
143.1661162150
20
143.9480650441
11
142.9043623639
21
145.0818455353
0
LINE
5
296
100
AcDbEntity
8
0
100
AcDbLine
62
7
6
CONTINUOUS
10
141.4661162150
20
194.3143602190
11
141.4661162150
21
191.8143602190
0
LINE
5
297
100
AcDbEntity
8
0
100
AcDbLine
62
7
6
CONTINUOUS
10
141.4661162150
20
129.3143602190
11
141.4661162150
21
131.8143602190
0
LINE
5
298
100
AcDbEntity
8
0
100
AcDbLine
62
7
6
CONTINUOUS
10
142.0411162150
20
145.4143602190
11
142.0411162150
21
146.4643602190
0
LINE
5
299
100
AcDbEntity
8
0
100
AcDbLine
62
7
6
CONTINUOUS
10
142.3661162150
20
139.8143602190
11
142.3661162150
21
143.8143602190
0
LINE
5
29A
100
AcDbEntity
8
0
100
AcDbLine
62
7
6
CONTINUOUS
10
142.3661162150
20
179.8143602190
11
142.3661162150
21
183.8143602190
0
LINE
5
29B
100
AcDbEntity
8
0
100
AcDbLine
62
7
6
CONTINUOUS
10
143.1661162150
20
140.6143602190
11
143.1661162150
21
144.9643602190
0
LINE
5
29C
100
AcDbEntity
8
0
100
AcDbLine
62
7
6
CONTINUOUS
10
143.1661162150
20
178.9643602190
11
143.1661162150
21
183.3143602190
0
LINE
5
29D
100
AcDbEntity
8
0
100
AcDbLine
62
9
6
CONTINUOUS
10
143.2331035132
20
183.3143602190
11
143.2331035132
21
179.5643602190
0
LINE
5
29E
100
AcDbEntity
8
0
100
AcDbLine
62
9
6
CONTINUOUS
10
143.2331035132
20
144.3643602190
11
143.2331035132
21
140.6143602190
0
LINE
5
29F
100
AcDbEntity
8
0
100
AcDbLine
62
9
6
CONTINUOUS
10
143.6661162150
20
183.8143602190
11
143.6661162150
21
183.7473729209
0
LINE
5
2A0
100
AcDbEntity
8
0
100
AcDbLine
62
9
6
CONTINUOUS
10
143.6661162150
20
179.1313475171
11
143.6661162150
21
179.0643602190
0
LINE
5
2A1
100
AcDbEntity
8
0
100
AcDbLine
62
9
6
CONTINUOUS
10
143.6661162150
20
144.7973729209
11
143.6661162150
21
144.8643602190
0
LINE
5
2A2
100
AcDbEntity
8
0
100
AcDbLine
62
9
6
CONTINUOUS
10
143.8878040515
20
141.2690607573
11
143.8878040515
21
143.7096596806
0
LINE
5
2A3
100
AcDbEntity
8
0
100
AcDbLine
62
9
6
CONTINUOUS
10
143.8878040515
20
180.2190607573
11
143.8878040515
21
182.6596596806
0
LINE
5
2A4
100
AcDbEntity
8
0
100
AcDbLine
62
7
6
CONTINUOUS
10
143.9161162150
20
191.8143602190
11
143.9161162150
21
185.8143602190
0
LINE
5
2A5
100
AcDbEntity
8
0
100
AcDbLine
62
7
6
CONTINUOUS
10
143.9161162150
20
131.8143602190
11
143.9161162150
21
137.8143602190
0
LINE
5
2A6
100
AcDbEntity
8
0
100
AcDbLine
62
9
6
CONTINUOUS
10
144.3208167534
20
140.8360480554
11
144.3208167534
21
144.1426723825
0
LINE
5
2A7
100
AcDbEntity
8
0
100
AcDbLine
62
9
6
CONTINUOUS
10
144.3208167534
20
179.7860480554
11
144.3208167534
21
183.0926723825
0
LINE
5
2A8
100
AcDbEntity
8
0
100
AcDbLine
62
9
6
CONTINUOUS
10
143.6661162150
20
140.1813475171
11
143.6661120206
21
140.1143602190
0
LINE
5
2A9
100
AcDbEntity
8
0
100
AcDbLine
62
9
6
CONTINUOUS
10
146.7114156767
20
140.8360480554
11
146.7114156767
21
144.1426723825
0
LINE
5
2AA
100
AcDbEntity
8
0
100
AcDbLine
62
9
6
CONTINUOUS
10
146.7114156767
20
179.7860480554
11
146.7114156767
21
183.0926723825
0
LINE
5
2AB
100
AcDbEntity
8
0
100
AcDbLine
62
9
6
CONTINUOUS
10
129.8114156767
20
143.8426723825
11
130.4661162150
21
144.4973729209
0
LINE
5
2AC
100
AcDbEntity
8
0
100
AcDbLine
62
9
6
CONTINUOUS
10
126.9878040515
20
140.9690607573
11
126.7661162150
21
140.7473729209
0
LINE
5
2AD
100
AcDbEntity
8
0
100
AcDbLine
62
9
6
CONTINUOUS
10
130.2444283786
20
143.4096596806
11
130.8991289169
21
144.0643602190
0
LINE
5
2AE
100
AcDbEntity
8
0
100
AcDbLine
62
9
6
CONTINUOUS
10
127.4208167534
20
140.5360480554
11
126.7661162150
21
139.8813475171
0
LINE
5
2AF
100
AcDbEntity
8
0
100
AcDbLine
62
9
6
CONTINUOUS
10
129.8114156767
20
179.4860480554
11
130.4661162150
21
178.8313475171
0
LINE
5
2B0
100
AcDbEntity
8
0
100
AcDbLine
62
9
6
CONTINUOUS
10
126.7661162150
20
182.5813475171
11
126.9878040515
21
182.3596596806
0
LINE
5
2B1
100
AcDbEntity
8
0
100
AcDbLine
62
9
6
CONTINUOUS
10
130.2444283786
20
179.9190607573
11
130.8991289169
21
179.2643602190
0
LINE
5
2B2
100
AcDbEntity
8
0
100
AcDbLine
62
9
6
CONTINUOUS
10
126.7661162150
20
183.4473729209
11
127.4208167534
21
182.7926723825
0
LINE
5
2B3
100
AcDbEntity
8
0
100
AcDbLine
62
7
6
CONTINUOUS
10
146.8911162150
20
145.4643602190
11
146.8911162150
21
146.4643602190
0
LINE
5
2B4
100
AcDbEntity
8
0
100
AcDbLine
62
9
6
CONTINUOUS
10
147.1444283786
20
182.6596596806
11
147.1444283786
21
180.2190607573
0
LINE
5
2B5
100
AcDbEntity
8
0
100
AcDbLine
62
9
6
CONTINUOUS
10
147.1444283786
20
143.7096596806
11
147.1444283786
21
141.2690607573
0
LINE
5
2B6
100
AcDbEntity
8
0
100
AcDbLine
62
7
6
CONTINUOUS
10
147.3661162150
20
183.8143602190
11
147.3661162150
21
179.3143602190
0
LINE
5
2B7
100
AcDbEntity
8
0
100
AcDbLine
62
9
6
CONTINUOUS
10
147.3661162150
20
179.1313475171
11
147.3661162150
21
179.0643602190
0
LINE
5
2B8
100
AcDbEntity
8
0
100
AcDbLine
62
7
6
CONTINUOUS
10
147.3661162150
20
144.3143602190
11
147.3661162150
21
139.8143602190
0
LINE
5
2B9
100
AcDbEntity
8
0
100
AcDbLine
62
9
6
CONTINUOUS
10
147.7991289169
20
144.3143602190
11
147.7991289169
21
144.3643602190
0
LINE
5
2BA
100
AcDbEntity
8
0
100
AcDbLine
62
7
6
CONTINUOUS
10
147.8661162150
20
179.3143602190
11
147.8661162150
21
178.9643602190
0
LINE
5
2BB
100
AcDbEntity
8
0
100
AcDbLine
62
7
6
CONTINUOUS
10
147.8661162150
20
144.3143602190
11
147.8661162150
21
144.9643602190
0
LINE
5
2BC
100
AcDbEntity
8
0
100
AcDbLine
62
7
6
CONTINUOUS
10
148.5661162150
20
130.9643602190
11
148.5661162150
21
143.8143602190
0
LINE
5
2BD
100
AcDbEntity
8
0
100
AcDbLine
62
7
6
CONTINUOUS
10
148.5661162150
20
179.8143602190
11
148.5661162150
21
192.6643602190
0
LINE
5
2BE
100
AcDbEntity
8
0
100
AcDbLine
62
9
6
CONTINUOUS
10
147.3661204095
20
144.8643602190
11
147.3661162150
21
144.7973729209
0
LINE
5
2BF
100
AcDbEntity
8
0
100
AcDbLine
62
7
6
CONTINUOUS
10
150.0661162150
20
146.4643602190
11
150.0661162150
21
178.4643602190
0
LINE
5
2C0
100
AcDbEntity
8
0
100
AcDbLine
62
7
6
CONTINUOUS
10
135.2661162150
20
177.1643602190
11
124.0661162150
21
177.1643602190
0
LINE
5
2C1
100
AcDbEntity
8
0
100
AcDbLine
62
9
6
CONTINUOUS
10
127.2411162150
20
178.0143602190
11
132.0911162150
21
178.0143602190
0
LINE
5
2C2
100
AcDbEntity
8
0
100
AcDbLine
62
7
6
CONTINUOUS
10
130.4661162150
20
178.1643602190
11
126.7661162150
21
178.1643602190
0
LINE
5
2C3
100
AcDbEntity
8
0
100
AcDbLine
62
9
6
CONTINUOUS
10
132.0136099130
20
178.2143602190
11
132.0911162150
21
178.2143602190
0
LINE
5
2C4
100
AcDbEntity
8
0
100
AcDbLine
62
7
6
CONTINUOUS
10
130.8225699364
20
178.3143602190
11
131.7911162150
21
178.3143602190
0
LINE
5
2C5
100
AcDbEntity
8
0
100
AcDbLine
62
7
6
CONTINUOUS
10
138.8661162150
20
178.4643602190
11
150.0661162150
21
178.4643602190
0
LINE
5
2C6
100
AcDbEntity
8
0
100
AcDbLine
62
7
6
CONTINUOUS
10
131.2383170649
20
178.5143602190
11
131.7911162150
21
178.5143602190
0
LINE
5
2C7
100
AcDbEntity
8
0
100
AcDbLine
62
9
6
CONTINUOUS
10
130.9504924046
20
178.5468755170
11
131.2278700662
21
178.5468749027
0
LINE
5
2C8
100
AcDbEntity
8
0
100
AcDbLine
62
7
6
CONTINUOUS
10
142.3411162150
20
178.6143602190
11
143.3096624937
21
178.6143602190
0
LINE
5
2C9
100
AcDbEntity
8
0
100
AcDbLine
62
9
6
CONTINUOUS
10
131.2278700662
20
178.7468749027
11
131.1816964482
21
178.7468748148
0
LINE
5
2CA
100
AcDbEntity
8
0
100
AcDbLine
62
7
6
CONTINUOUS
10
126.7661120206
20
178.7643602190
11
130.4661162150
21
178.7643602190
0
LINE
5
2CB
100
AcDbEntity
8
0
100
AcDbLine
62
9
6
CONTINUOUS
10
126.7661162150
20
178.8313475171
11
130.4661162150
21
178.8313475171
0
LINE
5
2CC
100
AcDbEntity
8
0
100
AcDbLine
62
9
6
CONTINUOUS
10
143.1817399706
20
178.8468757458
11
142.9043623639
21
178.8468749027
0
LINE
5
2CD
100
AcDbEntity
8
0
100
AcDbLine
62
7
6
CONTINUOUS
10
143.6661162150
20
179.0643602190
11
147.3661162150
21
179.0643602190
0
LINE
5
2CE
100
AcDbEntity
8
0
100
AcDbLine
62
9
6
CONTINUOUS
10
143.6661162150
20
179.1313475171
11
147.3661162150
21
179.1313475171
0
LINE
5
2CF
100
AcDbEntity
8
0
100
AcDbLine
62
9
6
CONTINUOUS
10
130.8991289169
20
179.2643602190
11
130.9661162150
21
179.2643602190
0
LINE
5
2D0
100
AcDbEntity
8
0
100
AcDbLine
62
9
6
CONTINUOUS
10
126.2661162150
20
179.2643560245
11
126.3331035132
21
179.2643602190
0
LINE
5
2D1
100
AcDbEntity
8
0
100
AcDbLine
62
7
6
CONTINUOUS
10
126.0661162150
20
179.3143602190
11
126.7661162150
21
179.3143602190
0
LINE
5
2D2
100
AcDbEntity
8
0
100
AcDbLine
62
7
6
CONTINUOUS
10
132.2661162150
20
179.3143602190
11
136.0661162150
21
179.3143602190
0
LINE
5
2D3
100
AcDbEntity
8
0
100
AcDbLine
62
7
6
CONTINUOUS
10
138.0661162150
20
179.3143602190
11
141.8661162150
21
179.3143602190
0
LINE
5
2D4
100
AcDbEntity
8
0
100
AcDbLine
62
7
6
CONTINUOUS
10
147.3661162150
20
179.3143602190
11
148.0661162150
21
179.3143602190
0
LINE
5
2D5
100
AcDbEntity
8
0
100
AcDbLine
62
9
6
CONTINUOUS
10
129.8114156767
20
179.4860480554
11
127.4208167534
21
179.4860480554
0
LINE
5
2D6
100
AcDbEntity
8
0
100
AcDbLine
62
9
6
CONTINUOUS
10
143.2331035132
20
179.5643602190
11
143.1661162150
21
179.5643602190
0
LINE
5
2D7
100
AcDbEntity
8
0
100
AcDbLine
62
9
6
CONTINUOUS
10
146.7114156767
20
179.7860480554
11
144.3208167534
21
179.7860480554
0
LINE
5
2D8
100
AcDbEntity
8
0
100
AcDbLine
62
9
6
CONTINUOUS
10
126.9878040515
20
179.9190607573
11
130.2444283786
21
179.9190607573
0
LINE
5
2D9
100
AcDbEntity
8
0
100
AcDbLine
62
9
6
CONTINUOUS
10
143.8878040515
20
180.2190607573
11
147.1444283786
21
180.2190607573
0
LINE
5
2DA
100
AcDbEntity
8
0
100
AcDbLine
62
9
6
CONTINUOUS
10
147.3661162150
20
144.7973729209
11
146.7114156767
21
144.1426723825
0
LINE
5
2DB
100
AcDbEntity
8
0
100
AcDbLine
62
9
6
CONTINUOUS
10
143.8878040515
20
141.2690607573
11
143.2331035132
21
140.6143602190
0
LINE
5
2DC
100
AcDbEntity
8
0
100
AcDbLine
62
9
6
CONTINUOUS
10
147.7991289169
20
144.3643602190
11
147.7491289169
21
144.3143602190
0
LINE
5
2DD
100
AcDbEntity
8
0
100
AcDbLine
62
9
6
CONTINUOUS
10
147.3661162150
20
143.9313475171
11
147.1444283786
21
143.7096596806
0
LINE
5
2DE
100
AcDbEntity
8
0
100
AcDbLine
62
9
6
CONTINUOUS
10
144.3208167534
20
140.8360480554
11
143.6661162150
21
140.1813475171
0
LINE
5
2DF
100
AcDbEntity
8
0
100
AcDbLine
62
9
6
CONTINUOUS
10
126.9878040515
20
182.3596596806
11
130.2444283786
21
182.3596596806
0
LINE
5
2E0
100
AcDbEntity
8
0
100
AcDbLine
62
9
6
CONTINUOUS
10
143.8878040515
20
182.6596596806
11
147.1444283786
21
182.6596596806
0
LINE
5
2E1
100
AcDbEntity
8
0
100
AcDbLine
62
9
6
CONTINUOUS
10
127.4208167534
20
182.7926723825
11
129.8114156767
21
182.7926723825
0
LINE
5
2E2
100
AcDbEntity
8
0
100
AcDbLine
62
9
6
CONTINUOUS
10
130.8991289169
20
183.0143602190
11
130.9661162150
21
183.0143602190
0
LINE
5
2E3
100
AcDbEntity
8
0
100
AcDbLine
62
9
6
CONTINUOUS
10
144.3208167534
20
183.0926723825
11
146.7114156767
21
183.0926723825
0
LINE
5
2E4
100
AcDbEntity
8
0
100
AcDbLine
62
9
6
CONTINUOUS
10
146.7114156767
20
179.7860480554
11
147.3661162150
21
179.1313475171
0
LINE
5
2E5
100
AcDbEntity
8
0
100
AcDbLine
62
9
6
CONTINUOUS
10
143.2331035132
20
183.3143602190
11
143.8878040515
21
182.6596596806
0
LINE
5
2E6
100
AcDbEntity
8
0
100
AcDbLine
62
9
6
CONTINUOUS
10
147.1444283786
20
180.2190607573
11
147.3661162150
21
179.9973729209
0
LINE
5
2E7
100
AcDbEntity
8
0
100
AcDbLine
62
9
6
CONTINUOUS
10
143.6661162150
20
183.7473729209
11
144.3208167534
21
183.0926723825
0
LINE
5
2E8
100
AcDbEntity
8
0
100
AcDbLine
62
9
6
CONTINUOUS
10
143.1661162150
20
183.3143602190
11
143.2331035132
21
183.3143602190
0
LINE
5
2E9
100
AcDbEntity
8
0
100
AcDbLine
62
9
6
CONTINUOUS
10
130.4661162150
20
183.4473729209
11
126.7661162150
21
183.4473729209
0
LINE
5
2EA
100
AcDbEntity
8
0
100
AcDbLine
62
7
6
CONTINUOUS
10
130.4661204095
20
183.5143602190
11
126.7661162150
21
183.5143602190
0
LINE
5
2EB
100
AcDbEntity
8
0
100
AcDbLine
62
9
6
CONTINUOUS
10
147.3661162150
20
183.7473729209
11
143.6661162150
21
183.7473729209
0
LINE
5
2EC
100
AcDbEntity
8
0
100
AcDbLine
62
7
6
CONTINUOUS
10
126.7661162150
20
183.8143602190
11
131.7661162150
21
183.8143602190
0
LINE
5
2ED
100
AcDbEntity
8
0
100
AcDbLine
62
7
6
CONTINUOUS
10
142.3661162150
20
183.8143602190
11
147.3661162150
21
183.8143602190
0
LINE
5
2EE
100
AcDbEntity
8
0
100
AcDbLine
62
7
6
CONTINUOUS
10
143.9161162150
20
185.8143602190
11
130.2161162150
21
185.8143602190
0
LINE
5
2EF
100
AcDbEntity
8
0
100
AcDbLine
62
7
6
CONTINUOUS
10
130.2161162150
20
191.8143602190
11
132.6661162150
21
191.8143602190
0
LINE
5
2F0
100
AcDbEntity
8
0
100
AcDbLine
62
7
6
CONTINUOUS
10
141.4661162150
20
191.8143602190
11
143.9161162150
21
191.8143602190
0
LINE
5
2F1
100
AcDbEntity
8
0
100
AcDbLine
62
7
6
CONTINUOUS
10
146.9161162150
20
194.3143602190
11
141.4661162150
21
194.3143602190
0
LINE
5
2F2
100
AcDbEntity
8
0
100
AcDbLine
62
7
6
CONTINUOUS
10
132.6661162150
20
194.3143602190
11
127.2161162150
21
194.3143602190
0
LINE
5
2F3
100
AcDbEntity
8
0
100
AcDbLine
62
7
6
CONTINUOUS
10
196.9442664685
20
129.3143602190
11
196.9442664685
21
194.3143602190
0
LINE
5
2F4
100
AcDbEntity
8
0
100
AcDbLine
62
7
6
CONTINUOUS
10
197.6442664685
20
177.1643602190
11
197.6442664685
21
145.1643602190
0
LINE
5
2F5
100
AcDbEntity
8
0
100
AcDbLine
62
9
6
CONTINUOUS
10
198.8282410647
20
179.2643602190
11
198.8282410647
21
179.3143602190
0
LINE
5
2F6
100
AcDbEntity
8
0
100
AcDbLine
62
9
6
CONTINUOUS
10
199.0782410647
20
144.3143602190
11
199.0782410647
21
144.5643602190
0
LINE
5
2F7
100
AcDbEntity
8
0
100
AcDbLine
62
9
6
CONTINUOUS
10
199.0782410647
20
178.7643602190
11
199.0782410647
21
179.3143602190
0
LINE
5
2F8
100
AcDbEntity
8
0
100
AcDbLine
62
7
6
CONTINUOUS
10
199.2442664685
20
144.3143602190
11
199.2442664685
21
145.1643602190
0
LINE
5
2F9
100
AcDbEntity
8
0
100
AcDbLine
62
7
6
CONTINUOUS
10
199.2442664685
20
178.1643602190
11
199.2442664685
21
179.2643602190
0
LINE
5
2FA
100
AcDbEntity
8
0
100
AcDbLine
62
7
6
CONTINUOUS
10
200.2442664685
20
144.3143602190
11
200.2442664685
21
145.1643602190
0
LINE
5
2FB
100
AcDbEntity
8
0
100
AcDbLine
62
7
6
CONTINUOUS
10
200.2442664685
20
178.1643602190
11
200.2442664685
21
179.2643602190
0
LINE
5
2FC
100
AcDbEntity
8
0
100
AcDbLine
62
7
6
CONTINUOUS
10
200.8192664685
20
177.1643602190
11
200.8192664685
21
178.0143602190
0
LINE
5
2FD
100
AcDbEntity
8
0
100
AcDbLine
62
7
6
CONTINUOUS
10
201.6825126219
20
178.5468749223
11
201.7333071948
21
178.7668903894
0
LINE
5
2FE
100
AcDbEntity
8
0
100
AcDbLine
62
7
6
CONTINUOUS
10
201.7333071948
20
144.5618300485
11
201.6825126499
21
144.7818453940
0
LINE
5
2FF
100
AcDbEntity
8
0
100
AcDbLine
62
7
6
CONTINUOUS
10
205.6692664685
20
177.1643602190
11
205.6692664685
21
178.0143602190
0
LINE
5
300
100
AcDbEntity
8
0
100
AcDbLine
62
7
6
CONTINUOUS
10
206.2442664685
20
144.3143602190
11
206.2442664685
21
145.1643602190
0
LINE
5
301
100
AcDbEntity
8
0
100
AcDbLine
62
7
6
CONTINUOUS
10
206.2442664685
20
178.1643602190
11
206.2442664685
21
179.2643602190
0
LINE
5
302
100
AcDbEntity
8
0
100
AcDbLine
62
7
6
CONTINUOUS
10
208.8442664685
20
177.1643602190
11
208.8442664685
21
145.1643602190
0
LINE
5
303
100
AcDbEntity
8
0
100
AcDbLine
62
7
6
CONTINUOUS
10
209.7442664685
20
177.1643602190
11
209.7442664685
21
145.1643602190
0
LINE
5
304
100
AcDbEntity
8
0
100
AcDbLine
62
7
6
CONTINUOUS
10
204.7552257421
20
144.5618300485
11
204.8060202870
21
144.7818453940
0
LINE
5
305
100
AcDbEntity
8
0
100
AcDbLine
62
7
6
CONTINUOUS
10
213.7825126219
20
178.5468749223
11
213.8333071948
21
178.7668903894
0
LINE
5
306
100
AcDbEntity
8
0
100
AcDbLine
62
7
6
CONTINUOUS
10
204.8060203151
20
178.5468749223
11
204.7552257421
21
178.7668903894
0
LINE
5
307
100
AcDbEntity
8
0
100
AcDbLine
62
7
6
CONTINUOUS
10
213.8333071948
20
144.5618300485
11
213.7825126499
21
144.7818453940
0
LINE
5
308
100
AcDbEntity
8
0
100
AcDbLine
62
7
6
CONTINUOUS
10
212.3442664685
20
144.3143602190
11
212.3442664685
21
145.1643602190
0
LINE
5
309
100
AcDbEntity
8
0
100
AcDbLine
62
7
6
CONTINUOUS
10
212.3442664685
20
178.1643602190
11
212.3442664685
21
179.2643602190
0
LINE
5
30A
100
AcDbEntity
8
0
100
AcDbLine
62
7
6
CONTINUOUS
10
212.9192664685
20
177.1643602190
11
212.9192664685
21
178.0143602190
0
LINE
5
30B
100
AcDbEntity
8
0
100
AcDbLine
62
7
6
CONTINUOUS
10
217.7692664685
20
177.1643602190
11
217.7692664685
21
178.0143602190
0
LINE
5
30C
100
AcDbEntity
8
0
100
AcDbLine
62
7
6
CONTINUOUS
10
218.3442664685
20
144.3143602190
11
218.3442664685
21
145.1643602190
0
LINE
5
30D
100
AcDbEntity
8
0
100
AcDbLine
62
7
6
CONTINUOUS
10
218.3442664685
20
178.1643602190
11
218.3442664685
21
179.2643602190
0
LINE
5
30E
100
AcDbEntity
8
0
100
AcDbLine
62
7
6
CONTINUOUS
10
220.9442664685
20
177.1643602190
11
220.9442664685
21
145.1643602190
0
LINE
5
30F
100
AcDbEntity
8
0
100
AcDbLine
62
7
6
CONTINUOUS
10
221.8442664685
20
177.1643602190
11
221.8442664685
21
145.1643602190
0
LINE
5
310
100
AcDbEntity
8
0
100
AcDbLine
62
7
6
CONTINUOUS
10
224.4442664685
20
144.3143602190
11
224.4442664685
21
145.1643602190
0
LINE
5
311
100
AcDbEntity
8
0
100
AcDbLine
62
7
6
CONTINUOUS
10
224.4442664685
20
178.1643602190
11
224.4442664685
21
179.2643602190
0
LINE
5
312
100
AcDbEntity
8
0
100
AcDbLine
62
7
6
CONTINUOUS
10
225.0192664685
20
177.1643602190
11
225.0192664685
21
178.0143602190
0
LINE
5
313
100
AcDbEntity
8
0
100
AcDbLine
62
7
6
CONTINUOUS
10
216.8552257421
20
144.5618300485
11
216.9060202870
21
144.7818453940
0
LINE
5
314
100
AcDbEntity
8
0
100
AcDbLine
62
7
6
CONTINUOUS
10
225.8825126219
20
178.5468749223
11
225.9333071948
21
178.7668903894
0
LINE
5
315
100
AcDbEntity
8
0
100
AcDbLine
62
7
6
CONTINUOUS
10
317.9442664685
20
129.3143602190
11
196.9442664685
21
129.3143602190
0
LINE
5
316
100
AcDbEntity
8
0
100
AcDbLine
62
7
6
CONTINUOUS
10
216.9060203151
20
178.5468749223
11
216.8552257421
21
178.7668903894
0
LINE
5
317
100
AcDbEntity
8
0
100
AcDbLine
62
7
6
CONTINUOUS
10
225.9333071948
20
144.5618300485
11
225.8825126499
21
144.7818453940
0
LINE
5
318
100
AcDbEntity
8
0
100
AcDbLine
62
7
6
CONTINUOUS
10
229.8692664685
20
177.1643602190
11
229.8692664685
21
178.0143602190
0
LINE
5
319
100
AcDbEntity
8
0
100
AcDbLine
62
7
6
CONTINUOUS
10
230.4442664685
20
144.3143602190
11
230.4442664685
21
145.1643602190
0
LINE
5
31A
100
AcDbEntity
8
0
100
AcDbLine
62
7
6
CONTINUOUS
10
230.4442664685
20
178.1643602190
11
230.4442664685
21
179.2643602190
0
LINE
5
31B
100
AcDbEntity
8
0
100
AcDbLine
62
9
6
CONTINUOUS
10
317.9442664685
20
132.3143602190
11
196.9442664685
21
132.3143602190
0
LINE
5
31C
100
AcDbEntity
8
0
100
AcDbLine
62
7
6
CONTINUOUS
10
233.0442664685
20
177.1643602190
11
233.0442664685
21
145.1643602190
0
LINE
5
31D
100
AcDbEntity
8
0
100
AcDbLine
62
7
6
CONTINUOUS
10
233.9442664685
20
177.1643602190
11
233.9442664685
21
145.1643602190
0
LINE
5
31E
100
AcDbEntity
8
0
100
AcDbLine
62
7
6
CONTINUOUS
10
228.9552257421
20
144.5618300485
11
229.0060202870
21
144.7818453940
0
LINE
5
31F
100
AcDbEntity
8
0
100
AcDbLine
62
7
6
CONTINUOUS
10
237.9825126219
20
178.5468749223
11
238.0333071948
21
178.7668903894
0
LINE
5
320
100
AcDbEntity
8
0
100
AcDbLine
62
7
6
CONTINUOUS
10
229.0060203151
20
178.5468749223
11
228.9552257421
21
178.7668903894
0
LINE
5
321
100
AcDbEntity
8
0
100
AcDbLine
62
7
6
CONTINUOUS
10
238.0333071948
20
144.5618300485
11
237.9825126499
21
144.7818453940
0
LINE
5
322
100
AcDbEntity
8
0
100
AcDbLine
62
7
6
CONTINUOUS
10
236.5442664685
20
144.3143602190
11
236.5442664685
21
145.1643602190
0
LINE
5
323
100
AcDbEntity
8
0
100
AcDbLine
62
7
6
CONTINUOUS
10
236.5442664685
20
178.1643602190
11
236.5442664685
21
179.2643602190
0
LINE
5
324
100
AcDbEntity
8
0
100
AcDbLine
62
7
6
CONTINUOUS
10
237.1192664685
20
177.1643602190
11
237.1192664685
21
178.0143602190
0
LINE
5
325
100
AcDbEntity
8
0
100
AcDbLine
62
9
6
CONTINUOUS
10
317.9442664685
20
143.8143602190
11
196.9442664685
21
143.8143602190
0
LINE
5
326
100
AcDbEntity
8
0
100
AcDbLine
62
7
6
CONTINUOUS
10
241.9692664685
20
177.1643602190
11
241.9692664685
21
178.0143602190
0
LINE
5
327
100
AcDbEntity
8
0
100
AcDbLine
62
7
6
CONTINUOUS
10
242.5442664685
20
144.3143602190
11
242.5442664685
21
145.1643602190
0
LINE
5
328
100
AcDbEntity
8
0
100
AcDbLine
62
7
6
CONTINUOUS
10
242.5442664685
20
178.1643602190
11
242.5442664685
21
179.2643602190
0
LINE
5
329
100
AcDbEntity
8
0
100
AcDbLine
62
7
6
CONTINUOUS
10
198.8282410647
20
144.4973729209
11
198.5112537666
21
144.3143602190
0
LINE
5
32A
100
AcDbEntity
8
0
100
AcDbLine
62
7
6
CONTINUOUS
10
317.9442664685
20
144.3143602190
11
196.9442664685
21
144.3143602190
0
LINE
5
32B
100
AcDbEntity
8
0
100
AcDbLine
62
7
6
CONTINUOUS
10
316.3102918722
20
144.5643602190
11
316.1442664685
21
144.5643602190
0
LINE
5
32C
100
AcDbEntity
8
0
100
AcDbLine
62
7
6
CONTINUOUS
10
315.1442664685
20
144.5643602190
11
309.1442664685
21
144.5643602190
0
LINE
5
32D
100
AcDbEntity
8
0
100
AcDbLine
62
7
6
CONTINUOUS
10
303.0442664685
20
144.5643602190
11
297.0442664685
21
144.5643602190
0
LINE
5
32E
100
AcDbEntity
8
0
100
AcDbLine
62
7
6
CONTINUOUS
10
290.9442664685
20
144.5643602190
11
284.9442664685
21
144.5643602190
0
LINE
5
32F
100
AcDbEntity
8
0
100
AcDbLine
62
7
6
CONTINUOUS
10
278.8442664685
20
144.5643602190
11
272.8442664685
21
144.5643602190
0
LINE
5
330
100
AcDbEntity
8
0
100
AcDbLine
62
7
6
CONTINUOUS
10
266.7442664685
20
144.5643602190
11
260.7442664685
21
144.5643602190
0
LINE
5
331
100
AcDbEntity
8
0
100
AcDbLine
62
7
6
CONTINUOUS
10
254.6442664685
20
144.5643602190
11
248.6442664685
21
144.5643602190
0
LINE
5
332
100
AcDbEntity
8
0
100
AcDbLine
62
7
6
CONTINUOUS
10
242.5442664685
20
144.5643602190
11
236.5442664685
21
144.5643602190
0
LINE
5
333
100
AcDbEntity
8
0
100
AcDbLine
62
7
6
CONTINUOUS
10
230.4442664685
20
144.5643602190
11
224.4442664685
21
144.5643602190
0
LINE
5
334
100
AcDbEntity
8
0
100
AcDbLine
62
7
6
CONTINUOUS
10
218.3442664685
20
144.5643602190
11
212.3442664685
21
144.5643602190
0
LINE
5
335
100
AcDbEntity
8
0
100
AcDbLine
62
7
6
CONTINUOUS
10
206.2442664685
20
144.5643602190
11
200.2442664685
21
144.5643602190
0
LINE
5
336
100
AcDbEntity
8
0
100
AcDbLine
62
7
6
CONTINUOUS
10
199.2442664685
20
144.5643602190
11
199.0782410647
21
144.5643602190
0
LINE
5
337
100
AcDbEntity
8
0
100
AcDbLine
62
9
6
CONTINUOUS
10
199.2442664685
20
144.6643602190
11
200.2442664685
21
144.6643602190
0
LINE
5
338
100
AcDbEntity
8
0
100
AcDbLine
62
9
6
CONTINUOUS
10
206.2442664685
20
144.6643602190
11
212.3442664685
21
144.6643602190
0
LINE
5
339
100
AcDbEntity
8
0
100
AcDbLine
62
9
6
CONTINUOUS
10
218.3442664685
20
144.6643602190
11
224.4442664685
21
144.6643602190
0
LINE
5
33A
100
AcDbEntity
8
0
100
AcDbLine
62
9
6
CONTINUOUS
10
230.4442664685
20
144.6643602190
11
236.5442664685
21
144.6643602190
0
LINE
5
33B
100
AcDbEntity
8
0
100
AcDbLine
62
9
6
CONTINUOUS
10
242.5442664685
20
144.6643602190
11
248.6442664685
21
144.6643602190
0
LINE
5
33C
100
AcDbEntity
8
0
100
AcDbLine
62
9
6
CONTINUOUS
10
254.6442664685
20
144.6643602190
11
260.7442664685
21
144.6643602190
0
LINE
5
33D
100
AcDbEntity
8
0
100
AcDbLine
62
9
6
CONTINUOUS
10
266.7442664685
20
144.6643602190
11
272.8442664685
21
144.6643602190
0
LINE
5
33E
100
AcDbEntity
8
0
100
AcDbLine
62
9
6
CONTINUOUS
10
278.8442664685
20
144.6643602190
11
284.9442664685
21
144.6643602190
0
LINE
5
33F
100
AcDbEntity
8
0
100
AcDbLine
62
9
6
CONTINUOUS
10
290.9442664685
20
144.6643602190
11
297.0442664685
21
144.6643602190
0
LINE
5
340
100
AcDbEntity
8
0
100
AcDbLine
62
9
6
CONTINUOUS
10
303.0442664685
20
144.6643602190
11
309.1442664685
21
144.6643602190
0
LINE
5
341
100
AcDbEntity
8
0
100
AcDbLine
62
9
6
CONTINUOUS
10
315.1442664685
20
144.6643602190
11
316.1442664685
21
144.6643602190
0
LINE
5
342
100
AcDbEntity
8
0
100
AcDbLine
62
9
6
CONTINUOUS
10
277.4060202902
20
144.7818454082
11
274.2825126467
21
144.7818454082
0
LINE
5
343
100
AcDbEntity
8
0
100
AcDbLine
62
9
6
CONTINUOUS
10
265.3060202902
20
144.7818454082
11
262.1825126467
21
144.7818454082
0
LINE
5
344
100
AcDbEntity
8
0
100
AcDbLine
62
9
6
CONTINUOUS
10
253.2060202902
20
144.7818454082
11
250.0825126467
21
144.7818454082
0
LINE
5
345
100
AcDbEntity
8
0
100
AcDbLine
62
9
6
CONTINUOUS
10
241.1060202902
20
144.7818454082
11
237.9825126467
21
144.7818454082
0
LINE
5
346
100
AcDbEntity
8
0
100
AcDbLine
62
9
6
CONTINUOUS
10
310.5825126190
20
144.7818455282
11
313.7060203180
21
144.7818455282
0
LINE
5
347
100
AcDbEntity
8
0
100
AcDbLine
62
9
6
CONTINUOUS
10
289.5060202902
20
144.7818454082
11
286.3825126467
21
144.7818454082
0
LINE
5
348
100
AcDbEntity
8
0
100
AcDbLine
62
9
6
CONTINUOUS
10
229.0060202902
20
144.7818454082
11
225.8825126467
21
144.7818454082
0
LINE
5
349
100
AcDbEntity
8
0
100
AcDbLine
62
9
6
CONTINUOUS
10
216.9060202902
20
144.7818454082
11
213.7825126467
21
144.7818454082
0
LINE
5
34A
100
AcDbEntity
8
0
100
AcDbLine
62
9
6
CONTINUOUS
10
204.8060202902
20
144.7818454082
11
201.6825126467
21
144.7818454082
0
LINE
5
34B
100
AcDbEntity
8
0
100
AcDbLine
62
9
6
CONTINUOUS
10
301.6060202902
20
144.9818454082
11
298.4825126467
21
144.9818454082
0
LINE
5
34C
100
AcDbEntity
8
0
100
AcDbLine
62
7
6
CONTINUOUS
10
314.2689819364
20
145.0143602190
11
310.0195510005
21
145.0143602190
0
LINE
5
34D
100
AcDbEntity
8
0
100
AcDbLine
62
7
6
CONTINUOUS
10
290.0689819364
20
145.0143602190
11
285.8195510005
21
145.0143602190
0
LINE
5
34E
100
AcDbEntity
8
0
100
AcDbLine
62
7
6
CONTINUOUS
10
277.9689819364
20
145.0143602190
11
273.7195510005
21
145.0143602190
0
LINE
5
34F
100
AcDbEntity
8
0
100
AcDbLine
62
7
6
CONTINUOUS
10
265.8689819364
20
145.0143602190
11
261.6195510005
21
145.0143602190
0
LINE
5
350
100
AcDbEntity
8
0
100
AcDbLine
62
7
6
CONTINUOUS
10
253.7692664685
20
145.0143602190
11
249.5195510005
21
145.0143602190
0
LINE
5
351
100
AcDbEntity
8
0
100
AcDbLine
62
7
6
CONTINUOUS
10
241.6689819364
20
145.0143602190
11
237.4195510005
21
145.0143602190
0
LINE
5
352
100
AcDbEntity
8
0
100
AcDbLine
62
7
6
CONTINUOUS
10
229.5689819364
20
145.0143602190
11
225.3195510005
21
145.0143602190
0
LINE
5
353
100
AcDbEntity
8
0
100
AcDbLine
62
7
6
CONTINUOUS
10
217.4689819364
20
145.0143602190
11
213.2195510005
21
145.0143602190
0
LINE
5
354
100
AcDbEntity
8
0
100
AcDbLine
62
7
6
CONTINUOUS
10
205.3689819364
20
145.0143602190
11
201.1195510005
21
145.0143602190
0
LINE
5
355
100
AcDbEntity
8
0
100
AcDbLine
62
7
6
CONTINUOUS
10
197.6442664685
20
145.1643602190
11
317.7442664685
21
145.1643602190
0
LINE
5
356
100
AcDbEntity
8
0
100
AcDbLine
62
7
6
CONTINUOUS
10
197.9916385243
20
179.3143602190
11
198.8282410647
21
178.8313475171
0
LINE
5
357
100
AcDbEntity
8
0
100
AcDbLine
62
9
6
CONTINUOUS
10
198.7416385243
20
179.3143602190
11
198.8282410647
21
179.2643602190
0
LINE
5
358
100
AcDbEntity
8
0
100
AcDbLine
62
7
6
CONTINUOUS
10
245.1442664685
20
177.1643602190
11
245.1442664685
21
145.1643602190
0
LINE
5
359
100
AcDbEntity
8
0
100
AcDbLine
62
7
6
CONTINUOUS
10
246.0442664685
20
177.1643602190
11
246.0442664685
21
145.1643602190
0
LINE
5
35A
100
AcDbEntity
8
0
100
AcDbLine
62
7
6
CONTINUOUS
10
248.6442664685
20
144.3143602190
11
248.6442664685
21
145.1643602190
0
LINE
5
35B
100
AcDbEntity
8
0
100
AcDbLine
62
7
6
CONTINUOUS
10
248.6442664685
20
178.1643602190
11
248.6442664685
21
179.2643602190
0
LINE
5
35C
100
AcDbEntity
8
0
100
AcDbLine
62
7
6
CONTINUOUS
10
241.0552257421
20
144.5618300485
11
241.1060202870
21
144.7818453940
0
LINE
5
35D
100
AcDbEntity
8
0
100
AcDbLine
62
7
6
CONTINUOUS
10
250.0825126219
20
178.5468749223
11
250.1333071948
21
178.7668903894
0
LINE
5
35E
100
AcDbEntity
8
0
100
AcDbLine
62
7
6
CONTINUOUS
10
241.1060203151
20
178.5468749223
11
241.0552257421
21
178.7668903894
0
LINE
5
35F
100
AcDbEntity
8
0
100
AcDbLine
62
7
6
CONTINUOUS
10
250.1333071948
20
144.5618300485
11
250.0825126499
21
144.7818453940
0
LINE
5
360
100
AcDbEntity
8
0
100
AcDbLine
62
7
6
CONTINUOUS
10
249.2192664685
20
177.1643602190
11
249.2192664685
21
178.0143602190
0
LINE
5
361
100
AcDbEntity
8
0
100
AcDbLine
62
7
6
CONTINUOUS
10
254.0692664685
20
177.1643602190
11
254.0692664685
21
178.0143602190
0
LINE
5
362
100
AcDbEntity
8
0
100
AcDbLine
62
7
6
CONTINUOUS
10
254.6442664685
20
144.3143602190
11
254.6442664685
21
145.1643602190
0
LINE
5
363
100
AcDbEntity
8
0
100
AcDbLine
62
7
6
CONTINUOUS
10
254.6442664685
20
178.1643602190
11
254.6442664685
21
179.2643602190
0
LINE
5
364
100
AcDbEntity
8
0
100
AcDbLine
62
7
6
CONTINUOUS
10
257.2442664685
20
177.1643602190
11
257.2442664685
21
145.1643602190
0
LINE
5
365
100
AcDbEntity
8
0
100
AcDbLine
62
7
6
CONTINUOUS
10
253.1552257421
20
144.5618300485
11
253.2060202870
21
144.7818453940
0
LINE
5
366
100
AcDbEntity
8
0
100
AcDbLine
62
7
6
CONTINUOUS
10
253.2060203151
20
178.5468749223
11
253.1552257421
21
178.7668903894
0
LINE
5
367
100
AcDbEntity
8
0
100
AcDbLine
62
7
6
CONTINUOUS
10
258.1442664685
20
177.1643602190
11
258.1442664685
21
145.1643602190
0
LINE
5
368
100
AcDbEntity
8
0
100
AcDbLine
62
7
6
CONTINUOUS
10
260.7442664685
20
144.3143602190
11
260.7442664685
21
145.1643602190
0
LINE
5
369
100
AcDbEntity
8
0
100
AcDbLine
62
7
6
CONTINUOUS
10
260.7442664685
20
178.1643602190
11
260.7442664685
21
179.2643602190
0
LINE
5
36A
100
AcDbEntity
8
0
100
AcDbLine
62
7
6
CONTINUOUS
10
261.3192664685
20
177.1643602190
11
261.3192664685
21
178.0143602190
0
LINE
5
36B
100
AcDbEntity
8
0
100
AcDbLine
62
7
6
CONTINUOUS
10
262.1825126219
20
178.5468749223
11
262.2333071948
21
178.7668903894
0
LINE
5
36C
100
AcDbEntity
8
0
100
AcDbLine
62
7
6
CONTINUOUS
10
262.2333071948
20
144.5618300485
11
262.1825126499
21
144.7818453940
0
LINE
5
36D
100
AcDbEntity
8
0
100
AcDbLine
62
7
6
CONTINUOUS
10
266.1692664685
20
177.1643602190
11
266.1692664685
21
178.0143602190
0
LINE
5
36E
100
AcDbEntity
8
0
100
AcDbLine
62
7
6
CONTINUOUS
10
266.7442664685
20
144.3143602190
11
266.7442664685
21
145.1643602190
0
LINE
5
36F
100
AcDbEntity
8
0
100
AcDbLine
62
7
6
CONTINUOUS
10
266.7442664685
20
178.1643602190
11
266.7442664685
21
179.2643602190
0
LINE
5
370
100
AcDbEntity
8
0
100
AcDbLine
62
7
6
CONTINUOUS
10
269.3442664685
20
177.1643602190
11
269.3442664685
21
145.1643602190
0
LINE
5
371
100
AcDbEntity
8
0
100
AcDbLine
62
7
6
CONTINUOUS
10
270.2442664685
20
177.1643602190
11
270.2442664685
21
145.1643602190
0
LINE
5
372
100
AcDbEntity
8
0
100
AcDbLine
62
7
6
CONTINUOUS
10
265.2552257421
20
144.5618300485
11
265.3060202870
21
144.7818453940
0
LINE
5
373
100
AcDbEntity
8
0
100
AcDbLine
62
7
6
CONTINUOUS
10
274.2825126219
20
178.5468749223
11
274.3333071948
21
178.7668903894
0
LINE
5
374
100
AcDbEntity
8
0
100
AcDbLine
62
7
6
CONTINUOUS
10
265.3060203151
20
178.5468749223
11
265.2552257421
21
178.7668903894
0
LINE
5
375
100
AcDbEntity
8
0
100
AcDbLine
62
7
6
CONTINUOUS
10
274.3333071948
20
144.5618300485
11
274.2825126499
21
144.7818453940
0
LINE
5
376
100
AcDbEntity
8
0
100
AcDbLine
62
7
6
CONTINUOUS
10
272.8442664685
20
144.3143602190
11
272.8442664685
21
145.1643602190
0
LINE
5
377
100
AcDbEntity
8
0
100
AcDbLine
62
7
6
CONTINUOUS
10
272.8442664685
20
178.1643602190
11
272.8442664685
21
179.2643602190
0
LINE
5
378
100
AcDbEntity
8
0
100
AcDbLine
62
7
6
CONTINUOUS
10
273.4192664685
20
177.1643602190
11
273.4192664685
21
178.0143602190
0
LINE
5
379
100
AcDbEntity
8
0
100
AcDbLine
62
9
6
CONTINUOUS
10
316.5602918722
20
179.2643602190
11
316.6468944126
21
179.3143602190
0
LINE
5
37A
100
AcDbEntity
8
0
100
AcDbLine
62
7
6
CONTINUOUS
10
316.5602918722
20
178.8313475171
11
317.3968944126
21
179.3143602190
0
LINE
5
37B
100
AcDbEntity
8
0
100
AcDbLine
62
7
6
CONTINUOUS
10
317.7442664685
20
177.1643602190
11
306.5442664685
21
177.1643602190
0
LINE
5
37C
100
AcDbEntity
8
0
100
AcDbLine
62
7
6
CONTINUOUS
10
305.6442664685
20
177.1643602190
11
294.4442664685
21
177.1643602190
0
LINE
5
37D
100
AcDbEntity
8
0
100
AcDbLine
62
7
6
CONTINUOUS
10
293.5442664685
20
177.1643602190
11
282.3442664685
21
177.1643602190
0
LINE
5
37E
100
AcDbEntity
8
0
100
AcDbLine
62
7
6
CONTINUOUS
10
281.4442664685
20
177.1643602190
11
270.2442664685
21
177.1643602190
0
LINE
5
37F
100
AcDbEntity
8
0
100
AcDbLine
62
7
6
CONTINUOUS
10
269.3442664685
20
177.1643602190
11
258.1442664685
21
177.1643602190
0
LINE
5
380
100
AcDbEntity
8
0
100
AcDbLine
62
7
6
CONTINUOUS
10
257.2442664685
20
177.1643602190
11
246.0442664685
21
177.1643602190
0
LINE
5
381
100
AcDbEntity
8
0
100
AcDbLine
62
7
6
CONTINUOUS
10
245.1442664685
20
177.1643602190
11
233.9442664685
21
177.1643602190
0
LINE
5
382
100
AcDbEntity
8
0
100
AcDbLine
62
7
6
CONTINUOUS
10
233.0442664685
20
177.1643602190
11
221.8442664685
21
177.1643602190
0
LINE
5
383
100
AcDbEntity
8
0
100
AcDbLine
62
7
6
CONTINUOUS
10
220.9442664685
20
177.1643602190
11
209.7442664685
21
177.1643602190
0
LINE
5
384
100
AcDbEntity
8
0
100
AcDbLine
62
7
6
CONTINUOUS
10
208.8442664685
20
177.1643602190
11
197.6442664685
21
177.1643602190
0
LINE
5
385
100
AcDbEntity
8
0
100
AcDbLine
62
9
6
CONTINUOUS
10
200.8192664688
20
178.0143602190
11
205.6692664681
21
178.0143602190
0
LINE
5
386
100
AcDbEntity
8
0
100
AcDbLine
62
9
6
CONTINUOUS
10
212.9192664688
20
178.0143602190
11
217.7692664681
21
178.0143602190
0
LINE
5
387
100
AcDbEntity
8
0
100
AcDbLine
62
9
6
CONTINUOUS
10
225.0192664688
20
178.0143602190
11
229.8692664681
21
178.0143602190
0
LINE
5
388
100
AcDbEntity
8
0
100
AcDbLine
62
9
6
CONTINUOUS
10
237.1192664688
20
178.0143602190
11
241.9692664681
21
178.0143602190
0
LINE
5
389
100
AcDbEntity
8
0
100
AcDbLine
62
9
6
CONTINUOUS
10
249.2192664688
20
178.0143602190
11
254.0692664681
21
178.0143602190
0
LINE
5
38A
100
AcDbEntity
8
0
100
AcDbLine
62
9
6
CONTINUOUS
10
261.3192664688
20
178.0143602190
11
266.1692664681
21
178.0143602190
0
LINE
5
38B
100
AcDbEntity
8
0
100
AcDbLine
62
9
6
CONTINUOUS
10
273.4192664688
20
178.0143602190
11
278.2692664681
21
178.0143602190
0
LINE
5
38C
100
AcDbEntity
8
0
100
AcDbLine
62
9
6
CONTINUOUS
10
285.5192664688
20
178.0143602190
11
290.3692664681
21
178.0143602190
0
LINE
5
38D
100
AcDbEntity
8
0
100
AcDbLine
62
9
6
CONTINUOUS
10
309.7192664688
20
178.0143602190
11
314.5692664681
21
178.0143602190
0
LINE
5
38E
100
AcDbEntity
8
0
100
AcDbLine
62
7
6
CONTINUOUS
10
316.1442664685
20
178.1643602190
11
315.1442664685
21
178.1643602190
0
LINE
5
38F
100
AcDbEntity
8
0
100
AcDbLine
62
7
6
CONTINUOUS
10
309.1442664685
20
178.1643602190
11
303.0442664685
21
178.1643602190
0
LINE
5
390
100
AcDbEntity
8
0
100
AcDbLine
62
7
6
CONTINUOUS
10
297.0442664685
20
178.1643602190
11
290.9442664685
21
178.1643602190
0
LINE
5
391
100
AcDbEntity
8
0
100
AcDbLine
62
7
6
CONTINUOUS
10
284.9442664685
20
178.1643602190
11
278.8442664685
21
178.1643602190
0
LINE
5
392
100
AcDbEntity
8
0
100
AcDbLine
62
7
6
CONTINUOUS
10
272.8442664685
20
178.1643602190
11
266.7442664685
21
178.1643602190
0
LINE
5
393
100
AcDbEntity
8
0
100
AcDbLine
62
7
6
CONTINUOUS
10
260.7442664685
20
178.1643602190
11
254.6442664685
21
178.1643602190
0
LINE
5
394
100
AcDbEntity
8
0
100
AcDbLine
62
7
6
CONTINUOUS
10
248.6442664685
20
178.1643602190
11
242.5442664685
21
178.1643602190
0
LINE
5
395
100
AcDbEntity
8
0
100
AcDbLine
62
7
6
CONTINUOUS
10
236.5442664685
20
178.1643602190
11
230.4442664685
21
178.1643602190
0
LINE
5
396
100
AcDbEntity
8
0
100
AcDbLine
62
7
6
CONTINUOUS
10
224.4442664685
20
178.1643602190
11
218.3442664685
21
178.1643602190
0
LINE
5
397
100
AcDbEntity
8
0
100
AcDbLine
62
7
6
CONTINUOUS
10
212.3442664685
20
178.1643602190
11
206.2442664685
21
178.1643602190
0
LINE
5
398
100
AcDbEntity
8
0
100
AcDbLine
62
7
6
CONTINUOUS
10
200.2442664685
20
178.1643602190
11
199.2442664685
21
178.1643602190
0
LINE
5
399
100
AcDbEntity
8
0
100
AcDbLine
62
9
6
CONTINUOUS
10
297.6192664688
20
178.2143602190
11
302.4692664681
21
178.2143602190
0
LINE
5
39A
100
AcDbEntity
8
0
100
AcDbLine
62
7
6
CONTINUOUS
10
201.1195510005
20
178.3143602190
11
205.3692664685
21
178.3143602190
0
LINE
5
39B
100
AcDbEntity
8
0
100
AcDbLine
62
7
6
CONTINUOUS
10
213.2195510005
20
178.3143602190
11
217.4692664685
21
178.3143602190
0
LINE
5
39C
100
AcDbEntity
8
0
100
AcDbLine
62
7
6
CONTINUOUS
10
225.3195510005
20
178.3143602190
11
229.5692664685
21
178.3143602190
0
LINE
5
39D
100
AcDbEntity
8
0
100
AcDbLine
62
7
6
CONTINUOUS
10
237.4195510005
20
178.3143602190
11
241.6692664685
21
178.3143602190
0
LINE
5
39E
100
AcDbEntity
8
0
100
AcDbLine
62
7
6
CONTINUOUS
10
249.5195510005
20
178.3143602190
11
253.7692664685
21
178.3143602190
0
LINE
5
39F
100
AcDbEntity
8
0
100
AcDbLine
62
7
6
CONTINUOUS
10
261.6195510005
20
178.3143602190
11
265.8692664685
21
178.3143602190
0
LINE
5
3A0
100
AcDbEntity
8
0
100
AcDbLine
62
7
6
CONTINUOUS
10
273.7195510005
20
178.3143602190
11
277.9692664685
21
178.3143602190
0
LINE
5
3A1
100
AcDbEntity
8
0
100
AcDbLine
62
7
6
CONTINUOUS
10
285.8195510005
20
178.3143602190
11
290.0692664685
21
178.3143602190
0
LINE
5
3A2
100
AcDbEntity
8
0
100
AcDbLine
62
7
6
CONTINUOUS
10
310.0192664685
20
178.3143602190
11
314.2689819364
21
178.3143602190
0
LINE
5
3A3
100
AcDbEntity
8
0
100
AcDbLine
62
7
6
CONTINUOUS
10
297.9195510005
20
178.5143602190
11
302.1692664685
21
178.5143602190
0
LINE
5
3A4
100
AcDbEntity
8
0
100
AcDbLine
62
9
6
CONTINUOUS
10
289.5060203180
20
178.5468749097
11
286.3825126190
21
178.5468749097
0
LINE
5
3A5
100
AcDbEntity
8
0
100
AcDbLine
62
9
6
CONTINUOUS
10
277.4060203180
20
178.5468749097
11
274.2825126190
21
178.5468749097
0
LINE
5
3A6
100
AcDbEntity
8
0
100
AcDbLine
62
9
6
CONTINUOUS
10
265.3060203180
20
178.5468749097
11
262.1825126190
21
178.5468749097
0
LINE
5
3A7
100
AcDbEntity
8
0
100
AcDbLine
62
9
6
CONTINUOUS
10
253.2060203180
20
178.5468749097
11
250.0825126190
21
178.5468749097
0
LINE
5
3A8
100
AcDbEntity
8
0
100
AcDbLine
62
9
6
CONTINUOUS
10
241.1060203180
20
178.5468749097
11
237.9825126190
21
178.5468749097
0
LINE
5
3A9
100
AcDbEntity
8
0
100
AcDbLine
62
9
6
CONTINUOUS
10
229.0060203180
20
178.5468749097
11
225.8825126190
21
178.5468749097
0
LINE
5
3AA
100
AcDbEntity
8
0
100
AcDbLine
62
9
6
CONTINUOUS
10
216.9060203180
20
178.5468749097
11
213.7825126190
21
178.5468749097
0
LINE
5
3AB
100
AcDbEntity
8
0
100
AcDbLine
62
9
6
CONTINUOUS
10
204.8060203180
20
178.5468749097
11
201.6825126190
21
178.5468749097
0
LINE
5
3AC
100
AcDbEntity
8
0
100
AcDbLine
62
9
6
CONTINUOUS
10
310.5825126467
20
178.5468750298
11
313.7060202902
21
178.5468750298
0
LINE
5
3AD
100
AcDbEntity
8
0
100
AcDbLine
62
9
6
CONTINUOUS
10
316.1442664685
20
178.6643602190
11
315.1442664685
21
178.6643602190
0
LINE
5
3AE
100
AcDbEntity
8
0
100
AcDbLine
62
9
6
CONTINUOUS
10
309.1442664685
20
178.6643602190
11
303.0442664685
21
178.6643602190
0
LINE
5
3AF
100
AcDbEntity
8
0
100
AcDbLine
62
9
6
CONTINUOUS
10
297.0442664685
20
178.6643602190
11
290.9442664685
21
178.6643602190
0
LINE
5
3B0
100
AcDbEntity
8
0
100
AcDbLine
62
9
6
CONTINUOUS
10
284.9442664685
20
178.6643602190
11
278.8442664685
21
178.6643602190
0
LINE
5
3B1
100
AcDbEntity
8
0
100
AcDbLine
62
9
6
CONTINUOUS
10
272.8442664685
20
178.6643602190
11
266.7442664685
21
178.6643602190
0
LINE
5
3B2
100
AcDbEntity
8
0
100
AcDbLine
62
9
6
CONTINUOUS
10
260.7442664685
20
178.6643602190
11
254.6442664685
21
178.6643602190
0
LINE
5
3B3
100
AcDbEntity
8
0
100
AcDbLine
62
9
6
CONTINUOUS
10
248.6442664685
20
178.6643602190
11
242.5442664685
21
178.6643602190
0
LINE
5
3B4
100
AcDbEntity
8
0
100
AcDbLine
62
9
6
CONTINUOUS
10
236.5442664685
20
178.6643602190
11
230.4442664685
21
178.6643602190
0
LINE
5
3B5
100
AcDbEntity
8
0
100
AcDbLine
62
9
6
CONTINUOUS
10
224.4442664685
20
178.6643602190
11
218.3442664685
21
178.6643602190
0
LINE
5
3B6
100
AcDbEntity
8
0
100
AcDbLine
62
9
6
CONTINUOUS
10
212.3442664685
20
178.6643602190
11
206.2442664685
21
178.6643602190
0
LINE
5
3B7
100
AcDbEntity
8
0
100
AcDbLine
62
9
6
CONTINUOUS
10
200.2442664685
20
178.6643602190
11
199.2442664685
21
178.6643602190
0
LINE
5
3B8
100
AcDbEntity
8
0
100
AcDbLine
62
9
6
CONTINUOUS
10
301.6060203180
20
178.7468749097
11
298.4825126190
21
178.7468749097
0
LINE
5
3B9
100
AcDbEntity
8
0
100
AcDbLine
62
7
6
CONTINUOUS
10
199.0782410647
20
178.7643602190
11
199.2442664685
21
178.7643602190
0
LINE
5
3BA
100
AcDbEntity
8
0
100
AcDbLine
62
7
6
CONTINUOUS
10
200.2442664685
20
178.7643602190
11
206.2442664685
21
178.7643602190
0
LINE
5
3BB
100
AcDbEntity
8
0
100
AcDbLine
62
7
6
CONTINUOUS
10
212.3442664685
20
178.7643602190
11
218.3442664685
21
178.7643602190
0
LINE
5
3BC
100
AcDbEntity
8
0
100
AcDbLine
62
7
6
CONTINUOUS
10
224.4442664685
20
178.7643602190
11
230.4442664685
21
178.7643602190
0
LINE
5
3BD
100
AcDbEntity
8
0
100
AcDbLine
62
7
6
CONTINUOUS
10
236.5442664685
20
178.7643602190
11
242.5442664685
21
178.7643602190
0
LINE
5
3BE
100
AcDbEntity
8
0
100
AcDbLine
62
7
6
CONTINUOUS
10
248.6442664685
20
178.7643602190
11
254.6442664685
21
178.7643602190
0
LINE
5
3BF
100
AcDbEntity
8
0
100
AcDbLine
62
7
6
CONTINUOUS
10
260.7442664685
20
178.7643602190
11
266.7442664685
21
178.7643602190
0
LINE
5
3C0
100
AcDbEntity
8
0
100
AcDbLine
62
7
6
CONTINUOUS
10
272.8442664685
20
178.7643602190
11
278.8442664685
21
178.7643602190
0
LINE
5
3C1
100
AcDbEntity
8
0
100
AcDbLine
62
7
6
CONTINUOUS
10
284.9442664685
20
178.7643602190
11
290.9442664685
21
178.7643602190
0
LINE
5
3C2
100
AcDbEntity
8
0
100
AcDbLine
62
7
6
CONTINUOUS
10
297.0442664685
20
178.7643602190
11
303.0442664685
21
178.7643602190
0
LINE
5
3C3
100
AcDbEntity
8
0
100
AcDbLine
62
7
6
CONTINUOUS
10
309.1442664685
20
178.7643602190
11
315.1442664685
21
178.7643602190
0
LINE
5
3C4
100
AcDbEntity
8
0
100
AcDbLine
62
7
6
CONTINUOUS
10
316.1442664685
20
178.7643602190
11
316.3102918722
21
178.7643602190
0
LINE
5
3C5
100
AcDbEntity
8
0
100
AcDbLine
62
9
6
CONTINUOUS
10
198.8282410647
20
179.2643602190
11
199.2442664685
21
179.2643602190
0
LINE
5
3C6
100
AcDbEntity
8
0
100
AcDbLine
62
9
6
CONTINUOUS
10
200.2442664685
20
179.2643602190
11
206.2442664685
21
179.2643602190
0
LINE
5
3C7
100
AcDbEntity
8
0
100
AcDbLine
62
9
6
CONTINUOUS
10
212.3442664685
20
179.2643602190
11
218.3442664685
21
179.2643602190
0
LINE
5
3C8
100
AcDbEntity
8
0
100
AcDbLine
62
9
6
CONTINUOUS
10
224.4442664685
20
179.2643602190
11
230.4442664685
21
179.2643602190
0
LINE
5
3C9
100
AcDbEntity
8
0
100
AcDbLine
62
9
6
CONTINUOUS
10
236.5442664685
20
179.2643602190
11
242.5442664685
21
179.2643602190
0
LINE
5
3CA
100
AcDbEntity
8
0
100
AcDbLine
62
9
6
CONTINUOUS
10
248.6442664685
20
179.2643602190
11
254.6442664685
21
179.2643602190
0
LINE
5
3CB
100
AcDbEntity
8
0
100
AcDbLine
62
9
6
CONTINUOUS
10
260.7442664685
20
179.2643602190
11
266.7442664685
21
179.2643602190
0
LINE
5
3CC
100
AcDbEntity
8
0
100
AcDbLine
62
9
6
CONTINUOUS
10
272.8442664685
20
179.2643602190
11
278.8442664685
21
179.2643602190
0
LINE
5
3CD
100
AcDbEntity
8
0
100
AcDbLine
62
9
6
CONTINUOUS
10
284.9442664685
20
179.2643602190
11
290.9442664685
21
179.2643602190
0
LINE
5
3CE
100
AcDbEntity
8
0
100
AcDbLine
62
9
6
CONTINUOUS
10
297.0442664685
20
179.2643602190
11
303.0442664685
21
179.2643602190
0
LINE
5
3CF
100
AcDbEntity
8
0
100
AcDbLine
62
9
6
CONTINUOUS
10
309.1442664685
20
179.2643602190
11
315.1442664685
21
179.2643602190
0
LINE
5
3D0
100
AcDbEntity
8
0
100
AcDbLine
62
9
6
CONTINUOUS
10
316.1442664685
20
179.2643602190
11
316.5602918722
21
179.2643602190
0
LINE
5
3D1
100
AcDbEntity
8
0
100
AcDbLine
62
7
6
CONTINUOUS
10
317.9442664685
20
179.3143602190
11
196.9442664685
21
179.3143602190
0
LINE
5
3D2
100
AcDbEntity
8
0
100
AcDbLine
62
9
6
CONTINUOUS
10
317.9442664685
20
179.8143602190
11
196.9442664685
21
179.8143602190
0
LINE
5
3D3
100
AcDbEntity
8
0
100
AcDbLine
62
7
6
CONTINUOUS
10
316.8772791704
20
144.3143602190
11
316.5602918722
21
144.4973729209
0
LINE
5
3D4
100
AcDbEntity
8
0
100
AcDbLine
62
7
6
CONTINUOUS
10
278.2692664685
20
177.1643602190
11
278.2692664685
21
178.0143602190
0
LINE
5
3D5
100
AcDbEntity
8
0
100
AcDbLine
62
7
6
CONTINUOUS
10
278.8442664685
20
144.3143602190
11
278.8442664685
21
145.1643602190
0
LINE
5
3D6
100
AcDbEntity
8
0
100
AcDbLine
62
7
6
CONTINUOUS
10
278.8442664685
20
178.1643602190
11
278.8442664685
21
179.2643602190
0
LINE
5
3D7
100
AcDbEntity
8
0
100
AcDbLine
62
7
6
CONTINUOUS
10
277.3552257421
20
144.5618300485
11
277.4060202870
21
144.7818453940
0
LINE
5
3D8
100
AcDbEntity
8
0
100
AcDbLine
62
7
6
CONTINUOUS
10
277.4060203151
20
178.5468749223
11
277.3552257421
21
178.7668903894
0
LINE
5
3D9
100
AcDbEntity
8
0
100
AcDbLine
62
7
6
CONTINUOUS
10
281.4442664685
20
177.1643602190
11
281.4442664685
21
145.1643602190
0
LINE
5
3DA
100
AcDbEntity
8
0
100
AcDbLine
62
7
6
CONTINUOUS
10
282.3442664685
20
177.1643602190
11
282.3442664685
21
145.1643602190
0
LINE
5
3DB
100
AcDbEntity
8
0
100
AcDbLine
62
7
6
CONTINUOUS
10
284.9442664685
20
144.3143602190
11
284.9442664685
21
145.1643602190
0
LINE
5
3DC
100
AcDbEntity
8
0
100
AcDbLine
62
7
6
CONTINUOUS
10
284.9442664685
20
178.1643602190
11
284.9442664685
21
179.2643602190
0
LINE
5
3DD
100
AcDbEntity
8
0
100
AcDbLine
62
7
6
CONTINUOUS
10
285.5192664685
20
177.1643602190
11
285.5192664685
21
178.0143602190
0
LINE
5
3DE
100
AcDbEntity
8
0
100
AcDbLine
62
7
6
CONTINUOUS
10
286.3825126219
20
178.5468749223
11
286.4333071948
21
178.7668903894
0
LINE
5
3DF
100
AcDbEntity
8
0
100
AcDbLine
62
7
6
CONTINUOUS
10
286.4333071948
20
144.5618300485
11
286.3825126499
21
144.7818453940
0
LINE
5
3E0
100
AcDbEntity
8
0
100
AcDbLine
62
9
6
CONTINUOUS
10
317.9442664685
20
192.6643602190
11
196.9442664685
21
192.6643602190
0
LINE
5
3E1
100
AcDbEntity
8
0
100
AcDbLine
62
7
6
CONTINUOUS
10
317.9442664685
20
194.3143602190
11
196.9442664685
21
194.3143602190
0
LINE
5
3E2
100
AcDbEntity
8
0
100
AcDbLine
62
7
6
CONTINUOUS
10
290.3692664685
20
177.1643602190
11
290.3692664685
21
178.0143602190
0
LINE
5
3E3
100
AcDbEntity
8
0
100
AcDbLine
62
7
6
CONTINUOUS
10
290.9442664685
20
144.3143602190
11
290.9442664685
21
145.1643602190
0
LINE
5
3E4
100
AcDbEntity
8
0
100
AcDbLine
62
7
6
CONTINUOUS
10
290.9442664685
20
178.1643602190
11
290.9442664685
21
179.2643602190
0
LINE
5
3E5
100
AcDbEntity
8
0
100
AcDbLine
62
7
6
CONTINUOUS
10
293.5442664685
20
177.1643602190
11
293.5442664685
21
145.1643602190
0
LINE
5
3E6
100
AcDbEntity
8
0
100
AcDbLine
62
7
6
CONTINUOUS
10
294.4442664685
20
177.1643602190
11
294.4442664685
21
145.1643602190
0
LINE
5
3E7
100
AcDbEntity
8
0
100
AcDbLine
62
7
6
CONTINUOUS
10
289.4552257421
20
144.5618300485
11
289.5060202870
21
144.7818453940
0
LINE
5
3E8
100
AcDbEntity
8
0
100
AcDbLine
62
7
6
CONTINUOUS
10
289.5060203151
20
178.5468749223
11
289.4552257421
21
178.7668903894
0
LINE
5
3E9
100
AcDbEntity
8
0
100
AcDbLine
62
7
6
CONTINUOUS
10
298.5771443095
20
144.5719506439
11
298.4825126499
21
144.9818453940
0
LINE
5
3EA
100
AcDbEntity
8
0
100
AcDbLine
62
7
6
CONTINUOUS
10
297.0442664685
20
144.3143602190
11
297.0442664685
21
145.1643602190
0
LINE
5
3EB
100
AcDbEntity
8
0
100
AcDbLine
62
7
6
CONTINUOUS
10
297.0442664685
20
178.1643602190
11
297.0442664685
21
179.2643602190
0
LINE
5
3EC
100
AcDbEntity
8
0
100
AcDbLine
62
7
6
CONTINUOUS
10
297.6192664685
20
177.1643602190
11
297.6192664685
21
178.2143602190
0
LINE
5
3ED
100
AcDbEntity
8
0
100
AcDbLine
62
7
6
CONTINUOUS
10
302.4692664685
20
177.1643602190
11
302.4692664685
21
178.2143602190
0
LINE
5
3EE
100
AcDbEntity
8
0
100
AcDbLine
62
7
6
CONTINUOUS
10
303.0442664685
20
144.3143602190
11
303.0442664685
21
145.1643602190
0
LINE
5
3EF
100
AcDbEntity
8
0
100
AcDbLine
62
7
6
CONTINUOUS
10
303.0442664685
20
178.1643602190
11
303.0442664685
21
179.2643602190
0
LINE
5
3F0
100
AcDbEntity
8
0
100
AcDbLine
62
7
6
CONTINUOUS
10
305.6442664685
20
177.1643602190
11
305.6442664685
21
145.1643602190
0
LINE
5
3F1
100
AcDbEntity
8
0
100
AcDbLine
62
7
6
CONTINUOUS
10
306.5442664685
20
177.1643602190
11
306.5442664685
21
145.1643602190
0
LINE
5
3F2
100
AcDbEntity
8
0
100
AcDbLine
62
7
6
CONTINUOUS
10
301.5113886275
20
144.5719506439
11
301.6060202870
21
144.9818453940
0
LINE
5
3F3
100
AcDbEntity
8
0
100
AcDbLine
62
7
6
CONTINUOUS
10
310.6333071948
20
178.7668903894
11
310.5825126499
21
178.5468750439
0
LINE
5
3F4
100
AcDbEntity
8
0
100
AcDbLine
62
7
6
CONTINUOUS
10
310.5825126219
20
144.7818455156
11
310.6333071948
21
144.5618300485
0
LINE
5
3F5
100
AcDbEntity
8
0
100
AcDbLine
62
7
6
CONTINUOUS
10
309.1442664685
20
144.3143602190
11
309.1442664685
21
145.1643602190
0
LINE
5
3F6
100
AcDbEntity
8
0
100
AcDbLine
62
7
6
CONTINUOUS
10
309.1442664685
20
178.1643602190
11
309.1442664685
21
179.2643602190
0
LINE
5
3F7
100
AcDbEntity
8
0
100
AcDbLine
62
7
6
CONTINUOUS
10
309.7192664685
20
178.0143602190
11
309.7192664685
21
177.1643602190
0
LINE
5
3F8
100
AcDbEntity
8
0
100
AcDbLine
62
7
6
CONTINUOUS
10
314.5692664685
20
178.0143602190
11
314.5692664685
21
177.1643602190
0
LINE
5
3F9
100
AcDbEntity
8
0
100
AcDbLine
62
7
6
CONTINUOUS
10
315.1442664685
20
144.3143602190
11
315.1442664685
21
145.1643602190
0
LINE
5
3FA
100
AcDbEntity
8
0
100
AcDbLine
62
7
6
CONTINUOUS
10
315.1442664685
20
178.1643602190
11
315.1442664685
21
179.2643602190
0
LINE
5
3FB
100
AcDbEntity
8
0
100
AcDbLine
62
7
6
CONTINUOUS
10
316.1442664685
20
144.3143602190
11
316.1442664685
21
145.1643602190
0
LINE
5
3FC
100
AcDbEntity
8
0
100
AcDbLine
62
7
6
CONTINUOUS
10
316.1442664685
20
178.1643602190
11
316.1442664685
21
179.2643602190
0
LINE
5
3FD
100
AcDbEntity
8
0
100
AcDbLine
62
9
6
CONTINUOUS
10
316.3102918722
20
179.3143602190
11
316.3102918722
21
178.7643602190
0
LINE
5
3FE
100
AcDbEntity
8
0
100
AcDbLine
62
9
6
CONTINUOUS
10
316.3102918722
20
144.3143602190
11
316.3102918722
21
144.5643602190
0
LINE
5
3FF
100
AcDbEntity
8
0
100
AcDbLine
62
9
6
CONTINUOUS
10
316.5602918722
20
179.3143602190
11
316.5602918722
21
179.2643602190
0
LINE
5
400
100
AcDbEntity
8
0
100
AcDbLine
62
7
6
CONTINUOUS
10
313.7060203151
20
144.7818455156
11
313.6552257421
21
144.5618300485
0
LINE
5
401
100
AcDbEntity
8
0
100
AcDbLine
62
7
6
CONTINUOUS
10
313.6552257421
20
178.7668903894
11
313.7060202870
21
178.5468750439
0
LINE
5
402
100
AcDbEntity
8
0
100
AcDbLine
62
7
6
CONTINUOUS
10
317.7442664685
20
177.1643602190
11
317.7442664685
21
145.1643602190
0
LINE
5
403
100
AcDbEntity
8
0
100
AcDbLine
62
7
6
CONTINUOUS
10
317.9442664685
20
194.3143602190
11
317.9442664685
21
129.3143602190
0
ARC
5
404
100
AcDbEntity
8
0
100
AcDbCircle
62
7
6
CONTINUOUS
10
143.6661162150
20
140.6143602190
40
0.5000000000
100
AcDbArc
50
180.0000000000
51
270.0000000000
0
ARC
5
405
100
AcDbEntity
8
0
100
AcDbCircle
62
7
6
CONTINUOUS
10
147.3661162150
20
144.9643602190
40
0.5000000000
100
AcDbArc
50
0.0000000000
51
90.0000000000
0
ARC
5
406
100
AcDbEntity
8
0
100
AcDbCircle
62
7
6
CONTINUOUS
10
143.6661162150
20
144.9643602190
40
0.5000000000
100
AcDbArc
50
90.0000000000
51
180.0000000000
0
ARC
5
407
100
AcDbEntity
8
0
100
AcDbCircle
62
7
6
CONTINUOUS
10
143.6661162150
20
144.3643602190
40
0.5000000000
100
AcDbArc
50
90.0000000000
51
180.0000000000
0
ARC
5
408
100
AcDbEntity
8
0
100
AcDbCircle
62
7
6
CONTINUOUS
10
147.3661162150
20
144.3643602190
40
0.5000000000
100
AcDbArc
50
0.0000000000
51
90.0000000000
0
ARC
5
409
100
AcDbEntity
8
0
100
AcDbCircle
62
7
6
CONTINUOUS
10
130.4661162150
20
140.3143602190
40
0.5000000000
100
AcDbArc
50
270.0000000000
51
360.0000000000
0
ARC
5
40A
100
AcDbEntity
8
0
100
AcDbCircle
62
7
6
CONTINUOUS
10
130.4661162150
20
144.0643602190
40
0.5000000000
100
AcDbArc
50
0.0000000000
51
90.0000000000
0
ARC
5
40B
100
AcDbEntity
8
0
100
AcDbCircle
62
7
6
CONTINUOUS
10
126.7661162150
20
144.0643602190
40
0.5000000000
100
AcDbArc
50
90.0000000000
51
149.8660373094
0
ARC
5
40C
100
AcDbEntity
8
0
100
AcDbCircle
62
7
6
CONTINUOUS
10
130.4661162150
20
144.6643602190
40
0.5000000000
100
AcDbArc
50
0.0000000000
51
90.0000000000
0
ARC
5
40D
100
AcDbEntity
8
0
100
AcDbCircle
62
7
6
CONTINUOUS
10
126.7661162150
20
144.6643602190
40
0.5000000000
100
AcDbArc
50
90.0000000000
51
180.0000000000
0
ARC
5
40E
100
AcDbEntity
8
0
100
AcDbCircle
62
7
6
CONTINUOUS
10
143.6661162150
20
183.3143602190
40
0.5000000000
100
AcDbArc
50
90.0000000000
51
180.0000000000
0
ARC
5
40F
100
AcDbEntity
8
0
100
AcDbCircle
62
7
6
CONTINUOUS
10
143.6661162150
20
179.5643602190
40
0.5000000000
100
AcDbArc
50
180.0000000000
51
270.0000000000
0
ARC
5
410
100
AcDbEntity
8
0
100
AcDbCircle
62
7
6
CONTINUOUS
10
147.3661162150
20
179.5643602190
40
0.5000000000
100
AcDbArc
50
270.0000000000
51
329.8660373094
0
ARC
5
411
100
AcDbEntity
8
0
100
AcDbCircle
62
7
6
CONTINUOUS
10
143.6661162150
20
178.9643602190
40
0.5000000000
100
AcDbArc
50
180.0000000000
51
270.0000000000
0
ARC
5
412
100
AcDbEntity
8
0
100
AcDbCircle
62
7
6
CONTINUOUS
10
147.3661162150
20
178.9643602190
40
0.5000000000
100
AcDbArc
50
270.0000000000
51
360.0000000000
0
ARC
5
413
100
AcDbEntity
8
0
100
AcDbCircle
62
7
6
CONTINUOUS
10
130.4661162150
20
183.0143602190
40
0.5000000000
100
AcDbArc
50
0.0000000000
51
90.0000000000
0
ARC
5
414
100
AcDbEntity
8
0
100
AcDbCircle
62
7
6
CONTINUOUS
10
126.7661162150
20
178.6643602190
40
0.5000000000
100
AcDbArc
50
180.0000000000
51
270.0000000000
0
ARC
5
415
100
AcDbEntity
8
0
100
AcDbCircle
62
7
6
CONTINUOUS
10
130.4661162150
20
178.6643602190
40
0.5000000000
100
AcDbArc
50
270.0000000000
51
360.0000000000
0
ARC
5
416
100
AcDbEntity
8
0
100
AcDbCircle
62
7
6
CONTINUOUS
10
130.4661162150
20
179.2643602190
40
0.5000000000
100
AcDbArc
50
270.0000000000
51
360.0000000000
0
ARC
5
417
100
AcDbEntity
8
0
100
AcDbCircle
62
7
6
CONTINUOUS
10
126.7661162150
20
179.2643602190
40
0.5000000000
100
AcDbArc
50
180.0000000000
51
270.0000000000
0
ARC
5
418
100
AcDbEntity
8
0
100
AcDbCircle
62
7
6
CONTINUOUS
10
131.7911162150
20
178.2143602190
40
0.3000000000
100
AcDbArc
50
0.0000000000
51
90.0000000000
0
ARC
5
419
100
AcDbEntity
8
0
100
AcDbCircle
62
7
6
CONTINUOUS
10
131.5201810856
20
178.8143602190
40
0.3000000000
100
AcDbArc
50
193.0000000442
51
269.9999999351
0
ARC
5
41A
100
AcDbEntity
8
0
100
AcDbCircle
62
7
6
CONTINUOUS
10
142.3411162150
20
145.4143602190
40
0.3000000000
100
AcDbArc
50
180.0000000000
51
270.0000000000
0
ARC
5
41B
100
AcDbEntity
8
0
100
AcDbCircle
62
7
6
CONTINUOUS
10
142.6120513445
20
144.8143602190
40
0.3000000000
100
AcDbArc
50
13.0000000442
51
89.9999999351
0
ARC
5
41C
100
AcDbEntity
8
0
100
AcDbCircle
62
7
6
CONTINUOUS
10
131.7911162150
20
145.3143602190
40
0.3000000000
100
AcDbArc
50
270.0000000000
51
329.9050706801
0
ARC
5
41D
100
AcDbEntity
8
0
100
AcDbCircle
62
7
6
CONTINUOUS
10
131.7911162150
20
178.0143602190
40
0.3000000000
100
AcDbArc
50
0.0000000000
51
90.0000000000
0
ARC
5
41E
100
AcDbEntity
8
0
100
AcDbCircle
62
7
6
CONTINUOUS
10
127.5411162150
20
178.0143602190
40
0.3000000000
100
AcDbArc
50
149.9050706801
51
180.0000000000
0
ARC
5
41F
100
AcDbEntity
8
0
100
AcDbCircle
62
7
6
CONTINUOUS
10
131.5201810856
20
144.7143602190
40
0.3000000000
100
AcDbArc
50
90.0000000537
51
166.9999999629
0
ARC
5
420
100
AcDbEntity
8
0
100
AcDbCircle
62
7
6
CONTINUOUS
10
131.5201810856
20
178.6143602190
40
0.3000000000
100
AcDbArc
50
193.0000000760
51
269.9999998841
0
ARC
5
421
100
AcDbEntity
8
0
100
AcDbCircle
62
7
6
CONTINUOUS
10
142.3411162150
20
178.3143602190
40
0.3000000000
100
AcDbArc
50
90.0000000000
51
149.9050706801
0
ARC
5
422
100
AcDbEntity
8
0
100
AcDbCircle
62
7
6
CONTINUOUS
10
142.3411162150
20
145.6143602190
40
0.3000000000
100
AcDbArc
50
180.0000000000
51
270.0000000000
0
ARC
5
423
100
AcDbEntity
8
0
100
AcDbCircle
62
7
6
CONTINUOUS
10
146.5911162150
20
145.6143602190
40
0.3000000000
100
AcDbArc
50
329.9050706801
51
360.0000000000
0
ARC
5
424
100
AcDbEntity
8
0
100
AcDbCircle
62
7
6
CONTINUOUS
10
142.6120513445
20
178.9143602190
40
0.3000000000
100
AcDbArc
50
270.0000000537
51
346.9999999629
0
ARC
5
425
100
AcDbEntity
8
0
100
AcDbCircle
62
7
6
CONTINUOUS
10
142.6120513445
20
145.0143602190
40
0.3000000000
100
AcDbArc
50
13.0000000760
51
89.9999998841
0
ARC
5
426
100
AcDbEntity
8
0
100
AcDbCircle
62
7
6
CONTINUOUS
10
126.0661162150
20
143.8143602190
40
0.5000000000
100
AcDbArc
50
90.0000000000
51
180.0000000000
0
ARC
5
427
100
AcDbEntity
8
0
100
AcDbCircle
62
7
6
CONTINUOUS
10
128.5661162150
20
132.3143602190
40
3.0000000000
100
AcDbArc
50
180.0000000000
51
270.0000000000
0
ARC
5
428
100
AcDbEntity
8
0
100
AcDbCircle
62
7
6
CONTINUOUS
10
146.9161162150
20
130.9643602190
40
1.6500000000
100
AcDbArc
50
270.0000000000
51
360.0000000000
0
ARC
5
429
100
AcDbEntity
8
0
100
AcDbCircle
62
7
6
CONTINUOUS
10
148.0661162150
20
143.8143602190
40
0.5000000000
100
AcDbArc
50
0.0000000000
51
90.0000000000
0
ARC
5
42A
100
AcDbEntity
8
0
100
AcDbCircle
62
7
6
CONTINUOUS
10
141.8661162150
20
143.8143602190
40
0.5000000000
100
AcDbArc
50
0.0000000000
51
90.0000000000
0
ARC
5
42B
100
AcDbEntity
8
0
100
AcDbCircle
62
7
6
CONTINUOUS
10
141.8661162150
20
179.8143602190
40
0.5000000000
100
AcDbArc
50
270.0000000000
51
360.0000000000
0
ARC
5
42C
100
AcDbEntity
8
0
100
AcDbCircle
62
7
6
CONTINUOUS
10
148.0661162150
20
179.8143602190
40
0.5000000000
100
AcDbArc
50
270.0000000000
51
360.0000000000
0
ARC
5
42D
100
AcDbEntity
8
0
100
AcDbCircle
62
7
6
CONTINUOUS
10
146.9161162150
20
192.6643602190
40
1.6500000000
100
AcDbArc
50
0.0000000000
51
90.0000000000
0
ARC
5
42E
100
AcDbEntity
8
0
100
AcDbCircle
62
7
6
CONTINUOUS
10
127.2161162150
20
192.6643602190
40
1.6500000000
100
AcDbArc
50
90.0000000000
51
180.0000000000
0
ARC
5
42F
100
AcDbEntity
8
0
100
AcDbCircle
62
7
6
CONTINUOUS
10
126.0661162150
20
179.8143602190
40
0.5000000000
100
AcDbArc
50
180.0000000000
51
270.0000000000
0
ARC
5
430
100
AcDbEntity
8
0
100
AcDbCircle
62
7
6
CONTINUOUS
10
132.2661162150
20
179.8143602190
40
0.5000000000
100
AcDbArc
50
180.0000000000
51
270.0000000000
0
ARC
5
431
100
AcDbEntity
8
0
100
AcDbCircle
62
7
6
CONTINUOUS
10
132.2661162150
20
143.8143602190
40
0.5000000000
100
AcDbArc
50
90.0000000000
51
180.0000000000
0
ARC
5
432
100
AcDbEntity
8
0
100
AcDbCircle
62
7
6
CONTINUOUS
10
229.5692664685
20
178.0143602190
40
0.3000000000
100
AcDbArc
50
0.0000000000
51
90.0000000000
0
ARC
5
433
100
AcDbEntity
8
0
100
AcDbCircle
62
7
6
CONTINUOUS
10
225.3192664685
20
178.0143602190
40
0.3000000000
100
AcDbArc
50
90.0000000000
51
180.0000000000
0
ARC
5
434
100
AcDbEntity
8
0
100
AcDbCircle
62
7
6
CONTINUOUS
10
229.5692664685
20
145.3143602190
40
0.3000000000
100
AcDbArc
50
270.0000000000
51
329.9050706801
0
ARC
5
435
100
AcDbEntity
8
0
100
AcDbCircle
62
7
6
CONTINUOUS
10
225.3192664685
20
145.3143602190
40
0.3000000000
100
AcDbArc
50
210.0949293199
51
270.0000000000
0
ARC
5
436
100
AcDbEntity
8
0
100
AcDbCircle
62
7
6
CONTINUOUS
10
229.2983313390
20
178.6143602190
40
0.3000000000
100
AcDbArc
50
192.9999961476
51
269.9999821338
0
ARC
5
437
100
AcDbEntity
8
0
100
AcDbCircle
62
7
6
CONTINUOUS
10
225.5902015979
20
178.6143602190
40
0.3000000000
100
AcDbArc
50
270.0000178662
51
347.0000038524
0
ARC
5
438
100
AcDbEntity
8
0
100
AcDbCircle
62
7
6
CONTINUOUS
10
229.2983313390
20
144.7143602190
40
0.3000000000
100
AcDbArc
50
90.0001296830
51
167.0000276832
0
ARC
5
439
100
AcDbEntity
8
0
100
AcDbCircle
62
7
6
CONTINUOUS
10
225.5902015979
20
144.7143602190
40
0.3000000000
100
AcDbArc
50
12.9999723168
51
89.9998703170
0
ARC
5
43A
100
AcDbEntity
8
0
100
AcDbCircle
62
7
6
CONTINUOUS
10
241.6692664685
20
178.0143602190
40
0.3000000000
100
AcDbArc
50
0.0000000000
51
90.0000000000
0
ARC
5
43B
100
AcDbEntity
8
0
100
AcDbCircle
62
7
6
CONTINUOUS
10
237.4192664685
20
178.0143602190
40
0.3000000000
100
AcDbArc
50
90.0000000000
51
180.0000000000
0
ARC
5
43C
100
AcDbEntity
8
0
100
AcDbCircle
62
7
6
CONTINUOUS
10
241.6692664685
20
145.3143602190
40
0.3000000000
100
AcDbArc
50
270.0000000000
51
329.9050706801
0
ARC
5
43D
100
AcDbEntity
8
0
100
AcDbCircle
62
7
6
CONTINUOUS
10
237.4192664685
20
145.3143602190
40
0.3000000000
100
AcDbArc
50
210.0949293199
51
270.0000000000
0
ARC
5
43E
100
AcDbEntity
8
0
100
AcDbCircle
62
7
6
CONTINUOUS
10
241.3983313390
20
178.6143602190
40
0.3000000000
100
AcDbArc
50
192.9999961476
51
269.9999821338
0
ARC
5
43F
100
AcDbEntity
8
0
100
AcDbCircle
62
7
6
CONTINUOUS
10
237.6902015979
20
178.6143602190
40
0.3000000000
100
AcDbArc
50
270.0000178662
51
347.0000038524
0
ARC
5
440
100
AcDbEntity
8
0
100
AcDbCircle
62
7
6
CONTINUOUS
10
241.3983313390
20
144.7143602190
40
0.3000000000
100
AcDbArc
50
90.0001296830
51
167.0000276832
0
ARC
5
441
100
AcDbEntity
8
0
100
AcDbCircle
62
7
6
CONTINUOUS
10
237.6902015979
20
144.7143602190
40
0.3000000000
100
AcDbArc
50
12.9999723168
51
89.9998703170
0
ARC
5
442
100
AcDbEntity
8
0
100
AcDbCircle
62
7
6
CONTINUOUS
10
253.7692664685
20
178.0143602190
40
0.3000000000
100
AcDbArc
50
0.0000000000
51
90.0000000000
0
ARC
5
443
100
AcDbEntity
8
0
100
AcDbCircle
62
7
6
CONTINUOUS
10
249.5192664685
20
178.0143602190
40
0.3000000000
100
AcDbArc
50
90.0000000000
51
180.0000000000
0
ARC
5
444
100
AcDbEntity
8
0
100
AcDbCircle
62
7
6
CONTINUOUS
10
253.7692664685
20
145.3143602190
40
0.3000000000
100
AcDbArc
50
270.0000000000
51
329.9050706801
0
ARC
5
445
100
AcDbEntity
8
0
100
AcDbCircle
62
7
6
CONTINUOUS
10
249.5192664685
20
145.3143602190
40
0.3000000000
100
AcDbArc
50
210.0949293199
51
270.0000000000
0
ARC
5
446
100
AcDbEntity
8
0
100
AcDbCircle
62
7
6
CONTINUOUS
10
253.4983313390
20
178.6143602190
40
0.3000000000
100
AcDbArc
50
192.9999961476
51
269.9999821338
0
ARC
5
447
100
AcDbEntity
8
0
100
AcDbCircle
62
7
6
CONTINUOUS
10
249.7902015979
20
178.6143602190
40
0.3000000000
100
AcDbArc
50
270.0000178662
51
347.0000038524
0
ARC
5
448
100
AcDbEntity
8
0
100
AcDbCircle
62
7
6
CONTINUOUS
10
253.4983313390
20
144.7143602190
40
0.3000000000
100
AcDbArc
50
90.0001296830
51
167.0000276832
0
ARC
5
449
100
AcDbEntity
8
0
100
AcDbCircle
62
7
6
CONTINUOUS
10
249.7902015979
20
144.7143602190
40
0.3000000000
100
AcDbArc
50
12.9999723168
51
89.9998703170
0
ARC
5
44A
100
AcDbEntity
8
0
100
AcDbCircle
62
7
6
CONTINUOUS
10
265.8692664685
20
178.0143602190
40
0.3000000000
100
AcDbArc
50
0.0000000000
51
90.0000000000
0
ARC
5
44B
100
AcDbEntity
8
0
100
AcDbCircle
62
7
6
CONTINUOUS
10
261.6192664685
20
178.0143602190
40
0.3000000000
100
AcDbArc
50
90.0000000000
51
180.0000000000
0
ARC
5
44C
100
AcDbEntity
8
0
100
AcDbCircle
62
7
6
CONTINUOUS
10
265.8692664685
20
145.3143602190
40
0.3000000000
100
AcDbArc
50
270.0000000000
51
329.9050706801
0
ARC
5
44D
100
AcDbEntity
8
0
100
AcDbCircle
62
7
6
CONTINUOUS
10
261.6192664685
20
145.3143602190
40
0.3000000000
100
AcDbArc
50
210.0949293199
51
270.0000000000
0
ARC
5
44E
100
AcDbEntity
8
0
100
AcDbCircle
62
7
6
CONTINUOUS
10
265.5983313390
20
178.6143602190
40
0.3000000000
100
AcDbArc
50
192.9999961476
51
269.9999821338
0
ARC
5
44F
100
AcDbEntity
8
0
100
AcDbCircle
62
7
6
CONTINUOUS
10
261.8902015979
20
178.6143602190
40
0.3000000000
100
AcDbArc
50
270.0000178662
51
347.0000038524
0
ARC
5
450
100
AcDbEntity
8
0
100
AcDbCircle
62
7
6
CONTINUOUS
10
265.5983313390
20
144.7143602190
40
0.3000000000
100
AcDbArc
50
90.0001296830
51
167.0000276832
0
ARC
5
451
100
AcDbEntity
8
0
100
AcDbCircle
62
7
6
CONTINUOUS
10
261.8902015979
20
144.7143602190
40
0.3000000000
100
AcDbArc
50
12.9999723168
51
89.9998703170
0
ARC
5
452
100
AcDbEntity
8
0
100
AcDbCircle
62
7
6
CONTINUOUS
10
277.9692664685
20
178.0143602190
40
0.3000000000
100
AcDbArc
50
0.0000000000
51
90.0000000000
0
ARC
5
453
100
AcDbEntity
8
0
100
AcDbCircle
62
7
6
CONTINUOUS
10
273.7192664685
20
178.0143602190
40
0.3000000000
100
AcDbArc
50
90.0000000000
51
180.0000000000
0
ARC
5
454
100
AcDbEntity
8
0
100
AcDbCircle
62
7
6
CONTINUOUS
10
277.9692664685
20
145.3143602190
40
0.3000000000
100
AcDbArc
50
270.0000000000
51
329.9050706801
0
ARC
5
455
100
AcDbEntity
8
0
100
AcDbCircle
62
7
6
CONTINUOUS
10
273.7192664685
20
145.3143602190
40
0.3000000000
100
AcDbArc
50
210.0949293199
51
270.0000000000
0
ARC
5
456
100
AcDbEntity
8
0
100
AcDbCircle
62
7
6
CONTINUOUS
10
277.6983313390
20
178.6143602190
40
0.3000000000
100
AcDbArc
50
192.9999961476
51
269.9999821338
0
ARC
5
457
100
AcDbEntity
8
0
100
AcDbCircle
62
7
6
CONTINUOUS
10
273.9902015979
20
178.6143602190
40
0.3000000000
100
AcDbArc
50
270.0000178662
51
347.0000038524
0
ARC
5
458
100
AcDbEntity
8
0
100
AcDbCircle
62
7
6
CONTINUOUS
10
277.6983313390
20
144.7143602190
40
0.3000000000
100
AcDbArc
50
90.0001296830
51
167.0000276832
0
ARC
5
459
100
AcDbEntity
8
0
100
AcDbCircle
62
7
6
CONTINUOUS
10
273.9902015979
20
144.7143602190
40
0.3000000000
100
AcDbArc
50
12.9999723168
51
89.9998703170
0
ARC
5
45A
100
AcDbEntity
8
0
100
AcDbCircle
62
7
6
CONTINUOUS
10
290.0692664685
20
178.0143602190
40
0.3000000000
100
AcDbArc
50
0.0000000000
51
90.0000000000
0
ARC
5
45B
100
AcDbEntity
8
0
100
AcDbCircle
62
7
6
CONTINUOUS
10
285.8192664685
20
178.0143602190
40
0.3000000000
100
AcDbArc
50
90.0000000000
51
180.0000000000
0
ARC
5
45C
100
AcDbEntity
8
0
100
AcDbCircle
62
7
6
CONTINUOUS
10
290.0692664685
20
145.3143602190
40
0.3000000000
100
AcDbArc
50
270.0000000000
51
329.9050706801
0
ARC
5
45D
100
AcDbEntity
8
0
100
AcDbCircle
62
7
6
CONTINUOUS
10
285.8192664685
20
145.3143602190
40
0.3000000000
100
AcDbArc
50
210.0949293199
51
270.0000000000
0
ARC
5
45E
100
AcDbEntity
8
0
100
AcDbCircle
62
7
6
CONTINUOUS
10
289.7983313390
20
178.6143602190
40
0.3000000000
100
AcDbArc
50
192.9999961476
51
269.9999821338
0
ARC
5
45F
100
AcDbEntity
8
0
100
AcDbCircle
62
7
6
CONTINUOUS
10
286.0902015979
20
178.6143602190
40
0.3000000000
100
AcDbArc
50
270.0000178662
51
347.0000038524
0
ARC
5
460
100
AcDbEntity
8
0
100
AcDbCircle
62
7
6
CONTINUOUS
10
289.7983313390
20
144.7143602190
40
0.3000000000
100
AcDbArc
50
90.0001296830
51
167.0000276832
0
ARC
5
461
100
AcDbEntity
8
0
100
AcDbCircle
62
7
6
CONTINUOUS
10
286.0902015979
20
144.7143602190
40
0.3000000000
100
AcDbArc
50
12.9999723168
51
89.9998703170
0
ARC
5
462
100
AcDbEntity
8
0
100
AcDbCircle
62
7
6
CONTINUOUS
10
302.1692664685
20
178.2143602190
40
0.3000000000
100
AcDbArc
50
0.0000000000
51
90.0000000000
0
ARC
5
463
100
AcDbEntity
8
0
100
AcDbCircle
62
7
6
CONTINUOUS
10
297.9192664685
20
178.2143602190
40
0.3000000000
100
AcDbArc
50
90.0000000000
51
180.0000000000
0
ARC
5
464
100
AcDbEntity
8
0
100
AcDbCircle
62
7
6
CONTINUOUS
10
301.8983313390
20
178.8143602190
40
0.3000000000
100
AcDbArc
50
192.9999961476
51
269.9999821338
0
ARC
5
465
100
AcDbEntity
8
0
100
AcDbCircle
62
7
6
CONTINUOUS
10
298.1902015979
20
178.8143602190
40
0.3000000000
100
AcDbArc
50
270.0000178662
51
347.0000038524
0
ARC
5
466
100
AcDbEntity
8
0
100
AcDbCircle
62
7
6
CONTINUOUS
10
301.8983313390
20
144.9143602190
40
0.3000000000
100
AcDbArc
50
123.2539962291
51
167.0000276832
0
ARC
5
467
100
AcDbEntity
8
0
100
AcDbCircle
62
7
6
CONTINUOUS
10
298.1902015979
20
144.9143602190
40
0.3000000000
100
AcDbArc
50
12.9999723168
51
56.7460037709
0
ARC
5
468
100
AcDbEntity
8
0
100
AcDbCircle
62
7
6
CONTINUOUS
10
314.2692664685
20
145.3143602190
40
0.3000000000
100
AcDbArc
50
270.0000000000
51
329.9050706801
0
ARC
5
469
100
AcDbEntity
8
0
100
AcDbCircle
62
7
6
CONTINUOUS
10
310.0192664685
20
145.3143602190
40
0.3000000000
100
AcDbArc
50
210.0949293199
51
270.0000000000
0
ARC
5
46A
100
AcDbEntity
8
0
100
AcDbCircle
62
7
6
CONTINUOUS
10
314.2692664685
20
178.0143602190
40
0.3000000000
100
AcDbArc
50
0.0000000000
51
90.0000000000
0
ARC
5
46B
100
AcDbEntity
8
0
100
AcDbCircle
62
7
6
CONTINUOUS
10
310.0192664685
20
178.0143602190
40
0.3000000000
100
AcDbArc
50
90.0000000000
51
180.0000000000
0
ARC
5
46C
100
AcDbEntity
8
0
100
AcDbCircle
62
7
6
CONTINUOUS
10
313.9983313390
20
144.7143602190
40
0.3000000000
100
AcDbArc
50
90.0000178662
51
167.0000038524
0
ARC
5
46D
100
AcDbEntity
8
0
100
AcDbCircle
62
7
6
CONTINUOUS
10
310.2902015979
20
144.7143602190
40
0.3000000000
100
AcDbArc
50
12.9999961476
51
89.9999821338
0
ARC
5
46E
100
AcDbEntity
8
0
100
AcDbCircle
62
7
6
CONTINUOUS
10
313.9983313390
20
178.6143602190
40
0.3000000000
100
AcDbArc
50
192.9999723168
51
269.9998703170
0
ARC
5
46F
100
AcDbEntity
8
0
100
AcDbCircle
62
7
6
CONTINUOUS
10
310.2902015979
20
178.6143602190
40
0.3000000000
100
AcDbArc
50
270.0001296830
51
347.0000276832
0
ARC
5
470
100
AcDbEntity
8
0
100
AcDbCircle
62
7
6
CONTINUOUS
10
217.4692664685
20
178.0143602190
40
0.3000000000
100
AcDbArc
50
0.0000000000
51
90.0000000000
0
ARC
5
471
100
AcDbEntity
8
0
100
AcDbCircle
62
7
6
CONTINUOUS
10
213.2192664685
20
178.0143602190
40
0.3000000000
100
AcDbArc
50
90.0000000000
51
180.0000000000
0
ARC
5
472
100
AcDbEntity
8
0
100
AcDbCircle
62
7
6
CONTINUOUS
10
217.4692664685
20
145.3143602190
40
0.3000000000
100
AcDbArc
50
270.0000000000
51
329.9050706801
0
ARC
5
473
100
AcDbEntity
8
0
100
AcDbCircle
62
7
6
CONTINUOUS
10
213.2192664685
20
145.3143602190
40
0.3000000000
100
AcDbArc
50
210.0949293199
51
270.0000000000
0
ARC
5
474
100
AcDbEntity
8
0
100
AcDbCircle
62
7
6
CONTINUOUS
10
217.1983313390
20
178.6143602190
40
0.3000000000
100
AcDbArc
50
192.9999961476
51
269.9999821338
0
ARC
5
475
100
AcDbEntity
8
0
100
AcDbCircle
62
7
6
CONTINUOUS
10
213.4902015979
20
178.6143602190
40
0.3000000000
100
AcDbArc
50
270.0000178662
51
347.0000038524
0
ARC
5
476
100
AcDbEntity
8
0
100
AcDbCircle
62
7
6
CONTINUOUS
10
217.1983313390
20
144.7143602190
40
0.3000000000
100
AcDbArc
50
90.0001296830
51
167.0000276832
0
ARC
5
477
100
AcDbEntity
8
0
100
AcDbCircle
62
7
6
CONTINUOUS
10
213.4902015979
20
144.7143602190
40
0.3000000000
100
AcDbArc
50
12.9999723168
51
89.9998703170
0
ARC
5
478
100
AcDbEntity
8
0
100
AcDbCircle
62
7
6
CONTINUOUS
10
205.3692664685
20
178.0143602190
40
0.3000000000
100
AcDbArc
50
0.0000000000
51
90.0000000000
0
ARC
5
479
100
AcDbEntity
8
0
100
AcDbCircle
62
7
6
CONTINUOUS
10
201.1192664685
20
178.0143602190
40
0.3000000000
100
AcDbArc
50
90.0000000000
51
180.0000000000
0
ARC
5
47A
100
AcDbEntity
8
0
100
AcDbCircle
62
7
6
CONTINUOUS
10
205.3692664685
20
145.3143602190
40
0.3000000000
100
AcDbArc
50
270.0000000000
51
329.9050706801
0
ARC
5
47B
100
AcDbEntity
8
0
100
AcDbCircle
62
7
6
CONTINUOUS
10
201.1192664685
20
145.3143602190
40
0.3000000000
100
AcDbArc
50
210.0949293199
51
270.0000000000
0
ARC
5
47C
100
AcDbEntity
8
0
100
AcDbCircle
62
7
6
CONTINUOUS
10
205.0983313390
20
178.6143602190
40
0.3000000000
100
AcDbArc
50
192.9999961476
51
269.9999821338
0
ARC
5
47D
100
AcDbEntity
8
0
100
AcDbCircle
62
7
6
CONTINUOUS
10
201.3902015979
20
178.6143602190
40
0.3000000000
100
AcDbArc
50
270.0000178662
51
347.0000038524
0
ARC
5
47E
100
AcDbEntity
8
0
100
AcDbCircle
62
7
6
CONTINUOUS
10
205.0983313390
20
144.7143602190
40
0.3000000000
100
AcDbArc
50
90.0001296830
51
167.0000276832
0
ARC
5
47F
100
AcDbEntity
8
0
100
AcDbCircle
62
7
6
CONTINUOUS
10
201.3902015979
20
144.7143602190
40
0.3000000000
100
AcDbArc
50
12.9999723168
51
89.9998703170
0
ARC
5
480
100
AcDbEntity
8
0
100
AcDbCircle
62
7
6
CONTINUOUS
10
316.3102918722
20
179.2643602190
40
0.5000000000
100
AcDbArc
50
270.0000000000
51
300.0000000000
0
ARC
5
481
100
AcDbEntity
8
0
100
AcDbCircle
62
7
6
CONTINUOUS
10
199.0782410647
20
179.2643602190
40
0.5000000000
100
AcDbArc
50
240.0000000000
51
270.0000000000
0
ARC
5
482
100
AcDbEntity
8
0
100
AcDbCircle
62
7
6
CONTINUOUS
10
199.0782410647
20
144.0643602190
40
0.5000000000
100
AcDbArc
50
90.0000000000
51
120.0000000000
0
ARC
5
483
100
AcDbEntity
8
0
100
AcDbCircle
62
7
6
CONTINUOUS
10
316.3102918722
20
144.0643602190
40
0.5000000000
100
AcDbArc
50
60.0000000000
51
90.0000000000
0
SPLINE
5
484
100
AcDbEntity
8
0
100
AcDbSpline
62
9
6
CONTINUOUS
70
0
71
3
72
11
73
7
74
5
42
0.0000001000
43
0.0000001000
44
0.0000000001
12
0.6201113010
22
0.1550278252
32
0.0000000000
13
0.1550278252
23
0.6201113010
33
0.0000000000
40
0.0000000000
40
0.0000000000
40
0.0000000000
40
0.0000000000
40
0.2447807723
40
0.5000000000
40
0.7552192277
40
1.0000000000
40
1.0000000000
40
1.0000000000
40
1.0000000000
10
146.7114156767
20
140.8360480554
30
0.0000000000
10
146.7620127844
20
140.8486973324
30
0.0000000000
10
146.8617516831
20
140.8906227513
30
0.0000000000
10
146.9901129885
20
140.9903634455
30
0.0000000000
10
147.0898536827
20
141.1187247510
30
0.0000000000
10
147.1317791016
20
141.2184636496
30
0.0000000000
10
147.1444283786
20
141.2690607573
30
0.0000000000
11
146.7114156767
21
140.8360480554
31
0.0000000000
11
146.8561328439
21
140.8955256576
31
0.0000000000
11
146.9852769554
21
140.9951994786
31
0.0000000000
11
147.0849507764
21
141.1243435901
31
0.0000000000
11
147.1444283786
21
141.2690607573
31
0.0000000000
0
SPLINE
5
485
100
AcDbEntity
8
0
100
AcDbSpline
62
9
6
CONTINUOUS
70
0
71
3
72
11
73
7
74
5
42
0.0000001000
43
0.0000001000
44
0.0000000001
12
-0.6201113010
22
0.1550278252
32
0.0000000000
13
-0.1550278252
23
0.6201113010
33
0.0000000000
40
0.0000000000
40
0.0000000000
40
0.0000000000
40
0.0000000000
40
0.2447807723
40
0.5000000000
40
0.7552192277
40
1.0000000000
40
1.0000000000
40
1.0000000000
40
1.0000000000
10
143.6661162150
20
140.1813475171
30
0.0000000000
10
143.6155191073
20
140.1939967940
30
0.0000000000
10
143.5157802087
20
140.2359222129
30
0.0000000000
10
143.3874189032
20
140.3356629072
30
0.0000000000
10
143.2876782090
20
140.4640242126
30
0.0000000000
10
143.2457527901
20
140.5637631112
30
0.0000000000
10
143.2331035132
20
140.6143602190
30
0.0000000000
11
143.6661162150
21
140.1813475171
31
0.0000000000
11
143.5213990478
21
140.2408251192
31
0.0000000000
11
143.3922549363
21
140.3404989402
31
0.0000000000
11
143.2925811153
21
140.4696430517
31
0.0000000000
11
143.2331035132
21
140.6143602190
31
0.0000000000
0
SPLINE
5
486
100
AcDbEntity
8
0
100
AcDbSpline
62
9
6
CONTINUOUS
70
0
71
3
72
11
73
7
74
5
42
0.0000001000
43
0.0000001000
44
0.0000000001
12
-0.6201113010
22
0.1550278252
32
0.0000000000
13
-0.1550278252
23
0.6201113010
33
0.0000000000
40
0.0000000000
40
0.0000000000
40
0.0000000000
40
0.0000000000
40
0.2447807723
40
0.5000000000
40
0.7552192277
40
1.0000000000
40
1.0000000000
40
1.0000000000
40
1.0000000000
10
144.3208167534
20
140.8360480554
30
0.0000000000
10
144.2702196457
20
140.8486973324
30
0.0000000000
10
144.1704807470
20
140.8906227513
30
0.0000000000
10
144.0421194416
20
140.9903634455
30
0.0000000000
10
143.9423787474
20
141.1187247510
30
0.0000000000
10
143.9004533285
20
141.2184636496
30
0.0000000000
10
143.8878040515
20
141.2690607573
30
0.0000000000
11
144.3208167534
21
140.8360480554
31
0.0000000000
11
144.1760995862
21
140.8955256576
31
0.0000000000
11
144.0469554747
21
140.9951994786
31
0.0000000000
11
143.9472816537
21
141.1243435901
31
0.0000000000
11
143.8878040515
21
141.2690607573
31
0.0000000000
0
SPLINE
5
487
100
AcDbEntity
8
0
100
AcDbSpline
62
9
6
CONTINUOUS
70
0
71
3
72
11
73
7
74
5
42
0.0000001000
43
0.0000001000
44
0.0000000001
12
0.1550278252
22
0.6201113010
32
0.0000000000
13
0.6201113010
23
0.1550278252
33
0.0000000000
40
0.0000000000
40
0.0000000000
40
0.0000000000
40
0.0000000000
40
0.2447807723
40
0.5000000000
40
0.7552192277
40
1.0000000000
40
1.0000000000
40
1.0000000000
40
1.0000000000
10
143.8878040515
20
143.7096596806
30
0.0000000000
10
143.9004533285
20
143.7602567883
30
0.0000000000
10
143.9423787474
20
143.8599956870
30
0.0000000000
10
144.0421194416
20
143.9883569924
30
0.0000000000
10
144.1704807470
20
144.0880976866
30
0.0000000000
10
144.2702196457
20
144.1300231055
30
0.0000000000
10
144.3208167534
20
144.1426723825
30
0.0000000000
11
143.8878040515
21
143.7096596806
31
0.0000000000
11
143.9472816537
21
143.8543768478
31
0.0000000000
11
144.0469554747
21
143.9835209593
31
0.0000000000
11
144.1760995862
21
144.0831947803
31
0.0000000000
11
144.3208167534
21
144.1426723825
31
0.0000000000
0
SPLINE
5
488
100
AcDbEntity
8
0
100
AcDbSpline
62
9
6
CONTINUOUS
70
0
71
3
72
11
73
7
74
5
42
0.0000001000
43
0.0000001000
44
0.0000000001
12
0.1550278252
22
0.6201113010
32
0.0000000000
13
0.6201113010
23
0.1550278252
33
0.0000000000
40
0.0000000000
40
0.0000000000
40
0.0000000000
40
0.0000000000
40
0.2447807723
40
0.5000000000
40
0.7552192277
40
1.0000000000
40
1.0000000000
40
1.0000000000
40
1.0000000000
10
143.2331035132
20
144.3643602190
30
0.0000000000
10
143.2457527901
20
144.4149573267
30
0.0000000000
10
143.2876782090
20
144.5146962254
30
0.0000000000
10
143.3874189032
20
144.6430575308
30
0.0000000000
10
143.5157802087
20
144.7427982250
30
0.0000000000
10
143.6155191073
20
144.7847236439
30
0.0000000000
10
143.6661162150
20
144.7973729209
30
0.0000000000
11
143.2331035132
21
144.3643602190
31
0.0000000000
11
143.2925811153
21
144.5090773862
31
0.0000000000
11
143.3922549363
21
144.6382214977
31
0.0000000000
11
143.5213990478
21
144.7378953187
31
0.0000000000
11
143.6661162150
21
144.7973729209
31
0.0000000000
0
SPLINE
5
489
100
AcDbEntity
8
0
100
AcDbSpline
62
9
6
CONTINUOUS
70
0
71
3
72
11
73
7
74
5
42
0.0000001000
43
0.0000001000
44
0.0000000001
12
-0.1550278252
22
0.6201113010
32
0.0000000000
13
-0.6201113010
23
0.1550278252
33
0.0000000000
40
0.0000000000
40
0.0000000000
40
0.0000000000
40
0.0000000000
40
0.2447807723
40
0.5000000000
40
0.7552192277
40
1.0000000000
40
1.0000000000
40
1.0000000000
40
1.0000000000
10
147.7991289169
20
144.3643602190
30
0.0000000000
10
147.7864796400
20
144.4149573267
30
0.0000000000
10
147.7445542211
20
144.5146962254
30
0.0000000000
10
147.6448135268
20
144.6430575308
30
0.0000000000
10
147.5164522214
20
144.7427982250
30
0.0000000000
10
147.4167133228
20
144.7847236439
30
0.0000000000
10
147.3661162150
20
144.7973729209
30
0.0000000000
11
147.7991289169
21
144.3643602190
31
0.0000000000
11
147.7396513148
21
144.5090773862
31
0.0000000000
11
147.6399774938
21
144.6382214977
31
0.0000000000
11
147.5108333823
21
144.7378953187
31
0.0000000000
11
147.3661162150
21
144.7973729209
31
0.0000000000
0
SPLINE
5
48A
100
AcDbEntity
8
0
100
AcDbSpline
62
9
6
CONTINUOUS
70
0
71
3
72
11
73
7
74
5
42
0.0000001000
43
0.0000001000
44
0.0000000001
12
-0.1550278252
22
0.6201113010
32
0.0000000000
13
-0.6201113010
23
0.1550278252
33
0.0000000000
40
0.0000000000
40
0.0000000000
40
0.0000000000
40
0.0000000000
40
0.2447807723
40
0.5000000000
40
0.7552192277
40
1.0000000000
40
1.0000000000
40
1.0000000000
40
1.0000000000
10
147.1444283786
20
143.7096596806
30
0.0000000000
10
147.1317791016
20
143.7602567883
30
0.0000000000
10
147.0898536827
20
143.8599956870
30
0.0000000000
10
146.9901129885
20
143.9883569924
30
0.0000000000
10
146.8617516831
20
144.0880976866
30
0.0000000000
10
146.7620127844
20
144.1300231055
30
0.0000000000
10
146.7114156767
20
144.1426723825
30
0.0000000000
11
147.1444283786
21
143.7096596806
31
0.0000000000
11
147.0849507764
21
143.8543768478
31
0.0000000000
11
146.9852769554
21
143.9835209593
31
0.0000000000
11
146.8561328439
21
144.0831947803
31
0.0000000000
11
146.7114156767
21
144.1426723825
31
0.0000000000
0
SPLINE
5
48B
100
AcDbEntity
8
0
100
AcDbSpline
62
9
6
CONTINUOUS
70
0
71
3
72
11
73
7
74
5
42
0.0000001000
43
0.0000001000
44
0.0000000001
12
-0.6201113010
22
0.1550278252
32
0.0000000000
13
-0.1550278252
23
0.6201113010
33
0.0000000000
40
0.0000000000
40
0.0000000000
40
0.0000000000
40
0.0000000000
40
0.2447807723
40
0.5000000000
40
0.7552192277
40
1.0000000000
40
1.0000000000
40
1.0000000000
40
1.0000000000
10
127.4208167534
20
140.5360480554
30
0.0000000000
10
127.3702196457
20
140.5486973324
30
0.0000000000
10
127.2704807470
20
140.5906227513
30
0.0000000000
10
127.1421194416
20
140.6903634455
30
0.0000000000
10
127.0423787474
20
140.8187247510
30
0.0000000000
10
127.0004533285
20
140.9184636496
30
0.0000000000
10
126.9878040515
20
140.9690607573
30
0.0000000000
11
127.4208167534
21
140.5360480554
31
0.0000000000
11
127.2760995862
21
140.5955256576
31
0.0000000000
11
127.1469554747
21
140.6951994786
31
0.0000000000
11
127.0472816537
21
140.8243435901
31
0.0000000000
11
126.9878040515
21
140.9690607573
31
0.0000000000
0
SPLINE
5
48C
100
AcDbEntity
8
0
100
AcDbSpline
62
9
6
CONTINUOUS
70
0
71
3
72
11
73
7
74
5
42
0.0000001000
43
0.0000001000
44
0.0000000001
12
0.6201113010
22
0.1550278252
32
0.0000000000
13
0.1550278252
23
0.6201113010
33
0.0000000000
40
0.0000000000
40
0.0000000000
40
0.0000000000
40
0.0000000000
40
0.2447807723
40
0.5000000000
40
0.7552192277
40
1.0000000000
40
1.0000000000
40
1.0000000000
40
1.0000000000
10
130.4661162150
20
139.8813475171
30
0.0000000000
10
130.5167133228
20
139.8939967940
30
0.0000000000
10
130.6164522214
20
139.9359222129
30
0.0000000000
10
130.7448135268
20
140.0356629072
30
0.0000000000
10
130.8445542211
20
140.1640242126
30
0.0000000000
10
130.8864796400
20
140.2637631112
30
0.0000000000
10
130.8991289169
20
140.3143602190
30
0.0000000000
11
130.4661162150
21
139.8813475171
31
0.0000000000
11
130.6108333823
21
139.9408251192
31
0.0000000000
11
130.7399774938
21
140.0404989402
31
0.0000000000
11
130.8396513148
21
140.1696430517
31
0.0000000000
11
130.8991289169
21
140.3143602190
31
0.0000000000
0
SPLINE
5
48D
100
AcDbEntity
8
0
100
AcDbSpline
62
9
6
CONTINUOUS
70
0
71
3
72
11
73
7
74
5
42
0.0000001000
43
0.0000001000
44
0.0000000001
12
0.6201113010
22
0.1550278252
32
0.0000000000
13
0.1550278252
23
0.6201113010
33
0.0000000000
40
0.0000000000
40
0.0000000000
40
0.0000000000
40
0.0000000000
40
0.2447807723
40
0.5000000000
40
0.7552192277
40
1.0000000000
40
1.0000000000
40
1.0000000000
40
1.0000000000
10
129.8114156767
20
140.5360480554
30
0.0000000000
10
129.8620127844
20
140.5486973324
30
0.0000000000
10
129.9617516831
20
140.5906227513
30
0.0000000000
10
130.0901129885
20
140.6903634455
30
0.0000000000
10
130.1898536827
20
140.8187247510
30
0.0000000000
10
130.2317791016
20
140.9184636496
30
0.0000000000
10
130.2444283786
20
140.9690607573
30
0.0000000000
11
129.8114156767
21
140.5360480554
31
0.0000000000
11
129.9561328439
21
140.5955256576
31
0.0000000000
11
130.0852769554
21
140.6951994786
31
0.0000000000
11
130.1849507764
21
140.8243435901
31
0.0000000000
11
130.2444283786
21
140.9690607573
31
0.0000000000
0
SPLINE
5
48E
100
AcDbEntity
8
0
100
AcDbSpline
62
9
6
CONTINUOUS
70
0
71
3
72
11
73
7
74
5
42
0.0000001000
43
0.0000001000
44
0.0000000001
12
0.6201113010
22
-0.1550278252
32
0.0000000000
13
0.1550278252
23
-0.6201113010
33
0.0000000000
40
0.0000000000
40
0.0000000000
40
0.0000000000
40
0.0000000000
40
0.2447807723
40
0.5000000000
40
0.7552192277
40
1.0000000000
40
1.0000000000
40
1.0000000000
40
1.0000000000
10
129.8114156767
20
143.8426723825
30
0.0000000000
10
129.8620127844
20
143.8300231055
30
0.0000000000
10
129.9617516831
20
143.7880976866
30
0.0000000000
10
130.0901129885
20
143.6883569924
30
0.0000000000
10
130.1898536827
20
143.5599956870
30
0.0000000000
10
130.2317791016
20
143.4602567883
30
0.0000000000
10
130.2444283786
20
143.4096596806
30
0.0000000000
11
129.8114156767
21
143.8426723825
31
0.0000000000
11
129.9561328439
21
143.7831947803
31
0.0000000000
11
130.0852769554
21
143.6835209593
31
0.0000000000
11
130.1849507764
21
143.5543768478
31
0.0000000000
11
130.2444283786
21
143.4096596806
31
0.0000000000
0
SPLINE
5
48F
100
AcDbEntity
8
0
100
AcDbSpline
62
9
6
CONTINUOUS
70
0
71
3
72
11
73
7
74
5
42
0.0000001000
43
0.0000001000
44
0.0000000001
12
0.6201113010
22
-0.1550278252
32
0.0000000000
13
0.1550278252
23
-0.6201113010
33
0.0000000000
40
0.0000000000
40
0.0000000000
40
0.0000000000
40
0.0000000000
40
0.2447807723
40
0.5000000000
40
0.7552192277
40
1.0000000000
40
1.0000000000
40
1.0000000000
40
1.0000000000
10
130.4661162150
20
144.4973729209
30
0.0000000000
10
130.5167133228
20
144.4847236439
30
0.0000000000
10
130.6164522214
20
144.4427982250
30
0.0000000000
10
130.7448135268
20
144.3430575308
30
0.0000000000
10
130.8445542211
20
144.2146962254
30
0.0000000000
10
130.8864796400
20
144.1149573267
30
0.0000000000
10
130.8991289169
20
144.0643602190
30
0.0000000000
11
130.4661162150
21
144.4973729209
31
0.0000000000
11
130.6108333823
21
144.4378953187
31
0.0000000000
11
130.7399774938
21
144.3382214977
31
0.0000000000
11
130.8396513148
21
144.2090773862
31
0.0000000000
11
130.8991289169
21
144.0643602190
31
0.0000000000
0
SPLINE
5
490
100
AcDbEntity
8
0
100
AcDbSpline
62
9
6
CONTINUOUS
70
0
71
3
72
11
73
7
74
5
42
0.0000001000
43
0.0000001000
44
0.0000000001
12
0.1550278252
22
0.6201113010
32
0.0000000000
13
0.6201113010
23
0.1550278252
33
0.0000000000
40
0.0000000000
40
0.0000000000
40
0.0000000000
40
0.0000000000
40
0.2447807723
40
0.5000000000
40
0.7552192277
40
1.0000000000
40
1.0000000000
40
1.0000000000
40
1.0000000000
10
126.9878040515
20
143.4096596806
30
0.0000000000
10
127.0004533285
20
143.4602567883
30
0.0000000000
10
127.0423787474
20
143.5599956870
30
0.0000000000
10
127.1421194416
20
143.6883569924
30
0.0000000000
10
127.2704807470
20
143.7880976866
30
0.0000000000
10
127.3702196457
20
143.8300231055
30
0.0000000000
10
127.4208167534
20
143.8426723825
30
0.0000000000
11
126.9878040515
21
143.4096596806
31
0.0000000000
11
127.0472816537
21
143.5543768478
31
0.0000000000
11
127.1469554747
21
143.6835209593
31
0.0000000000
11
127.2760995862
21
143.7831947803
31
0.0000000000
11
127.4208167534
21
143.8426723825
31
0.0000000000
0
SPLINE
5
491
100
AcDbEntity
8
0
100
AcDbSpline
62
9
6
CONTINUOUS
70
0
71
3
72
8
73
4
74
2
42
0.0000001000
43
0.0000001000
44
0.0000000001
12
0.0213507000
22
0.0235540842
32
0.0000000000
13
0.0224792505
23
0.0224792505
33
0.0000000000
40
0.0000000000
40
0.0000000000
40
0.0000000000
40
0.0000000000
40
1.0000000000
40
1.0000000000
40
1.0000000000
40
1.0000000000
10
126.4703346505
20
144.3152011881
30
0.0000000000
10
126.4774515505
20
144.3230525495
30
0.0000000000
10
126.4847618528
20
144.3307284142
30
0.0000000000
10
126.4922549363
20
144.3382214977
30
0.0000000000
11
126.4703346505
21
144.3152011881
31
0.0000000000
11
126.4922549363
21
144.3382214977
31
0.0000000000
0
SPLINE
5
492
100
AcDbEntity
8
0
100
AcDbSpline
62
9
6
CONTINUOUS
70
0
71
3
72
9
73
5
74
3
42
0.0000001000
43
0.0000001000
44
0.0000000001
12
0.1685872362
22
0.1685872362
32
0.0000000000
13
0.2201233998
23
0.0926078342
33
0.0000000000
40
0.0000000000
40
0.0000000000
40
0.0000000000
40
0.0000000000
40
0.6858608484
40
1.0000000000
40
1.0000000000
40
1.0000000000
40
1.0000000000
10
126.4922549363
20
144.3382214977
30
0.0000000000
10
126.5307973979
20
144.3767639593
30
0.0000000000
10
126.5940441844
20
144.4259086636
30
0.0000000000
10
126.6654640553
20
144.4616999886
30
0.0000000000
10
126.6885138479
20
144.4713972375
30
0.0000000000
11
126.4922549363
21
144.3382214977
31
0.0000000000
11
126.6213990478
21
144.4378953187
31
0.0000000000
11
126.6885138479
21
144.4713972375
31
0.0000000000
0
SPLINE
5
493
100
AcDbEntity
8
0
100
AcDbSpline
62
9
6
CONTINUOUS
70
0
71
3
72
8
73
4
74
2
42
0.0000001000
43
0.0000001000
44
0.0000000001
12
0.0756498127
22
0.0318265360
32
0.0000000000
13
0.0793028270
23
0.0198257067
33
0.0000000000
40
0.0000000000
40
0.0000000000
40
0.0000000000
40
0.0000000000
40
1.0000000000
40
1.0000000000
40
1.0000000000
40
1.0000000000
10
126.6885138479
20
144.4713972375
30
0.0000000000
10
126.7137304522
20
144.4820060828
30
0.0000000000
10
126.7396819394
20
144.4907643519
30
0.0000000000
10
126.7661162150
20
144.4973729209
30
0.0000000000
11
126.6885138479
21
144.4713972375
31
0.0000000000
11
126.7661162150
21
144.4973729209
31
0.0000000000
0
SPLINE
5
494
100
AcDbEntity
8
0
100
AcDbSpline
62
9
6
CONTINUOUS
70
0
71
3
72
11
73
7
74
5
42
0.0000001000
43
0.0000001000
44
0.0000000001
12
0.6201113010
22
-0.1550278252
32
0.0000000000
13
0.1550278252
23
-0.6201113010
33
0.0000000000
40
0.0000000000
40
0.0000000000
40
0.0000000000
40
0.0000000000
40
0.2447807723
40
0.5000000000
40
0.7552192277
40
1.0000000000
40
1.0000000000
40
1.0000000000
40
1.0000000000
10
146.7114156767
20
183.0926723825
30
0.0000000000
10
146.7620127844
20
183.0800231055
30
0.0000000000
10
146.8617516831
20
183.0380976866
30
0.0000000000
10
146.9901129885
20
182.9383569924
30
0.0000000000
10
147.0898536827
20
182.8099956870
30
0.0000000000
10
147.1317791016
20
182.7102567883
30
0.0000000000
10
147.1444283786
20
182.6596596806
30
0.0000000000
11
146.7114156767
21
183.0926723825
31
0.0000000000
11
146.8561328439
21
183.0331947803
31
0.0000000000
11
146.9852769554
21
182.9335209593
31
0.0000000000
11
147.0849507764
21
182.8043768478
31
0.0000000000
11
147.1444283786
21
182.6596596806
31
0.0000000000
0
SPLINE
5
495
100
AcDbEntity
8
0
100
AcDbSpline
62
9
6
CONTINUOUS
70
0
71
3
72
11
73
7
74
5
42
0.0000001000
43
0.0000001000
44
0.0000000001
12
-0.6201113010
22
-0.1550278252
32
0.0000000000
13
-0.1550278252
23
-0.6201113010
33
0.0000000000
40
0.0000000000
40
0.0000000000
40
0.0000000000
40
0.0000000000
40
0.2447807723
40
0.5000000000
40
0.7552192277
40
1.0000000000
40
1.0000000000
40
1.0000000000
40
1.0000000000
10
143.6661162150
20
183.7473729209
30
0.0000000000
10
143.6155191073
20
183.7347236439
30
0.0000000000
10
143.5157802087
20
183.6927982250
30
0.0000000000
10
143.3874189032
20
183.5930575308
30
0.0000000000
10
143.2876782090
20
183.4646962254
30
0.0000000000
10
143.2457527901
20
183.3649573267
30
0.0000000000
10
143.2331035132
20
183.3143602190
30
0.0000000000
11
143.6661162150
21
183.7473729209
31
0.0000000000
11
143.5213990478
21
183.6878953187
31
0.0000000000
11
143.3922549363
21
183.5882214977
31
0.0000000000
11
143.2925811153
21
183.4590773862
31
0.0000000000
11
143.2331035132
21
183.3143602190
31
0.0000000000
0
SPLINE
5
496
100
AcDbEntity
8
0
100
AcDbSpline
62
9
6
CONTINUOUS
70
0
71
3
72
11
73
7
74
5
42
0.0000001000
43
0.0000001000
44
0.0000000001
12
-0.6201113010
22
-0.1550278252
32
0.0000000000
13
-0.1550278252
23
-0.6201113010
33
0.0000000000
40
0.0000000000
40
0.0000000000
40
0.0000000000
40
0.0000000000
40
0.2447807723
40
0.5000000000
40
0.7552192277
40
1.0000000000
40
1.0000000000
40
1.0000000000
40
1.0000000000
10
144.3208167534
20
183.0926723825
30
0.0000000000
10
144.2702196457
20
183.0800231055
30
0.0000000000
10
144.1704807470
20
183.0380976866
30
0.0000000000
10
144.0421194416
20
182.9383569924
30
0.0000000000
10
143.9423787474
20
182.8099956870
30
0.0000000000
10
143.9004533285
20
182.7102567883
30
0.0000000000
10
143.8878040515
20
182.6596596806
30
0.0000000000
11
144.3208167534
21
183.0926723825
31
0.0000000000
11
144.1760995862
21
183.0331947803
31
0.0000000000
11
144.0469554747
21
182.9335209593
31
0.0000000000
11
143.9472816537
21
182.8043768478
31
0.0000000000
11
143.8878040515
21
182.6596596806
31
0.0000000000
0
SPLINE
5
497
100
AcDbEntity
8
0
100
AcDbSpline
62
9
6
CONTINUOUS
70
0
71
3
72
11
73
7
74
5
42
0.0000001000
43
0.0000001000
44
0.0000000001
12
-0.6201113010
22
0.1550278252
32
0.0000000000
13
-0.1550278252
23
0.6201113010
33
0.0000000000
40
0.0000000000
40
0.0000000000
40
0.0000000000
40
0.0000000000
40
0.2447807723
40
0.5000000000
40
0.7552192277
40
1.0000000000
40
1.0000000000
40
1.0000000000
40
1.0000000000
10
144.3208167534
20
179.7860480554
30
0.0000000000
10
144.2702196457
20
179.7986973324
30
0.0000000000
10
144.1704807470
20
179.8406227513
30
0.0000000000
10
144.0421194416
20
179.9403634455
30
0.0000000000
10
143.9423787474
20
180.0687247510
30
0.0000000000
10
143.9004533285
20
180.1684636496
30
0.0000000000
10
143.8878040515
20
180.2190607573
30
0.0000000000
11
144.3208167534
21
179.7860480554
31
0.0000000000
11
144.1760995862
21
179.8455256576
31
0.0000000000
11
144.0469554747
21
179.9451994786
31
0.0000000000
11
143.9472816537
21
180.0743435901
31
0.0000000000
11
143.8878040515
21
180.2190607573
31
0.0000000000
0
SPLINE
5
498
100
AcDbEntity
8
0
100
AcDbSpline
62
9
6
CONTINUOUS
70
0
71
3
72
11
73
7
74
5
42
0.0000001000
43
0.0000001000
44
0.0000000001
12
-0.6201113010
22
0.1550278252
32
0.0000000000
13
-0.1550278252
23
0.6201113010
33
0.0000000000
40
0.0000000000
40
0.0000000000
40
0.0000000000
40
0.0000000000
40
0.2447807723
40
0.5000000000
40
0.7552192277
40
1.0000000000
40
1.0000000000
40
1.0000000000
40
1.0000000000
10
143.6661162150
20
179.1313475171
30
0.0000000000
10
143.6155191073
20
179.1439967940
30
0.0000000000
10
143.5157802087
20
179.1859222129
30
0.0000000000
10
143.3874189032
20
179.2856629072
30
0.0000000000
10
143.2876782090
20
179.4140242126
30
0.0000000000
10
143.2457527901
20
179.5137631112
30
0.0000000000
10
143.2331035132
20
179.5643602190
30
0.0000000000
11
143.6661162150
21
179.1313475171
31
0.0000000000
11
143.5213990478
21
179.1908251192
31
0.0000000000
11
143.3922549363
21
179.2904989402
31
0.0000000000
11
143.2925811153
21
179.4196430517
31
0.0000000000
11
143.2331035132
21
179.5643602190
31
0.0000000000
0
SPLINE
5
499
100
AcDbEntity
8
0
100
AcDbSpline
62
9
6
CONTINUOUS
70
0
71
3
72
11
73
7
74
5
42
0.0000001000
43
0.0000001000
44
0.0000000001
12
-0.1550278252
22
-0.6201113010
32
0.0000000000
13
-0.6201113010
23
-0.1550278252
33
0.0000000000
40
0.0000000000
40
0.0000000000
40
0.0000000000
40
0.0000000000
40
0.2447807723
40
0.5000000000
40
0.7552192277
40
1.0000000000
40
1.0000000000
40
1.0000000000
40
1.0000000000
10
147.1444283786
20
180.2190607573
30
0.0000000000
10
147.1317791016
20
180.1684636496
30
0.0000000000
10
147.0898536827
20
180.0687247510
30
0.0000000000
10
146.9901129885
20
179.9403634455
30
0.0000000000
10
146.8617516831
20
179.8406227513
30
0.0000000000
10
146.7620127844
20
179.7986973324
30
0.0000000000
10
146.7114156767
20
179.7860480554
30
0.0000000000
11
147.1444283786
21
180.2190607573
31
0.0000000000
11
147.0849507764
21
180.0743435901
31
0.0000000000
11
146.9852769554
21
179.9451994786
31
0.0000000000
11
146.8561328439
21
179.8455256576
31
0.0000000000
11
146.7114156767
21
179.7860480554
31
0.0000000000
0
SPLINE
5
49A
100
AcDbEntity
8
0
100
AcDbSpline
62
9
6
CONTINUOUS
70
0
71
3
72
8
73
4
74
2
42
0.0000001000
43
0.0000001000
44
0.0000000001
12
-0.0213507000
22
-0.0235540842
32
0.0000000000
13
-0.0224792505
23
-0.0224792505
33
0.0000000000
40
0.0000000000
40
0.0000000000
40
0.0000000000
40
0.0000000000
40
1.0000000000
40
1.0000000000
40
1.0000000000
40
1.0000000000
10
147.6618977796
20
179.3135192498
30
0.0000000000
10
147.6547808796
20
179.3056678884
30
0.0000000000
10
147.6474705773
20
179.2979920237
30
0.0000000000
10
147.6399774938
20
179.2904989402
30
0.0000000000
11
147.6618977796
21
179.3135192498
31
0.0000000000
11
147.6399774938
21
179.2904989402
31
0.0000000000
0
SPLINE
5
49B
100
AcDbEntity
8
0
100
AcDbSpline
62
9
6
CONTINUOUS
70
0
71
3
72
9
73
5
74
3
42
0.0000001000
43
0.0000001000
44
0.0000000001
12
-0.1685872362
22
-0.1685872362
32
0.0000000000
13
-0.2201233998
23
-0.0926078342
33
0.0000000000
40
0.0000000000
40
0.0000000000
40
0.0000000000
40
0.0000000000
40
0.6858608484
40
1.0000000000
40
1.0000000000
40
1.0000000000
40
1.0000000000
10
147.6399774938
20
179.2904989402
30
0.0000000000
10
147.6014350322
20
179.2519564786
30
0.0000000000
10
147.5381882457
20
179.2028117743
30
0.0000000000
10
147.4667683748
20
179.1670204493
30
0.0000000000
10
147.4437185821
20
179.1573232005
30
0.0000000000
11
147.6399774938
21
179.2904989402
31
0.0000000000
11
147.5108333823
21
179.1908251192
31
0.0000000000
11
147.4437185821
21
179.1573232005
31
0.0000000000
0
SPLINE
5
49C
100
AcDbEntity
8
0
100
AcDbSpline
62
9
6
CONTINUOUS
70
0
71
3
72
8
73
4
74
2
42
0.0000001000
43
0.0000001000
44
0.0000000001
12
-0.0756498127
22
-0.0318265360
32
0.0000000000
13
-0.0793028270
23
-0.0198257067
33
0.0000000000
40
0.0000000000
40
0.0000000000
40
0.0000000000
40
0.0000000000
40
1.0000000000
40
1.0000000000
40
1.0000000000
40
1.0000000000
10
147.4437185821
20
179.1573232005
30
0.0000000000
10
147.4185019779
20
179.1467143551
30
0.0000000000
10
147.3925504907
20
179.1379560860
30
0.0000000000
10
147.3661162150
20
179.1313475171
30
0.0000000000
11
147.4437185821
21
179.1573232005
31
0.0000000000
11
147.3661162150
21
179.1313475171
31
0.0000000000
0
SPLINE
5
49D
100
AcDbEntity
8
0
100
AcDbSpline
62
9
6
CONTINUOUS
70
0
71
3
72
11
73
7
74
5
42
0.0000001000
43
0.0000001000
44
0.0000000001
12
-0.6201113010
22
-0.1550278252
32
0.0000000000
13
-0.1550278252
23
-0.6201113010
33
0.0000000000
40
0.0000000000
40
0.0000000000
40
0.0000000000
40
0.0000000000
40
0.2447807723
40
0.5000000000
40
0.7552192277
40
1.0000000000
40
1.0000000000
40
1.0000000000
40
1.0000000000
10
127.4208167534
20
182.7926723825
30
0.0000000000
10
127.3702196457
20
182.7800231055
30
0.0000000000
10
127.2704807470
20
182.7380976866
30
0.0000000000
10
127.1421194416
20
182.6383569924
30
0.0000000000
10
127.0423787474
20
182.5099956870
30
0.0000000000
10
127.0004533285
20
182.4102567883
30
0.0000000000
10
126.9878040515
20
182.3596596806
30
0.0000000000
11
127.4208167534
21
182.7926723825
31
0.0000000000
11
127.2760995862
21
182.7331947803
31
0.0000000000
11
127.1469554747
21
182.6335209593
31
0.0000000000
11
127.0472816537
21
182.5043768478
31
0.0000000000
11
126.9878040515
21
182.3596596806
31
0.0000000000
0
SPLINE
5
49E
100
AcDbEntity
8
0
100
AcDbSpline
62
9
6
CONTINUOUS
70
0
71
3
72
11
73
7
74
5
42
0.0000001000
43
0.0000001000
44
0.0000000001
12
0.6201113010
22
-0.1550278252
32
0.0000000000
13
0.1550278252
23
-0.6201113010
33
0.0000000000
40
0.0000000000
40
0.0000000000
40
0.0000000000
40
0.0000000000
40
0.2447807723
40
0.5000000000
40
0.7552192277
40
1.0000000000
40
1.0000000000
40
1.0000000000
40
1.0000000000
10
130.4661162150
20
183.4473729209
30
0.0000000000
10
130.5167133228
20
183.4347236439
30
0.0000000000
10
130.6164522214
20
183.3927982250
30
0.0000000000
10
130.7448135268
20
183.2930575308
30
0.0000000000
10
130.8445542211
20
183.1646962253
30
0.0000000000
10
130.8864796400
20
183.0649573267
30
0.0000000000
10
130.8991289169
20
183.0143602190
30
0.0000000000
11
130.4661162150
21
183.4473729209
31
0.0000000000
11
130.6108333823
21
183.3878953187
31
0.0000000000
11
130.7399774938
21
183.2882214977
31
0.0000000000
11
130.8396513148
21
183.1590773862
31
0.0000000000
11
130.8991289169
21
183.0143602190
31
0.0000000000
0
SPLINE
5
49F
100
AcDbEntity
8
0
100
AcDbSpline
62
9
6
CONTINUOUS
70
0
71
3
72
11
73
7
74
5
42
0.0000001000
43
0.0000001000
44
0.0000000001
12
0.6201113010
22
-0.1550278252
32
0.0000000000
13
0.1550278252
23
-0.6201113010
33
0.0000000000
40
0.0000000000
40
0.0000000000
40
0.0000000000
40
0.0000000000
40
0.2447807723
40
0.5000000000
40
0.7552192277
40
1.0000000000
40
1.0000000000
40
1.0000000000
40
1.0000000000
10
129.8114156767
20
182.7926723825
30
0.0000000000
10
129.8620127844
20
182.7800231055
30
0.0000000000
10
129.9617516831
20
182.7380976866
30
0.0000000000
10
130.0901129885
20
182.6383569924
30
0.0000000000
10
130.1898536827
20
182.5099956870
30
0.0000000000
10
130.2317791016
20
182.4102567883
30
0.0000000000
10
130.2444283786
20
182.3596596806
30
0.0000000000
11
129.8114156767
21
182.7926723825
31
0.0000000000
11
129.9561328439
21
182.7331947803
31
0.0000000000
11
130.0852769554
21
182.6335209593
31
0.0000000000
11
130.1849507764
21
182.5043768478
31
0.0000000000
11
130.2444283786
21
182.3596596806
31
0.0000000000
0
SPLINE
5
4A0
100
AcDbEntity
8
0
100
AcDbSpline
62
9
6
CONTINUOUS
70
0
71
3
72
11
73
7
74
5
42
0.0000001000
43
0.0000001000
44
0.0000000001
12
-0.1550278252
22
-0.6201113010
32
0.0000000000
13
-0.6201113010
23
-0.1550278252
33
0.0000000000
40
0.0000000000
40
0.0000000000
40
0.0000000000
40
0.0000000000
40
0.2447807723
40
0.5000000000
40
0.7552192277
40
1.0000000000
40
1.0000000000
40
1.0000000000
40
1.0000000000
10
130.2444283786
20
179.9190607573
30
0.0000000000
10
130.2317791016
20
179.8684636496
30
0.0000000000
10
130.1898536827
20
179.7687247510
30
0.0000000000
10
130.0901129885
20
179.6403634455
30
0.0000000000
10
129.9617516831
20
179.5406227513
30
0.0000000000
10
129.8620127844
20
179.4986973324
30
0.0000000000
10
129.8114156767
20
179.4860480554
30
0.0000000000
11
130.2444283786
21
179.9190607573
31
0.0000000000
11
130.1849507764
21
179.7743435901
31
0.0000000000
11
130.0852769554
21
179.6451994786
31
0.0000000000
11
129.9561328439
21
179.5455256576
31
0.0000000000
11
129.8114156767
21
179.4860480554
31
0.0000000000
0
SPLINE
5
4A1
100
AcDbEntity
8
0
100
AcDbSpline
62
9
6
CONTINUOUS
70
0
71
3
72
11
73
7
74
5
42
0.0000001000
43
0.0000001000
44
0.0000000001
12
-0.1550278252
22
-0.6201113010
32
0.0000000000
13
-0.6201113010
23
-0.1550278252
33
0.0000000000
40
0.0000000000
40
0.0000000000
40
0.0000000000
40
0.0000000000
40
0.2447807723
40
0.5000000000
40
0.7552192277
40
1.0000000000
40
1.0000000000
40
1.0000000000
40
1.0000000000
10
130.8991289169
20
179.2643602190
30
0.0000000000
10
130.8864796400
20
179.2137631112
30
0.0000000000
10
130.8445542211
20
179.1140242126
30
0.0000000000
10
130.7448135268
20
178.9856629072
30
0.0000000000
10
130.6164522214
20
178.8859222129
30
0.0000000000
10
130.5167133228
20
178.8439967940
30
0.0000000000
10
130.4661162150
20
178.8313475171
30
0.0000000000
11
130.8991289169
21
179.2643602190
31
0.0000000000
11
130.8396513148
21
179.1196430517
31
0.0000000000
11
130.7399774938
21
178.9904989402
31
0.0000000000
11
130.6108333823
21
178.8908251192
31
0.0000000000
11
130.4661162150
21
178.8313475171
31
0.0000000000
0
SPLINE
5
4A2
100
AcDbEntity
8
0
100
AcDbSpline
62
9
6
CONTINUOUS
70
0
71
3
72
11
73
7
74
5
42
0.0000001000
43
0.0000001000
44
0.0000000001
12
0.1550278252
22
-0.6201113010
32
0.0000000000
13
0.6201113010
23
-0.1550278252
33
0.0000000000
40
0.0000000000
40
0.0000000000
40
0.0000000000
40
0.0000000000
40
0.2447807723
40
0.5000000000
40
0.7552192277
40
1.0000000000
40
1.0000000000
40
1.0000000000
40
1.0000000000
10
126.3331035132
20
179.2643602190
30
0.0000000000
10
126.3457527901
20
179.2137631112
30
0.0000000000
10
126.3876782090
20
179.1140242126
30
0.0000000000
10
126.4874189032
20
178.9856629072
30
0.0000000000
10
126.6157802087
20
178.8859222129
30
0.0000000000
10
126.7155191073
20
178.8439967940
30
0.0000000000
10
126.7661162150
20
178.8313475171
30
0.0000000000
11
126.3331035132
21
179.2643602190
31
0.0000000000
11
126.3925811153
21
179.1196430517
31
0.0000000000
11
126.4922549363
21
178.9904989402
31
0.0000000000
11
126.6213990478
21
178.8908251192
31
0.0000000000
11
126.7661162150
21
178.8313475171
31
0.0000000000
0
SPLINE
5
4A3
100
AcDbEntity
8
0
100
AcDbSpline
62
9
6
CONTINUOUS
70
0
71
3
72
11
73
7
74
5
42
0.0000001000
43
0.0000001000
44
0.0000000001
12
0.1550278252
22
-0.6201113010
32
0.0000000000
13
0.6201113010
23
-0.1550278252
33
0.0000000000
40
0.0000000000
40
0.0000000000
40
0.0000000000
40
0.0000000000
40
0.2447807723
40
0.5000000000
40
0.7552192277
40
1.0000000000
40
1.0000000000
40
1.0000000000
40
1.0000000000
10
126.9878040515
20
179.9190607573
30
0.0000000000
10
127.0004533285
20
179.8684636496
30
0.0000000000
10
127.0423787474
20
179.7687247510
30
0.0000000000
10
127.1421194416
20
179.6403634455
30
0.0000000000
10
127.2704807470
20
179.5406227513
30
0.0000000000
10
127.3702196457
20
179.4986973324
30
0.0000000000
10
127.4208167534
20
179.4860480554
30
0.0000000000
11
126.9878040515
21
179.9190607573
31
0.0000000000
11
127.0472816537
21
179.7743435901
31
0.0000000000
11
127.1469554747
21
179.6451994786
31
0.0000000000
11
127.2760995862
21
179.5455256576
31
0.0000000000
11
127.4208167534
21
179.4860480554
31
0.0000000000
0
SPLINE
5
4A4
100
AcDbEntity
8
0
100
AcDbSpline
62
9
6
CONTINUOUS
70
0
71
3
72
11
73
7
74
5
42
0.0000001000
43
0.0000001000
44
0.0000000001
12
0.1833535836
22
-0.4234369633
32
0.0000000000
13
-0.3996098708
23
-0.2307148665
33
0.0000000000
40
0.0000000000
40
0.0000000000
40
0.0000000000
40
0.0000000000
40
0.3312662489
40
0.6135630287
40
0.8326985098
40
1.0000000000
40
1.0000000000
40
1.0000000000
40
1.0000000000
10
316.5602918722
20
179.2643602190
30
0.0000000000
10
316.5805381569
20
179.2176034275
30
0.0000000000
10
316.6120412234
20
179.1280439654
30
0.0000000000
10
316.6312813034
20
179.0006643129
30
0.0000000000
10
316.6205560106
20
178.8962482645
30
0.0000000000
10
316.5825769812
20
178.8442138307
30
0.0000000000
10
316.5602918722
20
178.8313475171
30
0.0000000000
11
316.5602918722
21
179.2643602190
31
0.0000000000
11
316.6095049581
21
179.1196430517
31
0.0000000000
11
316.6265196383
21
178.9904989402
31
0.0000000000
11
316.6095049581
21
178.8908251192
31
0.0000000000
11
316.5602918722
21
178.8313475171
31
0.0000000000
0
SPLINE
5
4A5
100
AcDbEntity
8
0
100
AcDbSpline
62
9
6
CONTINUOUS
70
0
71
3
72
11
73
7
74
5
42
0.0000001000
43
0.0000001000
44
0.0000000001
12
-0.1833535836
22
-0.4234369633
32
0.0000000000
13
0.3996098708
23
-0.2307148665
33
0.0000000000
40
0.0000000000
40
0.0000000000
40
0.0000000000
40
0.0000000000
40
0.3312662489
40
0.6135630287
40
0.8326985098
40
1.0000000000
40
1.0000000000
40
1.0000000000
40
1.0000000000
10
198.8282410647
20
179.2643602190
30
0.0000000000
10
198.8079947801
20
179.2176034275
30
0.0000000000
10
198.7764917135
20
179.1280439654
30
0.0000000000
10
198.7572516335
20
179.0006643129
30
0.0000000000
10
198.7679769264
20
178.8962482645
30
0.0000000000
10
198.8059559557
20
178.8442138307
30
0.0000000000
10
198.8282410647
20
178.8313475171
30
0.0000000000
11
198.8282410647
21
179.2643602190
31
0.0000000000
11
198.7790279788
21
179.1196430517
31
0.0000000000
11
198.7620132987
21
178.9904989402
31
0.0000000000
11
198.7790279788
21
178.8908251192
31
0.0000000000
11
198.8282410647
21
178.8313475171
31
0.0000000000
0
SPLINE
5
4A6
100
AcDbEntity
8
0
100
AcDbSpline
62
9
6
CONTINUOUS
70
0
71
3
72
10
73
6
74
4
42
0.0000001000
43
0.0000001000
44
0.0000000001
12
-0.0115977188
22
0.2024542212
32
0.0000000000
13
0.1750513479
23
0.1010659428
33
0.0000000000
40
0.0000000000
40
0.0000000000
40
0.0000000000
40
0.0000000000
40
0.1178358233
40
0.6180816219
40
1.0000000000
40
1.0000000000
40
1.0000000000
40
1.0000000000
10
198.7627871431
20
144.3143096685
30
0.0000000000
10
198.7623316008
20
144.3222617884
30
0.0000000000
10
198.7609512981
20
144.3640741955
30
0.0000000000
10
198.7679769264
20
144.4324721734
30
0.0000000000
10
198.8059559557
20
144.4845066072
30
0.0000000000
10
198.8282410647
20
144.4973729209
30
0.0000000000
11
198.7627871431
21
144.3143096685
31
0.0000000000
11
198.7620132987
21
144.3382214977
31
0.0000000000
11
198.7790279788
21
144.4378953187
31
0.0000000000
11
198.8282410647
21
144.4973729209
31
0.0000000000
0
SPLINE
5
4A7
100
AcDbEntity
8
0
100
AcDbSpline
62
9
6
CONTINUOUS
70
0
71
3
72
10
73
6
74
4
42
0.0000001000
43
0.0000001000
44
0.0000000001
12
0.0115977188
22
0.2024542212
32
0.0000000000
13
-0.1750513479
23
0.1010659428
33
0.0000000000
40
0.0000000000
40
0.0000000000
40
0.0000000000
40
0.0000000000
40
0.1178358233
40
0.6180816219
40
1.0000000000
40
1.0000000000
40
1.0000000000
40
1.0000000000
10
316.6257457938
20
144.3143096685
30
0.0000000000
10
316.6262013361
20
144.3222617884
30
0.0000000000
10
316.6275816389
20
144.3640741955
30
0.0000000000
10
316.6205560106
20
144.4324721734
30
0.0000000000
10
316.5825769812
20
144.4845066072
30
0.0000000000
10
316.5602918722
20
144.4973729209
30
0.0000000000
11
316.6257457938
21
144.3143096685
31
0.0000000000
11
316.6265196383
21
144.3382214977
31
0.0000000000
11
316.6095049581
21
144.4378953187
31
0.0000000000
11
316.5602918722
21
144.4973729209
31
0.0000000000
0
ENDSEC
0
SECTION
2
OBJECTS
0
DICTIONARY
5
C
100
AcDbDictionary
280
0
281
1
3
ACAD_GROUP
350
D
3
ACAD_MLINESTYLE
350
17
3
ACAD_LAYOUT
350
1A
3
ACAD_PLOTSETTINGS
350
19
3
ACAD_PLOTSTYLENAME
350
E
0
DICTIONARY
5
D
102
{ACAD_REACTORS
330
C
102
}
100
AcDbDictionary
280
0
281
1
0
ACDBDICTIONARYWDFLT
5
E
102
{ACAD_REACTORS
330
C
102
}
100
AcDbDictionary
281
1
3
Normal
350
F
100
AcDbDictionaryWithDefault
340
F
0
DICTIONARY
5
17
102
{ACAD_REACTORS
330
C
102
}
100
AcDbDictionary
280
0
281
1
3
Standard
350
18
0
DICTIONARY
5
19
102
{ACAD_REACTORS
330
C
102
}
100
AcDbDictionary
281
1
0
DICTIONARY
5
1A
102
{ACAD_REACTORS
330
C
102
}
100
AcDbDictionary
281
1
3
Layout1
350
1E
3
Model
350
22
0
ACDBPLACEHOLDER
5
F
102
{ACAD_REACTORS
330
E
102
}
0
MLINESTYLE
5
18
102
{ACAD_REACTORS
330
17
102
}
100
AcDbMlineStyle
2
STANDARD
70
0
3

62
256
51
90.0
52
90.0
71
2
49
0.5
62
256
6
BYLAYER
49
-0.5
62
256
6
BYLAYER
0
LAYOUT
5
1E
102
{ACAD_REACTORS
330
1A
102
}
100
AcDbPlotSettings
1

2

4

6

40
0.0
41
0.0
42
0.0
43
0.0
44
0.0
45
0.0
46
0.0
47
0.0
48
0.0
49
0.0
140
0.0
141
0.0
142
1.0
143
1.0
70
0
72
0
73
0
74
0
7

75
0
147
1.0
148
0.0
149
0.0
100
AcDbLayout
1
Layout1
70
0
71
0
10
0.0
20
0.0
11
0.0
21
0.0
12
0.0
22
0.0
32
0.0
14
0.0
24
0.0
34
0.0
15
0.0
25
0.0
35
0.0
146
0.0
13
0.0
23
0.0
33
0.0
16
0.0
26
0.0
36
0.0
17
0.0
27
0.0
37
0.0
76
0
330
1B
331
0
345
0
346
0
0
LAYOUT
5
22
102
{ACAD_REACTORS
330
1A
102
}
100
AcDbPlotSettings
1

2

4

6

40
0.0
41
0.0
42
0.0
43
0.0
44
0.0
45
0.0
46
0.0
47
0.0
48
0.0
49
0.0
140
0.0
141
0.0
142
1.0
143
1.0
70
0
72
0
73
0
74
0
7

75
0
147
1.0
148
0.0
149
0.0
100
AcDbLayout
1
Model
70
0
71
0
10
0.0
20
0.0
11
0.0
21
0.0
12
0.0
22
0.0
32
0.0
14
0.0
24
0.0
34
0.0
15
0.0
25
0.0
35
0.0
146
0.0
13
0.0
23
0.0
33
0.0
16
0.0
26
0.0
36
0.0
17
0.0
27
0.0
37
0.0
76
0
330
1F
331
0
345
0
346
0
0
ENDSEC
0
EOF
