999
DXF file: S0648-653112.dxf
999
Pro/ENGINEER 2005310 by Parametric Technology Corporation
0
SECTION
2
HEADER
9
$ACADVER
1
AC1015
9
$DWGCODEPAGE
3
ANSI_1252
9
$EXTMAX
10
420.0000000000
20
297.0000000000
30
0.0000000000
9
$EXTMIN
10
0.0000000000
20
0.0000000000
30
0.0000000000
9
$LIMMIN
10
0.0000000000
20
0.0000000000
9
$LIMMAX
10
420.0000000000
20
297.0000000000
9
$VIEWCTR
10
210.0000000000
20
148.5000000000
9
$VIEWSIZE
40
297.0000000000
9
$CLAYER
8
0
9
$LTSCALE
40
23.1000000000
9
$CELTYPE
6
BYLAYER
9
$DIMSCALE
40
1
9
$DIMASZ
40
3.5000000000
9
$DIMEXO
40
2.6250000000
9
$DIMDLI
40
15.9600000000
9
$DIMEXE
40
7.5600000000
9
$DIMCEN
40
3.7800000000
9
$DIMLFAC
40
1.0000000000
9
$DIMBLK
1
_FILLED
9
$DIMTXT
40
3.5000000000
9
$DIMTOL
70
1
9
$DIMLIM
70
0
9
$DIMTFAC
40
1.0000000000
9
$DIMTP
40
0.0010000000
9
$DIMTM
40
0.0010000000
9
$PDMODE
70
3
9
$PDSIZE
40
0.3125000000
9
$HANDSEED
5
35D
9
$MEASUREMENT
70
1
9
$INSUNITS
70
4
0
ENDSEC
0
SECTION
2
CLASSES
0
CLASS
1
ACDBDICTIONARYWDFLT
2
AcDbDictionaryWithDefault
3
AutoCAD 2000
90
0
280
0
281
0
0
CLASS
1
ACDBPLACEHOLDER
2
AcDbPlaceHolder
3
AutoCAD 2000
90
0
280
0
281
0
0
CLASS
1
LAYOUT
2
AcDbLayout
3
AutoCAD 2000
90
0
280
0
281
0
0
ENDSEC
0
SECTION
2
TABLES
0
TABLE
2
VPORT
5
8
100
AcDbSymbolTable
70
2
0
VPORT
5
1F4
100
AcDbSymbolTableRecord
100
AcDbViewportTableRecord
2
*ACTIVE
70
0
10
0.0
20
0.0
11
1.0
21
1.0
12
210.0000000000
22
148.5000000000
13
0.0
23
0.0
14
1.0
24
1.0
15
0.0
25
0.0
16
0.0
26
0.0
36
1.0
17
0.0
27
0.0
37
0.0
40
297.0000000000
41
1.4141414141
42
50.0
43
0.0
44
0.0
50
0.0
51
0.0
71
0
72
100
73
1
74
1
75
0
76
0
77
0
78
0
0
ENDTAB
0
TABLE
2
LTYPE
5
5
100
AcDbSymbolTable
70
6
0
LTYPE
5
14
100
AcDbSymbolTableRecord
100
AcDbLinetypeTableRecord
2
BYBLOCK
70
0
3

72
65
73
0
40
0.0
0
LTYPE
5
15
100
AcDbSymbolTableRecord
100
AcDbLinetypeTableRecord
2
BYLAYER
70
0
3

72
65
73
0
40
0.0
0
LTYPE
5
16
100
AcDbSymbolTableRecord
100
AcDbLinetypeTableRecord
2
CONTINUOUS
70
64
3
Solid line
72
65
73
0
40
0
0
LTYPE
5
1F5
100
AcDbSymbolTableRecord
100
AcDbLinetypeTableRecord
2
CENTER
70
64
3
____ _ ____ _ ____ _ ____ _ ____ _ ____ _ ____
72
65
73
4
40
0.6
49
0.375
74
0
49
-0.075
74
0
49
0.075
74
0
49
-0.075
74
0
0
LTYPE
5
1F6
100
AcDbSymbolTableRecord
100
AcDbLinetypeTableRecord
2
HIDDEN
70
64
3
- - - - - - - - - - - - - - - - - - - -
72
65
73
2
40
0.2
49
0.1
74
0
49
-0.1
74
0
0
LTYPE
5
1F7
100
AcDbSymbolTableRecord
100
AcDbLinetypeTableRecord
2
PHANTOM
70
64
3
_____ _ _ _____ _ _ _____ _ _ _____
72
65
73
6
40
0.8
49
0.45
74
0
49
-0.05
74
0
49
0.1
74
0
49
-0.05
74
0
49
0.1
74
0
49
-0.05
74
0
0
LTYPE
5
1F8
100
AcDbSymbolTableRecord
100
AcDbLinetypeTableRecord
2
DOT
70
64
3
. . . . . . . . . . . . . . . . . . . .
72
65
73
2
40
0.2
49
0.1
74
0
49
-0.1
74
0
0
LTYPE
5
1F9
100
AcDbSymbolTableRecord
100
AcDbLinetypeTableRecord
2
DASHED
70
64
3
- - - - - - - - - - - - - - - - - - - -
72
65
73
2
40
0.2
49
0.1
74
0
49
-0.1
74
0
0
ENDTAB
0
TABLE
2
LAYER
5
2
100
AcDbSymbolTable
70
36
0
LAYER
5
10
100
AcDbSymbolTableRecord
100
AcDbLayerTableRecord
2
0
70
0
62
7
6
CONTINUOUS
370
-3
390
F
0
LAYER
5
1FA
100
AcDbSymbolTableRecord
100
AcDbLayerTableRecord
2
DEFAULT_1
70
0
62
7
6
CENTER
370
-3
390
F
0
LAYER
5
1FB
100
AcDbSymbolTableRecord
100
AcDbLayerTableRecord
2
DEFAULT_2
70
0
62
8
6
HIDDEN
370
-3
390
F
0
LAYER
5
1FC
100
AcDbSymbolTableRecord
100
AcDbLayerTableRecord
2
DEFAULT_3
70
0
62
7
6
PHANTOM
370
-3
390
F
0
LAYER
5
1FD
100
AcDbSymbolTableRecord
100
AcDbLayerTableRecord
2
_2D_DELETED_OBJS
70
0
62
7
6
CONTINUOUS
370
-3
390
F
0
LAYER
5
1FE
100
AcDbSymbolTableRecord
100
AcDbLayerTableRecord
2
ASSI
70
0
62
7
6
CONTINUOUS
370
-3
390
F
0
LAYER
5
1FF
100
AcDbSymbolTableRecord
100
AcDbLayerTableRecord
2
CURVE
70
0
62
7
6
CONTINUOUS
370
-3
390
F
0
LAYER
5
200
100
AcDbSymbolTableRecord
100
AcDbLayerTableRecord
2
PIANI
70
0
62
7
6
CONTINUOUS
370
-3
390
F
0
LAYER
5
201
100
AcDbSymbolTableRecord
100
AcDbLayerTableRecord
2
SURF_FILETTI
70
0
62
7
6
CONTINUOUS
370
-3
390
F
0
ENDTAB
0
TABLE
2
STYLE
5
3
100
AcDbSymbolTable
70
1
0
STYLE
5
11
100
AcDbSymbolTableRecord
100
AcDbTextStyleTableRecord
2
STANDARD
70
0
40
0.0
41
0.7143000000
50
0.0
71
0
42
0.2
3
txt
4

0
ENDTAB
0
TABLE
2
VIEW
5
6
100
AcDbSymbolTable
70
0
0
ENDTAB
0
TABLE
2
UCS
5
7
100
AcDbSymbolTable
70
0
0
ENDTAB
0
TABLE
2
APPID
5
9
100
AcDbSymbolTable
70
1
0
APPID
5
202
100
AcDbSymbolTableRecord
100
AcDbRegAppTableRecord
2
ACAD
70
0
0
ENDTAB
0
TABLE
2
BLOCK_RECORD
5
1
100
AcDbSymbolTable
70
0
0
BLOCK_RECORD
5
1F
100
AcDbSymbolTableRecord
100
AcDbBlockTableRecord
2
*MODEL_SPACE
0
BLOCK_RECORD
5
1B
100
AcDbSymbolTableRecord
100
AcDbBlockTableRecord
2
*PAPER_SPACE
0
BLOCK_RECORD
5
203
100
AcDbSymbolTableRecord
100
AcDbBlockTableRecord
2
_FILLED
0
BLOCK_RECORD
5
204
100
AcDbSymbolTableRecord
100
AcDbBlockTableRecord
2
*D0
0
BLOCK_RECORD
5
205
100
AcDbSymbolTableRecord
100
AcDbBlockTableRecord
2
*D1
0
BLOCK_RECORD
5
206
100
AcDbSymbolTableRecord
100
AcDbBlockTableRecord
2
*D2
0
BLOCK_RECORD
5
207
100
AcDbSymbolTableRecord
100
AcDbBlockTableRecord
2
*D3
0
BLOCK_RECORD
5
208
100
AcDbSymbolTableRecord
100
AcDbBlockTableRecord
2
*D4
0
BLOCK_RECORD
5
209
100
AcDbSymbolTableRecord
100
AcDbBlockTableRecord
2
*D5
0
BLOCK_RECORD
5
20A
100
AcDbSymbolTableRecord
100
AcDbBlockTableRecord
2
*D6
0
BLOCK_RECORD
5
20B
100
AcDbSymbolTableRecord
100
AcDbBlockTableRecord
2
*D7
0
BLOCK_RECORD
5
20C
100
AcDbSymbolTableRecord
100
AcDbBlockTableRecord
2
*D8
0
BLOCK_RECORD
5
20D
100
AcDbSymbolTableRecord
100
AcDbBlockTableRecord
2
*D9
0
BLOCK_RECORD
5
20E
100
AcDbSymbolTableRecord
100
AcDbBlockTableRecord
2
*D10
0
BLOCK_RECORD
5
20F
100
AcDbSymbolTableRecord
100
AcDbBlockTableRecord
2
*D11
0
BLOCK_RECORD
5
210
100
AcDbSymbolTableRecord
100
AcDbBlockTableRecord
2
*D12
0
BLOCK_RECORD
5
211
100
AcDbSymbolTableRecord
100
AcDbBlockTableRecord
2
*D13
0
ENDTAB
0
TABLE
2
DIMSTYLE
5
A
100
AcDbSymbolTable
70
1
100
AcDbDimStyleTable
71
0
0
DIMSTYLE
105
212
100
AcDbSymbolTableRecord
100
AcDbDimStyleTableRecord
2
STANDARD
70
0
3

4

40
1.0
41
3.5000000000
42
0.0625
43
0.38
44
0.18
45
0.0
46
0.0
47
0.0010000000
48
0.0010000000
140
3.5000000000
141
0.09
142
0.0
143
25.4
144
1.0000000000
145
0.0
146
1.0000000000
147
0.09
71
1
72
0
73
0
74
0
75
0
76
0
77
1
78
8
170
0
171
2
172
0
173
0
174
0
175
0
176
0
177
0
178
0
270
2
271
3
272
3
273
2
274
2
275
0
280
0
281
0
282
0
283
1
284
8
285
0
286
0
287
3
288
0
340
11
341
203
342
203
343
203
344
203
0
DIMSTYLE
105
213
100
AcDbSymbolTableRecord
100
AcDbDimStyleTableRecord
2
DIMSTYLE_1
70
0
3

4

40
1.0
41
3.5000000000
42
0.0625
43
0.38
44
0.18
45
0.0
46
0.0
47
0.1500000000
48
0.1500000000
140
3.5000000000
141
0.09
142
0.0
143
25.4
144
1.0000000000
145
0.0
146
1.0000000000
147
0.09
71
0
72
0
73
0
74
0
75
0
76
0
77
1
78
8
170
0
171
2
172
0
173
0
174
0
175
0
176
0
177
0
178
0
270
2
271
2
272
2
273
2
274
2
275
0
280
0
281
0
282
0
283
1
284
8
285
0
286
0
287
3
288
0
340
11
341
203
342
203
343
203
344
203
0
DIMSTYLE
105
214
100
AcDbSymbolTableRecord
100
AcDbDimStyleTableRecord
2
DIMSTYLE_2
70
0
3

4

40
1.0
41
3.5000000000
42
0.0625
43
0.38
44
0.18
45
0.0
46
0.0
47
0.1000000000
48
0.1000000000
140
3.5000000000
141
0.09
142
0.0
143
25.4
144
1.0000000000
145
0.0
146
1.0000000000
147
0.09
71
0
72
0
73
0
74
0
75
0
76
0
77
1
78
8
170
0
171
2
172
0
173
0
174
0
175
0
176
0
177
0
178
0
270
2
271
3
272
3
273
2
274
2
275
0
280
0
281
0
282
0
283
1
284
8
285
0
286
0
287
3
288
0
340
11
341
203
342
203
343
203
344
203
0
DIMSTYLE
105
215
100
AcDbSymbolTableRecord
100
AcDbDimStyleTableRecord
2
DIMSTYLE_3
70
0
3

4

40
1.0
41
3.5000000000
42
0.0625
43
0.38
44
0.18
45
0.0
46
0.0
47
0.1500000000
48
0.1500000000
140
3.5000000000
141
0.09
142
0.0
143
25.4
144
1.0000000000
145
0.0
146
1.0000000000
147
0.09
71
0
72
0
73
0
74
0
75
0
76
0
77
1
78
8
170
0
171
2
172
0
173
0
174
0
175
0
176
0
177
0
178
0
270
2
271
3
272
3
273
2
274
2
275
0
280
0
281
0
282
0
283
1
284
8
285
0
286
0
287
3
288
0
340
11
341
203
342
203
343
203
344
203
0
DIMSTYLE
105
216
100
AcDbSymbolTableRecord
100
AcDbDimStyleTableRecord
2
DIMSTYLE_4
70
0
3

4

40
1.0
41
3.5000000000
42
0.0625
43
0.38
44
0.18
45
0.0
46
0.0
47
0.2000000000
48
0.2000000000
140
3.5000000000
141
0.09
142
0.0
143
25.4
144
1.0000000000
145
0.0
146
1.0000000000
147
0.09
71
0
72
0
73
0
74
0
75
0
76
0
77
1
78
8
170
0
171
2
172
0
173
0
174
0
175
0
176
0
177
0
178
0
270
2
271
2
272
2
273
2
274
2
275
0
280
0
281
0
282
0
283
1
284
8
285
0
286
0
287
3
288
0
340
11
341
203
342
203
343
203
344
203
0
DIMSTYLE
105
217
100
AcDbSymbolTableRecord
100
AcDbDimStyleTableRecord
2
DIMSTYLE_5
70
0
3

4

40
1.0
41
3.5000000000
42
0.0625
43
0.38
44
0.18
45
0.0
46
0.0
47
0.1000000000
48
0.1000000000
140
3.5000000000
141
0.09
142
0.0
143
25.4
144
1.0000000000
145
0.0
146
1.0000000000
147
0.09
71
0
72
0
73
0
74
0
75
0
76
0
77
1
78
8
170
0
171
2
172
0
173
0
174
0
175
0
176
0
177
0
178
0
270
2
271
2
272
2
273
2
274
2
275
0
280
0
281
0
282
0
283
1
284
8
285
0
286
0
287
3
288
0
340
11
341
203
342
203
343
203
344
203
0
DIMSTYLE
105
218
100
AcDbSymbolTableRecord
100
AcDbDimStyleTableRecord
2
DIMSTYLE_6
70
0
3

4

40
1.0
41
3.5000000000
42
0.0625
43
0.38
44
0.18
45
0.0
46
0.0
47
0.0500000000
48
0.0500000000
140
3.5000000000
141
0.09
142
0.0
143
25.4
144
1.0000000000
145
0.0
146
1.0000000000
147
0.09
71
0
72
0
73
0
74
0
75
0
76
0
77
1
78
8
170
0
171
2
172
0
173
0
174
0
175
0
176
0
177
0
178
0
270
2
271
3
272
3
273
2
274
2
275
0
280
0
281
0
282
0
283
1
284
8
285
0
286
0
287
3
288
0
340
11
341
203
342
203
343
203
344
203
0
ENDTAB
0
ENDSEC
0
SECTION
2
BLOCKS
0
BLOCK
5
20
100
AcDbEntity
8
0
100
AcDbBlockBegin
2
*MODEL_SPACE
70
0
10
0.0
20
0.0
30
0.0
3
*MODEL_SPACE
1

0
ENDBLK
5
21
100
AcDbEntity
8
0
100
AcDbBlockEnd
0
BLOCK
5
1C
100
AcDbEntity
8
0
100
AcDbBlockBegin
2
*PAPER_SPACE
70
0
10
0.0
20
0.0
30
0.0
3
*PAPER_SPACE
1

0
ENDBLK
5
1D
100
AcDbEntity
8
0
100
AcDbBlockEnd
0
BLOCK
5
219
100
AcDbEntity
8
0
100
AcDbBlockBegin
62
2
6
CONTINUOUS
2
*D0
70
65
10
0.0000000000
20
0.0000000000
3
*D0
1

0
TEXT
5
21A
100
AcDbEntity
8
0
100
AcDbText
62
2
6
CONTINUOUS
10
78.2845813916
20
86.0312598678
7
STANDARD
40
3.5000000000
1
40
41
0.7143000000
72
0
100
AcDbText
0
LINE
5
21B
100
AcDbEntity
8
0
100
AcDbLine
62
2
6
CONTINUOUS
10
61.0798222154
20
113.1590291699
11
61.0798222154
21
83.6562598678
0
LINE
5
21C
100
AcDbEntity
8
0
100
AcDbLine
62
2
6
CONTINUOUS
10
101.0798222154
20
113.1590291699
11
101.0798222154
21
83.6562598678
0
LINE
5
21D
100
AcDbEntity
8
0
100
AcDbLine
62
2
6
CONTINUOUS
10
61.0798222154
20
85.1562598678
11
81.0798222154
21
85.1562598678
0
LINE
5
21E
100
AcDbEntity
8
0
100
AcDbLine
62
2
6
CONTINUOUS
10
101.0798222154
20
85.1562598678
11
81.0798222154
21
85.1562598678
0
INSERT
5
21F
100
AcDbEntity
8
0
100
AcDbBlockReference
62
2
6
CONTINUOUS
2
_FILLED
10
61.0798222154
20
85.1562598678
41
  3.500000
42
  3.500000
43
  3.500000
50
180.000000
0
INSERT
5
220
100
AcDbEntity
8
0
100
AcDbBlockReference
62
2
6
CONTINUOUS
2
_FILLED
10
101.0798222154
20
85.1562598678
41
  3.500000
42
  3.500000
43
  3.500000
0
ENDBLK
5
221
100
AcDbEntity
8
0
6
BYBLOCK
62
0
100
AcDbBlockEnd
0
BLOCK
5
222
100
AcDbEntity
8
0
100
AcDbBlockBegin
62
2
6
CONTINUOUS
2
*D1
70
65
10
0.0000000000
20
0.0000000000
3
*D1
1

0
TEXT
5
223
100
AcDbEntity
8
0
100
AcDbText
62
2
6
CONTINUOUS
10
218.1582763839
20
249.8941415360
7
STANDARD
40
3.5000000000
1
%%c
41
1.3333333333
72
0
100
AcDbText
0
TEXT
5
224
100
AcDbEntity
8
0
100
AcDbText
62
2
6
CONTINUOUS
10
222.8249430506
20
249.8941415360
7
STANDARD
40
3.5000000000
1
11
41
0.7143000000
72
0
100
AcDbText
0
LINE
5
225
100
AcDbEntity
8
0
100
AcDbLine
62
2
6
CONTINUOUS
10
253.0891673883
20
238.9856728328
11
253.0891673883
21
250.5191415360
0
LINE
5
226
100
AcDbEntity
8
0
100
AcDbLine
62
2
6
CONTINUOUS
10
242.0891673883
20
238.3595899689
11
242.0891673883
21
250.5191415360
0
LINE
5
227
100
AcDbEntity
8
0
100
AcDbLine
62
2
6
CONTINUOUS
10
253.0891673883
20
249.0191415360
11
261.0891673883
21
249.0191415360
0
LINE
5
228
100
AcDbEntity
8
0
100
AcDbLine
62
2
6
CONTINUOUS
10
261.0891673883
20
249.0191415360
11
247.5891673883
21
249.0191415360
0
LINE
5
229
100
AcDbEntity
8
0
100
AcDbLine
62
2
6
CONTINUOUS
10
242.0891673883
20
249.0191415360
11
218.1582763839
21
249.0191415360
0
LINE
5
22A
100
AcDbEntity
8
0
100
AcDbLine
62
2
6
CONTINUOUS
10
218.1582763839
20
249.0191415360
11
247.5891673883
21
249.0191415360
0
INSERT
5
22B
100
AcDbEntity
8
0
100
AcDbBlockReference
62
2
6
CONTINUOUS
2
_FILLED
10
253.0891673883
20
249.0191415360
41
  3.500000
42
  3.500000
43
  3.500000
50
180.000000
0
INSERT
5
22C
100
AcDbEntity
8
0
100
AcDbBlockReference
62
2
6
CONTINUOUS
2
_FILLED
10
242.0891673883
20
249.0191415360
41
  3.500000
42
  3.500000
43
  3.500000
0
ENDBLK
5
22D
100
AcDbEntity
8
0
6
BYBLOCK
62
0
100
AcDbBlockEnd
0
BLOCK
5
22E
100
AcDbEntity
8
0
100
AcDbBlockBegin
62
2
6
CONTINUOUS
2
*D2
70
65
10
0.0000000000
20
0.0000000000
3
*D2
1

0
TEXT
5
22F
100
AcDbEntity
8
0
100
AcDbText
62
2
6
CONTINUOUS
10
220.9161969046
20
281.9171229155
7
STANDARD
40
3.5000000000
1
48
41
0.7143000000
72
0
100
AcDbText
0
LINE
5
230
100
AcDbEntity
8
0
100
AcDbLine
62
2
6
CONTINUOUS
10
247.5891673883
20
242.9063577455
11
247.5891673883
21
282.5421229155
0
LINE
5
231
100
AcDbEntity
8
0
100
AcDbLine
62
2
6
CONTINUOUS
10
199.5891673883
20
192.9244397323
11
199.5891673883
21
282.5421229155
0
LINE
5
232
100
AcDbEntity
8
0
100
AcDbLine
62
2
6
CONTINUOUS
10
247.5891673883
20
281.0421229155
11
223.5891673883
21
281.0421229155
0
LINE
5
233
100
AcDbEntity
8
0
100
AcDbLine
62
2
6
CONTINUOUS
10
199.5891673883
20
281.0421229155
11
223.5891673883
21
281.0421229155
0
INSERT
5
234
100
AcDbEntity
8
0
100
AcDbBlockReference
62
2
6
CONTINUOUS
2
_FILLED
10
247.5891673883
20
281.0421229155
41
  3.500000
42
  3.500000
43
  3.500000
0
INSERT
5
235
100
AcDbEntity
8
0
100
AcDbBlockReference
62
2
6
CONTINUOUS
2
_FILLED
10
199.5891673883
20
281.0421229155
41
  3.500000
42
  3.500000
43
  3.500000
50
180.000000
0
ENDBLK
5
236
100
AcDbEntity
8
0
6
BYBLOCK
62
0
100
AcDbBlockEnd
0
BLOCK
5
237
100
AcDbEntity
8
0
100
AcDbBlockBegin
62
2
6
CONTINUOUS
2
*D3
70
65
10
0.0000000000
20
0.0000000000
3
*D3
1

0
TEXT
5
238
100
AcDbEntity
8
0
100
AcDbText
62
2
6
CONTINUOUS
10
167.7316856252
20
172.2549803151
7
STANDARD
40
3.5000000000
1
128
50
90.0000000000
41
0.7143000000
72
0
100
AcDbText
0
LINE
5
239
100
AcDbEntity
8
0
100
AcDbLine
62
2
6
CONTINUOUS
10
199.0891673883
20
113.6590291699
11
167.1066856252
21
113.6590291699
0
LINE
5
23A
100
AcDbEntity
8
0
100
AcDbLine
62
2
6
CONTINUOUS
10
199.0891673883
20
241.6590291699
11
167.1066856252
21
241.6590291699
0
LINE
5
23B
100
AcDbEntity
8
0
100
AcDbLine
62
2
6
CONTINUOUS
10
168.6066856252
20
113.6590291699
11
168.6066856252
21
177.6590291699
0
LINE
5
23C
100
AcDbEntity
8
0
100
AcDbLine
62
2
6
CONTINUOUS
10
168.6066856252
20
241.6590291699
11
168.6066856252
21
177.6590291699
0
INSERT
5
23D
100
AcDbEntity
8
0
100
AcDbBlockReference
62
2
6
CONTINUOUS
2
_FILLED
10
168.6066856252
20
113.6590291699
41
  3.500000
42
  3.500000
43
  3.500000
50
270.000000
0
INSERT
5
23E
100
AcDbEntity
8
0
100
AcDbBlockReference
62
2
6
CONTINUOUS
2
_FILLED
10
168.6066856252
20
241.6590291699
41
  3.500000
42
  3.500000
43
  3.500000
50
 90.000000
0
ENDBLK
5
23F
100
AcDbEntity
8
0
6
BYBLOCK
62
0
100
AcDbBlockEnd
0
BLOCK
5
240
100
AcDbEntity
8
0
100
AcDbBlockBegin
62
2
6
CONTINUOUS
2
*D4
70
65
10
0.0000000000
20
0.0000000000
3
*D4
1

0
TEXT
5
241
100
AcDbEntity
8
0
100
AcDbText
62
2
6
CONTINUOUS
10
191.5094868681
20
154.6129973068
7
STANDARD
40
3.5000000000
1
%%c
50
90.0000000000
41
1.3333333333
72
0
100
AcDbText
0
TEXT
5
242
100
AcDbEntity
8
0
100
AcDbText
62
2
6
CONTINUOUS
10
191.5094868681
20
159.2796639735
7
STANDARD
40
3.5000000000
1
8.5
50
90.0000000000
41
0.7143000000
72
0
100
AcDbText
0
LINE
5
243
100
AcDbEntity
8
0
100
AcDbLine
62
2
6
CONTINUOUS
10
199.0891673883
20
172.4090291699
11
190.8844868681
21
172.4090291699
0
LINE
5
244
100
AcDbEntity
8
0
100
AcDbLine
62
2
6
CONTINUOUS
10
199.0891673883
20
180.9090291699
11
190.8844868681
21
180.9090291699
0
LINE
5
245
100
AcDbEntity
8
0
100
AcDbLine
62
2
6
CONTINUOUS
10
192.3844868681
20
172.4090291699
11
192.3844868681
21
154.6129973068
0
LINE
5
246
100
AcDbEntity
8
0
100
AcDbLine
62
2
6
CONTINUOUS
10
192.3844868681
20
154.6129973068
11
192.3844868681
21
176.6590291699
0
LINE
5
247
100
AcDbEntity
8
0
100
AcDbLine
62
2
6
CONTINUOUS
10
192.3844868681
20
180.9090291699
11
192.3844868681
21
188.9090291699
0
LINE
5
248
100
AcDbEntity
8
0
100
AcDbLine
62
2
6
CONTINUOUS
10
192.3844868681
20
188.9090291699
11
192.3844868681
21
176.6590291699
0
INSERT
5
249
100
AcDbEntity
8
0
100
AcDbBlockReference
62
2
6
CONTINUOUS
2
_FILLED
10
192.3844868681
20
172.4090291699
41
  3.500000
42
  3.500000
43
  3.500000
50
 90.000000
0
INSERT
5
24A
100
AcDbEntity
8
0
100
AcDbBlockReference
62
2
6
CONTINUOUS
2
_FILLED
10
192.3844868681
20
180.9090291699
41
  3.500000
42
  3.500000
43
  3.500000
50
270.000000
0
ENDBLK
5
24B
100
AcDbEntity
8
0
6
BYBLOCK
62
0
100
AcDbBlockEnd
0
BLOCK
5
24C
100
AcDbEntity
8
0
100
AcDbBlockBegin
62
2
6
CONTINUOUS
2
*D5
70
65
10
0.0000000000
20
0.0000000000
3
*D5
1

0
TEXT
5
24D
100
AcDbEntity
8
0
100
AcDbText
62
2
6
CONTINUOUS
10
182.1853131965
20
143.4065805960
7
STANDARD
40
3.5000000000
1
63
50
90.0000000000
41
0.7143000000
72
0
100
AcDbText
0
LINE
5
24E
100
AcDbEntity
8
0
100
AcDbLine
62
2
6
CONTINUOUS
10
199.0891673883
20
113.6590291699
11
181.5603131965
21
113.6590291699
0
LINE
5
24F
100
AcDbEntity
8
0
100
AcDbLine
62
2
6
CONTINUOUS
10
197.5937550390
20
176.6590291699
11
181.5603131965
21
176.6590291699
0
LINE
5
250
100
AcDbEntity
8
0
100
AcDbLine
62
2
6
CONTINUOUS
10
183.0603131965
20
113.6590291699
11
183.0603131965
21
145.1590291699
0
LINE
5
251
100
AcDbEntity
8
0
100
AcDbLine
62
2
6
CONTINUOUS
10
183.0603131965
20
176.6590291699
11
183.0603131965
21
145.1590291699
0
INSERT
5
252
100
AcDbEntity
8
0
100
AcDbBlockReference
62
2
6
CONTINUOUS
2
_FILLED
10
183.0603131965
20
113.6590291699
41
  3.500000
42
  3.500000
43
  3.500000
50
270.000000
0
INSERT
5
253
100
AcDbEntity
8
0
100
AcDbBlockReference
62
2
6
CONTINUOUS
2
_FILLED
10
183.0603131965
20
176.6590291699
41
  3.500000
42
  3.500000
43
  3.500000
50
 90.000000
0
ENDBLK
5
254
100
AcDbEntity
8
0
6
BYBLOCK
62
0
100
AcDbBlockEnd
0
BLOCK
5
255
100
AcDbEntity
8
0
100
AcDbBlockBegin
62
2
6
CONTINUOUS
2
*D6
70
65
10
0.0000000000
20
0.0000000000
3
*D6
1

0
TEXT
5
256
100
AcDbEntity
8
0
100
AcDbText
62
2
6
CONTINUOUS
10
182.8239475213
20
218.6780299820
7
STANDARD
40
3.5000000000
1
48
50
90.0000000000
41
0.7143000000
72
0
100
AcDbText
0
LINE
5
257
100
AcDbEntity
8
0
100
AcDbLine
62
2
6
CONTINUOUS
10
243.8881346948
20
241.6590291699
11
182.1989475213
21
241.6590291699
0
LINE
5
258
100
AcDbEntity
8
0
100
AcDbLine
62
2
6
CONTINUOUS
10
199.0891673883
20
193.6590291699
11
182.1989475213
21
193.6590291699
0
LINE
5
259
100
AcDbEntity
8
0
100
AcDbLine
62
2
6
CONTINUOUS
10
183.6989475213
20
241.6590291699
11
183.6989475213
21
217.6590291699
0
LINE
5
25A
100
AcDbEntity
8
0
100
AcDbLine
62
2
6
CONTINUOUS
10
183.6989475213
20
193.6590291699
11
183.6989475213
21
217.6590291699
0
INSERT
5
25B
100
AcDbEntity
8
0
100
AcDbBlockReference
62
2
6
CONTINUOUS
2
_FILLED
10
183.6989475213
20
241.6590291699
41
  3.500000
42
  3.500000
43
  3.500000
50
 90.000000
0
INSERT
5
25C
100
AcDbEntity
8
0
100
AcDbBlockReference
62
2
6
CONTINUOUS
2
_FILLED
10
183.6989475213
20
193.6590291699
41
  3.500000
42
  3.500000
43
  3.500000
50
270.000000
0
ENDBLK
5
25D
100
AcDbEntity
8
0
6
BYBLOCK
62
0
100
AcDbBlockEnd
0
BLOCK
5
25E
100
AcDbEntity
8
0
100
AcDbBlockBegin
62
2
6
CONTINUOUS
2
*D7
70
65
10
0.0000000000
20
0.0000000000
3
*D7
1

0
TEXT
5
25F
100
AcDbEntity
8
0
100
AcDbText
62
2
6
CONTINUOUS
10
211.0202151262
20
224.2363866811
7
STANDARD
40
3.5000000000
1
30
50
90.0000000000
41
0.7143000000
72
0
100
AcDbText
0
LINE
5
260
100
AcDbEntity
8
0
100
AcDbLine
62
2
6
CONTINUOUS
10
229.0891673883
20
211.6590291699
11
210.3952151262
21
211.6590291699
0
LINE
5
261
100
AcDbEntity
8
0
100
AcDbLine
62
2
6
CONTINUOUS
10
229.0891673883
20
241.6590291699
11
210.3952151262
21
241.6590291699
0
LINE
5
262
100
AcDbEntity
8
0
100
AcDbLine
62
2
6
CONTINUOUS
10
211.8952151262
20
211.6590291699
11
211.8952151262
21
226.6590291699
0
LINE
5
263
100
AcDbEntity
8
0
100
AcDbLine
62
2
6
CONTINUOUS
10
211.8952151262
20
241.6590291699
11
211.8952151262
21
226.6590291699
0
INSERT
5
264
100
AcDbEntity
8
0
100
AcDbBlockReference
62
2
6
CONTINUOUS
2
_FILLED
10
211.8952151262
20
211.6590291699
41
  3.500000
42
  3.500000
43
  3.500000
50
270.000000
0
INSERT
5
265
100
AcDbEntity
8
0
100
AcDbBlockReference
62
2
6
CONTINUOUS
2
_FILLED
10
211.8952151262
20
241.6590291699
41
  3.500000
42
  3.500000
43
  3.500000
50
 90.000000
0
ENDBLK
5
266
100
AcDbEntity
8
0
6
BYBLOCK
62
0
100
AcDbBlockEnd
0
BLOCK
5
267
100
AcDbEntity
8
0
100
AcDbBlockBegin
62
2
6
CONTINUOUS
2
*D8
70
65
10
0.0000000000
20
0.0000000000
3
*D8
1

0
TEXT
5
268
100
AcDbEntity
8
0
100
AcDbText
62
2
6
CONTINUOUS
10
219.7736760437
20
272.1026590061
7
STANDARD
40
3.5000000000
1
36
41
0.7143000000
72
0
100
AcDbText
0
LINE
5
269
100
AcDbEntity
8
0
100
AcDbLine
62
2
6
CONTINUOUS
10
265.5891673883
20
242.1590291699
11
265.5891673883
21
272.7276590061
0
LINE
5
26A
100
AcDbEntity
8
0
100
AcDbLine
62
2
6
CONTINUOUS
10
229.5891673883
20
242.1590291699
11
229.5891673883
21
272.7276590061
0
LINE
5
26B
100
AcDbEntity
8
0
100
AcDbLine
62
2
6
CONTINUOUS
10
265.5891673883
20
271.2276590061
11
247.5891673883
21
271.2276590061
0
LINE
5
26C
100
AcDbEntity
8
0
100
AcDbLine
62
2
6
CONTINUOUS
10
229.5891673883
20
271.2276590061
11
247.5891673883
21
271.2276590061
0
LINE
5
26D
100
AcDbEntity
8
0
100
AcDbLine
62
2
6
CONTINUOUS
10
247.5891673883
20
271.2276590061
11
219.7736760437
21
271.2276590061
0
INSERT
5
26E
100
AcDbEntity
8
0
100
AcDbBlockReference
62
2
6
CONTINUOUS
2
_FILLED
10
265.5891673883
20
271.2276590061
41
  3.500000
42
  3.500000
43
  3.500000
0
INSERT
5
26F
100
AcDbEntity
8
0
100
AcDbBlockReference
62
2
6
CONTINUOUS
2
_FILLED
10
229.5891673883
20
271.2276590061
41
  3.500000
42
  3.500000
43
  3.500000
50
180.000000
0
ENDBLK
5
270
100
AcDbEntity
8
0
6
BYBLOCK
62
0
100
AcDbBlockEnd
0
BLOCK
5
271
100
AcDbEntity
8
0
100
AcDbBlockBegin
62
2
6
CONTINUOUS
2
*D9
70
65
10
0.0000000000
20
0.0000000000
3
*D9
1

0
TEXT
5
272
100
AcDbEntity
8
0
100
AcDbText
62
2
6
CONTINUOUS
10
298.1860210300
20
245.3868365599
7
STANDARD
40
3.5000000000
1
7.5
50
90.0000000000
41
0.7143000000
72
0
100
AcDbText
0
LINE
5
273
100
AcDbEntity
8
0
100
AcDbLine
62
2
6
CONTINUOUS
10
266.0891673883
20
234.1590291699
11
300.5610210300
21
234.1590291699
0
LINE
5
274
100
AcDbEntity
8
0
100
AcDbLine
62
2
6
CONTINUOUS
10
266.0891673883
20
241.6590291699
11
300.5610210300
21
241.6590291699
0
LINE
5
275
100
AcDbEntity
8
0
100
AcDbLine
62
2
6
CONTINUOUS
10
299.0610210300
20
234.1590291699
11
299.0610210300
21
226.1590291699
0
LINE
5
276
100
AcDbEntity
8
0
100
AcDbLine
62
2
6
CONTINUOUS
10
299.0610210300
20
226.1590291699
11
299.0610210300
21
237.9090291699
0
LINE
5
277
100
AcDbEntity
8
0
100
AcDbLine
62
2
6
CONTINUOUS
10
299.0610210300
20
241.6590291699
11
299.0610210300
21
252.8869865599
0
LINE
5
278
100
AcDbEntity
8
0
100
AcDbLine
62
2
6
CONTINUOUS
10
299.0610210300
20
252.8869865599
11
299.0610210300
21
237.9090291699
0
INSERT
5
279
100
AcDbEntity
8
0
100
AcDbBlockReference
62
2
6
CONTINUOUS
2
_FILLED
10
299.0610210300
20
234.1590291699
41
  3.500000
42
  3.500000
43
  3.500000
50
 90.000000
0
INSERT
5
27A
100
AcDbEntity
8
0
100
AcDbBlockReference
62
2
6
CONTINUOUS
2
_FILLED
10
299.0610210300
20
241.6590291699
41
  3.500000
42
  3.500000
43
  3.500000
50
270.000000
0
ENDBLK
5
27B
100
AcDbEntity
8
0
6
BYBLOCK
62
0
100
AcDbBlockEnd
0
BLOCK
5
27C
100
AcDbEntity
8
0
100
AcDbBlockBegin
62
2
6
CONTINUOUS
2
*D10
70
65
10
0.0000000000
20
0.0000000000
3
*D10
1

0
TEXT
5
27D
100
AcDbEntity
8
0
100
AcDbText
62
2
6
CONTINUOUS
10
78.9013577293
20
96.3699128016
7
STANDARD
40
3.5000000000
1
25
41
0.7143000000
72
0
100
AcDbText
0
LINE
5
27E
100
AcDbEntity
8
0
100
AcDbLine
62
2
6
CONTINUOUS
10
94.4722248386
20
113.1590291699
11
94.4722248386
21
93.9949128016
0
LINE
5
27F
100
AcDbEntity
8
0
100
AcDbLine
62
2
6
CONTINUOUS
10
69.4722248386
20
113.1590291699
11
69.4722248386
21
93.9949128016
0
LINE
5
280
100
AcDbEntity
8
0
100
AcDbLine
62
2
6
CONTINUOUS
10
94.4722248386
20
95.4949128016
11
81.9722248386
21
95.4949128016
0
LINE
5
281
100
AcDbEntity
8
0
100
AcDbLine
62
2
6
CONTINUOUS
10
69.4722248386
20
95.4949128016
11
81.9722248386
21
95.4949128016
0
INSERT
5
282
100
AcDbEntity
8
0
100
AcDbBlockReference
62
2
6
CONTINUOUS
2
_FILLED
10
94.4722248386
20
95.4949128016
41
  3.500000
42
  3.500000
43
  3.500000
0
INSERT
5
283
100
AcDbEntity
8
0
100
AcDbBlockReference
62
2
6
CONTINUOUS
2
_FILLED
10
69.4722248386
20
95.4949128016
41
  3.500000
42
  3.500000
43
  3.500000
50
180.000000
0
ENDBLK
5
284
100
AcDbEntity
8
0
6
BYBLOCK
62
0
100
AcDbBlockEnd
0
BLOCK
5
285
100
AcDbEntity
8
0
100
AcDbBlockBegin
62
2
6
CONTINUOUS
2
*D11
70
65
10
0.0000000000
20
0.0000000000
3
*D11
1

0
TEXT
5
286
100
AcDbEntity
8
0
100
AcDbText
62
2
6
CONTINUOUS
10
190.4800004258
20
96.8414149417
7
STANDARD
40
3.5000000000
1
10
41
0.7143000000
72
0
100
AcDbText
0
LINE
5
287
100
AcDbEntity
8
0
100
AcDbLine
62
2
6
CONTINUOUS
10
209.5891673883
20
118.7874049314
11
209.5891673883
21
94.4664149417
0
LINE
5
288
100
AcDbEntity
8
0
100
AcDbLine
62
2
6
CONTINUOUS
10
199.5891673883
20
113.1590291699
11
199.5891673883
21
94.4664149417
0
LINE
5
289
100
AcDbEntity
8
0
100
AcDbLine
62
2
6
CONTINUOUS
10
209.5891673883
20
95.9664149417
11
217.5891673883
21
95.9664149417
0
LINE
5
28A
100
AcDbEntity
8
0
100
AcDbLine
62
2
6
CONTINUOUS
10
217.5891673883
20
95.9664149417
11
204.5891673883
21
95.9664149417
0
LINE
5
28B
100
AcDbEntity
8
0
100
AcDbLine
62
2
6
CONTINUOUS
10
199.5891673883
20
95.9664149417
11
190.4800004258
21
95.9664149417
0
LINE
5
28C
100
AcDbEntity
8
0
100
AcDbLine
62
2
6
CONTINUOUS
10
190.4800004258
20
95.9664149417
11
204.5891673883
21
95.9664149417
0
INSERT
5
28D
100
AcDbEntity
8
0
100
AcDbBlockReference
62
2
6
CONTINUOUS
2
_FILLED
10
209.5891673883
20
95.9664149417
41
  3.500000
42
  3.500000
43
  3.500000
50
180.000000
0
INSERT
5
28E
100
AcDbEntity
8
0
100
AcDbBlockReference
62
2
6
CONTINUOUS
2
_FILLED
10
199.5891673883
20
95.9664149417
41
  3.500000
42
  3.500000
43
  3.500000
0
ENDBLK
5
28F
100
AcDbEntity
8
0
6
BYBLOCK
62
0
100
AcDbBlockEnd
0
BLOCK
5
290
100
AcDbEntity
8
0
100
AcDbBlockBegin
62
2
6
CONTINUOUS
2
*D12
70
65
10
0.0000000000
20
0.0000000000
3
*D12
1

0
TEXT
5
291
100
AcDbEntity
8
0
100
AcDbText
62
2
6
CONTINUOUS
10
217.8323319651
20
260.4312039327
7
STANDARD
40
3.5000000000
1
%%c
41
1.3333333333
72
0
100
AcDbText
0
TEXT
5
292
100
AcDbEntity
8
0
100
AcDbText
62
2
6
CONTINUOUS
10
222.4989986318
20
260.4312039327
7
STANDARD
40
3.5000000000
1
30
41
0.7143000000
72
0
100
AcDbText
0
LINE
5
293
100
AcDbEntity
8
0
100
AcDbLine
62
2
6
CONTINUOUS
10
262.5891673883
20
239.1590291699
11
262.5891673883
21
261.0562039327
0
LINE
5
294
100
AcDbEntity
8
0
100
AcDbLine
62
2
6
CONTINUOUS
10
232.5891673883
20
239.1590291699
11
232.5891673883
21
261.0562039327
0
LINE
5
295
100
AcDbEntity
8
0
100
AcDbLine
62
2
6
CONTINUOUS
10
262.5891673883
20
259.5562039327
11
247.5891673883
21
259.5562039327
0
LINE
5
296
100
AcDbEntity
8
0
100
AcDbLine
62
2
6
CONTINUOUS
10
232.5891673883
20
259.5562039327
11
247.5891673883
21
259.5562039327
0
LINE
5
297
100
AcDbEntity
8
0
100
AcDbLine
62
2
6
CONTINUOUS
10
247.5891673883
20
259.5562039327
11
217.8323319651
21
259.5562039327
0
INSERT
5
298
100
AcDbEntity
8
0
100
AcDbBlockReference
62
2
6
CONTINUOUS
2
_FILLED
10
262.5891673883
20
259.5562039327
41
  3.500000
42
  3.500000
43
  3.500000
0
INSERT
5
299
100
AcDbEntity
8
0
100
AcDbBlockReference
62
2
6
CONTINUOUS
2
_FILLED
10
232.5891673883
20
259.5562039327
41
  3.500000
42
  3.500000
43
  3.500000
50
180.000000
0
ENDBLK
5
29A
100
AcDbEntity
8
0
6
BYBLOCK
62
0
100
AcDbBlockEnd
0
BLOCK
5
29B
100
AcDbEntity
8
0
100
AcDbBlockBegin
62
2
6
CONTINUOUS
2
*D13
70
65
10
0.0000000000
20
0.0000000000
3
*D13
1

0
TEXT
5
29C
100
AcDbEntity
8
0
100
AcDbText
62
2
6
CONTINUOUS
10
282.9652975326
20
249.2998389824
7
STANDARD
40
3.5000000000
1
3
50
90.0000000000
41
0.7143000000
72
0
100
AcDbText
0
LINE
5
29D
100
AcDbEntity
8
0
100
AcDbLine
62
2
6
CONTINUOUS
10
262.1197006736
20
241.6590291699
11
285.3402975326
21
241.6590291699
0
LINE
5
29E
100
AcDbEntity
8
0
100
AcDbLine
62
2
6
CONTINUOUS
10
261.9944841008
20
238.6590291699
11
285.3402975326
21
238.6590291699
0
LINE
5
29F
100
AcDbEntity
8
0
100
AcDbLine
62
2
6
CONTINUOUS
10
283.8402975326
20
241.6590291699
11
283.8402975326
21
251.7998889824
0
LINE
5
2A0
100
AcDbEntity
8
0
100
AcDbLine
62
2
6
CONTINUOUS
10
283.8402975326
20
251.7998889824
11
283.8402975326
21
240.1590291699
0
LINE
5
2A1
100
AcDbEntity
8
0
100
AcDbLine
62
2
6
CONTINUOUS
10
283.8402975326
20
238.6590291699
11
283.8402975326
21
230.6590291699
0
LINE
5
2A2
100
AcDbEntity
8
0
100
AcDbLine
62
2
6
CONTINUOUS
10
283.8402975326
20
230.6590291699
11
283.8402975326
21
240.1590291699
0
INSERT
5
2A3
100
AcDbEntity
8
0
100
AcDbBlockReference
62
2
6
CONTINUOUS
2
_FILLED
10
283.8402975326
20
241.6590291699
41
  3.500000
42
  3.500000
43
  3.500000
50
270.000000
0
INSERT
5
2A4
100
AcDbEntity
8
0
100
AcDbBlockReference
62
2
6
CONTINUOUS
2
_FILLED
10
283.8402975326
20
238.6590291699
41
  3.500000
42
  3.500000
43
  3.500000
50
 90.000000
0
ENDBLK
5
2A5
100
AcDbEntity
8
0
6
BYBLOCK
62
0
100
AcDbBlockEnd
0
BLOCK
5
2A6
100
AcDbEntity
8
0
100
AcDbBlockBegin
2
_FILLED
70
64
10
0.0000000000
20
0.0000000000
3
_FILLED
1

0
SOLID
5
2A7
100
AcDbEntity
8
0
6
BYBLOCK
62
0
100
AcDbTrace
10
0.0000000000
20
0.0000000000
11
-1.0000000000
21
0.1857142857
12
-1.0000000000
22
-0.1857142857
13
-1.0000000000
23
-0.1857142857
0
ENDBLK
5
2A8
100
AcDbEntity
8
0
6
BYBLOCK
62
0
100
AcDbBlockEnd
0
ENDSEC
0
SECTION
2
ENTITIES
0
TEXT
5
2A9
100
AcDbEntity
8
0
100
AcDbText
62
7
6
CONTINUOUS
10
65.6844488131
20
102.0212953705
7
STANDARD
40
3.5000000000
1
A
41
0.7143000000
72
0
100
AcDbText
0
LINE
5
2AA
100
AcDbEntity
8
0
100
AcDbLine
62
7
6
CONTINUOUS
10
81.9722248386
20
107.2712953705
11
64.4344238131
21
107.2712953705
0
SOLID
5
2AB
100
AcDbEntity
8
0
100
AcDbTrace
62
7
6
CONTINUOUS
10
74.9722248386
20
106.2712953705
11
81.9722248386
21
107.2712953705
12
74.9722248386
22
108.2712953705
13
74.9722248386
23
108.2712953705
0
TEXT
5
2AC
100
AcDbEntity
8
0
100
AcDbText
62
7
6
CONTINUOUS
10
64.7553117572
20
252.1439153625
7
STANDARD
40
3.5000000000
1
A
41
0.7143000000
72
0
100
AcDbText
0
LINE
5
2AD
100
AcDbEntity
8
0
100
AcDbLine
62
7
6
CONTINUOUS
10
81.9722248386
20
250.3939153625
11
63.5052867572
21
250.3939153625
0
SOLID
5
2AE
100
AcDbEntity
8
0
100
AcDbTrace
62
7
6
CONTINUOUS
10
74.9722248386
20
249.3939153625
11
81.9722248386
21
250.3939153625
12
74.9722248386
22
251.3939153625
13
74.9722248386
23
251.3939153625
0
DIMENSION
5
2AF
100
AcDbEntity
8
0
100
AcDbDimension
62
2
6
CONTINUOUS
2
*D0
10
101.0798222154
20
85.1562598678
11
80.7846313916
21
87.7812598678
70
160
42
40.000000
3
DIMSTYLE_1
100
AcDbAlignedDimension
13
61.0798222154
23
113.1590291699
14
101.0798222154
24
113.1590291699
100
AcDbRotatedDimension
0
DIMENSION
5
2B0
100
AcDbEntity
8
0
100
AcDbDimension
62
2
6
CONTINUOUS
2
*D1
10
242.0891673883
20
249.0191415360
11
222.9916597173
21
251.6441415360
70
160
42
11.000000
1
%%c<>
3
DIMSTYLE_2
100
AcDbAlignedDimension
13
253.0891673883
23
238.9856728328
14
242.0891673883
24
238.3595899689
50
180.000000
100
AcDbRotatedDimension
0
DIMENSION
5
2B1
100
AcDbEntity
8
0
100
AcDbDimension
62
2
6
CONTINUOUS
2
*D2
10
199.5891673883
20
281.0421229155
11
223.4162469046
21
283.6671229155
70
160
42
48.000000
3
DIMSTYLE_3
100
AcDbAlignedDimension
13
247.5891673883
23
242.9063577455
14
199.5891673883
24
192.9244397323
50
180.000000
100
AcDbRotatedDimension
0
DIMENSION
5
2B2
100
AcDbEntity
8
0
100
AcDbDimension
62
2
6
CONTINUOUS
2
*D3
10
168.6066856252
20
241.6590291699
11
165.9816856252
21
176.0050553151
70
160
42
128.000000
3
DIMSTYLE_4
100
AcDbAlignedDimension
13
199.0891673883
23
113.6590291699
14
199.0891673883
24
241.6590291699
50
90.000000
100
AcDbRotatedDimension
0
DIMENSION
5
2B3
100
AcDbEntity
8
0
100
AcDbDimension
62
2
6
CONTINUOUS
2
*D4
10
192.3844868681
20
180.9090291699
11
189.7594868681
21
160.6964056402
70
160
42
8.500000
1
%%c<>
3
DIMSTYLE_5
100
AcDbAlignedDimension
13
199.0891673883
23
172.4090291699
14
199.0891673883
24
180.9090291699
50
90.000000
100
AcDbRotatedDimension
0
DIMENSION
5
2B4
100
AcDbEntity
8
0
100
AcDbDimension
62
2
6
CONTINUOUS
2
*D5
10
183.0603131965
20
176.6590291699
11
180.4353131965
21
145.9066305960
70
160
42
63.000000
3
DIMSTYLE_1
100
AcDbAlignedDimension
13
199.0891673883
23
113.6590291699
14
197.5937550390
24
176.6590291699
50
90.000000
100
AcDbRotatedDimension
0
DIMENSION
5
2B5
100
AcDbEntity
8
0
100
AcDbDimension
62
2
6
CONTINUOUS
2
*D6
10
183.6989475213
20
193.6590291699
11
181.0739475213
21
221.1780799820
70
160
42
48.000000
3
DIMSTYLE_1
100
AcDbAlignedDimension
13
243.8881346948
23
241.6590291699
14
199.0891673883
24
193.6590291699
50
270.000000
100
AcDbRotatedDimension
0
DIMENSION
5
2B6
100
AcDbEntity
8
0
100
AcDbDimension
62
2
6
CONTINUOUS
2
*D7
10
211.8952151262
20
241.6590291699
11
209.2702151262
21
226.7364366811
70
160
42
30.000000
3
DIMSTYLE_5
100
AcDbAlignedDimension
13
229.0891673883
23
211.6590291699
14
229.0891673883
24
241.6590291699
50
90.000000
100
AcDbRotatedDimension
0
DIMENSION
5
2B7
100
AcDbEntity
8
0
100
AcDbDimension
62
2
6
CONTINUOUS
2
*D8
10
229.5891673883
20
271.2276590061
11
222.2737260437
21
273.8526590061
70
160
42
36.000000
3
DIMSTYLE_1
100
AcDbAlignedDimension
13
265.5891673883
23
242.1590291699
14
229.5891673883
24
242.1590291699
50
180.000000
100
AcDbRotatedDimension
0
DIMENSION
5
2B8
100
AcDbEntity
8
0
100
AcDbDimension
62
2
6
CONTINUOUS
2
*D9
10
299.0610210300
20
241.6590291699
11
296.4360210300
21
249.1369115599
70
160
42
7.500000
3
DIMSTYLE_5
100
AcDbAlignedDimension
13
266.0891673883
23
234.1590291699
14
266.0891673883
24
241.6590291699
50
90.000000
100
AcDbRotatedDimension
0
DIMENSION
5
2B9
100
AcDbEntity
8
0
100
AcDbDimension
62
2
6
CONTINUOUS
2
*D10
10
69.4722248386
20
95.4949128016
11
81.4014077293
21
98.1199128016
70
160
42
25.000000
3
DIMSTYLE_5
100
AcDbAlignedDimension
13
94.4722248386
23
113.1590291699
14
69.4722248386
24
113.1590291699
50
180.000000
100
AcDbRotatedDimension
0
DIMENSION
5
2BA
100
AcDbEntity
8
0
100
AcDbDimension
62
2
6
CONTINUOUS
2
*D11
10
199.5891673883
20
95.9664149417
11
192.9800504258
21
98.5914149417
70
160
42
10.000000
3
DIMSTYLE_5
100
AcDbAlignedDimension
13
209.5891673883
23
118.7874049314
14
199.5891673883
24
113.1590291699
50
180.000000
100
AcDbRotatedDimension
0
DIMENSION
5
2BB
100
AcDbEntity
8
0
100
AcDbDimension
62
2
6
CONTINUOUS
2
*D12
10
232.5891673883
20
259.5562039327
11
222.6657152985
21
262.1812039327
70
160
42
30.000000
1
%%c<>
3
DIMSTYLE_2
100
AcDbAlignedDimension
13
262.5891673883
23
239.1590291699
14
232.5891673883
24
239.1590291699
50
180.000000
100
AcDbRotatedDimension
0
DIMENSION
5
2BC
100
AcDbEntity
8
0
100
AcDbDimension
62
2
6
CONTINUOUS
2
*D13
10
283.8402975326
20
238.6590291699
11
281.2152975326
21
250.5498639824
70
160
42
3.000000
3
DIMSTYLE_6
100
AcDbAlignedDimension
13
262.1197006736
23
241.6590291699
14
261.9944841008
24
238.6590291699
50
270.000000
100
AcDbRotatedDimension
0
MTEXT
5
2BD
100
AcDbEntity
8
0
100
AcDbMText
62
2
6
CONTINUOUS
7
STANDARD
71
1
72
1
10
204.2959342379
20
75.3135914993
30
0.0000000000
11
1.0000000000
21
0.0000000000
31
0.0000000000
1
SEZIONE A-A
40
3.5000000000
41
27.5005500000
0
LINE
5
2BE
100
AcDbEntity
8
0
100
AcDbLine
62
7
6
CONTINUOUS
10
101.0798222154
20
113.6590291699
11
88.2222248386
21
113.6590291699
0
LINE
5
2BF
100
AcDbEntity
8
0
100
AcDbLine
62
7
6
CONTINUOUS
10
75.7222248386
20
113.6590291699
11
61.0798222154
21
113.6590291699
0
LINE
5
2C0
100
AcDbEntity
8
0
100
AcDbLine
62
7
6
CONTINUOUS
10
75.7222248386
20
113.8510934021
11
88.2222248386
21
113.8510934021
0
LINE
5
2C1
100
AcDbEntity
8
0
100
AcDbLine
62
7
6
CONTINUOUS
10
69.4722248386
20
114.0082368648
11
94.4722248386
21
114.0082368648
0
LINE
5
2C2
100
AcDbEntity
8
0
100
AcDbLine
62
9
6
CONTINUOUS
10
61.7162189919
20
114.1584601682
11
69.3220015352
21
114.1584601682
0
LINE
5
2C3
100
AcDbEntity
8
0
100
AcDbLine
62
9
6
CONTINUOUS
10
94.6224481420
20
114.1584601682
11
100.8301827994
21
114.1584601682
0
LINE
5
2C4
100
AcDbEntity
8
0
100
AcDbLine
62
9
6
CONTINUOUS
10
62.0912980134
20
119.3624574304
11
69.0276472942
21
119.3624574304
0
LINE
5
2C5
100
AcDbEntity
8
0
100
AcDbLine
62
9
6
CONTINUOUS
10
94.9168023830
20
119.3624574304
11
100.6830505207
21
119.3624574304
0
LINE
5
2C6
100
AcDbEntity
8
0
100
AcDbLine
62
7
6
CONTINUOUS
10
69.4722248386
20
114.0082368648
11
69.3220015352
21
114.1584601682
0
LINE
5
2C7
100
AcDbEntity
8
0
100
AcDbLine
62
7
6
CONTINUOUS
10
61.0798222154
20
113.6590291699
11
61.0798222154
21
193.6590291699
0
LINE
5
2C8
100
AcDbEntity
8
0
100
AcDbLine
62
7
6
CONTINUOUS
10
62.4147492753
20
241.6590291699
11
62.4147492753
21
213.3576003068
0
LINE
5
2C9
100
AcDbEntity
8
0
100
AcDbLine
62
7
6
CONTINUOUS
10
62.0912980134
20
119.3624574304
11
63.9622945095
21
196.4199013192
0
LINE
5
2CA
100
AcDbEntity
8
0
100
AcDbLine
62
7
6
CONTINUOUS
10
62.3499379999
20
210.7851215296
11
61.0798222154
21
193.6590291699
0
LINE
5
2CB
100
AcDbEntity
8
0
100
AcDbLine
62
7
6
CONTINUOUS
10
69.0276472942
20
119.3624574304
11
67.5593280282
21
196.4199013192
0
LINE
5
2CC
100
AcDbEntity
8
0
100
AcDbLine
62
7
6
CONTINUOUS
10
64.0166617471
20
201.2098123271
11
64.0166617471
21
238.6590291699
0
LINE
5
2CD
100
AcDbEntity
8
0
100
AcDbLine
62
7
6
CONTINUOUS
10
67.5166617471
20
201.2098123271
11
67.5166617471
21
234.1590291699
0
LINE
5
2CE
100
AcDbEntity
8
0
100
AcDbLine
62
7
6
CONTINUOUS
10
69.3704997477
20
195.5758925555
11
68.7348390558
21
206.4976569011
0
LINE
5
2CF
100
AcDbEntity
8
0
100
AcDbLine
62
7
6
CONTINUOUS
10
68.5992056013
20
234.1590291699
11
68.5992056013
21
213.3576003068
0
LINE
5
2D0
100
AcDbEntity
8
0
100
AcDbLine
62
7
6
CONTINUOUS
10
69.4722248386
20
114.0082368648
11
69.4722248386
21
190.4309350012
0
LINE
5
2D1
100
AcDbEntity
8
0
100
AcDbLine
62
7
6
CONTINUOUS
10
101.0798222154
20
113.6590291699
11
100.8301827994
21
114.1584601682
0
LINE
5
2D2
100
AcDbEntity
8
0
100
AcDbLine
62
7
6
CONTINUOUS
10
75.7222248386
20
113.6590291699
11
75.7222248386
21
113.8510934021
0
LINE
5
2D3
100
AcDbEntity
8
DEFAULT_1
100
AcDbLine
62
7
6
CENTER
10
81.9722248386
20
107.2712953705
11
81.9722248386
21
112.2712953705
0
LINE
5
2D4
100
AcDbEntity
8
DEFAULT_1
100
AcDbLine
62
9
6
CENTER
10
81.9722248386
20
112.2712953705
11
81.9722248386
21
245.3939153625
0
LINE
5
2D5
100
AcDbEntity
8
DEFAULT_1
100
AcDbLine
62
7
6
CENTER
10
81.9722248386
20
245.3939153625
11
81.9722248386
21
250.3939153625
0
LINE
5
2D6
100
AcDbEntity
8
0
100
AcDbLine
62
7
6
CONTINUOUS
10
88.2222248386
20
113.6590291699
11
88.2222248386
21
113.8510934021
0
LINE
5
2D7
100
AcDbEntity
8
0
100
AcDbLine
62
7
6
CONTINUOUS
10
94.4722248386
20
114.0082368648
11
94.4722248386
21
190.4309350012
0
LINE
5
2D8
100
AcDbEntity
8
0
100
AcDbLine
62
7
6
CONTINUOUS
10
94.5739499295
20
195.5758925555
11
95.2096106214
21
206.4976569011
0
LINE
5
2D9
100
AcDbEntity
8
0
100
AcDbLine
62
9
6
CONTINUOUS
10
69.4722248386
20
190.4309350012
11
94.4722248386
21
190.4309350012
0
LINE
5
2DA
100
AcDbEntity
8
0
100
AcDbLine
62
7
6
CONTINUOUS
10
95.3452440759
20
234.1590291699
11
95.3452440759
21
213.3576003068
0
LINE
5
2DB
100
AcDbEntity
8
0
100
AcDbLine
62
7
6
CONTINUOUS
10
96.4277879302
20
201.2098123271
11
96.4277879302
21
234.1590291699
0
LINE
5
2DC
100
AcDbEntity
8
0
100
AcDbLine
62
7
6
CONTINUOUS
10
94.9168023830
20
119.3624574304
11
96.3851216490
21
196.4199013192
0
LINE
5
2DD
100
AcDbEntity
8
0
100
AcDbLine
62
9
6
CONTINUOUS
10
69.3704997477
20
195.5758925555
11
94.5739499295
21
195.5758925555
0
LINE
5
2DE
100
AcDbEntity
8
0
100
AcDbLine
62
7
6
CONTINUOUS
10
100.5815937919
20
210.7851215296
11
101.0798222154
21
193.6590291699
0
LINE
5
2DF
100
AcDbEntity
8
0
100
AcDbLine
62
7
6
CONTINUOUS
10
100.6830505207
20
119.3624574304
11
99.9491145709
21
196.4199013192
0
LINE
5
2E0
100
AcDbEntity
8
0
100
AcDbLine
62
7
6
CONTINUOUS
10
99.9277879302
20
201.2098123271
11
99.9277879302
21
238.6590291699
0
LINE
5
2E1
100
AcDbEntity
8
0
100
AcDbLine
62
7
6
CONTINUOUS
10
100.5561702676
20
241.6590291699
11
100.5561702676
21
213.3576003068
0
LINE
5
2E2
100
AcDbEntity
8
0
100
AcDbLine
62
7
6
CONTINUOUS
10
101.0798222154
20
113.6590291699
11
101.0798222154
21
193.6590291699
0
LINE
5
2E3
100
AcDbEntity
8
0
100
AcDbLine
62
9
6
CONTINUOUS
10
63.9622945095
20
196.4199013192
11
67.5593280282
21
196.4199013192
0
LINE
5
2E4
100
AcDbEntity
8
0
100
AcDbLine
62
9
6
CONTINUOUS
10
96.3851216490
20
196.4199013192
11
99.9491145709
21
196.4199013192
0
LINE
5
2E5
100
AcDbEntity
8
0
100
AcDbLine
62
9
6
CONTINUOUS
10
64.0166617471
20
201.2098123271
11
67.5166617471
21
201.2098123271
0
LINE
5
2E6
100
AcDbEntity
8
0
100
AcDbLine
62
9
6
CONTINUOUS
10
96.4277879302
20
201.2098123271
11
99.9277879302
21
201.2098123271
0
LINE
5
2E7
100
AcDbEntity
8
0
100
AcDbLine
62
9
6
CONTINUOUS
10
95.2096106214
20
206.4976569011
11
68.7348390558
21
206.4976569011
0
LINE
5
2E8
100
AcDbEntity
8
0
100
AcDbLine
62
9
6
CONTINUOUS
10
95.3452440759
20
213.3576003068
11
68.5992056013
21
213.3576003068
0
LINE
5
2E9
100
AcDbEntity
8
0
100
AcDbLine
62
7
6
CONTINUOUS
10
61.0798222154
20
113.6590291699
11
61.7162189919
21
114.1584601682
0
LINE
5
2EA
100
AcDbEntity
8
0
100
AcDbLine
62
7
6
CONTINUOUS
10
94.4722248386
20
114.0082368648
11
94.6224481420
21
114.1584601682
0
LINE
5
2EB
100
AcDbEntity
8
0
100
AcDbLine
62
7
6
CONTINUOUS
10
67.5166617471
20
234.1590291699
11
96.4277879302
21
234.1590291699
0
LINE
5
2EC
100
AcDbEntity
8
0
100
AcDbLine
62
9
6
CONTINUOUS
10
64.0166617471
20
238.6590291699
11
99.9277879302
21
238.6590291699
0
LINE
5
2ED
100
AcDbEntity
8
0
100
AcDbLine
62
7
6
CONTINUOUS
10
62.4147492753
20
241.6590291699
11
100.5561702676
21
241.6590291699
0
LINE
5
2EE
100
AcDbEntity
8
0
100
AcDbLine
62
7
6
CONTINUOUS
10
199.5891673883
20
113.6590291699
11
213.8909999529
21
114.1584601682
0
LINE
5
2EF
100
AcDbEntity
8
0
100
AcDbLine
62
2
6
CONTINUOUS
10
229.8673797453
20
241.6590291699
11
229.5891673883
21
241.3808168128
0
LINE
5
2F0
100
AcDbEntity
8
0
100
AcDbLine
62
2
6
CONTINUOUS
10
232.5891673883
20
241.5523896881
11
229.5891673883
21
238.5523896881
0
LINE
5
2F1
100
AcDbEntity
8
0
100
AcDbLine
62
2
6
CONTINUOUS
10
232.5891673883
20
238.7239625634
11
229.5891673883
21
235.7239625634
0
LINE
5
2F2
100
AcDbEntity
8
0
100
AcDbLine
62
2
6
CONTINUOUS
10
235.3526611196
20
238.6590291699
11
229.5891673883
21
232.8955354386
0
LINE
5
2F3
100
AcDbEntity
8
0
100
AcDbLine
62
2
6
CONTINUOUS
10
238.1810882443
20
238.6590291699
11
229.5891673883
21
230.0671083139
0
LINE
5
2F4
100
AcDbEntity
8
0
100
AcDbLine
62
7
6
CONTINUOUS
10
199.5891673883
20
113.6590291699
11
199.5891673883
21
193.6590291699
0
LINE
5
2F5
100
AcDbEntity
8
0
100
AcDbLine
62
2
6
CONTINUOUS
10
241.0095153691
20
238.6590291699
11
236.5095153691
21
234.1590291699
0
LINE
5
2F6
100
AcDbEntity
8
0
100
AcDbLine
62
2
6
CONTINUOUS
10
234.5891673883
20
232.2386811891
11
229.5891673883
21
227.2386811891
0
LINE
5
2F7
100
AcDbEntity
8
0
100
AcDbLine
62
2
6
CONTINUOUS
10
242.0891673883
20
236.9102540644
11
239.3379424938
21
234.1590291699
0
LINE
5
2F8
100
AcDbEntity
8
0
100
AcDbLine
62
2
6
CONTINUOUS
10
234.5891673883
20
229.4102540644
11
229.5891673883
21
224.4102540644
0
LINE
5
2F9
100
AcDbEntity
8
0
100
AcDbLine
62
2
6
CONTINUOUS
10
234.5891673883
20
226.5818269396
11
229.5891673883
21
221.5818269396
0
LINE
5
2FA
100
AcDbEntity
8
0
100
AcDbLine
62
2
6
CONTINUOUS
10
204.7821729639
20
196.7748325153
11
199.5891673883
21
191.5818269396
0
LINE
5
2FB
100
AcDbEntity
8
0
100
AcDbLine
62
9
6
CONTINUOUS
10
199.5891673883
20
143.6590291699
11
205.0891673883
21
143.6590291699
0
LINE
5
2FC
100
AcDbEntity
8
0
100
AcDbLine
62
2
6
CONTINUOUS
10
234.5891673883
20
223.7533998149
11
229.5891673883
21
218.7533998149
0
LINE
5
2FD
100
AcDbEntity
8
0
100
AcDbLine
62
2
6
CONTINUOUS
10
211.8532407758
20
201.0174732024
11
199.5891673883
21
188.7533998149
0
LINE
5
2FE
100
AcDbEntity
8
0
100
AcDbLine
62
2
6
CONTINUOUS
10
234.5891673883
20
220.9249726901
11
229.5891673883
21
215.9249726901
0
LINE
5
2FF
100
AcDbEntity
8
0
100
AcDbLine
62
2
6
CONTINUOUS
10
218.9243085877
20
205.2601138895
11
199.5891673883
21
185.9249726901
0
LINE
5
300
100
AcDbEntity
8
0
100
AcDbLine
62
7
6
CONTINUOUS
10
228.1326546546
20
210.7851215296
11
199.5891673883
21
193.6590291699
0
LINE
5
301
100
AcDbEntity
8
0
100
AcDbLine
62
7
6
CONTINUOUS
10
205.0891673883
20
113.8510934021
11
205.0891673883
21
149.9090291699
0
LINE
5
302
100
AcDbEntity
8
0
100
AcDbLine
62
7
6
CONTINUOUS
10
205.0891673883
20
152.9090291699
11
205.0891673883
21
157.4090291699
0
LINE
5
303
100
AcDbEntity
8
0
100
AcDbLine
62
7
6
CONTINUOUS
10
205.0891673883
20
159.4090291699
11
205.0891673883
21
170.4090291699
0
LINE
5
304
100
AcDbEntity
8
0
100
AcDbLine
62
2
6
CONTINUOUS
10
255.1516509928
20
238.6590291699
11
253.0891673883
21
236.5965455654
0
LINE
5
305
100
AcDbEntity
8
0
100
AcDbLine
62
2
6
CONTINUOUS
10
234.5891673883
20
218.0965455654
11
229.5707777111
21
213.0781558882
0
LINE
5
306
100
AcDbEntity
8
0
100
AcDbLine
62
2
6
CONTINUOUS
10
225.9953763995
20
209.5027545766
11
199.5891673883
21
183.0965455654
0
LINE
5
307
100
AcDbEntity
8
0
100
AcDbLine
62
2
6
CONTINUOUS
10
257.9800781175
20
238.6590291699
11
253.4800781175
21
234.1590291699
0
LINE
5
308
100
AcDbEntity
8
0
100
AcDbLine
62
2
6
CONTINUOUS
10
234.5891673883
20
215.2681184406
11
218.4890644743
21
199.1680155266
0
LINE
5
309
100
AcDbEntity
8
0
100
AcDbLine
62
2
6
CONTINUOUS
10
209.5891673883
20
190.2681184406
11
200.2300781175
21
180.9090291699
0
LINE
5
30A
100
AcDbEntity
8
0
100
AcDbLine
62
7
6
CONTINUOUS
10
230.7051334317
20
206.4976569011
11
212.5021928557
21
195.5758925555
0
LINE
5
30B
100
AcDbEntity
8
0
100
AcDbLine
62
7
6
CONTINUOUS
10
199.5891673883
20
149.9090291699
11
205.0891673883
21
149.9090291699
0
LINE
5
30C
100
AcDbEntity
8
0
100
AcDbLine
62
7
6
CONTINUOUS
10
205.0891673883
20
152.9090291699
11
199.5891673883
21
152.9090291699
0
LINE
5
30D
100
AcDbEntity
8
0
100
AcDbLine
62
7
6
CONTINUOUS
10
209.5891673883
20
114.0082368648
11
209.5891673883
21
190.4309350012
0
LINE
5
30E
100
AcDbEntity
8
0
100
AcDbLine
62
2
6
CONTINUOUS
10
263.6197738646
20
241.4702977922
11
262.5891673883
21
240.4396913159
0
LINE
5
30F
100
AcDbEntity
8
0
100
AcDbLine
62
2
6
CONTINUOUS
10
260.8085052423
20
238.6590291699
11
256.3085052423
21
234.1590291699
0
LINE
5
310
100
AcDbEntity
8
0
100
AcDbLine
62
2
6
CONTINUOUS
10
234.5212546167
20
212.3717785443
11
225.5601322862
21
203.4106562137
0
LINE
5
311
100
AcDbEntity
8
0
100
AcDbLine
62
2
6
CONTINUOUS
10
209.5891673883
20
187.4396913159
11
203.0585052423
21
180.9090291699
0
LINE
5
312
100
AcDbEntity
8
0
100
AcDbLine
62
2
6
CONTINUOUS
10
265.1670699100
20
240.1891667128
11
259.1369323670
21
234.1590291699
0
LINE
5
313
100
AcDbEntity
8
0
100
AcDbLine
62
2
6
CONTINUOUS
10
209.5891673883
20
184.6112641911
11
205.8869323670
21
180.9090291699
0
LINE
5
314
100
AcDbEntity
8
0
100
AcDbLine
62
2
6
CONTINUOUS
10
265.5891673883
20
237.7828370664
11
261.9653594918
21
234.1590291699
0
LINE
5
315
100
AcDbEntity
8
0
100
AcDbLine
62
2
6
CONTINUOUS
10
209.5891673883
20
181.7828370664
11
208.7153594918
21
180.9090291699
0
LINE
5
316
100
AcDbEntity
8
0
100
AcDbLine
62
2
6
CONTINUOUS
10
200.2153594918
20
172.4090291699
11
199.5891673883
21
171.7828370664
0
LINE
5
317
100
AcDbEntity
8
0
100
AcDbLine
62
7
6
CONTINUOUS
10
199.5891673883
20
157.4090291699
11
205.0891673883
21
157.4090291699
0
LINE
5
318
100
AcDbEntity
8
0
100
AcDbLine
62
2
6
CONTINUOUS
10
265.5891673883
20
234.9544099417
11
264.7937866165
21
234.1590291699
0
LINE
5
319
100
AcDbEntity
8
0
100
AcDbLine
62
2
6
CONTINUOUS
10
203.0437866165
20
172.4090291699
11
201.0437866165
21
170.4090291699
0
LINE
5
31A
100
AcDbEntity
8
0
100
AcDbLine
62
2
6
CONTINUOUS
10
205.8722137413
20
172.4090291699
11
203.8722137413
21
170.4090291699
0
LINE
5
31B
100
AcDbEntity
8
0
100
AcDbLine
62
7
6
CONTINUOUS
10
199.5891673883
20
159.4090291699
11
205.0891673883
21
159.4090291699
0
LINE
5
31C
100
AcDbEntity
8
0
100
AcDbLine
62
9
6
CONTINUOUS
10
199.5891673883
20
163.6590291699
11
205.0891673883
21
163.6590291699
0
LINE
5
31D
100
AcDbEntity
8
0
100
AcDbLine
62
2
6
CONTINUOUS
10
208.7006408660
20
172.4090291699
11
205.0891673883
21
168.7975556922
0
LINE
5
31E
100
AcDbEntity
8
0
100
AcDbLine
62
2
6
CONTINUOUS
10
209.5891673883
20
170.4691285674
11
205.0891673883
21
165.9691285674
0
LINE
5
31F
100
AcDbEntity
8
0
100
AcDbLine
62
2
6
CONTINUOUS
10
209.5891673883
20
167.6407014427
11
205.0891673883
21
163.1407014427
0
LINE
5
320
100
AcDbEntity
8
0
100
AcDbLine
62
2
6
CONTINUOUS
10
201.3574951155
20
159.4090291699
11
199.5891673883
21
157.6407014427
0
LINE
5
321
100
AcDbEntity
8
0
100
AcDbLine
62
2
6
CONTINUOUS
10
209.5891673883
20
164.8122743179
11
205.0891673883
21
160.3122743179
0
LINE
5
322
100
AcDbEntity
8
0
100
AcDbLine
62
2
6
CONTINUOUS
10
204.1859222403
20
159.4090291699
11
202.1859222403
21
157.4090291699
0
LINE
5
323
100
AcDbEntity
8
0
100
AcDbLine
62
2
6
CONTINUOUS
10
209.5891673883
20
161.9838471932
11
205.0143493650
21
157.4090291699
0
LINE
5
324
100
AcDbEntity
8
0
100
AcDbLine
62
2
6
CONTINUOUS
10
200.5143493650
20
152.9090291699
11
199.5891673883
21
151.9838471932
0
LINE
5
325
100
AcDbEntity
8
0
100
AcDbLine
62
7
6
CONTINUOUS
10
199.5891673883
20
170.4090291699
11
205.0891673883
21
170.4090291699
0
LINE
5
326
100
AcDbEntity
8
0
100
AcDbLine
62
7
6
CONTINUOUS
10
209.5891673883
20
172.4090291699
11
199.5891673883
21
172.4090291699
0
LINE
5
327
100
AcDbEntity
8
0
100
AcDbLine
62
7
6
CONTINUOUS
10
229.5891673883
20
241.6590291699
11
229.5891673883
21
213.3576003068
0
LINE
5
328
100
AcDbEntity
8
0
100
AcDbLine
62
7
6
CONTINUOUS
10
232.5891673883
20
238.6590291699
11
232.5891673883
21
241.6590291699
0
LINE
5
329
100
AcDbEntity
8
0
100
AcDbLine
62
2
6
CONTINUOUS
10
209.5891673883
20
159.1554200684
11
205.0891673883
21
154.6554200684
0
LINE
5
32A
100
AcDbEntity
8
0
100
AcDbLine
62
2
6
CONTINUOUS
10
203.3427764897
20
152.9090291699
11
200.3427764897
21
149.9090291699
0
LINE
5
32B
100
AcDbEntity
8
0
100
AcDbLine
62
2
6
CONTINUOUS
10
209.5891673883
20
156.3269929437
11
203.1712036145
21
149.9090291699
0
LINE
5
32C
100
AcDbEntity
8
DEFAULT_1
100
AcDbLine
62
2
6
CENTER
10
212.5891673883
20
176.6590291699
11
196.5891673883
21
176.6590291699
0
LINE
5
32D
100
AcDbEntity
8
0
100
AcDbLine
62
7
6
CONTINUOUS
10
234.5891673883
20
234.1590291699
11
234.5891673883
21
213.3576003068
0
LINE
5
32E
100
AcDbEntity
8
0
100
AcDbLine
62
2
6
CONTINUOUS
10
209.5891673883
20
153.4985658189
11
205.0891673883
21
148.9985658189
0
LINE
5
32F
100
AcDbEntity
8
0
100
AcDbLine
62
2
6
CONTINUOUS
10
209.5891673883
20
150.6701386942
11
205.0891673883
21
146.1701386942
0
LINE
5
330
100
AcDbEntity
8
0
100
AcDbLine
62
2
6
CONTINUOUS
10
209.5891673883
20
147.8417115694
11
205.0891673883
21
143.3417115694
0
LINE
5
331
100
AcDbEntity
8
0
100
AcDbLine
62
7
6
CONTINUOUS
10
209.5891673883
20
180.9090291699
11
199.5891673883
21
180.9090291699
0
LINE
5
332
100
AcDbEntity
8
0
100
AcDbLine
62
7
6
CONTINUOUS
10
242.0891673883
20
238.6590291699
11
242.0891673883
21
234.1590291699
0
LINE
5
333
100
AcDbEntity
8
0
100
AcDbLine
62
2
6
CONTINUOUS
10
209.5891673883
20
145.0132844447
11
205.0891673883
21
140.5132844447
0
LINE
5
334
100
AcDbEntity
8
0
100
AcDbLine
62
2
6
CONTINUOUS
10
209.5891673883
20
142.1848573200
11
205.0891673883
21
137.6848573200
0
LINE
5
335
100
AcDbEntity
8
DEFAULT_1
100
AcDbLine
62
2
6
CENTER
10
247.5891673883
20
206.8426463721
11
247.5891673883
21
244.6590291699
0
LINE
5
336
100
AcDbEntity
8
0
100
AcDbLine
62
2
6
CONTINUOUS
10
209.5891673883
20
139.3564301952
11
205.0891673883
21
134.8564301952
0
LINE
5
337
100
AcDbEntity
8
0
100
AcDbLine
62
2
6
CONTINUOUS
10
209.5891673883
20
136.5280030705
11
205.0891673883
21
132.0280030705
0
LINE
5
338
100
AcDbEntity
8
0
100
AcDbLine
62
2
6
CONTINUOUS
10
209.5891673883
20
133.6995759457
11
205.0891673883
21
129.1995759457
0
LINE
5
339
100
AcDbEntity
8
0
100
AcDbLine
62
7
6
CONTINUOUS
10
222.3202025535
20
119.3624574304
11
264.3673649559
21
196.4199013192
0
LINE
5
33A
100
AcDbEntity
8
0
100
AcDbLine
62
2
6
CONTINUOUS
10
209.5891673883
20
130.8711488210
11
205.0891673883
21
126.3711488210
0
LINE
5
33B
100
AcDbEntity
8
0
100
AcDbLine
62
2
6
CONTINUOUS
10
209.5891673883
20
128.0427216962
11
205.0891673883
21
123.5427216962
0
LINE
5
33C
100
AcDbEntity
8
0
100
AcDbLine
62
7
6
CONTINUOUS
10
253.0891673883
20
238.6590291699
11
253.0891673883
21
234.1590291699
0
LINE
5
33D
100
AcDbEntity
8
0
100
AcDbLine
62
2
6
CONTINUOUS
10
209.5891673883
20
125.2142945715
11
205.0891673883
21
120.7142945715
0
LINE
5
33E
100
AcDbEntity
8
0
100
AcDbLine
62
2
6
CONTINUOUS
10
209.5891673883
20
122.3858674467
11
205.0891673883
21
117.8858674467
0
LINE
5
33F
100
AcDbEntity
8
0
100
AcDbLine
62
2
6
CONTINUOUS
10
209.5891673883
20
119.5574403220
11
205.0891673883
21
115.0574403220
0
LINE
5
340
100
AcDbEntity
8
0
100
AcDbLine
62
2
6
CONTINUOUS
10
209.5891673883
20
116.7290131972
11
206.7699415191
21
113.9097873281
0
LINE
5
341
100
AcDbEntity
8
0
100
AcDbLine
62
7
6
CONTINUOUS
10
262.5891673883
20
238.6590291699
11
262.5891673883
21
241.6590291699
0
LINE
5
342
100
AcDbEntity
8
0
100
AcDbLine
62
7
6
CONTINUOUS
10
265.5891673883
20
201.2098123271
11
265.5891673883
21
238.6590291699
0
LINE
5
343
100
AcDbEntity
8
0
100
AcDbLine
62
7
6
CONTINUOUS
10
234.5891673883
20
234.1590291699
11
265.5891673883
21
234.1590291699
0
LINE
5
344
100
AcDbEntity
8
0
100
AcDbLine
62
7
6
CONTINUOUS
10
232.5891673883
20
238.6590291699
11
262.5891673883
21
238.6590291699
0
LINE
5
345
100
AcDbEntity
8
0
100
AcDbLine
62
7
6
CONTINUOUS
10
262.5891673883
20
241.6590291699
11
229.5891673883
21
241.6590291699
0
CIRCLE
5
346
100
AcDbEntity
8
0
100
AcDbCircle
62
7
6
CONTINUOUS
10
81.9722248386
20
176.6590291699
40
4.2500000000
0
ARC
5
347
100
AcDbEntity
8
0
100
AcDbCircle
62
7
6
CONTINUOUS
10
255.5891673883
20
201.2098123271
40
10.0000000000
100
AcDbArc
50
331.3804700699
51
360.0000000000
0
ARC
5
348
100
AcDbEntity
8
0
100
AcDbCircle
62
7
6
CONTINUOUS
10
213.5420049859
20
124.1523684384
40
10.0000000000
100
AcDbArc
50
272.0000000000
51
331.3804700699
0
ARC
5
349
100
AcDbEntity
8
0
100
AcDbCircle
62
7
6
CONTINUOUS
10
215.5891673883
20
190.4309350012
40
6.0000000000
100
AcDbArc
50
120.9637565321
51
180.0000000000
0
ARC
5
34A
100
AcDbEntity
8
0
100
AcDbCircle
62
7
6
CONTINUOUS
10
262.5891673883
20
238.6590291699
40
3.0000000000
100
AcDbArc
50
0.0000000000
51
90.0000000000
0
ARC
5
34B
100
AcDbEntity
8
0
100
AcDbCircle
62
7
6
CONTINUOUS
10
226.5891673883
20
213.3576003068
40
8.0000000000
100
AcDbArc
50
300.9637565321
51
360.0000000000
0
ARC
5
34C
100
AcDbEntity
8
0
100
AcDbCircle
62
7
6
CONTINUOUS
10
226.5891673883
20
213.3576003068
40
3.0000000000
100
AcDbArc
50
300.9637565321
51
360.0000000000
0
SPLINE
5
34D
100
AcDbEntity
8
0
100
AcDbSpline
62
7
6
CONTINUOUS
70
0
71
3
72
11
73
7
74
5
42
0.0000001000
43
0.0000001000
44
0.0000000001
12
-0.0748118284
22
2.5715800660
32
0.0000000000
13
0.0000000000
23
2.5726680402
33
0.0000000000
40
0.0000000000
40
0.0000000000
40
0.0000000000
40
0.0000000000
40
0.1858916752
40
0.4254731189
40
0.7029423664
40
1.0000000000
40
1.0000000000
40
1.0000000000
40
1.0000000000
10
100.5815937919
20
210.7851215296
30
0.0000000000
10
100.5769581599
20
210.9444666384
30
0.0000000000
10
100.5695757777
20
211.3092697256
30
0.0000000000
10
100.5620147013
20
211.9120361705
30
0.0000000000
10
100.5572513325
20
212.6101672607
30
0.0000000000
10
100.5561702676
20
213.1028567467
30
0.0000000000
10
100.5561702676
20
213.3576003068
30
0.0000000000
11
100.5815937919
21
210.7851215296
31
0.0000000000
11
100.5710429490
21
211.2632427011
31
0.0000000000
11
100.5629667860
21
211.8795533115
31
0.0000000000
11
100.5578978573
21
212.5933715793
31
0.0000000000
11
100.5561702676
21
213.3576003068
31
0.0000000000
0
SPLINE
5
34E
100
AcDbEntity
8
0
100
AcDbSpline
62
7
6
CONTINUOUS
70
0
71
3
72
11
73
7
74
5
42
0.0000001000
43
0.0000001000
44
0.0000000001
12
0.0000000000
22
-2.5737081466
32
0.0000000000
13
-0.1903501709
23
-2.5666593923
33
0.0000000000
40
0.0000000000
40
0.0000000000
40
0.0000000000
40
0.0000000000
40
0.2968651171
40
0.5742317159
40
0.8138643600
40
1.0000000000
40
1.0000000000
40
1.0000000000
40
1.0000000000
10
62.4147492753
20
213.3576003068
30
0.0000000000
10
62.4147492753
20
213.1029189167
30
0.0000000000
10
62.4119944074
20
212.6102806711
30
0.0000000000
10
62.3998524572
20
211.9121448726
30
0.0000000000
10
62.3805759158
20
211.3092222716
30
0.0000000000
10
62.3617483168
20
210.9443704592
30
0.0000000000
10
62.3499379999
20
210.7851215296
30
0.0000000000
11
62.4147492753
21
213.3576003068
31
0.0000000000
11
62.4103475046
21
212.5935688162
31
0.0000000000
11
62.3974299998
21
211.8798250237
31
0.0000000000
11
62.3768427596
21
211.2634242374
31
0.0000000000
11
62.3499379999
21
210.7851215296
31
0.0000000000
0
SPLINE
5
34F
100
AcDbEntity
8
0
100
AcDbSpline
62
7
6
CONTINUOUS
70
0
71
3
72
13
73
9
74
7
42
0.0000001000
43
0.0000001000
44
0.0000000001
12
0.0000000000
22
3.0087032217
32
0.0000000000
13
-3.0087032217
23
0.0000000000
33
0.0000000000
40
0.0000000000
40
0.0000000000
40
0.0000000000
40
0.0000000000
40
0.2579326151
40
0.4983781310
40
0.7050186846
40
0.8638243472
40
0.9640981167
40
1.0000000000
40
1.0000000000
40
1.0000000000
40
1.0000000000
10
64.0166617471
20
238.6590291699
30
0.0000000000
10
64.0166617471
20
238.9177100666
30
0.0000000000
10
64.0133142959
20
239.4163300428
30
0.0000000000
10
64.0028821560
20
240.1282024209
30
0.0000000000
10
63.9771064078
20
240.7213783861
30
0.0000000000
10
63.9673343507
20
241.2232174279
30
0.0000000000
10
63.9121702432
20
241.4514782145
30
0.0000000000
10
63.9191750784
20
241.6590291699
30
0.0000000000
10
63.8831690411
20
241.6590291699
30
0.0000000000
11
64.0166617471
21
238.6590291699
31
0.0000000000
11
64.0121181920
21
239.4350585591
31
0.0000000000
11
63.9987941724
21
240.1583650468
31
0.0000000000
11
63.9775904881
21
240.7797234665
31
0.0000000000
11
63.9499449244
21
241.2567221157
31
0.0000000000
11
63.9177385040
21
241.5566921543
31
0.0000000000
11
63.8831690411
21
241.6590291699
31
0.0000000000
0
SPLINE
5
350
100
AcDbEntity
8
0
100
AcDbSpline
62
7
6
CONTINUOUS
70
0
71
3
72
10
73
6
74
4
42
0.0000001000
43
0.0000001000
44
0.0000000001
12
0.1162773079
22
4.7889090896
32
0.0000000000
13
0.0000000000
23
4.7903205197
33
0.0000000000
40
0.0000000000
40
0.0000000000
40
0.0000000000
40
0.0000000000
40
0.3176282051
40
0.6540510670
40
1.0000000000
40
1.0000000000
40
1.0000000000
40
1.0000000000
10
63.9622945095
20
196.4199013192
30
0.0000000000
10
63.9746054937
20
196.9269321854
30
0.0000000000
10
63.9948096827
20
197.9711246428
30
0.0000000000
10
64.0126721959
20
199.5678122087
30
0.0000000000
10
64.0166617471
20
200.6574102364
30
0.0000000000
10
64.0166617471
20
201.2098123271
30
0.0000000000
11
63.9622945095
21
196.4199013192
31
0.0000000000
11
63.9922194740
21
197.9411479242
31
0.0000000000
11
64.0105090381
21
199.5526174764
31
0.0000000000
11
64.0166617471
21
201.2098123271
31
0.0000000000
0
SPLINE
5
351
100
AcDbEntity
8
0
100
AcDbSpline
62
7
6
CONTINUOUS
70
0
71
3
72
12
73
8
74
6
42
0.0000001000
43
0.0000001000
44
0.0000000001
12
-0.2990261624
22
-5.1377933546
32
0.0000000000
13
0.0000000000
23
-5.1464878510
33
0.0000000000
40
0.0000000000
40
0.0000000000
40
0.0000000000
40
0.0000000000
40
0.1440862267
40
0.3243045870
40
0.5330449102
40
0.7614909613
40
1.0000000000
40
1.0000000000
40
1.0000000000
40
1.0000000000
10
94.5739499295
20
195.5758925555
30
0.0000000000
10
94.5595880790
20
195.3291308029
30
0.0000000000
10
94.5351805844
20
194.7732766325
30
0.0000000000
10
94.5080475420
20
193.8592311962
30
0.0000000000
10
94.4876928114
20
192.8002530969
30
0.0000000000
10
94.4750552171
20
191.6411593167
30
0.0000000000
10
94.4722248386
20
190.8400962912
30
0.0000000000
10
94.4722248386
20
190.4309350012
30
0.0000000000
11
94.5739499295
21
195.5758925555
31
0.0000000000
11
94.5394593059
21
194.8351570936
31
0.0000000000
11
94.5109968642
21
193.9081023159
31
0.0000000000
11
94.4897642183
21
192.8340326257
31
0.0000000000
11
94.4766562861
21
191.6584108720
31
0.0000000000
11
94.4722248386
21
190.4309350012
31
0.0000000000
0
SPLINE
5
352
100
AcDbEntity
8
0
100
AcDbSpline
62
7
6
CONTINUOUS
70
0
71
3
72
13
73
9
74
7
42
0.0000001000
43
0.0000001000
44
0.0000000001
12
-3.0013605257
22
0.0000000000
32
0.0000000000
13
0.0000000000
23
-3.0013605257
33
0.0000000000
40
0.0000000000
40
0.0000000000
40
0.0000000000
40
0.0000000000
40
0.0343626482
40
0.1343201921
40
0.2932203251
40
0.5002537476
40
0.7413195472
40
1.0000000000
40
1.0000000000
40
1.0000000000
40
1.0000000000
10
99.9801531249
20
241.6590291699
30
0.0000000000
10
99.9457748930
20
241.6590291699
30
0.0000000000
10
99.9969420596
20
241.4445522136
30
0.0000000000
10
99.9299949516
20
241.2264324905
30
0.0000000000
10
99.9505569575
20
240.7201526728
30
0.0000000000
10
99.9306431506
20
240.1291003267
30
0.0000000000
10
99.9299390826
20
239.4164192366
30
0.0000000000
10
99.9277879302
20
238.9178269365
30
0.0000000000
10
99.9277879302
20
238.6590291699
30
0.0000000000
11
99.9801531249
21
241.6590291699
31
0.0000000000
11
99.9665988671
21
241.5567890233
31
0.0000000000
11
99.9539687437
21
241.2570463737
31
0.0000000000
11
99.9431236580
21
240.7802531115
31
0.0000000000
11
99.9348025053
21
240.1589268881
31
0.0000000000
11
99.9295719228
21
239.4354204201
31
0.0000000000
11
99.9277879302
21
238.6590291699
31
0.0000000000
0
SPLINE
5
353
100
AcDbEntity
8
0
100
AcDbSpline
62
7
6
CONTINUOUS
70
0
71
3
72
10
73
6
74
4
42
0.0000001000
43
0.0000001000
44
0.0000000001
12
0.0912593522
22
4.7892938365
32
0.0000000000
13
0.0000000000
23
4.7901632250
33
0.0000000000
40
0.0000000000
40
0.0000000000
40
0.0000000000
40
0.0000000000
40
0.3176018703
40
0.6540294458
40
1.0000000000
40
1.0000000000
40
1.0000000000
40
1.0000000000
10
96.3851216490
20
196.4199013192
30
0.0000000000
10
96.3947830294
20
196.9269308791
30
0.0000000000
10
96.4106387782
20
197.9711232607
30
0.0000000000
10
96.4246569341
20
199.5677914051
30
0.0000000000
10
96.4277879302
20
200.6573938519
30
0.0000000000
10
96.4277879302
20
201.2098123271
30
0.0000000000
11
96.3851216490
21
196.4199013192
31
0.0000000000
11
96.4086053792
21
197.9410848605
31
0.0000000000
11
96.4229590975
21
199.5525639364
31
0.0000000000
11
96.4277879302
21
201.2098123271
31
0.0000000000
0
SPLINE
5
354
100
AcDbEntity
8
0
100
AcDbSpline
62
7
6
CONTINUOUS
70
0
71
3
72
12
73
8
74
6
42
0.0000001000
43
0.0000001000
44
0.0000000001
12
3.6906014088
22
3.6906014088
32
0.0000000000
13
0.0994349845
23
5.2183512915
33
0.0000000000
40
0.0000000000
40
0.0000000000
40
0.0000000000
40
0.0000000000
40
0.0564585987
40
0.1915062406
40
0.4001234545
40
0.6735082106
40
1.0000000000
40
1.0000000000
40
1.0000000000
40
1.0000000000
10
94.6224481420
20
114.1584601682
30
0.0000000000
10
94.6919035366
20
114.2279155628
30
0.0000000000
10
94.6874330774
20
114.6041539860
30
0.0000000000
10
94.7924352381
20
115.2593225094
30
0.0000000000
10
94.8250604237
20
116.3512978275
30
0.0000000000
10
94.8843833987
20
117.7488924893
30
0.0000000000
10
94.9059808143
20
118.7945411467
30
0.0000000000
10
94.9168023830
20
119.3624574304
30
0.0000000000
11
94.6224481420
21
114.1584601682
31
0.0000000000
11
94.6940241724
21
114.4443094378
31
0.0000000000
11
94.7620081479
21
115.1458771746
31
0.0000000000
11
94.8234871367
21
116.2329756686
31
0.0000000000
11
94.8758305234
21
117.6588919308
31
0.0000000000
11
94.9168023830
21
119.3624574304
31
0.0000000000
0
SPLINE
5
355
100
AcDbEntity
8
0
100
AcDbSpline
62
7
6
CONTINUOUS
70
0
71
3
72
12
73
8
74
6
42
0.0000001000
43
0.0000001000
44
0.0000000001
12
4.1132907676
22
3.2280253297
32
0.0000000000
13
0.1269182741
23
5.2271598617
33
0.0000000000
40
0.0000000000
40
0.0000000000
40
0.0000000000
40
0.0000000000
40
0.0573975059
40
0.1926187535
40
0.4010874520
40
0.6740869868
40
1.0000000000
40
1.0000000000
40
1.0000000000
40
1.0000000000
10
61.7162189919
20
114.1584601682
30
0.0000000000
10
61.7949165356
20
114.2202203691
30
0.0000000000
10
61.8097881760
20
114.6076991809
30
0.0000000000
10
61.9265075890
20
115.2557848719
30
0.0000000000
10
61.9770596072
20
116.3525091062
30
0.0000000000
10
62.0489633287
20
117.7484175714
30
0.0000000000
10
62.0775099077
20
118.7945909568
30
0.0000000000
10
62.0912980134
20
119.3624574304
30
0.0000000000
11
61.7162189919
21
114.1584601682
31
0.0000000000
11
61.8074363330
21
114.4443762902
31
0.0000000000
11
61.8940711288
21
115.1460797971
31
0.0000000000
11
61.9724093035
21
116.2332815069
31
0.0000000000
11
62.0390998967
21
117.6591555340
31
0.0000000000
11
62.0912980134
21
119.3624574304
31
0.0000000000
0
SPLINE
5
356
100
AcDbEntity
8
0
100
AcDbSpline
62
7
6
CONTINUOUS
70
0
71
3
72
12
73
8
74
6
42
0.0000001000
43
0.0000001000
44
0.0000000001
12
0.0496000508
22
-5.2076112761
32
0.0000000000
13
2.3284524608
23
-4.6583242165
33
0.0000000000
40
0.0000000000
40
0.0000000000
40
0.0000000000
40
0.0000000000
40
0.3271996783
40
0.6010569980
40
0.8098589125
40
0.9446990415
40
1.0000000000
40
1.0000000000
40
1.0000000000
40
1.0000000000
10
100.6830505207
20
119.3624574304
30
0.0000000000
10
100.6884602276
20
118.7944811857
30
0.0000000000
10
100.6983625725
20
117.7502478262
30
0.0000000000
10
100.7312265584
20
116.3478032830
30
0.0000000000
10
100.7397359237
20
115.2683828779
30
0.0000000000
10
100.8071096653
20
114.5915729765
30
0.0000000000
10
100.7872609151
20
114.2443300996
30
0.0000000000
10
100.8301827994
20
114.1584601682
30
0.0000000000
11
100.6830505207
21
119.3624574304
31
0.0000000000
11
100.7035349395
21
117.6585745401
31
0.0000000000
11
100.7297022646
21
116.2326074604
31
0.0000000000
11
100.7604328821
21
115.1456332529
31
0.0000000000
11
100.7944113736
21
114.4442289637
31
0.0000000000
11
100.8301827994
21
114.1584601682
31
0.0000000000
0
SPLINE
5
357
100
AcDbEntity
8
0
100
AcDbSpline
62
7
6
CONTINUOUS
70
0
71
3
72
10
73
6
74
4
42
0.0000001000
43
0.0000001000
44
0.0000000001
12
0.0000000000
22
-4.7899740261
32
0.0000000000
13
0.0456201830
23
-4.7897567756
33
0.0000000000
40
0.0000000000
40
0.0000000000
40
0.0000000000
40
0.0000000000
40
0.3459965651
40
0.6824298099
40
1.0000000000
40
1.0000000000
40
1.0000000000
40
1.0000000000
10
99.9277879302
20
201.2098123271
30
0.0000000000
10
99.9277879302
20
200.6573741405
30
0.0000000000
10
99.9293529987
20
199.5677663766
30
0.0000000000
10
99.9363599567
20
197.9711215929
30
0.0000000000
10
99.9442853676
20
196.9269293091
30
0.0000000000
10
99.9491145709
20
196.4199013192
30
0.0000000000
11
99.9277879302
21
201.2098123271
31
0.0000000000
11
99.9302017998
21
199.5524995251
31
0.0000000000
11
99.9373767414
21
197.9410089935
31
0.0000000000
11
99.9491145709
21
196.4199013192
31
0.0000000000
0
SPLINE
5
358
100
AcDbEntity
8
0
100
AcDbSpline
62
7
6
CONTINUOUS
70
0
71
3
72
12
73
8
74
6
42
0.0000001000
43
0.0000001000
44
0.0000000001
12
-0.3987015499
22
6.8503911395
32
0.0000000000
13
-0.0000000000
23
6.8619838013
33
0.0000000000
40
0.0000000000
40
0.0000000000
40
0.0000000000
40
0.0000000000
40
0.1440862141
40
0.3243046180
40
0.5330449778
40
0.7614910261
40
1.0000000000
40
1.0000000000
40
1.0000000000
40
1.0000000000
10
68.7348390558
20
206.4976569011
30
0.0000000000
10
68.7156899235
20
206.8266725425
30
0.0000000000
10
68.6831465935
20
207.5678115072
30
0.0000000000
10
68.6469692003
20
208.7865389103
30
0.0000000000
10
68.6198295592
20
210.1985098863
30
0.0000000000
10
68.6029794377
20
211.7439681890
30
0.0000000000
10
68.5992056013
20
212.8120520683
30
0.0000000000
10
68.5992056013
20
213.3576003068
30
0.0000000000
11
68.7348390558
21
206.4976569011
31
0.0000000000
11
68.6888515609
21
207.4853040974
31
0.0000000000
11
68.6509016301
21
208.7213774334
31
0.0000000000
11
68.6225914338
21
210.1534706047
31
0.0000000000
11
68.6051141947
21
211.7209662568
31
0.0000000000
11
68.5992056013
21
213.3576003068
31
0.0000000000
0
SPLINE
5
359
100
AcDbEntity
8
0
100
AcDbSpline
62
7
6
CONTINUOUS
70
0
71
3
72
12
73
8
74
6
42
0.0000001000
43
0.0000001000
44
0.0000000001
12
0.0000000000
22
-6.8619838013
32
0.0000000000
13
-0.3987015499
23
-6.8503911395
33
0.0000000000
40
0.0000000000
40
0.0000000000
40
0.0000000000
40
0.0000000000
40
0.2385089739
40
0.4669550222
40
0.6756953820
40
0.8559137859
40
1.0000000000
40
1.0000000000
40
1.0000000000
40
1.0000000000
10
95.3452440759
20
213.3576003068
30
0.0000000000
10
95.3452440759
20
212.8120520683
30
0.0000000000
10
95.3414702395
20
211.7439681890
30
0.0000000000
10
95.3246201180
20
210.1985098863
30
0.0000000000
10
95.2974804770
20
208.7865389103
30
0.0000000000
10
95.2613030838
20
207.5678115072
30
0.0000000000
10
95.2287597537
20
206.8266725425
30
0.0000000000
10
95.2096106214
20
206.4976569011
30
0.0000000000
11
95.3452440759
21
213.3576003068
31
0.0000000000
11
95.3393354825
21
211.7209662568
31
0.0000000000
11
95.3218582434
21
210.1534706047
31
0.0000000000
11
95.2935480472
21
208.7213774334
31
0.0000000000
11
95.2555981163
21
207.4853040974
31
0.0000000000
11
95.2096106214
21
206.4976569011
31
0.0000000000
0
SPLINE
5
35A
100
AcDbEntity
8
0
100
AcDbSpline
62
7
6
CONTINUOUS
70
0
71
3
72
12
73
8
74
6
42
0.0000001000
43
0.0000001000
44
0.0000000001
12
0.0000000000
22
5.1464878510
32
0.0000000000
13
-0.2990261624
23
5.1377933546
33
0.0000000000
40
0.0000000000
40
0.0000000000
40
0.0000000000
40
0.0000000000
40
0.2385090387
40
0.4669550898
40
0.6756954130
40
0.8559137733
40
1.0000000000
40
1.0000000000
40
1.0000000000
40
1.0000000000
10
69.4722248386
20
190.4309350012
30
0.0000000000
10
69.4722248386
20
190.8400962912
30
0.0000000000
10
69.4693944602
20
191.6411593167
30
0.0000000000
10
69.4567568659
20
192.8002530969
30
0.0000000000
10
69.4364021353
20
193.8592311962
30
0.0000000000
10
69.4092690928
20
194.7732766325
30
0.0000000000
10
69.3848615982
20
195.3291308029
30
0.0000000000
10
69.3704997477
20
195.5758925555
30
0.0000000000
11
69.4722248386
21
190.4309350012
31
0.0000000000
11
69.4677933911
21
191.6584108720
31
0.0000000000
11
69.4546854589
21
192.8340326257
31
0.0000000000
11
69.4334528131
21
193.9081023159
31
0.0000000000
11
69.4049903714
21
194.8351570936
31
0.0000000000
11
69.3704997477
21
195.5758925555
31
0.0000000000
0
SPLINE
5
35B
100
AcDbEntity
8
0
100
AcDbSpline
62
7
6
CONTINUOUS
70
0
71
3
72
12
73
8
74
6
42
0.0000001000
43
0.0000001000
44
0.0000000001
12
0.0994349845
22
-5.2183512915
32
0.0000000000
13
3.6906014088
23
-3.6906014088
33
0.0000000000
40
0.0000000000
40
0.0000000000
40
0.0000000000
40
0.0000000000
40
0.3264917894
40
0.5998765455
40
0.8084937594
40
0.9435414013
40
1.0000000000
40
1.0000000000
40
1.0000000000
40
1.0000000000
10
69.0276472942
20
119.3624574304
30
0.0000000000
10
69.0384688629
20
118.7945411467
30
0.0000000000
10
69.0600662785
20
117.7488924893
30
0.0000000000
10
69.1193892535
20
116.3512978275
30
0.0000000000
10
69.1520144391
20
115.2593225094
30
0.0000000000
10
69.2570165999
20
114.6041539860
30
0.0000000000
10
69.2525461407
20
114.2279155628
30
0.0000000000
10
69.3220015352
20
114.1584601682
30
0.0000000000
11
69.0276472942
21
119.3624574304
31
0.0000000000
11
69.0686191539
21
117.6588919308
31
0.0000000000
11
69.1209625405
21
116.2329756686
31
0.0000000000
11
69.1824415293
21
115.1458771746
31
0.0000000000
11
69.2504255048
21
114.4443094378
31
0.0000000000
11
69.3220015352
21
114.1584601682
31
0.0000000000
0
SPLINE
5
35C
100
AcDbEntity
8
0
100
AcDbSpline
62
7
6
CONTINUOUS
70
0
71
3
72
10
73
6
74
4
42
0.0000001000
43
0.0000001000
44
0.0000000001
12
0.0000000000
22
-4.7901632250
32
0.0000000000
13
0.0912593522
23
-4.7892938365
33
0.0000000000
40
0.0000000000
40
0.0000000000
40
0.0000000000
40
0.0000000000
40
0.3459705542
40
0.6823981297
40
1.0000000000
40
1.0000000000
40
1.0000000000
40
1.0000000000
10
67.5166617471
20
201.2098123271
30
0.0000000000
10
67.5166617471
20
200.6573938519
30
0.0000000000
10
67.5197927431
20
199.5677914051
30
0.0000000000
10
67.5338108991
20
197.9711232607
30
0.0000000000
10
67.5496666479
20
196.9269308791
30
0.0000000000
10
67.5593280282
20
196.4199013192
30
0.0000000000
11
67.5166617471
21
201.2098123271
31
0.0000000000
11
67.5214905797
21
199.5525639364
31
0.0000000000
11
67.5358442980
21
197.9410848605
31
0.0000000000
11
67.5593280282
21
196.4199013192
31
0.0000000000
0
ENDSEC
0
SECTION
2
OBJECTS
0
DICTIONARY
5
C
100
AcDbDictionary
280
0
281
1
3
ACAD_GROUP
350
D
3
ACAD_MLINESTYLE
350
17
3
ACAD_LAYOUT
350
1A
3
ACAD_PLOTSETTINGS
350
19
3
ACAD_PLOTSTYLENAME
350
E
0
DICTIONARY
5
D
102
{ACAD_REACTORS
330
C
102
}
100
AcDbDictionary
280
0
281
1
0
ACDBDICTIONARYWDFLT
5
E
102
{ACAD_REACTORS
330
C
102
}
100
AcDbDictionary
281
1
3
Normal
350
F
100
AcDbDictionaryWithDefault
340
F
0
DICTIONARY
5
17
102
{ACAD_REACTORS
330
C
102
}
100
AcDbDictionary
280
0
281
1
3
Standard
350
18
0
DICTIONARY
5
19
102
{ACAD_REACTORS
330
C
102
}
100
AcDbDictionary
281
1
0
DICTIONARY
5
1A
102
{ACAD_REACTORS
330
C
102
}
100
AcDbDictionary
281
1
3
Layout1
350
1E
3
Model
350
22
0
ACDBPLACEHOLDER
5
F
102
{ACAD_REACTORS
330
E
102
}
0
MLINESTYLE
5
18
102
{ACAD_REACTORS
330
17
102
}
100
AcDbMlineStyle
2
STANDARD
70
0
3

62
256
51
90.0
52
90.0
71
2
49
0.5
62
256
6
BYLAYER
49
-0.5
62
256
6
BYLAYER
0
LAYOUT
5
1E
102
{ACAD_REACTORS
330
1A
102
}
100
AcDbPlotSettings
1

2

4

6

40
0.0
41
0.0
42
0.0
43
0.0
44
0.0
45
0.0
46
0.0
47
0.0
48
0.0
49
0.0
140
0.0
141
0.0
142
1.0
143
1.0
70
0
72
0
73
0
74
0
7

75
0
147
1.0
148
0.0
149
0.0
100
AcDbLayout
1
Layout1
70
0
71
0
10
0.0
20
0.0
11
0.0
21
0.0
12
0.0
22
0.0
32
0.0
14
0.0
24
0.0
34
0.0
15
0.0
25
0.0
35
0.0
146
0.0
13
0.0
23
0.0
33
0.0
16
0.0
26
0.0
36
0.0
17
0.0
27
0.0
37
0.0
76
0
330
1B
331
0
345
0
346
0
0
LAYOUT
5
22
102
{ACAD_REACTORS
330
1A
102
}
100
AcDbPlotSettings
1

2

4

6

40
0.0
41
0.0
42
0.0
43
0.0
44
0.0
45
0.0
46
0.0
47
0.0
48
0.0
49
0.0
140
0.0
141
0.0
142
1.0
143
1.0
70
0
72
0
73
0
74
0
7

75
0
147
1.0
148
0.0
149
0.0
100
AcDbLayout
1
Model
70
0
71
0
10
0.0
20
0.0
11
0.0
21
0.0
12
0.0
22
0.0
32
0.0
14
0.0
24
0.0
34
0.0
15
0.0
25
0.0
35
0.0
146
0.0
13
0.0
23
0.0
33
0.0
16
0.0
26
0.0
36
0.0
17
0.0
27
0.0
37
0.0
76
0
330
1F
331
0
345
0
346
0
0
ENDSEC
0
EOF
