999
DXF file: 647.dxf
999
Pro/ENGINEER 2005310 by Parametric Technology Corporation
0
SECTION
2
HEADER
9
$ACADVER
1
AC1015
9
$DWGCODEPAGE
3
ANSI_1252
9
$EXTMAX
10
210.0000000000
20
297.0000000000
30
0.0000000000
9
$EXTMIN
10
0.0000000000
20
0.0000000000
30
0.0000000000
9
$LIMMIN
10
0.0000000000
20
0.0000000000
9
$LIMMAX
10
210.0000000000
20
297.0000000000
9
$VIEWCTR
10
105.0000000000
20
148.5000000000
9
$VIEWSIZE
40
297.0000000000
9
$CLAYER
8
0
9
$LTSCALE
40
19.3600000000
9
$CELTYPE
6
BYLAYER
9
$DIMSCALE
40
1
9
$DIMASZ
40
3.5000000000
9
$DIMEXO
40
2.2000000000
9
$DIMDLI
40
13.3760000000
9
$DIMEXE
40
6.3360000000
9
$DIMCEN
40
3.1680000000
9
$DIMLFAC
40
1.0000000000
9
$DIMBLK
1
_FILLED
9
$DIMTXT
40
3.5000000000
9
$DIMTOL
70
1
9
$DIMLIM
70
0
9
$DIMTFAC
40
1.0000000000
9
$DIMTP
40
0.0010000000
9
$DIMTM
40
0.0010000000
9
$PDMODE
70
3
9
$PDSIZE
40
0.3125000000
9
$HANDSEED
5
22B
9
$MEASUREMENT
70
1
9
$INSUNITS
70
4
0
ENDSEC
0
SECTION
2
CLASSES
0
CLASS
1
ACDBDICTIONARYWDFLT
2
AcDbDictionaryWithDefault
3
AutoCAD 2000
90
0
280
0
281
0
0
CLASS
1
ACDBPLACEHOLDER
2
AcDbPlaceHolder
3
AutoCAD 2000
90
0
280
0
281
0
0
CLASS
1
LAYOUT
2
AcDbLayout
3
AutoCAD 2000
90
0
280
0
281
0
0
ENDSEC
0
SECTION
2
TABLES
0
TABLE
2
VPORT
5
8
100
AcDbSymbolTable
70
2
0
VPORT
5
1F4
100
AcDbSymbolTableRecord
100
AcDbViewportTableRecord
2
*ACTIVE
70
0
10
0.0
20
0.0
11
1.0
21
1.0
12
105.0000000000
22
148.5000000000
13
0.0
23
0.0
14
1.0
24
1.0
15
0.0
25
0.0
16
0.0
26
0.0
36
1.0
17
0.0
27
0.0
37
0.0
40
297.0000000000
41
0.7070707071
42
50.0
43
0.0
44
0.0
50
0.0
51
0.0
71
0
72
100
73
1
74
1
75
0
76
0
77
0
78
0
0
ENDTAB
0
TABLE
2
LTYPE
5
5
100
AcDbSymbolTable
70
6
0
LTYPE
5
14
100
AcDbSymbolTableRecord
100
AcDbLinetypeTableRecord
2
BYBLOCK
70
0
3

72
65
73
0
40
0.0
0
LTYPE
5
15
100
AcDbSymbolTableRecord
100
AcDbLinetypeTableRecord
2
BYLAYER
70
0
3

72
65
73
0
40
0.0
0
LTYPE
5
16
100
AcDbSymbolTableRecord
100
AcDbLinetypeTableRecord
2
CONTINUOUS
70
64
3
Solid line
72
65
73
0
40
0
0
LTYPE
5
1F5
100
AcDbSymbolTableRecord
100
AcDbLinetypeTableRecord
2
CENTER
70
64
3
____ _ ____ _ ____ _ ____ _ ____ _ ____ _ ____
72
65
73
4
40
0.6
49
0.375
74
0
49
-0.075
74
0
49
0.075
74
0
49
-0.075
74
0
0
LTYPE
5
1F6
100
AcDbSymbolTableRecord
100
AcDbLinetypeTableRecord
2
HIDDEN
70
64
3
- - - - - - - - - - - - - - - - - - - -
72
65
73
2
40
0.2
49
0.1
74
0
49
-0.1
74
0
0
LTYPE
5
1F7
100
AcDbSymbolTableRecord
100
AcDbLinetypeTableRecord
2
PHANTOM
70
64
3
_____ _ _ _____ _ _ _____ _ _ _____
72
65
73
6
40
0.8
49
0.45
74
0
49
-0.05
74
0
49
0.1
74
0
49
-0.05
74
0
49
0.1
74
0
49
-0.05
74
0
0
LTYPE
5
1F8
100
AcDbSymbolTableRecord
100
AcDbLinetypeTableRecord
2
DOT
70
64
3
. . . . . . . . . . . . . . . . . . . .
72
65
73
2
40
0.2
49
0.1
74
0
49
-0.1
74
0
0
LTYPE
5
1F9
100
AcDbSymbolTableRecord
100
AcDbLinetypeTableRecord
2
DASHED
70
64
3
- - - - - - - - - - - - - - - - - - - -
72
65
73
2
40
0.2
49
0.1
74
0
49
-0.1
74
0
0
ENDTAB
0
TABLE
2
LAYER
5
2
100
AcDbSymbolTable
70
36
0
LAYER
5
10
100
AcDbSymbolTableRecord
100
AcDbLayerTableRecord
2
0
70
0
62
7
6
CONTINUOUS
370
-3
390
F
0
LAYER
5
1FA
100
AcDbSymbolTableRecord
100
AcDbLayerTableRecord
2
DEFAULT_1
70
0
62
7
6
CENTER
370
-3
390
F
0
LAYER
5
1FB
100
AcDbSymbolTableRecord
100
AcDbLayerTableRecord
2
DEFAULT_2
70
0
62
8
6
HIDDEN
370
-3
390
F
0
LAYER
5
1FC
100
AcDbSymbolTableRecord
100
AcDbLayerTableRecord
2
DEFAULT_3
70
0
62
7
6
PHANTOM
370
-3
390
F
0
LAYER
5
1FD
100
AcDbSymbolTableRecord
100
AcDbLayerTableRecord
2
ASSI
70
0
62
7
6
CONTINUOUS
370
-3
390
F
0
LAYER
5
1FE
100
AcDbSymbolTableRecord
100
AcDbLayerTableRecord
2
PIANI
70
0
62
7
6
CONTINUOUS
370
-3
390
F
0
ENDTAB
0
TABLE
2
STYLE
5
3
100
AcDbSymbolTable
70
1
0
STYLE
5
11
100
AcDbSymbolTableRecord
100
AcDbTextStyleTableRecord
2
STANDARD
70
0
40
0.0
41
0.7143000000
50
0.0
71
0
42
0.2
3
txt
4

0
ENDTAB
0
TABLE
2
VIEW
5
6
100
AcDbSymbolTable
70
0
0
ENDTAB
0
TABLE
2
UCS
5
7
100
AcDbSymbolTable
70
0
0
ENDTAB
0
TABLE
2
APPID
5
9
100
AcDbSymbolTable
70
1
0
APPID
5
1FF
100
AcDbSymbolTableRecord
100
AcDbRegAppTableRecord
2
ACAD
70
0
0
ENDTAB
0
TABLE
2
BLOCK_RECORD
5
1
100
AcDbSymbolTable
70
0
0
BLOCK_RECORD
5
1F
100
AcDbSymbolTableRecord
100
AcDbBlockTableRecord
2
*MODEL_SPACE
0
BLOCK_RECORD
5
1B
100
AcDbSymbolTableRecord
100
AcDbBlockTableRecord
2
*PAPER_SPACE
0
BLOCK_RECORD
5
200
100
AcDbSymbolTableRecord
100
AcDbBlockTableRecord
2
_FILLED
0
BLOCK_RECORD
5
201
100
AcDbSymbolTableRecord
100
AcDbBlockTableRecord
2
*D0
0
BLOCK_RECORD
5
202
100
AcDbSymbolTableRecord
100
AcDbBlockTableRecord
2
*D1
0
ENDTAB
0
TABLE
2
DIMSTYLE
5
A
100
AcDbSymbolTable
70
1
100
AcDbDimStyleTable
71
0
0
DIMSTYLE
105
203
100
AcDbSymbolTableRecord
100
AcDbDimStyleTableRecord
2
STANDARD
70
0
3

4

40
1.0
41
3.5000000000
42
0.0625
43
0.38
44
0.18
45
0.0
46
0.0
47
0.0010000000
48
0.0010000000
140
3.5000000000
141
0.09
142
0.0
143
25.4
144
1.0000000000
145
0.0
146
1.0000000000
147
0.09
71
1
72
0
73
0
74
0
75
0
76
0
77
1
78
8
170
0
171
2
172
0
173
0
174
0
175
0
176
0
177
0
178
0
270
2
271
3
272
3
273
2
274
2
275
0
280
0
281
0
282
0
283
1
284
8
285
0
286
0
287
3
288
0
340
11
341
200
342
200
343
200
344
200
0
DIMSTYLE
105
204
100
AcDbSymbolTableRecord
100
AcDbDimStyleTableRecord
2
DIMSTYLE_1
70
0
3

4

40
1.0
41
3.5000000000
42
0.0625
43
0.38
44
0.18
45
0.0
46
0.0
47
0.1500000000
48
0.1500000000
140
3.5000000000
141
0.09
142
0.0
143
25.4
144
1.0000000000
145
0.0
146
1.0000000000
147
0.09
71
0
72
0
73
0
74
0
75
0
76
0
77
1
78
8
170
0
171
2
172
0
173
0
174
0
175
0
176
0
177
0
178
0
270
2
271
3
272
3
273
2
274
2
275
0
280
0
281
0
282
0
283
1
284
8
285
0
286
0
287
3
288
0
340
11
341
200
342
200
343
200
344
200
0
DIMSTYLE
105
205
100
AcDbSymbolTableRecord
100
AcDbDimStyleTableRecord
2
DIMSTYLE_2
70
0
3

4

40
1.0
41
3.5000000000
42
0.0625
43
0.38
44
0.18
45
0.0
46
0.0
47
0.1000000000
48
0.1000000000
140
3.5000000000
141
0.09
142
0.0
143
25.4
144
1.0000000000
145
0.0
146
1.0000000000
147
0.09
71
0
72
0
73
0
74
0
75
0
76
0
77
1
78
8
170
0
171
2
172
0
173
0
174
0
175
0
176
0
177
0
178
0
270
2
271
2
272
2
273
2
274
2
275
0
280
0
281
0
282
0
283
1
284
8
285
0
286
0
287
3
288
0
340
11
341
200
342
200
343
200
344
200
0
ENDTAB
0
ENDSEC
0
SECTION
2
BLOCKS
0
BLOCK
5
20
100
AcDbEntity
8
0
100
AcDbBlockBegin
2
*MODEL_SPACE
70
0
10
0.0
20
0.0
30
0.0
3
*MODEL_SPACE
1

0
ENDBLK
5
21
100
AcDbEntity
8
0
100
AcDbBlockEnd
0
BLOCK
5
1C
100
AcDbEntity
8
0
100
AcDbBlockBegin
2
*PAPER_SPACE
70
0
10
0.0
20
0.0
30
0.0
3
*PAPER_SPACE
1

0
ENDBLK
5
1D
100
AcDbEntity
8
0
100
AcDbBlockEnd
0
BLOCK
5
206
100
AcDbEntity
8
0
100
AcDbBlockBegin
62
2
6
CONTINUOUS
2
*D0
70
65
10
0.0000000000
20
0.0000000000
3
*D0
1

0
TEXT
5
207
100
AcDbEntity
8
0
100
AcDbText
62
2
6
CONTINUOUS
10
80.5050889633
20
142.2756981959
7
STANDARD
40
3.5000000000
1
100
50
90.0000000000
41
0.7143000000
72
0
100
AcDbText
0
LINE
5
208
100
AcDbEntity
8
0
100
AcDbLine
62
2
6
CONTINUOUS
10
91.6413260767
20
195.3659793814
11
79.8800889633
21
195.3659793814
0
LINE
5
209
100
AcDbEntity
8
0
100
AcDbLine
62
2
6
CONTINUOUS
10
91.6413260767
20
95.3659793814
11
79.8800889633
21
95.3659793814
0
LINE
5
20A
100
AcDbEntity
8
0
100
AcDbLine
62
2
6
CONTINUOUS
10
81.3800889633
20
195.3659793814
11
81.3800889633
21
145.3659793814
0
LINE
5
20B
100
AcDbEntity
8
0
100
AcDbLine
62
2
6
CONTINUOUS
10
81.3800889633
20
95.3659793814
11
81.3800889633
21
145.3659793814
0
INSERT
5
20C
100
AcDbEntity
8
0
100
AcDbBlockReference
62
2
6
CONTINUOUS
2
_FILLED
10
81.3800889633
20
195.3659793814
41
  3.500000
42
  3.500000
43
  3.500000
50
 90.000000
0
INSERT
5
20D
100
AcDbEntity
8
0
100
AcDbBlockReference
62
2
6
CONTINUOUS
2
_FILLED
10
81.3800889633
20
95.3659793814
41
  3.500000
42
  3.500000
43
  3.500000
50
270.000000
0
ENDBLK
5
20E
100
AcDbEntity
8
0
6
BYBLOCK
62
0
100
AcDbBlockEnd
0
BLOCK
5
20F
100
AcDbEntity
8
0
100
AcDbBlockBegin
62
2
6
CONTINUOUS
2
*D1
70
65
10
0.0000000000
20
0.0000000000
3
*D1
1

0
TEXT
5
210
100
AcDbEntity
8
0
100
AcDbText
62
2
6
CONTINUOUS
10
82.3634087857
20
253.2510154719
7
STANDARD
40
3.5000000000
1
%%c
50
-43.5248235653
41
1.3333333333
72
0
100
AcDbText
0
TEXT
5
211
100
AcDbEntity
8
0
100
AcDbText
62
2
6
CONTINUOUS
10
85.7470971184
20
250.0372278241
7
STANDARD
40
3.5000000000
1
12
50
-43.5248235653
41
0.7143000000
72
0
100
AcDbText
0
LINE
5
212
100
AcDbEntity
8
0
100
AcDbLine
62
2
6
CONTINUOUS
10
93.7908696484
20
241.1905767179
11
98.1413260767
21
237.0585640274
0
LINE
5
213
100
AcDbEntity
8
0
100
AcDbLine
62
2
6
CONTINUOUS
10
98.1413260767
20
237.0585640274
11
81.7608236017
21
252.6165739095
0
LINE
5
214
100
AcDbEntity
8
0
100
AcDbLine
62
2
6
CONTINUOUS
10
102.4917825050
20
232.9265513370
11
98.1413260767
21
237.0585640274
0
LINE
5
215
100
AcDbEntity
8
0
100
AcDbLine
62
2
6
CONTINUOUS
10
98.1413260767
20
237.0585640274
11
108.2923910748
21
227.4172010841
0
INSERT
5
216
100
AcDbEntity
8
0
100
AcDbBlockReference
62
2
6
CONTINUOUS
2
_FILLED
10
93.7908696490
20
241.1905767174
41
  3.500000
42
  3.500000
43
  3.500000
50
316.475509
0
INSERT
5
217
100
AcDbEntity
8
0
100
AcDbBlockReference
62
2
6
CONTINUOUS
2
_FILLED
10
102.4917825045
20
232.9265513374
41
  3.500000
42
  3.500000
43
  3.500000
50
136.473916
0
ENDBLK
5
218
100
AcDbEntity
8
0
6
BYBLOCK
62
0
100
AcDbBlockEnd
0
BLOCK
5
219
100
AcDbEntity
8
0
100
AcDbBlockBegin
2
_FILLED
70
64
10
0.0000000000
20
0.0000000000
3
_FILLED
1

0
SOLID
5
21A
100
AcDbEntity
8
0
6
BYBLOCK
62
0
100
AcDbTrace
10
0.0000000000
20
0.0000000000
11
-1.0000000000
21
0.1857142857
12
-1.0000000000
22
-0.1857142857
13
-1.0000000000
23
-0.1857142857
0
ENDBLK
5
21B
100
AcDbEntity
8
0
6
BYBLOCK
62
0
100
AcDbBlockEnd
0
ENDSEC
0
SECTION
2
ENTITIES
0
DIMENSION
5
21C
100
AcDbEntity
8
0
100
AcDbDimension
62
2
6
CONTINUOUS
2
*D0
10
81.3800889633
20
95.3659793814
11
78.7550889633
21
146.0257731959
70
160
42
100.000000
3
DIMSTYLE_1
100
AcDbAlignedDimension
13
91.6413260767
23
195.3659793814
14
91.6413260767
24
95.3659793814
50
270.000000
100
AcDbRotatedDimension
0
DIMENSION
5
21D
100
AcDbEntity
8
0
100
AcDbDimension
62
2
6
CONTINUOUS
2
*D1
10
93.7908696490
20
241.1905767174
11
87.0731497520
21
251.1912983852
70
163
42
12.000000
1
<>
3
DIMSTYLE_2
100
AcDbDiametricDimension
15
102.4917825045
25
232.9265513374
0
LINE
5
21E
100
AcDbEntity
8
0
100
AcDbLine
62
7
6
CONTINUOUS
10
0.0000000000
20
0.0000000000
11
210.0000000000
21
0.0000000000
0
LINE
5
21F
100
AcDbEntity
8
0
100
AcDbLine
62
7
6
CONTINUOUS
10
0.0000000000
20
0.0000000000
11
0.0000000000
21
297.0000000000
0
LINE
5
220
100
AcDbEntity
8
0
100
AcDbLine
62
7
6
CONTINUOUS
10
210.0000000000
20
0.0000000000
11
210.0000000000
21
297.0000000000
0
LINE
5
221
100
AcDbEntity
8
0
100
AcDbLine
62
7
6
CONTINUOUS
10
0.0000000000
20
297.0000000000
11
210.0000000000
21
297.0000000000
0
LINE
5
222
100
AcDbEntity
8
0
100
AcDbLine
62
7
6
CONTINUOUS
10
92.1413260767
20
95.3659793814
11
104.1413260767
21
95.3659793814
0
LINE
5
223
100
AcDbEntity
8
0
100
AcDbLine
62
7
6
CONTINUOUS
10
92.1413260767
20
195.3659793814
11
92.1413260767
21
95.3659793814
0
LINE
5
224
100
AcDbEntity
8
0
100
AcDbLine
62
7
6
CONTINUOUS
10
104.1413260767
20
195.3659793814
11
104.1413260767
21
95.3659793814
0
LINE
5
225
100
AcDbEntity
8
0
100
AcDbLine
62
7
6
CONTINUOUS
10
92.1413260767
20
195.3659793814
11
104.1413260767
21
195.3659793814
0
LINE
5
226
100
AcDbEntity
8
DEFAULT_1
100
AcDbLine
62
2
6
CENTER
10
98.1413260767
20
237.0585640274
11
98.1413260767
21
228.0585640274
0
LINE
5
227
100
AcDbEntity
8
DEFAULT_1
100
AcDbLine
62
2
6
CENTER
10
98.1413260767
20
237.0585640274
11
98.1413260767
21
246.0585640274
0
LINE
5
228
100
AcDbEntity
8
DEFAULT_1
100
AcDbLine
62
2
6
CENTER
10
98.1413260767
20
237.0585640274
11
89.1413260767
21
237.0585640274
0
LINE
5
229
100
AcDbEntity
8
DEFAULT_1
100
AcDbLine
62
2
6
CENTER
10
98.1413260767
20
237.0585640274
11
107.1413260767
21
237.0585640274
0
CIRCLE
5
22A
100
AcDbEntity
8
0
100
AcDbCircle
62
7
6
CONTINUOUS
10
98.1413260767
20
237.0585640274
40
6.0000000000
0
ENDSEC
0
SECTION
2
OBJECTS
0
DICTIONARY
5
C
100
AcDbDictionary
280
0
281
1
3
ACAD_GROUP
350
D
3
ACAD_MLINESTYLE
350
17
3
ACAD_LAYOUT
350
1A
3
ACAD_PLOTSETTINGS
350
19
3
ACAD_PLOTSTYLENAME
350
E
0
DICTIONARY
5
D
102
{ACAD_REACTORS
330
C
102
}
100
AcDbDictionary
280
0
281
1
0
ACDBDICTIONARYWDFLT
5
E
102
{ACAD_REACTORS
330
C
102
}
100
AcDbDictionary
281
1
3
Normal
350
F
100
AcDbDictionaryWithDefault
340
F
0
DICTIONARY
5
17
102
{ACAD_REACTORS
330
C
102
}
100
AcDbDictionary
280
0
281
1
3
Standard
350
18
0
DICTIONARY
5
19
102
{ACAD_REACTORS
330
C
102
}
100
AcDbDictionary
281
1
0
DICTIONARY
5
1A
102
{ACAD_REACTORS
330
C
102
}
100
AcDbDictionary
281
1
3
Layout1
350
1E
3
Model
350
22
0
ACDBPLACEHOLDER
5
F
102
{ACAD_REACTORS
330
E
102
}
0
MLINESTYLE
5
18
102
{ACAD_REACTORS
330
17
102
}
100
AcDbMlineStyle
2
STANDARD
70
0
3

62
256
51
90.0
52
90.0
71
2
49
0.5
62
256
6
BYLAYER
49
-0.5
62
256
6
BYLAYER
0
LAYOUT
5
1E
102
{ACAD_REACTORS
330
1A
102
}
100
AcDbPlotSettings
1

2

4

6

40
0.0
41
0.0
42
0.0
43
0.0
44
0.0
45
0.0
46
0.0
47
0.0
48
0.0
49
0.0
140
0.0
141
0.0
142
1.0
143
1.0
70
0
72
0
73
0
74
0
7

75
0
147
1.0
148
0.0
149
0.0
100
AcDbLayout
1
Layout1
70
0
71
0
10
0.0
20
0.0
11
0.0
21
0.0
12
0.0
22
0.0
32
0.0
14
0.0
24
0.0
34
0.0
15
0.0
25
0.0
35
0.0
146
0.0
13
0.0
23
0.0
33
0.0
16
0.0
26
0.0
36
0.0
17
0.0
27
0.0
37
0.0
76
0
330
1B
331
0
345
0
346
0
0
LAYOUT
5
22
102
{ACAD_REACTORS
330
1A
102
}
100
AcDbPlotSettings
1

2

4

6

40
0.0
41
0.0
42
0.0
43
0.0
44
0.0
45
0.0
46
0.0
47
0.0
48
0.0
49
0.0
140
0.0
141
0.0
142
1.0
143
1.0
70
0
72
0
73
0
74
0
7

75
0
147
1.0
148
0.0
149
0.0
100
AcDbLayout
1
Model
70
0
71
0
10
0.0
20
0.0
11
0.0
21
0.0
12
0.0
22
0.0
32
0.0
14
0.0
24
0.0
34
0.0
15
0.0
25
0.0
35
0.0
146
0.0
13
0.0
23
0.0
33
0.0
16
0.0
26
0.0
36
0.0
17
0.0
27
0.0
37
0.0
76
0
330
1F
331
0
345
0
346
0
0
ENDSEC
0
EOF
