  0
SECTION
  2
HEADER
  9
$ACADVER
  1
AC1015
  9
$ACADMAINTVER
 70
    20
  9
$DWGCODEPAGE
  3
ANSI_1252
  9
$INSBASE
 10
0.0
 20
0.0
 30
0.0
  9
$EXTMIN
 10
301.8685926379037
 20
133.2049721600546
 30
-0.0015258207003583
  9
$EXTMAX
 10
511.9134532333275
 20
430.2230996014818
 30
0.0000000349246037
  9
$LIMMIN
 10
0.0
 20
0.0
  9
$LIMMAX
 10
420.0
 20
297.0
  9
$ORTHOMODE
 70
     1
  9
$REGENMODE
 70
     1
  9
$FILLMODE
 70
     1
  9
$QTEXTMODE
 70
     0
  9
$MIRRTEXT
 70
     1
  9
$LTSCALE
 40
5.0
  9
$ATTMODE
 70
     1
  9
$TEXTSIZE
 40
3.0
  9
$TRACEWID
 40
10.0
  9
$TEXTSTYLE
  7
STANDARD
  9
$CLAYER
  8
0
  9
$CELTYPE
  6
BYLAYER
  9
$CECOLOR
 62
   256
  9
$CELTSCALE
 40
1.0
  9
$DISPSILH
 70
     0
  9
$DIMSCALE
 40
1.0
  9
$DIMASZ
 40
4.0
  9
$DIMEXO
 40
2.5
  9
$DIMDLI
 40
10.0
  9
$DIMRND
 40
0.0
  9
$DIMDLE
 40
1.25
  9
$DIMEXE
 40
2.5
  9
$DIMTP
 40
0.0
  9
$DIMTM
 40
0.0
  9
$DIMTXT
 40
3.0
  9
$DIMCEN
 40
3.0
  9
$DIMTSZ
 40
0.0
  9
$DIMTOL
 70
     0
  9
$DIMLIM
 70
     0
  9
$DIMTIH
 70
     0
  9
$DIMTOH
 70
     0
  9
$DIMSE1
 70
     0
  9
$DIMSE2
 70
     0
  9
$DIMTAD
 70
     1
  9
$DIMZIN
 70
     9
  9
$DIMBLK
  1

  9
$DIMASO
 70
     1
  9
$DIMSHO
 70
     0
  9
$DIMPOST
  1

  9
$DIMAPOST
  1

  9
$DIMALT
 70
     0
  9
$DIMALTD
 70
     2
  9
$DIMALTF
 40
0.039
  9
$DIMLFAC
 40
1.0
  9
$DIMTOFL
 70
     1
  9
$DIMTVP
 40
1.5
  9
$DIMTIX
 70
     0
  9
$DIMSOXD
 70
     0
  9
$DIMSAH
 70
     0
  9
$DIMBLK1
  1

  9
$DIMBLK2
  1

  9
$DIMSTYLE
  2
MCC
  9
$DIMCLRD
 70
     2
  9
$DIMCLRE
 70
     2
  9
$DIMCLRT
 70
     3
  9
$DIMTFAC
 40
0.6666666666666666
  9
$DIMGAP
 40
1.0
  9
$DIMJUST
 70
     0
  9
$DIMSD1
 70
     0
  9
$DIMSD2
 70
     0
  9
$DIMTOLJ
 70
     1
  9
$DIMTZIN
 70
     9
  9
$DIMALTZ
 70
     1
  9
$DIMALTTZ
 70
     1
  9
$DIMUPT
 70
     0
  9
$DIMDEC
 70
     4
  9
$DIMTDEC
 70
     4
  9
$DIMALTU
 70
     2
  9
$DIMALTTD
 70
     2
  9
$DIMTXSTY
  7
STANDARD
  9
$DIMAUNIT
 70
     0
  9
$DIMADEC
 70
     4
  9
$DIMALTRND
 40
0.0
  9
$DIMAZIN
 70
     2
  9
$DIMDSEP
 70
    46
  9
$DIMATFIT
 70
     0
  9
$DIMFRAC
 70
     0
  9
$DIMLDRBLK
  1

  9
$DIMLUNIT
 70
     2
  9
$DIMLWD
 70
    -2
  9
$DIMLWE
 70
    -2
  9
$DIMTMOVE
 70
     0
  9
$LUNITS
 70
     2
  9
$LUPREC
 70
     2
  9
$SKETCHINC
 40
0.0
  9
$FILLETRAD
 40
0.35
  9
$AUNITS
 70
     0
  9
$AUPREC
 70
     2
  9
$MENU
  1
ACAD
  9
$ELEVATION
 40
0.0
  9
$PELEVATION
 40
0.0
  9
$THICKNESS
 40
0.0
  9
$LIMCHECK
 70
     0
  9
$CHAMFERA
 40
0.0
  9
$CHAMFERB
 40
0.0
  9
$CHAMFERC
 40
0.0
  9
$CHAMFERD
 40
0.0
  9
$SKPOLY
 70
     1
  9
$TDCREATE
 40
2455250.573388796
  9
$TDUCREATE
 40
2455250.531722130
  9
$TDUPDATE
 40
2455250.622220475
  9
$TDUUPDATE
 40
2455250.580553808
  9
$TDINDWG
 40
0.0488320370
  9
$TDUSRTIMER
 40
0.0488320370
  9
$USRTIMER
 70
     1
  9
$ANGBASE
 50
0.0
  9
$ANGDIR
 70
     0
  9
$PDMODE
 70
     1
  9
$PDSIZE
 40
0.0
  9
$PLINEWID
 40
0.0
  9
$SPLFRAME
 70
     0
  9
$SPLINETYPE
 70
     6
  9
$SPLINESEGS
 70
     6
  9
$HANDSEED
  5
884
  9
$SURFTAB1
 70
    12
  9
$SURFTAB2
 70
    12
  9
$SURFTYPE
 70
     6
  9
$SURFU
 70
    12
  9
$SURFV
 70
    12
  9
$UCSBASE
  2

  9
$UCSNAME
  2

  9
$UCSORG
 10
0.0
 20
0.0
 30
0.0
  9
$UCSXDIR
 10
1.0
 20
0.0
 30
0.0
  9
$UCSYDIR
 10
0.0
 20
1.0
 30
0.0
  9
$UCSORTHOREF
  2

  9
$UCSORTHOVIEW
 70
     0
  9
$UCSORGTOP
 10
0.0
 20
0.0
 30
0.0
  9
$UCSORGBOTTOM
 10
0.0
 20
0.0
 30
0.0
  9
$UCSORGLEFT
 10
0.0
 20
0.0
 30
0.0
  9
$UCSORGRIGHT
 10
0.0
 20
0.0
 30
0.0
  9
$UCSORGFRONT
 10
0.0
 20
0.0
 30
0.0
  9
$UCSORGBACK
 10
0.0
 20
0.0
 30
0.0
  9
$PUCSBASE
  2

  9
$PUCSNAME
  2

  9
$PUCSORG
 10
0.0
 20
0.0
 30
0.0
  9
$PUCSXDIR
 10
1.0
 20
0.0
 30
0.0
  9
$PUCSYDIR
 10
0.0
 20
1.0
 30
0.0
  9
$PUCSORTHOREF
  2

  9
$PUCSORTHOVIEW
 70
     0
  9
$PUCSORGTOP
 10
0.0
 20
0.0
 30
0.0
  9
$PUCSORGBOTTOM
 10
0.0
 20
0.0
 30
0.0
  9
$PUCSORGLEFT
 10
0.0
 20
0.0
 30
0.0
  9
$PUCSORGRIGHT
 10
0.0
 20
0.0
 30
0.0
  9
$PUCSORGFRONT
 10
0.0
 20
0.0
 30
0.0
  9
$PUCSORGBACK
 10
0.0
 20
0.0
 30
0.0
  9
$USERI1
 70
     0
  9
$USERI2
 70
     0
  9
$USERI3
 70
     0
  9
$USERI4
 70
     0
  9
$USERI5
 70
     0
  9
$USERR1
 40
0.0
  9
$USERR2
 40
0.0
  9
$USERR3
 40
0.0
  9
$USERR4
 40
0.0
  9
$USERR5
 40
0.0
  9
$WORLDVIEW
 70
     0
  9
$SHADEDGE
 70
     3
  9
$SHADEDIF
 70
    70
  9
$TILEMODE
 70
     1
  9
$MAXACTVP
 70
    16
  9
$PINSBASE
 10
0.0
 20
0.0
 30
0.0
  9
$PLIMCHECK
 70
     0
  9
$PEXTMIN
 10
1.000000000000000E+20
 20
1.000000000000000E+20
 30
1.000000000000000E+20
  9
$PEXTMAX
 10
-1.000000000000000E+20
 20
-1.000000000000000E+20
 30
-1.000000000000000E+20
  9
$PLIMMIN
 10
0.0
 20
0.0
  9
$PLIMMAX
 10
12.0
 20
9.0
  9
$UNITMODE
 70
     0
  9
$VISRETAIN
 70
     0
  9
$PLINEGEN
 70
     0
  9
$PSLTSCALE
 70
     0
  9
$TREEDEPTH
 70
  3020
  9
$CMLSTYLE
  2
STANDARD
  9
$CMLJUST
 70
     0
  9
$CMLSCALE
 40
1.0
  9
$PROXYGRAPHICS
 70
     1
  9
$MEASUREMENT
 70
     1
  9
$CELWEIGHT
370
    -1
  9
$ENDCAPS
280
     0
  9
$JOINSTYLE
280
     0
  9
$LWDISPLAY
290
     0
  9
$INSUNITS
 70
     0
  9
$HYPERLINKBASE
  1

  9
$STYLESHEET
  1
MCC.ctb
  9
$XEDIT
290
     1
  9
$CEPSNTYPE
380
     0
  9
$PSTYLEMODE
290
     1
  9
$FINGERPRINTGUID
  2
{A2FB7A5B-7976-4AFB-B590-DB20F14E3D2E}
  9
$VERSIONGUID
  2
{A90DB1FB-D844-4C72-96C5-CC6B8EF91C62}
  9
$EXTNAMES
290
     1
  9
$PSVPSCALE
 40
0.0
  9
$OLESTARTUP
290
     0
  0
ENDSEC
  0
SECTION
  2
CLASSES
  0
CLASS
  1
ACDBDICTIONARYWDFLT
  2
AcDbDictionaryWithDefault
  3
ObjectDBX Classes
 90
        0
280
     0
281
     0
  0
CLASS
  1
ACDBPLACEHOLDER
  2
AcDbPlaceHolder
  3
ObjectDBX Classes
 90
        0
280
     0
281
     0
  0
CLASS
  1
LAYOUT
  2
AcDbLayout
  3
ObjectDBX Classes
 90
        0
280
     0
281
     0
  0
CLASS
  1
TABLESTYLE
  2
AcDbTableStyle
  3
ObjectDBX Classes
 90
     2047
280
     0
281
     0
  0
CLASS
  1
DICTIONARYVAR
  2
AcDbDictionaryVar
  3
ObjectDBX Classes
 90
        0
280
     0
281
     0
  0
CLASS
  1
SORTENTSTABLE
  2
AcDbSortentsTable
  3
ObjectDBX Classes
 90
        0
280
     0
281
     0
  0
ENDSEC
  0
SECTION
  2
TABLES
  0
TABLE
  2
VPORT
  5
15
330
0
100
AcDbSymbolTable
 70
     6
  0
VPORT
  5
87E
330
15
100
AcDbSymbolTableRecord
100
AcDbViewportTableRecord
  2
*Active
 70
     0
 10
0.0
 20
0.0
 11
1.0
 21
1.0
 12
406.8910229356156
 22
281.7140358807683
 13
0.0
 23
0.0
 14
1.0
 24
1.0
 15
0.0
 25
0.0
 16
0.0
 26
0.0
 36
1.0
 17
0.0
 27
0.0
 37
0.0
 40
299.4720502883658
 41
1.808236808236808
 42
50.0
 43
0.0
 44
0.0
 50
0.0
 51
0.0
 71
     0
 72
  2000
 73
     1
 74
     0
 75
     0
 76
     0
 77
     0
 78
     2
281
     0
 65
     1
110
0.0
120
0.0
130
0.0
111
1.0
121
0.0
131
0.0
112
0.0
122
1.0
132
0.0
 79
     0
146
0.0
  0
ENDTAB
  0
TABLE
  2
LTYPE
  5
12
330
0
100
AcDbSymbolTable
 70
    11
  0
LTYPE
  5
1F
330
12
100
AcDbSymbolTableRecord
100
AcDbLinetypeTableRecord
  2
BYBLOCK
 70
     0
  3

 72
    65
 73
     0
 40
0.0
  0
LTYPE
  5
20
330
12
100
AcDbSymbolTableRecord
100
AcDbLinetypeTableRecord
  2
BYLAYER
 70
     0
  3

 72
    65
 73
     0
 40
0.0
  0
LTYPE
  5
21
330
12
100
AcDbSymbolTableRecord
100
AcDbLinetypeTableRecord
  2
CONTINUOUS
 70
     0
  3
Solid line
 72
    65
 73
     0
 40
0.0
  0
LTYPE
  5
2C
330
12
100
AcDbSymbolTableRecord
100
AcDbLinetypeTableRecord
  2
CENTER
 70
     0
  3
____ _ ____ _ ____ _ ____ _ ____ _ ____ _ ____
 72
    65
 73
     4
 40
2.0
 49
1.25
 74
     0
 49
-0.25
 74
     0
 49
0.25
 74
     0
 49
-0.25
 74
     0
  0
LTYPE
  5
2D
330
12
100
AcDbSymbolTableRecord
100
AcDbLinetypeTableRecord
  2
HIDDEN
 70
     0
  3
_ _ _ _ _ _ _ _ _ _ _ _ _ _ _ _ _ _ _ _ _ _ _ _
 72
    65
 73
     2
 40
0.75
 49
0.5
 74
     0
 49
-0.25
 74
     0
  0
LTYPE
  5
33
330
12
100
AcDbSymbolTableRecord
100
AcDbLinetypeTableRecord
  2
DOT
 70
     0
  3
...............................................
 72
    65
 73
     2
 40
0.25
 49
0.0
 74
     0
 49
-0.25
 74
     0
  0
ENDTAB
  0
TABLE
  2
LAYER
  5
F
330
0
100
AcDbSymbolTable
 70
    13
  0
LAYER
  5
1C
330
F
100
AcDbSymbolTableRecord
100
AcDbLayerTableRecord
  2
0
 70
     0
 62
     7
  6
CONTINUOUS
370
    -3
390
318
  0
LAYER
  5
3A
330
F
100
AcDbSymbolTableRecord
100
AcDbLayerTableRecord
  2
2
 70
     0
 62
     2
  6
CONTINUOUS
370
    -3
390
318
  0
LAYER
  5
3B
330
F
100
AcDbSymbolTableRecord
100
AcDbLayerTableRecord
  2
3
 70
     0
 62
     3
  6
CONTINUOUS
370
    -3
390
318
  0
LAYER
  5
3C
330
F
100
AcDbSymbolTableRecord
100
AcDbLayerTableRecord
  2
HARTLIJN
 70
     0
 62
     1
  6
CENTER
370
    -3
390
318
  0
LAYER
  5
3D
330
F
100
AcDbSymbolTableRecord
100
AcDbLayerTableRecord
  2
VERBORGEN
 70
     0
 62
     2
  6
HIDDEN
370
    -3
390
318
  0
LAYER
  5
3E
330
F
100
AcDbSymbolTableRecord
100
AcDbLayerTableRecord
  2
DEFPOINTS
 70
     0
 62
     7
  6
DOT
290
     0
370
    -3
390
318
  0
LAYER
  5
45
330
F
100
AcDbSymbolTableRecord
100
AcDbLayerTableRecord
  2
AME_FRZ
 70
     1
 62
     7
  6
CONTINUOUS
370
    -3
390
318
  0
ENDTAB
  0
TABLE
  2
STYLE
  5
10
330
0
100
AcDbSymbolTable
 70
     3
  0
STYLE
  5
1D
330
10
100
AcDbSymbolTableRecord
100
AcDbTextStyleTableRecord
  2
STANDARD
 70
     0
 40
0.0
 41
1.0
 50
0.0
 71
     0
 42
3.0
  3
SIMPLEX
  4

  0
STYLE
  5
2B
330
10
100
AcDbSymbolTableRecord
100
AcDbTextStyleTableRecord
  2
ISO
 70
     0
 40
0.0
 41
1.0
 50
0.0
 71
     0
 42
3.0
  3
iso3098
  4

  0
ENDTAB
  0
TABLE
  2
VIEW
  5
13
330
0
100
AcDbSymbolTable
 70
     0
  0
ENDTAB
  0
TABLE
  2
UCS
  5
14
330
0
100
AcDbSymbolTable
 70
     0
  0
ENDTAB
  0
TABLE
  2
APPID
  5
16
330
0
100
AcDbSymbolTable
 70
     4
  0
APPID
  5
1E
330
16
100
AcDbSymbolTableRecord
100
AcDbRegAppTableRecord
  2
ACAD
 70
     0
  0
APPID
  5
38
330
16
100
AcDbSymbolTableRecord
100
AcDbRegAppTableRecord
  2
AME_SOL
 70
     0
  0
APPID
  5
4D5
330
16
100
AcDbSymbolTableRecord
100
AcDbRegAppTableRecord
  2
ACAD_DSTYLE_DIMTEXT_FILL
 70
     0
  0
APPID
  5
871
330
16
100
AcDbSymbolTableRecord
100
AcDbRegAppTableRecord
  2
ACAD_PSEXT
 70
     0
  0
ENDTAB
  0
TABLE
  2
DIMSTYLE
  5
17
330
0
100
AcDbSymbolTable
 70
    45
100
AcDbDimStyleTable
 71
     1
340
39
  0
DIMSTYLE
105
39
102
{ACAD_REACTORS
330
7EF
330
7FC
330
80B
330
818
330
825
102
}
330
17
100
AcDbSymbolTableRecord
100
AcDbDimStyleTableRecord
  2
MCC
 70
     0
 41
4.0
 42
2.5
 43
10.0
 44
2.5
 46
1.25
 73
     0
 74
     0
 77
     1
 78
     9
 79
     2
140
3.0
141
3.0
143
0.039
145
1.5
146
0.6666666666666666
147
1.0
172
     1
176
     2
177
     2
178
     3
179
     4
284
     9
285
     1
286
     1
289
     0
340
1D
  0
ENDTAB
  0
TABLE
  2
BLOCK_RECORD
  5
E
330
0
100
AcDbSymbolTable
 70
    13
  0
BLOCK_RECORD
  5
25
102
{ACAD_XDICTIONARY
360
35F
102
}
330
E
100
AcDbSymbolTableRecord
100
AcDbBlockTableRecord
  2
*MODEL_SPACE
340
31B
  0
BLOCK_RECORD
  5
22
102
{ACAD_XDICTIONARY
360
35D
102
}
330
E
100
AcDbSymbolTableRecord
100
AcDbBlockTableRecord
  2
*PAPER_SPACE
340
31C
  0
BLOCK_RECORD
  5
29
330
E
100
AcDbSymbolTableRecord
100
AcDbBlockTableRecord
  2
AME_NIL
340
0
102
{BLKREFS
331
6
102
}
  0
BLOCK_RECORD
  5
2A
330
E
100
AcDbSymbolTableRecord
100
AcDbBlockTableRecord
  2
AME_SOL
340
0
102
{BLKREFS
331
D
102
}
  0
BLOCK_RECORD
  5
53C
330
E
100
AcDbSymbolTableRecord
100
AcDbBlockTableRecord
  2
*X2
340
0
102
{BLKREFS
331
6B8
331
787
102
}
  0
BLOCK_RECORD
  5
5B6
330
E
100
AcDbSymbolTableRecord
100
AcDbBlockTableRecord
  2
*X3
340
0
102
{BLKREFS
331
671
331
69B
331
740
331
76A
102
}
  0
BLOCK_RECORD
  5
5C2
330
E
100
AcDbSymbolTableRecord
100
AcDbBlockTableRecord
  2
A$C1D384272
340
0
102
{BLKREFS
331
64B
102
}
  0
BLOCK_RECORD
  5
5CB
102
{ACAD_XDICTIONARY
360
5CC
102
}
330
E
100
AcDbSymbolTableRecord
100
AcDbBlockTableRecord
  2
calca4
340
0
102
{BLKREFS
331
6F2
331
7C1
102
}
  0
BLOCK_RECORD
  5
7F0
330
E
100
AcDbSymbolTableRecord
100
AcDbBlockTableRecord
  2
*D7
340
0
  0
BLOCK_RECORD
  5
7FD
330
E
100
AcDbSymbolTableRecord
100
AcDbBlockTableRecord
  2
*D8
340
0
  0
BLOCK_RECORD
  5
80C
330
E
100
AcDbSymbolTableRecord
100
AcDbBlockTableRecord
  2
*D9
340
0
  0
BLOCK_RECORD
  5
819
330
E
100
AcDbSymbolTableRecord
100
AcDbBlockTableRecord
  2
*D10
340
0
  0
BLOCK_RECORD
  5
826
330
E
100
AcDbSymbolTableRecord
100
AcDbBlockTableRecord
  2
*D11
340
0
  0
ENDTAB
  0
ENDSEC
  0
SECTION
  2
BLOCKS
  0
BLOCK
  5
48
330
25
100
AcDbEntity
  8
0
100
AcDbBlockBegin
  2
*MODEL_SPACE
 70
     0
 10
0.0
 20
0.0
 30
0.0
  3
*MODEL_SPACE
  1

  0
ENDBLK
  5
49
330
25
100
AcDbEntity
  8
0
100
AcDbBlockEnd
  0
BLOCK
  5
46
330
22
100
AcDbEntity
 67
     1
  8
0
100
AcDbBlockBegin
  2
*PAPER_SPACE
 70
     0
 10
0.0
 20
0.0
 30
0.0
  3
*PAPER_SPACE
  1

  0
ENDBLK
  5
47
330
22
100
AcDbEntity
 67
     1
  8
0
100
AcDbBlockEnd
  0
BLOCK
  5
4
330
29
100
AcDbEntity
  8
0
100
AcDbBlockBegin
  2
AME_NIL
 70
     0
 10
0.0
 20
0.0
 30
0.0
  3
AME_NIL
  1
AME_NIL
  0
ENDBLK
  5
5
330
29
100
AcDbEntity
  8
0
100
AcDbBlockEnd
  0
BLOCK
  5
7
330
2A
100
AcDbEntity
  8
0
100
AcDbBlockBegin
  2
AME_SOL
 70
     0
 10
0.0
 20
0.0
 30
0.0
  3
AME_SOL
  1
AME_SOL
  0
ENDBLK
  5
8
330
2A
100
AcDbEntity
  8
0
100
AcDbBlockEnd
  0
BLOCK
  5
53D
330
53C
100
AcDbEntity
  8
0
100
AcDbBlockBegin
  2
*X2
 70
     1
 10
0.0
 20
0.0
 30
0.0
  3
*X2
  1

  0
LINE
  5
53E
330
53C
100
AcDbEntity
  8
0
 62
     0
100
AcDbLine
 10
286.6516138702314
 20
145.6615927694457
 30
0.0
 11
287.537662618788
 21
146.5476415180023
 31
0.0
  0
LINE
  5
53F
330
53C
100
AcDbEntity
  8
0
 62
     0
100
AcDbLine
 10
288.460007298385
 20
147.4699861975993
 30
0.0
 11
289.7016138702313
 21
148.7115927694456
 31
0.0
  0
LINE
  5
540
330
53C
100
AcDbEntity
  8
0
 62
     0
100
AcDbLine
 10
286.5618113090206
 20
145.6615927694457
 30
0.0
 11
287.4995974812843
 21
146.5993789417092
 31
0.0
  0
LINE
  5
541
330
53C
100
AcDbEntity
  8
0
 62
     0
100
AcDbLine
 10
288.594711140201
 20
147.6944926006261
 30
0.0
 11
289.6118113090206
 21
148.7115927694456
 31
0.0
  0
LINE
  5
542
330
53C
100
AcDbEntity
  8
0
 62
     0
100
AcDbLine
 10
286.47200874781
 20
145.6615927694457
 30
0.0
 11
287.4501227870952
 21
146.6397068087309
 31
0.0
  0
LINE
  5
543
330
53C
100
AcDbEntity
  8
0
 62
     0
100
AcDbLine
 10
288.7294149820171
 20
147.9189990036528
 30
0.0
 11
289.5220087478099
 21
148.7115927694456
 31
0.0
  0
LINE
  5
544
330
53C
100
AcDbEntity
  8
0
 62
     0
100
AcDbLine
 10
286.3822061865993
 20
145.6615927694457
 30
0.0
 11
287.3882516355621
 21
146.6676382184084
 31
0.0
  0
LINE
  5
545
330
53C
100
AcDbEntity
  8
0
 62
     0
100
AcDbLine
 10
288.8641188238332
 20
148.1435054066795
 30
0.0
 11
289.4322061865993
 21
148.7115927694456
 31
0.0
  0
LINE
  5
546
330
53C
100
AcDbEntity
  8
0
 62
     0
100
AcDbLine
 10
286.2924036253886
 20
145.6615927694457
 30
0.0
 11
287.3090702920553
 21
146.6782594361123
 31
0.0
  0
LINE
  5
547
330
53C
100
AcDbEntity
  8
0
 62
     0
100
AcDbLine
 10
288.9988226656492
 20
148.3680118097063
 30
0.0
 11
289.3423189813313
 21
148.7115081253884
 31
0.0
  0
LINE
  5
548
330
53C
100
AcDbEntity
  8
0
 62
     0
100
AcDbLine
 10
286.202601064178
 20
145.6615927694457
 30
0.0
 11
287.2192677308446
 21
146.6782594361123
 31
0.0
  0
LINE
  5
549
330
53C
100
AcDbEntity
  8
0
 62
     0
100
AcDbLine
 10
289.1336852643597
 20
148.5926769696274
 30
0.0
 11
289.2136270959658
 21
148.6726188012335
 31
0.0
  0
LINE
  5
54A
330
53C
100
AcDbEntity
  8
0
 62
     0
100
AcDbLine
 10
286.1127985029672
 20
145.6615927694457
 30
0.0
 11
287.1294651696339
 21
146.6782594361123
 31
0.0
  0
LINE
  5
54B
330
53C
100
AcDbEntity
  8
0
 62
     0
100
AcDbLine
 10
286.0229959417565
 20
145.6615927694457
 30
0.0
 11
287.0396626084232
 21
146.6782594361123
 31
0.0
  0
LINE
  5
54C
330
53C
100
AcDbEntity
  8
0
 62
     0
100
AcDbLine
 10
285.9331933805458
 20
145.6615927694457
 30
0.0
 11
286.9498600472125
 21
146.6782594361123
 31
0.0
  0
LINE
  5
54D
330
53C
100
AcDbEntity
  8
0
 62
     0
100
AcDbLine
 10
285.8433908193351
 20
145.6615927694457
 30
0.0
 11
286.8600574860018
 21
146.6782594361123
 31
0.0
  0
LINE
  5
54E
330
53C
100
AcDbEntity
  8
0
 62
     0
100
AcDbLine
 10
285.7535882581245
 20
145.6615927694457
 30
0.0
 11
286.7702549247911
 21
146.6782594361123
 31
0.0
  0
LINE
  5
54F
330
53C
100
AcDbEntity
  8
0
 62
     0
100
AcDbLine
 10
285.6637856969138
 20
145.6615927694457
 30
0.0
 11
286.6804523635805
 21
146.6782594361123
 31
0.0
  0
LINE
  5
550
330
53C
100
AcDbEntity
  8
0
 62
     0
100
AcDbLine
 10
285.5739831357031
 20
145.6615927694457
 30
0.0
 11
286.5906498023697
 21
146.6782594361123
 31
0.0
  0
LINE
  5
551
330
53C
100
AcDbEntity
  8
0
 62
     0
100
AcDbLine
 10
287.6106322425775
 20
147.6982418763201
 30
0.0
 11
287.8462734008731
 21
147.9338830346157
 31
0.0
  0
LINE
  5
552
330
53C
100
AcDbEntity
  8
0
 62
     0
100
AcDbLine
 10
285.4841842152916
 20
145.6615964102449
 30
0.0
 11
286.5008508819561
 21
146.6782630769094
 31
0.0
  0
LINE
  5
553
330
53C
100
AcDbEntity
  8
0
 62
     0
100
AcDbLine
 10
287.5175139078257
 20
147.694926102779
 30
0.0
 11
287.9360759620837
 21
148.113488157037
 31
0.0
  0
LINE
  5
554
330
53C
100
AcDbEntity
  8
0
 62
     0
100
AcDbLine
 10
285.4068632166223
 20
145.6740779727863
 30
0.0
 11
286.4235298832872
 21
146.6907446394511
 31
0.0
  0
LINE
  5
555
330
53C
100
AcDbEntity
  8
0
 62
     0
100
AcDbLine
 10
287.427711346615
 20
147.694926102779
 30
0.0
 11
288.0258785232943
 21
148.2930932794583
 31
0.0
  0
LINE
  5
556
330
53C
100
AcDbEntity
  8
0
 62
     0
100
AcDbLine
 10
285.3461863364152
 20
145.7032036537899
 30
0.0
 11
286.3628530030803
 21
146.719870320455
 31
0.0
  0
LINE
  5
557
330
53C
100
AcDbEntity
  8
0
 62
     0
100
AcDbLine
 10
287.3379087854043
 20
147.694926102779
 30
0.0
 11
288.0769607214972
 21
148.4339780388719
 31
0.0
  0
LINE
  5
558
330
53C
100
AcDbEntity
  8
0
 62
     0
100
AcDbLine
 10
285.2977109955883
 20
145.7445308741736
 30
0.0
 11
286.3143776622534
 21
146.7611975408387
 31
0.0
  0
LINE
  5
559
330
53C
100
AcDbEntity
  8
0
 62
     0
100
AcDbLine
 10
287.2481062241936
 20
147.694926102779
 30
0.0
 11
288.0708112516131
 21
148.5176311301984
 31
0.0
  0
LINE
  5
55A
330
53C
100
AcDbEntity
  8
0
 62
     0
100
AcDbLine
 10
285.2606733986246
 20
145.7972958384206
 30
0.0
 11
286.2773400652896
 21
146.8139625050856
 31
0.0
  0
LINE
  5
55B
330
53C
100
AcDbEntity
  8
0
 62
     0
100
AcDbLine
 10
287.1583036629829
 20
147.694926102779
 30
0.0
 11
288.0454064056185
 21
148.5820288454145
 31
0.0
  0
LINE
  5
55C
330
53C
100
AcDbEntity
  8
0
 62
     0
100
AcDbLine
 10
285.2368548812552
 20
145.863279882262
 30
0.0
 11
286.25352154792
 21
146.8799465489267
 31
0.0
  0
LINE
  5
55D
330
53C
100
AcDbEntity
  8
0
 62
     0
100
AcDbLine
 10
287.0685011017722
 20
147.694926102779
 30
0.0
 11
288.0071272125739
 21
148.6335522135806
 31
0.0
  0
LINE
  5
55E
330
53C
100
AcDbEntity
  8
0
 62
     0
100
AcDbLine
 10
285.2313779628142
 20
145.9476055250316
 30
0.0
 11
286.2503494034114
 21
146.9665769656288
 31
0.0
  0
LINE
  5
55F
330
53C
100
AcDbEntity
  8
0
 62
     0
100
AcDbLine
 10
286.9786985405615
 20
147.694926102779
 30
0.0
 11
287.9574421553201
 21
148.6736697175376
 31
0.0
  0
LINE
  5
560
330
53C
100
AcDbEntity
  8
0
 62
     0
100
AcDbLine
 10
285.2313779628142
 20
146.0374080862423
 30
0.0
 11
286.324917468039
 21
147.1309475914671
 31
0.0
  0
LINE
  5
561
330
53C
100
AcDbEntity
  8
0
 62
     0
100
AcDbLine
 10
286.8888959793508
 20
147.694926102779
 30
0.0
 11
287.8953165149903
 21
148.7013466384184
 31
0.0
  0
LINE
  5
562
330
53C
100
AcDbEntity
  8
0
 62
     0
100
AcDbLine
 10
285.2313779628142
 20
146.127210647453
 30
0.0
 11
286.459621309855
 21
147.3554539944938
 31
0.0
  0
LINE
  5
563
330
53C
100
AcDbEntity
  8
0
 62
     0
100
AcDbLine
 10
286.7989594287591
 20
147.694792113398
 30
0.0
 11
287.8157600848068
 21
148.7115927694456
 31
0.0
  0
LINE
  5
564
330
53C
100
AcDbEntity
  8
0
 62
     0
100
AcDbLine
 10
285.2313779628142
 20
146.2170132086637
 30
0.0
 11
286.5949874351687
 21
147.5806226810182
 31
0.0
  0
LINE
  5
565
330
53C
100
AcDbEntity
  8
0
 62
     0
100
AcDbLine
 10
286.6673480512415
 20
147.652983297091
 30
0.0
 11
287.7259575235961
 21
148.7115927694456
 31
0.0
  0
LINE
  5
566
330
53C
100
AcDbEntity
  8
0
 62
     0
100
AcDbLine
 10
285.2313779628142
 20
146.3068157698744
 30
0.0
 11
287.6361549623855
 21
148.7115927694456
 31
0.0
  0
LINE
  5
567
330
53C
100
AcDbEntity
  8
0
 62
     0
100
AcDbLine
 10
285.2313779628142
 20
146.3966183310851
 30
0.0
 11
287.5463524011747
 21
148.7115927694456
 31
0.0
  0
LINE
  5
568
330
53C
100
AcDbEntity
  8
0
 62
     0
100
AcDbLine
 10
285.2313779628142
 20
146.4864208922958
 30
0.0
 11
287.4565498399641
 21
148.7115927694456
 31
0.0
  0
LINE
  5
569
330
53C
100
AcDbEntity
  8
0
 62
     0
100
AcDbLine
 10
285.2313779628142
 20
146.5762234535064
 30
0.0
 11
287.3667472787533
 21
148.7115927694456
 31
0.0
  0
LINE
  5
56A
330
53C
100
AcDbEntity
  8
0
 62
     0
100
AcDbLine
 10
285.2313779628142
 20
146.6660260147172
 30
0.0
 11
287.2769447175427
 21
148.7115927694456
 31
0.0
  0
LINE
  5
56B
330
53C
100
AcDbEntity
  8
0
 62
     0
100
AcDbLine
 10
285.2313779628142
 20
146.7558285759278
 30
0.0
 11
287.1871421563319
 21
148.7115927694456
 31
0.0
  0
LINE
  5
56C
330
53C
100
AcDbEntity
  8
0
 62
     0
100
AcDbLine
 10
285.2313779628142
 20
146.8456311371385
 30
0.0
 11
287.0973395951213
 21
148.7115927694456
 31
0.0
  0
LINE
  5
56D
330
53C
100
AcDbEntity
  8
0
 62
     0
100
AcDbLine
 10
285.2313779628142
 20
146.9354336983492
 30
0.0
 11
287.0075370339106
 21
148.7115927694456
 31
0.0
  0
LINE
  5
56E
330
53C
100
AcDbEntity
  8
0
 62
     0
100
AcDbLine
 10
285.2313779628142
 20
147.0252362595599
 30
0.0
 11
286.9177344726999
 21
148.7115927694456
 31
0.0
  0
LINE
  5
56F
330
53C
100
AcDbEntity
  8
0
 62
     0
100
AcDbLine
 10
285.2313779628142
 20
147.1150388207706
 30
0.0
 11
286.8279319114892
 21
148.7115927694456
 31
0.0
  0
LINE
  5
570
330
53C
100
AcDbEntity
  8
0
 62
     0
100
AcDbLine
 10
285.2320858656382
 20
147.2055492848053
 30
0.0
 11
286.7381293502786
 21
148.7115927694456
 31
0.0
  0
LINE
  5
571
330
53C
100
AcDbEntity
  8
0
 62
     0
100
AcDbLine
 10
285.287854586797
 20
147.3511205671749
 30
0.0
 11
286.6483267890678
 21
148.7115927694456
 31
0.0
  0
LINE
  5
572
330
53C
100
AcDbEntity
  8
0
 62
     0
100
AcDbLine
 10
285.4225584286131
 20
147.5756269702016
 30
0.0
 11
286.5585242278572
 21
148.7115927694456
 31
0.0
  0
LINE
  5
573
330
53C
100
AcDbEntity
  8
0
 62
     0
100
AcDbLine
 10
285.5572622704291
 20
147.8001333732283
 30
0.0
 11
286.4687216666464
 21
148.7115927694456
 31
0.0
  0
LINE
  5
574
330
53C
100
AcDbEntity
  8
0
 62
     0
100
AcDbLine
 10
285.6919661122452
 20
148.0246397762551
 30
0.0
 11
286.3789191054357
 21
148.7115927694456
 31
0.0
  0
LINE
  5
575
330
53C
100
AcDbEntity
  8
0
 62
     0
100
AcDbLine
 10
285.8266699540613
 20
148.2491461792818
 30
0.0
 11
286.2891165442251
 21
148.7115927694456
 31
0.0
  0
LINE
  5
576
330
53C
100
AcDbEntity
  8
0
 62
     0
100
AcDbLine
 10
285.9613737958773
 20
148.4736525823086
 30
0.0
 11
286.193361936167
 21
148.7056407225983
 31
0.0
  0
LINE
  5
577
330
53C
100
AcDbEntity
  8
0
 62
     0
100
AcDbLine
 10
286.7414164314421
 20
145.6615927694457
 30
0.0
 11
287.5627970626569
 21
146.4829734006606
 31
0.0
  0
LINE
  5
578
330
53C
100
AcDbEntity
  8
0
 62
     0
100
AcDbLine
 10
288.3445039627943
 20
147.264680300798
 30
0.0
 11
289.791416431442
 21
148.7115927694456
 31
0.0
  0
LINE
  5
579
330
53C
100
AcDbEntity
  8
0
 62
     0
100
AcDbLine
 10
286.8312189926527
 20
145.6615927694457
 30
0.0
 11
287.5697112961475
 21
146.4000850729404
 31
0.0
  0
LINE
  5
57A
330
53C
100
AcDbEntity
  8
0
 62
     0
100
AcDbLine
 10
288.3322112961475
 20
147.1625850729404
 30
0.0
 11
289.8812189926527
 21
148.7115927694456
 31
0.0
  0
LINE
  5
57B
330
53C
100
AcDbEntity
  8
0
 62
     0
100
AcDbLine
 10
286.9210215538635
 20
145.6615927694457
 30
0.0
 11
287.5697112961475
 21
146.3102825117298
 31
0.0
  0
LINE
  5
57C
330
53C
100
AcDbEntity
  8
0
 62
     0
100
AcDbLine
 10
288.3322112961475
 20
147.0727825117297
 30
0.0
 11
289.9710215538634
 21
148.7115927694456
 31
0.0
  0
LINE
  5
57D
330
53C
100
AcDbEntity
  8
0
 62
     0
100
AcDbLine
 10
287.0108241150741
 20
145.6615927694457
 30
0.0
 11
287.5697112961475
 21
146.2204799505191
 31
0.0
  0
LINE
  5
57E
330
53C
100
AcDbEntity
  8
0
 62
     0
100
AcDbLine
 10
288.3322112961475
 20
146.982979950519
 30
0.0
 11
290.0608241150741
 21
148.7115927694456
 31
0.0
  0
LINE
  5
57F
330
53C
100
AcDbEntity
  8
0
 62
     0
100
AcDbLine
 10
287.1006266762848
 20
145.6615927694457
 30
0.0
 11
287.5697112961475
 21
146.1306773893084
 31
0.0
  0
LINE
  5
580
330
53C
100
AcDbEntity
  8
0
 62
     0
100
AcDbLine
 10
288.3322112961475
 20
146.8931773893083
 30
0.0
 11
290.1506266762848
 21
148.7115927694456
 31
0.0
  0
LINE
  5
581
330
53C
100
AcDbEntity
  8
0
 62
     0
100
AcDbLine
 10
287.1904292374955
 20
145.6615927694457
 30
0.0
 11
287.5697112961475
 21
146.0408748280977
 31
0.0
  0
LINE
  5
582
330
53C
100
AcDbEntity
  8
0
 62
     0
100
AcDbLine
 10
288.3322112961475
 20
146.8033748280976
 30
0.0
 11
290.2404292374955
 21
148.7115927694456
 31
0.0
  0
LINE
  5
583
330
53C
100
AcDbEntity
  8
0
 62
     0
100
AcDbLine
 10
287.2802317987062
 20
145.6615927694457
 30
0.0
 11
287.5697112961475
 21
145.951072266887
 31
0.0
  0
LINE
  5
584
330
53C
100
AcDbEntity
  8
0
 62
     0
100
AcDbLine
 10
288.3322112961475
 20
146.713572266887
 30
0.0
 11
290.3302317987062
 21
148.7115927694456
 31
0.0
  0
LINE
  5
585
330
53C
100
AcDbEntity
  8
0
 62
     0
100
AcDbLine
 10
287.377768787125
 20
145.6693271966538
 30
0.0
 11
287.5619768689394
 21
145.8535352784682
 31
0.0
  0
LINE
  5
586
330
53C
100
AcDbEntity
  8
0
 62
     0
100
AcDbLine
 10
288.3322112961475
 20
146.6237697056762
 30
0.0
 11
290.4200343599169
 21
148.7115927694456
 31
0.0
  0
LINE
  5
587
330
53C
100
AcDbEntity
  8
0
 62
     0
100
AcDbLine
 10
288.3322112961475
 20
146.5339671444656
 30
0.0
 11
290.5098369211275
 21
148.7115927694456
 31
0.0
  0
LINE
  5
588
330
53C
100
AcDbEntity
  8
0
 62
     0
100
AcDbLine
 10
288.3322112961475
 20
146.4441645832549
 30
0.0
 11
290.5996394823382
 21
148.7115927694456
 31
0.0
  0
LINE
  5
589
330
53C
100
AcDbEntity
  8
0
 62
     0
100
AcDbLine
 10
288.3322112961475
 20
146.3543620220442
 30
0.0
 11
290.6894420435489
 21
148.7115927694456
 31
0.0
  0
LINE
  5
58A
330
53C
100
AcDbEntity
  8
0
 62
     0
100
AcDbLine
 10
288.3322112961475
 20
146.2645594608335
 30
0.0
 11
290.7792446047596
 21
148.7115927694456
 31
0.0
  0
LINE
  5
58B
330
53C
100
AcDbEntity
  8
0
 62
     0
100
AcDbLine
 10
288.3322112961475
 20
146.1747568996228
 30
0.0
 11
289.6317740214433
 21
147.4743196249186
 31
0.0
  0
LINE
  5
58C
330
53C
100
AcDbEntity
  8
0
 62
     0
100
AcDbLine
 10
289.8442421640322
 20
147.6867877675075
 30
0.0
 11
290.8690471659703
 21
148.7115927694456
 31
0.0
  0
LINE
  5
58D
330
53C
100
AcDbEntity
  8
0
 62
     0
100
AcDbLine
 10
288.3322112961475
 20
146.0849543384121
 30
0.0
 11
289.4970701796272
 21
147.2498132218918
 31
0.0
  0
LINE
  5
58E
330
53C
100
AcDbEntity
  8
0
 62
     0
100
AcDbLine
 10
289.9421830605144
 20
147.694926102779
 30
0.0
 11
290.9568141762654
 21
148.70955721853
 31
0.0
  0
LINE
  5
58F
330
53C
100
AcDbEntity
  8
0
 62
     0
100
AcDbLine
 10
288.3322112961475
 20
145.9951517772014
 30
0.0
 11
289.3692953987842
 21
147.0322358798381
 31
0.0
  0
LINE
  5
590
330
53C
100
AcDbEntity
  8
0
 62
     0
100
AcDbLine
 10
290.0319856217251
 20
147.694926102779
 30
0.0
 11
291.0271116394659
 21
148.6900521205198
 31
0.0
  0
LINE
  5
591
330
53C
100
AcDbEntity
  8
0
 62
     0
100
AcDbLine
 10
288.3324162586982
 20
145.9055541785415
 30
0.0
 11
289.3490829253492
 21
146.9222208451924
 31
0.0
  0
LINE
  5
592
330
53C
100
AcDbEntity
  8
0
 62
     0
100
AcDbLine
 10
290.1217881829357
 20
147.694926102779
 30
0.0
 11
291.0830826060222
 21
148.6562205258654
 31
0.0
  0
LINE
  5
593
330
53C
100
AcDbEntity
  8
0
 62
     0
100
AcDbLine
 10
288.346997517976
 20
145.8303328766086
 30
0.0
 11
289.3636641846299
 21
146.8469995432625
 31
0.0
  0
LINE
  5
594
330
53C
100
AcDbEntity
  8
0
 62
     0
100
AcDbLine
 10
290.2115907441464
 20
147.694926102779
 30
0.0
 11
291.1274200212387
 21
148.6107553798712
 31
0.0
  0
LINE
  5
595
330
53C
100
AcDbEntity
  8
0
 62
     0
100
AcDbLine
 10
288.3774648072079
 20
145.7709976046297
 30
0.0
 11
289.3941314738628
 21
146.7876642712847
 31
0.0
  0
LINE
  5
596
330
53C
100
AcDbEntity
  8
0
 62
     0
100
AcDbLine
 10
290.3013933053571
 20
147.694926102779
 30
0.0
 11
291.1600051652385
 21
148.5535379626604
 31
0.0
  0
LINE
  5
597
330
53C
100
AcDbEntity
  8
0
 62
     0
100
AcDbLine
 10
288.4199388309778
 20
145.723669067189
 30
0.0
 11
289.4366054976329
 21
146.7403357338441
 31
0.0
  0
LINE
  5
598
330
53C
100
AcDbEntity
  8
0
 62
     0
100
AcDbLine
 10
290.3911958665678
 20
147.694926102779
 30
0.0
 11
291.1777382840433
 21
148.4814685202545
 31
0.0
  0
LINE
  5
599
330
53C
100
AcDbEntity
  8
0
 62
     0
100
AcDbLine
 10
288.4739051195002
 20
145.6878327945006
 30
0.0
 11
289.4905717861547
 21
146.7044994611551
 31
0.0
  0
LINE
  5
59A
330
53C
100
AcDbEntity
  8
0
 62
     0
100
AcDbLine
 10
290.4809984277785
 20
147.694926102779
 30
0.0
 11
291.1671352082075
 21
148.3810628832079
 31
0.0
  0
LINE
  5
59B
330
53C
100
AcDbEntity
  8
0
 62
     0
100
AcDbLine
 10
288.5414669818682
 20
145.665592095658
 30
0.0
 11
289.5581336485208
 21
146.6822587623106
 31
0.0
  0
LINE
  5
59C
330
53C
100
AcDbEntity
  8
0
 62
     0
100
AcDbLine
 10
290.5708009889892
 20
147.694926102779
 30
0.0
 11
291.0844555475869
 21
148.2085806613767
 31
0.0
  0
LINE
  5
59D
330
53C
100
AcDbEntity
  8
0
 62
     0
100
AcDbLine
 10
288.6272702168666
 20
145.6615927694457
 30
0.0
 11
289.6439368835332
 21
146.6782594361123
 31
0.0
  0
LINE
  5
59E
330
53C
100
AcDbEntity
  8
0
 62
     0
100
AcDbLine
 10
290.6606035501999
 20
147.694926102779
 30
0.0
 11
290.9946529863762
 21
148.0289755389553
 31
0.0
  0
LINE
  5
59F
330
53C
100
AcDbEntity
  8
0
 62
     0
100
AcDbLine
 10
288.7170727780773
 20
145.6615927694457
 30
0.0
 11
289.7337394447439
 21
146.6782594361123
 31
0.0
  0
LINE
  5
5A0
330
53C
100
AcDbEntity
  8
0
 62
     0
100
AcDbLine
 10
290.7711761291734
 20
147.7156961205418
 30
0.0
 11
290.9048504251654
 21
147.8493704165338
 31
0.0
  0
LINE
  5
5A1
330
53C
100
AcDbEntity
  8
0
 62
     0
100
AcDbLine
 10
288.806875339288
 20
145.6615927694457
 30
0.0
 11
289.8235420059547
 21
146.6782594361123
 31
0.0
  0
LINE
  5
5A2
330
53C
100
AcDbEntity
  8
0
 62
     0
100
AcDbLine
 10
288.8966779004987
 20
145.6615927694457
 30
0.0
 11
289.9133445671653
 21
146.6782594361123
 31
0.0
  0
LINE
  5
5A3
330
53C
100
AcDbEntity
  8
0
 62
     0
100
AcDbLine
 10
288.9864804617094
 20
145.6615927694457
 30
0.0
 11
290.003147128376
 21
146.6782594361123
 31
0.0
  0
LINE
  5
5A4
330
53C
100
AcDbEntity
  8
0
 62
     0
100
AcDbLine
 10
289.0762830229201
 20
145.6615927694457
 30
0.0
 11
290.0929496895867
 21
146.6782594361123
 31
0.0
  0
LINE
  5
5A5
330
53C
100
AcDbEntity
  8
0
 62
     0
100
AcDbLine
 10
289.1660855841307
 20
145.6615927694457
 30
0.0
 11
290.1827522507974
 21
146.6782594361123
 31
0.0
  0
LINE
  5
5A6
330
53C
100
AcDbEntity
  8
0
 62
     0
100
AcDbLine
 10
289.2558881453414
 20
145.6615927694457
 30
0.0
 11
290.2725548120081
 21
146.6782594361123
 31
0.0
  0
LINE
  5
5A7
330
53C
100
AcDbEntity
  8
0
 62
     0
100
AcDbLine
 10
289.3456907065521
 20
145.6615927694457
 30
0.0
 11
290.3623573732188
 21
146.6782594361123
 31
0.0
  0
LINE
  5
5A8
330
53C
100
AcDbEntity
  8
0
 62
     0
100
AcDbLine
 10
289.4354932677628
 20
145.6615927694457
 30
0.0
 11
290.4499349706711
 21
146.6760344723539
 31
0.0
  0
LINE
  5
5A9
330
53C
100
AcDbEntity
  8
0
 62
     0
100
AcDbLine
 10
289.5252958289735
 20
145.6615927694457
 30
0.0
 11
290.5199171849794
 21
146.6562141254516
 31
0.0
  0
LINE
  5
5AA
330
53C
100
AcDbEntity
  8
0
 62
     0
100
AcDbLine
 10
289.6150983901842
 20
145.6615927694457
 30
0.0
 11
290.5756621348898
 21
146.6221565141512
 31
0.0
  0
LINE
  5
5AB
330
53C
100
AcDbEntity
  8
0
 62
     0
100
AcDbLine
 10
289.7049009513949
 20
145.6615927694457
 30
0.0
 11
290.6197925511737
 21
146.5764843692245
 31
0.0
  0
LINE
  5
5AC
330
53C
100
AcDbEntity
  8
0
 62
     0
100
AcDbLine
 10
289.7947035126056
 20
145.6615927694457
 30
0.0
 11
290.652146077363
 21
146.5190353342031
 31
0.0
  0
LINE
  5
5AD
330
53C
100
AcDbEntity
  8
0
 62
     0
100
AcDbLine
 10
289.8845060738163
 20
145.6615927694457
 30
0.0
 11
290.6695434449463
 21
146.4466301405756
 31
0.0
  0
LINE
  5
5AE
330
53C
100
AcDbEntity
  8
0
 62
     0
100
AcDbLine
 10
289.974308635027
 20
145.6615927694457
 30
0.0
 11
290.6705446294808
 21
146.3578287638996
 31
0.0
  0
LINE
  5
5AF
330
53C
100
AcDbEntity
  8
0
 62
     0
100
AcDbLine
 10
290.0641111962377
 20
145.6615927694457
 30
0.0
 11
290.6705446294808
 21
146.2680262026889
 31
0.0
  0
LINE
  5
5B0
330
53C
100
AcDbEntity
  8
0
 62
     0
100
AcDbLine
 10
290.1539137574483
 20
145.6615927694457
 30
0.0
 11
290.6705446294808
 21
146.1782236414782
 31
0.0
  0
LINE
  5
5B1
330
53C
100
AcDbEntity
  8
0
 62
     0
100
AcDbLine
 10
290.243716318659
 20
145.6615927694457
 30
0.0
 11
290.6705446294808
 21
146.0884210802675
 31
0.0
  0
LINE
  5
5B2
330
53C
100
AcDbEntity
  8
0
 62
     0
100
AcDbLine
 10
290.3335188798697
 20
145.6615927694457
 30
0.0
 11
290.6705446294808
 21
145.9986185190568
 31
0.0
  0
LINE
  5
5B3
330
53C
100
AcDbEntity
  8
0
 62
     0
100
AcDbLine
 10
290.4234189863775
 20
145.6616903147427
 30
0.0
 11
290.6704470841837
 21
145.908718412549
 31
0.0
  0
LINE
  5
5B4
330
53C
100
AcDbEntity
  8
0
 62
     0
100
AcDbLine
 10
290.5529059792927
 20
145.7013747464472
 30
0.0
 11
290.6307626524793
 21
145.7792314196338
 31
0.0
  0
ENDBLK
  5
5B5
330
53C
100
AcDbEntity
  8
0
100
AcDbBlockEnd
  0
BLOCK
  5
5B7
330
5B6
100
AcDbEntity
  8
0
100
AcDbBlockBegin
  2
*X3
 70
     1
 10
0.0
 20
0.0
 30
0.0
  3
*X3
  1

  0
LINE
  5
5B8
330
5B6
100
AcDbEntity
  8
0
 62
     0
100
AcDbLine
 10
184.4457627965546
 20
103.1284829601017
 30
0.0
 11
185.2193375236826
 21
103.9020576872296
 31
0.0
  0
LINE
  5
5B9
330
5B6
100
AcDbEntity
  8
0
 62
     0
100
AcDbLine
 10
184.7816288910828
 20
104.348232531113
 30
0.0
 11
185.7121451672826
 21
105.2787488073128
 31
0.0
  0
LINE
  5
5BA
330
5B6
100
AcDbEntity
  8
0
 62
     0
100
AcDbLine
 10
185.117494985611
 20
105.5679821021244
 30
0.0
 11
186.2049528108825
 21
106.6554399273959
 31
0.0
  0
LINE
  5
5BB
330
5B6
100
AcDbEntity
  8
0
 62
     0
100
AcDbLine
 10
185.4533610801391
 20
106.7877316731357
 30
0.0
 11
186.6977604544825
 21
108.0321310474791
 31
0.0
  0
LINE
  5
5BC
330
5B6
100
AcDbEntity
  8
0
 62
     0
100
AcDbLine
 10
185.7892271746673
 20
108.0074812441471
 30
0.0
 11
186.3980068427318
 21
108.6162609122116
 31
0.0
  0
LINE
  5
5BD
330
5B6
100
AcDbEntity
  8
0
 62
     0
100
AcDbLine
 10
184.1098967020264
 20
101.9087333890903
 30
0.0
 11
184.7265298800826
 21
102.5253665671465
 31
0.0
  0
LINE
  5
5BE
330
5B6
100
AcDbEntity
  8
0
 62
     0
100
AcDbLine
 10
183.7740306074983
 20
100.6889838180789
 30
0.0
 11
184.2337222364826
 21
101.1486754470633
 31
0.0
  0
LINE
  5
5BF
330
5B6
100
AcDbEntity
  8
0
 62
     0
100
AcDbLine
 10
183.4381645129701
 20
99.4692342470676
 30
0.0
 11
183.7409145928826
 21
99.77198432698017
 31
0.0
  0
LINE
  5
5C0
330
5B6
100
AcDbEntity
  8
0
 62
     0
100
AcDbLine
 10
183.1022984184419
 20
98.24948467605624
 30
0.0
 11
183.2481069492827
 21
98.39529320689701
 31
0.0
  0
ENDBLK
  5
5C1
330
5B6
100
AcDbEntity
  8
0
100
AcDbBlockEnd
  0
BLOCK
  5
5C3
330
5C2
100
AcDbEntity
  8
0
100
AcDbBlockBegin
  2
A$C1D384272
 70
     0
 10
0.0
 20
0.0
 30
0.0
  3
A$C1D384272
  1

  0
LWPOLYLINE
  5
5C4
330
5C2
100
AcDbEntity
  8
3
100
AcDbPolyline
 90
        4
 70
     1
 43
0.0
 10
14.5
 20
4.000000000000028
 10
14.5
 20
6.000000000000028
 10
20.5
 20
7.000000000000028
 10
20.5
 20
3.000000000000028
  0
LINE
  5
5C5
330
5C2
100
AcDbEntity
  8
HARTLIJN
 48
0.5
100
AcDbLine
 10
13.5
 20
5.000000000000028
 30
0.0
 11
22.0
 21
5.000000000000028
 31
0.0
  0
CIRCLE
  5
5C6
330
5C2
100
AcDbEntity
  8
3
100
AcDbCircle
 10
5.75
 20
5.000000000000028
 30
0.0
 40
2.0
  0
CIRCLE
  5
5C7
330
5C2
100
AcDbEntity
  8
3
100
AcDbCircle
 10
5.75
 20
5.000000000000028
 30
0.0
 40
1.0
  0
LWPOLYLINE
  5
5C8
330
5C2
100
AcDbEntity
  8
HARTLIJN
 48
0.5
100
AcDbPolyline
 90
        2
 70
     0
 43
0.0
 10
2.000000000000014
 20
5.000000000000028
 10
9.500000000000014
 20
5.000000000000028
  0
LINE
  5
5C9
330
5C2
100
AcDbEntity
  8
HARTLIJN
 48
0.5
100
AcDbLine
 10
5.75
 20
1.500000000000028
 30
0.0
 11
5.75
 21
8.500000000000028
 31
0.0
  0
ENDBLK
  5
5CA
330
5C2
100
AcDbEntity
  8
0
100
AcDbBlockEnd
  0
BLOCK
  5
5CD
330
5CB
100
AcDbEntity
  8
0
100
AcDbBlockBegin
  2
calca4
 70
     2
 10
0.0
 20
0.0
 30
0.0
  3
calca4
  1

  0
ATTDEF
  5
5CE
330
5CB
100
AcDbEntity
  8
3
100
AcDbText
 10
22.00000045003116
 20
30.50000017354523
 30
0.0
 40
4.0
  1

100
AcDbAttributeDefinition
  3
Name ?
  2
NAME
 70
     0
  0
ATTDEF
  5
5CF
330
5CB
100
AcDbEntity
  8
3
100
AcDbText
 10
22.00000045003116
 20
26.00000017354523
 30
0.0
 40
2.5
  1

100
AcDbAttributeDefinition
  3
Addtional name ?
  2
ADDITIONAL_NAME
 70
     0
  0
ATTDEF
  5
5D0
330
5CB
100
AcDbEntity
  8
3
100
AcDbText
 10
116.0000004500311
 20
12.48000017354536
 30
0.0
 40
4.5
  1
XXX.XX.XX 0_
100
AcDbAttributeDefinition
  3
Number ?
  2
DRAWING_NO.
 70
     0
  0
ATTDEF
  5
5D1
330
5CB
100
AcDbEntity
  8
3
100
AcDbText
 10
130.038658596996
 20
31.25000017354526
 30
0.0
 40
2.0
  1

 41
0.8
 11
130.038658596996
 21
32.25000017354526
 31
0.0
100
AcDbAttributeDefinition
  3
Scale ?
  2
SCALE
 70
     0
 74
     2
  0
ATTDEF
  5
5D2
330
5CB
100
AcDbEntity
  8
3
100
AcDbText
 10
175.9809528309835
 20
31.25000017354532
 30
0.0
 40
2.0
  1
dd/mm/jj
 41
0.8
 72
     1
 11
182.0000004500311
 21
32.25000017354532
 31
0.0
100
AcDbAttributeDefinition
  3
Date drawn ?
  2
DATE
 70
     0
 74
     2
  0
ATTDEF
  5
5D3
330
5CB
100
AcDbEntity
  8
3
100
AcDbText
 10
194.5000004500311
 20
31.25000017354532
 30
0.0
 40
2.0
  1

 72
     1
 11
194.5000004500311
 21
32.25000017354532
 31
0.0
100
AcDbAttributeDefinition
  3
Initials drawn ?
  2
INITIALS
 70
     0
 74
     2
  0
ATTDEF
  5
5D4
330
5CB
100
AcDbEntity
  8
3
100
AcDbText
 10
22.00000045003116
 20
62.00000017354523
 30
0.0
 40
2.5
  1

100
AcDbAttributeDefinition
  3
Material ?
  2
MATERIAL
 70
     0
  0
ATTDEF
  5
5D5
330
5CB
100
AcDbEntity
  8
3
100
AcDbText
 10
22.00000045003116
 20
52.00000017354525
 30
0.0
 40
2.5
  1

100
AcDbAttributeDefinition
  3
Product treatment ?
  2
PRODUCTTREATMENT
 70
     0
  0
ATTDEF
  5
5D6
330
5CB
100
AcDbEntity
  8
3
100
AcDbText
 10
22.00000045003116
 20
42.00000017354523
 30
0.0
 40
2.5
  1

100
AcDbAttributeDefinition
  3
Semifinished product ?
  2
SEMIFINISHED_PRODUCT
 70
     0
  0
ATTDEF
  5
5D7
330
5CB
100
AcDbEntity
  8
3
100
AcDbText
 10
130.0000004500311
 20
25.75000017354526
 30
0.0
 40
2.0
  1
mm
 41
0.8
 11
130.0000004500311
 21
26.75000017354526
 31
0.0
100
AcDbAttributeDefinition
  3
Units of dimension ?
  2
UNITS
 70
     0
 74
     2
  0
ATTDEF
  5
5D8
330
5CB
100
AcDbEntity
  8
3
100
AcDbText
 10
182.0000004500311
 20
25.75000017354526
 30
0.0
 40
2.0
  1

 41
0.8
 72
     1
 11
182.0000004500311
 21
26.75000017354526
 31
0.0
100
AcDbAttributeDefinition
  3
Date checked ?
  2
DATE
 70
     0
 74
     2
  0
ATTDEF
  5
5D9
330
5CB
100
AcDbEntity
  8
3
100
AcDbText
 10
194.5000004500311
 20
25.75000017354526
 30
0.0
 40
2.0
  1

 72
     1
 11
194.5000004500311
 21
26.75000017354526
 31
0.0
100
AcDbAttributeDefinition
  3
Initials checked ?
  2
INITIALS
 70
     0
 74
     2
  0
ATTDEF
  5
5DA
330
5CB
100
AcDbEntity
  8
3
100
AcDbText
 10
116.5000004500311
 20
41.50000017354523
 30
0.0
 40
2.0
  1

 72
     1
 11
116.5000004500311
 21
42.50000017354523
 31
0.0
100
AcDbAttributeDefinition
  3
Rev 1
  2
REV1
 70
     0
 74
     2
  0
ATTDEF
  5
5DB
330
5CB
100
AcDbEntity
  8
3
100
AcDbText
 10
122.0000004500311
 20
41.50000017354523
 30
0.0
 40
2.0
  1

100
AcDbAttributeDefinition
  3
Change 1
  2
Change 1
 70
     0
  0
ATTDEF
  5
5DC
330
5CB
100
AcDbEntity
  8
3
100
AcDbText
 10
182.0000004500311
 20
41.50000017354523
 30
0.0
 40
2.0
  1

 41
0.8
 72
     1
 11
182.0000004500311
 21
42.50000017354523
 31
0.0
100
AcDbAttributeDefinition
  3
Date revision 1
  2
DATE 1
 70
     0
 74
     2
  0
ATTDEF
  5
5DD
330
5CB
100
AcDbEntity
  8
3
100
AcDbText
 10
194.5000004500311
 20
41.50000017354523
 30
0.0
 40
2.0
  1

 72
     1
 11
194.5000004500311
 21
42.50000017354523
 31
0.0
100
AcDbAttributeDefinition
  3
Initials 1
  2
Initial1
 70
     0
 74
     2
  0
ATTDEF
  5
5DE
330
5CB
100
AcDbEntity
  8
3
100
AcDbText
 10
116.5000004500311
 20
46.50000017354523
 30
0.0
 40
2.0
  1

 72
     1
 11
116.5000004500311
 21
47.50000017354523
 31
0.0
100
AcDbAttributeDefinition
  3
Rev 2
  2
Rev2
 70
     0
 74
     2
  0
ATTDEF
  5
5DF
330
5CB
100
AcDbEntity
  8
3
100
AcDbText
 10
122.0000004500311
 20
46.50000017354523
 30
0.0
 40
2.0
  1

100
AcDbAttributeDefinition
  3
Change 2
  2
Change 2
 70
     0
  0
ATTDEF
  5
5E0
330
5CB
100
AcDbEntity
  8
3
100
AcDbText
 10
182.0000004500311
 20
46.50000017354523
 30
0.0
 40
2.0
  1

 41
0.8
 72
     1
 11
182.0000004500311
 21
47.50000017354523
 31
0.0
100
AcDbAttributeDefinition
  3
Date revision 2
  2
Date 2
 70
     0
 74
     2
  0
ATTDEF
  5
5E1
330
5CB
100
AcDbEntity
  8
3
100
AcDbText
 10
194.5000004500311
 20
46.50000017354523
 30
0.0
 40
2.0
  1

 72
     1
 11
194.5000004500311
 21
47.50000017354523
 31
0.0
100
AcDbAttributeDefinition
  3
Initials 2
  2
Initial2
 70
     0
 74
     2
  0
ATTDEF
  5
5E2
330
5CB
100
AcDbEntity
  8
3
100
AcDbText
 10
116.5000004500311
 20
51.50000017354523
 30
0.0
 40
2.0
  1

 72
     1
 11
116.5000004500311
 21
52.50000017354523
 31
0.0
100
AcDbAttributeDefinition
  3
Rev 3
  2
Rev3
 70
     0
 74
     2
  0
ATTDEF
  5
5E3
330
5CB
100
AcDbEntity
  8
3
100
AcDbText
 10
122.0000004500311
 20
51.50000017354523
 30
0.0
 40
2.0
  1

100
AcDbAttributeDefinition
  3
Change 3
  2
Change 3
 70
     0
  0
ATTDEF
  5
5E4
330
5CB
100
AcDbEntity
  8
3
100
AcDbText
 10
182.0000004500311
 20
51.50000017354523
 30
0.0
 40
2.0
  1

 41
0.8
 72
     1
 11
182.0000004500311
 21
52.50000017354523
 31
0.0
100
AcDbAttributeDefinition
  3
Date revision 3
  2
Date 3
 70
     0
 74
     2
  0
ATTDEF
  5
5E5
330
5CB
100
AcDbEntity
  8
3
100
AcDbText
 10
194.5000004500311
 20
51.50000017354523
 30
0.0
 40
2.0
  1

 72
     1
 11
194.5000004500311
 21
52.50000017354523
 31
0.0
100
AcDbAttributeDefinition
  3
Initials 3
  2
Initial3
 70
     0
 74
     2
  0
ATTDEF
  5
5E6
330
5CB
100
AcDbEntity
  8
3
100
AcDbText
 10
116.5000004500311
 20
56.50000017354523
 30
0.0
 40
2.0
  1

 72
     1
 11
116.5000004500311
 21
57.50000017354523
 31
0.0
100
AcDbAttributeDefinition
  3
Rev 4
  2
Rev4
 70
     0
 74
     2
  0
ATTDEF
  5
5E7
330
5CB
100
AcDbEntity
  8
3
100
AcDbText
 10
122.0000004500311
 20
56.50000017354523
 30
0.0
 40
2.0
  1

100
AcDbAttributeDefinition
  3
Change 4
  2
Change 4
 70
     0
  0
ATTDEF
  5
5E8
330
5CB
100
AcDbEntity
  8
3
100
AcDbText
 10
182.0000004500311
 20
56.50000017354523
 30
0.0
 40
2.0
  1

 41
0.8
 72
     1
 11
182.0000004500311
 21
57.50000017354523
 31
0.0
100
AcDbAttributeDefinition
  3
Date revision 4
  2
Date 4
 70
     0
 74
     2
  0
ATTDEF
  5
5E9
330
5CB
100
AcDbEntity
  8
3
100
AcDbText
 10
194.5000004500311
 20
56.50000017354523
 30
0.0
 40
2.0
  1

 72
     1
 11
194.5000004500311
 21
57.50000017354523
 31
0.0
100
AcDbAttributeDefinition
  3
Initials 4
  2
Initial4
 70
     0
 74
     2
  0
ATTDEF
  5
5EA
330
5CB
100
AcDbEntity
  8
3
100
AcDbText
 10
116.5000004500311
 20
61.50000017354523
 30
0.0
 40
2.0
  1

 72
     1
 11
116.5000004500311
 21
62.50000017354523
 31
0.0
100
AcDbAttributeDefinition
  3
Rev 5
  2
Rev5
 70
     0
 74
     2
  0
ATTDEF
  5
5EB
330
5CB
100
AcDbEntity
  8
3
100
AcDbText
 10
122.0000004500311
 20
61.50000017354523
 30
0.0
 40
2.0
  1

100
AcDbAttributeDefinition
  3
Change 5
  2
Change 5
 70
     0
  0
ATTDEF
  5
5EC
330
5CB
100
AcDbEntity
  8
3
100
AcDbText
 10
182.0000004500311
 20
61.50000017354523
 30
0.0
 40
2.0
  1

 41
0.8
 72
     1
 11
182.0000004500311
 21
62.50000017354523
 31
0.0
100
AcDbAttributeDefinition
  3
Date revision 5
  2
Date 5
 70
     0
 74
     2
  0
ATTDEF
  5
5ED
330
5CB
100
AcDbEntity
  8
3
100
AcDbText
 10
194.5000004500311
 20
61.50000017354523
 30
0.0
 40
2.0
  1

 72
     1
 11
194.5000004500311
 21
62.50000017354523
 31
0.0
100
AcDbAttributeDefinition
  3
Initials 5
  2
Initial5
 70
     0
 74
     2
  0
ATTDEF
  5
5EE
330
5CB
100
AcDbEntity
  8
3
100
AcDbText
 10
116.5000004500311
 20
66.50000017354523
 30
0.0
 40
2.0
  1

 72
     1
 11
116.5000004500311
 21
67.50000017354523
 31
0.0
100
AcDbAttributeDefinition
  3
Rev 6
  2
Rev6
 70
     0
 74
     2
  0
ATTDEF
  5
5EF
330
5CB
100
AcDbEntity
  8
3
100
AcDbText
 10
122.0000004500311
 20
66.50000017354523
 30
0.0
 40
2.0
  1

100
AcDbAttributeDefinition
  3
Change 6
  2
Change 6
 70
     0
  0
ATTDEF
  5
5F0
330
5CB
100
AcDbEntity
  8
3
100
AcDbText
 10
182.0000004500311
 20
66.50000017354523
 30
0.0
 40
2.0
  1

 41
0.8
 72
     1
 11
182.0000004500311
 21
67.50000017354523
 31
0.0
100
AcDbAttributeDefinition
  3
Date revision 6
  2
Date 6
 70
     0
 74
     2
  0
ATTDEF
  5
5F1
330
5CB
100
AcDbEntity
  8
3
100
AcDbText
 10
194.5000004500311
 20
66.50000017354523
 30
0.0
 40
2.0
  1

 72
     1
 11
194.5000004500311
 21
67.50000017354523
 31
0.0
100
AcDbAttributeDefinition
  3
Initials 6
  2
Initial6
 70
     0
 74
     2
  0
LINE
  5
5F2
330
5CB
100
AcDbEntity
  8
0
100
AcDbLine
 10
210.0000004500396
 20
0.0000001735452315
 30
0.0
 11
200.0000004500396
 21
0.0000001735452315
 31
0.0
  0
LINE
  5
5F3
330
5CB
100
AcDbEntity
  8
0
100
AcDbLine
 10
210.0000004500396
 20
297.0000001735452
 30
0.0
 11
200.0000004500396
 21
297.0000001735452
 31
0.0
  0
LWPOLYLINE
  5
5F4
330
5CB
100
AcDbEntity
  8
0
100
AcDbPolyline
 90
        4
 70
     1
 43
0.0
 10
20.00000045003117
 20
10.00000017354523
 10
200.0000004500312
 20
10.00000017354523
 10
200.0000004500312
 20
287.0000001735452
 10
20.00000045003117
 20
287.0000001735452
  0
MTEXT
  5
5F5
330
5CB
100
AcDbEntity
  8
3
100
AcDbMText
 10
16.00000045003116
 20
24.00000017354523
 30
0.0
 40
2.0
 41
209.12
 71
     1
 72
     5
  1
All rights reserved. Duplication or publication is not permitted, except with written permission of the owner.
 11
0.0000000000000001
 21
1.0
 31
0.0
 73
     1
 44
1.0
1001
ACAD
1000
MTEXTBEGIN
1070
    73
1070
     1
1070
    44
1040
1.0
1070
    74
1070
     0
1000
MTEXTEND
  0
LINE
  5
5F6
330
5CB
100
AcDbEntity
  8
0
100
AcDbLine
 10
113.0000004500312
 20
40.00000017354523
 30
0.0
 11
20.00000045003117
 21
40.00000017354523
 31
0.0
  0
LINE
  5
5F7
330
5CB
100
AcDbEntity
  8
0
100
AcDbLine
 10
113.0000004500312
 20
50.00000017354523
 30
0.0
 11
20.00000045003117
 21
50.00000017354523
 31
0.0
  0
LINE
  5
5F8
330
5CB
100
AcDbEntity
  8
0
100
AcDbLine
 10
113.0000004500312
 20
60.00000017354524
 30
0.0
 11
20.00000045003117
 21
60.00000017354524
 31
0.0
  0
LWPOLYLINE
  5
5F9
330
5CB
100
AcDbEntity
  8
0
100
AcDbPolyline
 90
        4
 70
     1
 43
0.0
 10
20.00000045003117
 20
70.00000017354523
 10
200.0000004500312
 20
70.00000017354523
 10
200.0000004500312
 20
10.00000017354523
 10
20.00000045003117
 20
10.00000017354523
  0
LINE
  5
5FA
330
5CB
100
AcDbEntity
  8
0
100
AcDbLine
 10
20.00000045003117
 20
10.00000017354523
 30
0.0
 11
200.0000004500312
 21
10.00000017354523
 31
0.0
  0
LINE
  5
5FB
330
5CB
100
AcDbEntity
  8
0
100
AcDbLine
 10
20.00000045003117
 20
24.00000017354523
 30
0.0
 11
200.0000004500312
 21
24.00000017354523
 31
0.0
  0
TEXT
  5
5FC
330
5CB
100
AcDbEntity
  8
3
100
AcDbText
 10
70.16998461155023
 20
18.26744110702452
 30
0.0
 40
3.0
  1
's-Gravenzande
 72
     1
 11
87.59855604012164
 21
19.76744110702452
 31
0.0
100
AcDbText
 73
     2
  0
LINE
  5
5FD
330
5CB
100
AcDbEntity
  8
0
100
AcDbLine
 10
0.0000004500311661
 20
0.0000001735452315
 30
0.0
 11
0.0000004500311661
 21
10.00000017354523
 31
0.0
  0
LINE
  5
5FE
330
5CB
100
AcDbEntity
  8
0
100
AcDbLine
 10
0.0000004500311661
 20
0.0000001735452315
 30
0.0
 11
10.00000045003116
 21
0.0000001735452315
 31
0.0
  0
TEXT
  5
5FF
330
5CB
100
AcDbEntity
  8
3
100
AcDbText
 10
22.00000045003116
 20
46.50000017354523
 30
0.0
 40
2.0
  1
Semifinished product:
100
AcDbText
  0
LWPOLYLINE
  5
600
330
5CB
100
AcDbEntity
  8
0
 62
     9
100
AcDbPolyline
 90
       14
 70
     0
 43
0.0
 10
40.79711163021215
 20
13.5674411070245
 10
42.39711163021206
 20
13.5674411070245
 10
42.96377829687878
 20
16.96744110702451
 42
-0.2287936615377291
 10
43.5768639787384
 20
17.36744110702452
 10
43.97757205192852
 20
17.36744110702452
 42
-0.46345457785235
 10
44.37212962146145
 20
16.90168151210236
 10
43.81642288728175
 20
13.5674411070245
 10
45.64125164637118
 20
13.5674411070245
 10
46.31456389587959
 20
17.60731460407498
 42
0.4425157218824108
 10
45.00175929562828
 20
18.96744110702451
 10
44.38897023872414
 20
18.96744110702451
 42
0.2148078971487724
 10
42.89711163021218
 20
18.36744110702452
 10
42.9971116302122
 20
18.96744110702451
 10
41.69711163021213
 20
18.96744110702451
  0
LINE
  5
601
330
5CB
100
AcDbEntity
  8
0
 62
     9
370
     0
100
AcDbLine
 10
45.64125164637116
 20
13.5674411070245
 30
0.0
 11
46.31456389587959
 21
17.60731460407493
 31
0.0
  0
ARC
  5
602
330
5CB
100
AcDbEntity
  8
0
 62
     9
370
     0
100
AcDbCircle
 10
45.04022518477484
 20
17.69094086146359
 30
0.0
 40
1.277079677054224
100
AcDbArc
 50
356.2454476813246
 51
91.72602111155631
  0
HATCH
  5
603
330
5CB
100
AcDbEntity
  8
0
 62
     9
100
AcDbHatch
 10
0.0
 20
0.0
 30
0.0
210
0.0
220
0.0
230
1.0
  2
SOLID
 70
     1
 71
     0
 91
       12
 92
        7
 72
     1
 73
     1
 93
       11
 10
28.79711163021216
 20
16.5674411070245
 42
0.3045868498596067
 10
30.46423183275101
 20
19.37016232225811
 42
0.0
 10
30.46423183275101
 20
19.56744110702451
 42
0.4142135623730958
 10
29.26423183275102
 20
20.7674411070245
 42
0.0
 10
25.19711163021213
 20
20.76744110702453
 42
0.0
 10
23.99711163021217
 20
13.5674411070245
 42
0.0
 10
25.99711163021221
 20
13.5674411070245
 42
0.0
 10
26.46377829687887
 20
16.36744110702452
 42
0.0
 10
26.86377829687876
 20
16.36744110702452
 42
0.0
 10
27.79711163021216
 20
13.5674411070245
 42
0.0
 10
29.79711163021216
 20
13.5674411070245
 42
0.0
 97
        0
 92
       22
 72
     1
 73
     1
 93
        6
 10
27.72216871051569
 20
17.96744110702451
 42
0.0
 10
26.73044496354555
 20
17.96744110702451
 42
0.0
 10
26.9637782968789
 20
19.36744110702452
 42
0.0
 10
27.75550204384899
 20
19.36744110702452
 42
-0.4634545778523126
 10
28.34733839814831
 20
18.66880171464137
 42
0.0
 10
28.31400506481498
 20
18.46880171464134
 42
-0.3666293647016125
 97
        0
 92
        7
 72
     1
 73
     1
 93
       11
 10
31.59711163021211
 20
15.76744110702452
 42
0.0
 10
34.96101954586888
 20
15.76744110702452
 42
0.3666293647014867
 10
35.15829833063524
 20
15.93456130956334
 42
0.0
 10
35.2137782968789
 20
16.26744110702454
 42
0.3833114294885806
 10
33.05544496354548
 20
18.96744110702451
 42
0.0
 10
32.59711163021211
 20
18.96744110702451
 42
0.962962962962962
 10
32.59711163021211
 20
13.5674411070245
 42
0.0
 10
32.99711163021223
 20
13.5674411070245
 42
0.2912609913578226
 10
34.99711163021217
 20
14.96744110702451
 42
0.0
 10
33.19711163021214
 20
14.96744110702451
 42
-0.7766337375662249
 10
31.59711163021211
 20
15.46456910017754
 42
0.0
 97
        0
 92
       22
 72
     1
 73
     1
 93
        2
 10
31.79711163021216
 20
16.76744110702452
 42
-0.8985251634212453
 10
33.59711163021211
 20
16.76744110702452
 42
0.0
 97
        0
 92
        7
 72
     0
 73
     1
 93
       13
 10
41.69711163021216
 20
18.96744110702451
 10
39.29711163021219
 20
18.96744110702451
 10
38.11106511858432
 20
17.71162715353614
 10
37.29711163021216
 20
18.96744110702451
 10
35.09711163021206
 20
18.96744110702451
 10
36.80641395579343
 20
16.33023180469894
 10
34.19711163021216
 20
13.5674411070245
 10
36.59711163021211
 20
13.5674411070245
 10
37.78315814183998
 20
14.8232550605129
 10
38.59711163021211
 20
13.5674411070245
 10
40.79711163021215
 20
13.5674411070245
 10
40.61827057184555
 20
13.84336731136156
 10
39.08780930463081
 20
16.20465040935012
 97
        0
 92
        7
 72
     1
 73
     1
 93
       16
 10
42.96377829687878
 20
16.96744110702453
 42
-0.2287936615377264
 10
43.5768639787384
 20
17.36744110702452
 42
0.0
 10
43.97757205192855
 20
17.36744110702452
 42
-0.4634545778523602
 10
44.37212962146145
 20
16.90168151210232
 42
0.0
 10
43.81642288728182
 20
13.5674411070245
 42
0.0
 10
45.64125164637113
 20
13.5674411070245
 42
0.0
 10
46.31456389587959
 20
17.60731460407486
 42
0.4425157218824506
 10
45.00175929562826
 20
18.96744110702451
 42
0.0
 10
44.38897023872411
 20
18.96744110702451
 42
0.2148078971487695
 10
42.89711163021218
 20
18.36744110702453
 42
0.0
 10
42.99711163021223
 20
18.96744110702451
 42
0.0
 10
41.69711163021216
 20
18.96744110702451
 42
0.0
 10
41.4241052798892
 20
18.67837555962372
 42
0.0
 10
40.61827057184555
 20
13.8433673113615
 42
0.0
 10
40.79711163021218
 20
13.5674411070245
 42
0.0
 10
42.39711163021206
 20
13.5674411070245
 42
0.0
 97
        0
 92
        7
 72
     1
 73
     1
 93
       12
 10
55.40445148883782
 20
17.36744110702449
 42
0.0
 10
55.80515956202782
 20
17.36744110702449
 42
-0.0898531725174386
 10
55.9454888670491
 20
17.34201778295647
 42
-0.0793424769878105
 10
56.58553812496134
 20
18.13769403454512
 42
0.0
 10
56.72382930370779
 20
18.96744110702451
 42
0.0
 10
56.11104024680369
 20
18.96744110702451
 42
0.2148078971487764
 10
54.61918163829159
 20
18.36744110702449
 42
0.0
 10
54.71918163829172
 20
18.96744110702451
 42
0.0
 10
53.09711163021214
 20
18.96744110702451
 42
0.0
 10
52.19711163021213
 20
13.5674411070245
 42
0.0
 10
54.22469914031151
 20
13.5674411070245
 42
0.0
 10
54.7913658069782
 20
16.96744110702453
 42
-0.2287936615377268
 97
        0
 92
        7
 72
     1
 73
     1
 93
        9
 10
62.19711163021216
 20
20.76744110702453
 42
0.0
 10
60.37228287112265
 20
20.76744110702453
 42
0.0
 10
59.93894953778931
 20
18.1674411070245
 42
0.2331806805711706
 10
58.55654016458519
 20
18.96744110702451
 42
0.2526349863601891
 10
55.94548886704879
 20
17.34201778295592
 42
0.5407746774694586
 10
57.82179391671587
 20
13.57628675069761
 42
0.1739556898927926
 10
59.4417082887993
 20
13.96744110702451
 42
0.0
 10
59.37504162213258
 20
13.5674411070245
 42
0.0
 10
60.99711163021217
 20
13.5674411070245
 42
0.0
 97
        0
 92
        5
 93
        2
 72
     3
 10
49.44711163021214
 20
16.26744110702452
 11
-2.761902986729996
 21
0.4603171644549941
 40
0.9775868352265018
 50
90.00000000000012
 51
270.0000000000033
 73
     1
 72
     3
 10
49.44711163021214
 20
16.26744110702452
 11
-2.95918177149643
 21
0.4931969619160654
 40
0.9124143795447333
 50
-89.99999999999992
 51
90.00000000000012
 73
     1
 97
        0
 92
       20
 93
        1
 72
     3
 10
49.44711163021214
 20
16.26744110702452
 11
0.2301585822274944
 21
1.380951493365002
 40
0.7142857142857153
 50
0.0
 51
360.0
 73
     1
 97
        0
 92
       20
 93
        1
 72
     3
 10
58.50015732739461
 20
16.22572662798402
 11
0.2137186834969643
 21
1.282312100981784
 40
0.8461538461538408
 50
0.0
 51
360.0
 73
     1
 97
        0
 92
      137
 93
        4
 72
     1
 10
69.2771274686931
 20
17.37458396416738
 11
105.9199846115502
 21
17.37458396416738
 72
     1
 10
105.9199846115502
 20
17.37458396416738
 11
105.9199846115502
 21
22.73172682131024
 72
     1
 10
105.9199846115502
 20
22.73172682131023
 11
69.2771274686931
 21
22.73172682131023
 72
     1
 10
69.2771274686931
 20
22.73172682131023
 11
69.2771274686931
 21
17.37458396416738
 97
        0
 75
     0
 76
     1
 47
0.0593645620508845
 98
       17
 10
28.20137253102302
 20
16.11622187493742
 10
28.20137253102302
 20
16.11622187493742
 10
30.83773960812187
 20
15.61748340493386
 10
30.83773960812187
 20
15.61748340493386
 10
37.32177752056669
 20
16.54371127404442
 10
41.6682198269716
 20
16.61495950722894
 10
47.79599222358501
 20
16.75745597359798
 10
47.79599222358501
 20
16.75745597359798
 10
47.79599222358501
 20
16.75745597359798
 10
47.79599222358501
 20
16.75745597359798
 10
47.79599222358501
 20
16.75745597359798
 10
53.66446713552136
 20
17.28555624502792
 10
57.20325474664355
 20
16.51887144135128
 10
60.83802229004345
 20
17.63443811207662
 10
51.01742934387335
 20
16.75549489008483
 10
49.16849043995012
 20
16.39179389986259
 10
58.32225349689679
 20
16.48271914741815
  0
LWPOLYLINE
  5
604
330
5CB
100
AcDbEntity
  8
0
 62
     9
100
AcDbPolyline
 90
       11
 70
     1
 43
0.0
 10
29.79711163021216
 20
13.5674411070245
 10
28.79711163021216
 20
16.5674411070245
 42
0.3045868498596019
 10
30.46423183275101
 20
19.37016232225807
 10
30.46423183275101
 20
19.56744110702446
 42
0.414213562373094
 10
29.26423183275108
 20
20.7674411070245
 10
25.19711163021213
 20
20.76744110702453
 10
23.9971116302122
 20
13.5674411070245
 10
25.99711163021221
 20
13.5674411070245
 10
26.4637782968789
 20
16.36744110702452
 10
26.86377829687876
 20
16.36744110702452
 10
27.79711163021216
 20
13.5674411070245
  0
LWPOLYLINE
  5
605
330
5CB
100
AcDbEntity
  8
0
 62
     9
100
AcDbPolyline
 90
        6
 70
     1
 43
0.0
 10
27.75550204384899
 20
19.36744110702452
 10
26.9637782968789
 20
19.36744110702452
 10
26.73044496354555
 20
17.96744110702451
 10
27.72216871051569
 20
17.96744110702451
 42
0.3666293647015968
 10
28.31400506481498
 20
18.4688017146413
 10
28.34733839814828
 20
18.66880171464129
 42
0.4634545778523493
  0
LWPOLYLINE
  5
606
330
5CB
100
AcDbEntity
  8
0
 62
     9
100
AcDbPolyline
 90
       12
 70
     1
 43
0.0
 10
41.69711163021213
 20
18.96744110702451
 10
39.29711163021216
 20
18.96744110702451
 10
38.11106511858429
 20
17.71162715353614
 10
37.29711163021216
 20
18.96744110702451
 10
35.09711163021211
 20
18.96744110702451
 10
36.80641395579346
 20
16.33023180469894
 10
34.19711163021214
 20
13.5674411070245
 10
36.59711163021211
 20
13.5674411070245
 10
37.78315814183998
 20
14.82325506051288
 10
38.59711163021211
 20
13.5674411070245
 10
40.79711163021215
 20
13.5674411070245
 10
39.08780930463081
 20
16.20465040935011
  0
LWPOLYLINE
  5
607
330
5CB
100
AcDbEntity
  8
0
 62
     9
100
AcDbPolyline
 90
       11
 70
     1
 43
0.0
 10
35.15829833063526
 20
15.93456130956343
 10
35.2137782968789
 20
16.26744110702452
 42
0.3833114294885822
 10
33.05544496354548
 20
18.96744110702451
 10
32.59711163021211
 20
18.96744110702451
 42
0.9629629629629603
 10
32.59711163021211
 20
13.5674411070245
 10
32.9971116302122
 20
13.5674411070245
 42
0.2912609913578292
 10
34.9971116302122
 20
14.96744110702451
 10
33.19711163021214
 20
14.96744110702451
 42
-0.7766337375662489
 10
31.59711163021211
 20
15.46456910017758
 10
31.59711163021211
 20
15.76744110702452
 10
34.96101954586891
 20
15.76744110702452
 42
0.3666293647015975
  0
LWPOLYLINE
  5
608
330
5CB
100
AcDbEntity
  8
0
 62
     9
100
AcDbPolyline
 90
        2
 70
     1
 43
0.0
 10
33.59711163021211
 20
16.76744110702452
 42
0.8985251634212449
 10
31.79711163021216
 20
16.76744110702452
  0
LINE
  5
609
330
5CB
100
AcDbEntity
  8
0
 62
     9
100
AcDbLine
 10
41.4241052798892
 20
18.67837555962376
 30
0.0
 11
40.61827057184555
 21
13.84336731136156
 31
0.0
  0
LINE
  5
60A
330
5CB
100
AcDbEntity
  8
0
 62
     9
370
     0
100
AcDbLine
 10
41.42410527988917
 20
18.67837555962374
 30
0.0
 11
40.61827057184558
 21
13.84336731136158
 31
0.0
  0
LINE
  5
60B
330
5CB
100
AcDbEntity
  8
0
 62
     9
370
     0
100
AcDbLine
 10
42.39711163021206
 20
13.5674411070245
 30
0.0
 11
42.96377829687878
 21
16.96744110702453
 31
0.0
  0
LINE
  5
60C
330
5CB
100
AcDbEntity
  8
0
 62
     9
370
     0
100
AcDbLine
 10
44.37212962146145
 20
16.90168151210232
 30
0.0
 11
43.81642288728179
 21
13.5674411070245
 31
0.0
  0
LINE
  5
60D
330
5CB
100
AcDbEntity
  8
0
 62
     9
370
     0
100
AcDbLine
 10
40.79711163021213
 20
13.5674411070245
 30
0.0
 11
42.39711163021206
 21
13.5674411070245
 31
0.0
  0
LINE
  5
60E
330
5CB
100
AcDbEntity
  8
0
 62
     9
100
AcDbLine
 10
40.61827057184555
 20
13.84336731136156
 30
0.0
 11
40.79711163021215
 21
13.5674411070245
 31
0.0
  0
LINE
  5
60F
330
5CB
100
AcDbEntity
  8
0
 62
     9
370
     0
100
AcDbLine
 10
43.81642288728179
 20
13.5674411070245
 30
0.0
 11
45.64125164637116
 21
13.5674411070245
 31
0.0
  0
LINE
  5
610
330
5CB
100
AcDbEntity
  8
0
 62
     9
370
     0
100
AcDbLine
 10
42.99711163021223
 20
18.96744110702451
 30
0.0
 11
41.69711163021213
 21
18.96744110702451
 31
0.0
  0
LINE
  5
611
330
5CB
100
AcDbEntity
  8
0
 62
     9
370
     0
100
AcDbLine
 10
41.69711163021213
 20
18.96744110702451
 30
0.0
 11
41.42410527988917
 21
18.67837555962374
 31
0.0
  0
LINE
  5
612
330
5CB
100
AcDbEntity
  8
0
 62
     9
370
     0
100
AcDbLine
 10
45.0017592956282
 20
18.96744110702451
 30
0.0
 11
44.38897023872416
 21
18.96744110702451
 31
0.0
  0
ARC
  5
613
330
5CB
100
AcDbEntity
  8
0
 62
     9
370
     0
100
AcDbCircle
 10
44.30911809921631
 20
17.0112861867531
 30
0.0
 40
1.957784062731646
100
AcDbArc
 50
87.66242858508997
 51
136.1558660942529
  0
LINE
  5
614
330
5CB
100
AcDbEntity
  8
0
 62
     9
370
     0
100
AcDbLine
 10
42.89711163021218
 20
18.36744110702454
 30
0.0
 11
42.99711163021223
 21
18.96744110702451
 31
0.0
  0
ARC
  5
615
330
5CB
100
AcDbEntity
  8
0
 62
     9
370
     0
100
AcDbCircle
 10
43.68451681703805
 20
16.53259750596525
 30
0.0
 40
0.8417558861235047
100
AcDbArc
 50
97.34772697964107
 51
148.8961341035837
  0
LINE
  5
616
330
5CB
100
AcDbEntity
  8
0
 62
     9
370
     0
100
AcDbLine
 10
43.5768639787384
 20
17.36744110702452
 30
0.0
 11
43.97757205192855
 21
17.36744110702452
 31
0.0
  0
ARC
  5
617
330
5CB
100
AcDbEntity
  8
0
 62
     9
370
     0
100
AcDbCircle
 10
43.97757205192855
 20
16.96744110702448
 30
0.0
 40
0.4000000000000422
100
AcDbArc
 50
350.5376777919737
 51
90.0
  0
TEXT
  5
618
330
5CB
100
AcDbEntity
  8
3
100
AcDbText
 10
22.00000045003116
 20
36.50000017354523
 30
0.0
 40
2.0
  1
Name:
100
AcDbText
  0
LWPOLYLINE
  5
619
330
5CB
100
AcDbEntity
  8
0
 62
     9
100
AcDbPolyline
 90
       12
 70
     0
 43
0.0
 10
56.58553812496132
 20
18.13769403454503
 10
56.72382930370782
 20
18.96744110702451
 10
56.11104024680367
 20
18.96744110702451
 42
0.2148078971487726
 10
54.61918163829159
 20
18.36744110702449
 10
54.71918163829172
 20
18.96744110702451
 10
53.09711163021211
 20
18.96744110702451
 10
52.19711163021213
 20
13.5674411070245
 10
54.22469914031148
 20
13.5674411070245
 10
54.7913658069782
 20
16.96744110702451
 42
-0.2287936615377289
 10
55.40445148883782
 20
17.36744110702449
 10
55.80515956202794
 20
17.36744110702449
 42
-0.0898531725173674
 10
55.9454888670491
 20
17.34201778295647
  0
ELLIPSE
  5
61A
330
5CB
100
AcDbEntity
  8
0
 62
     9
100
AcDbEllipse
 10
49.44711163021214
 20
16.26744110702452
 30
0.0
 11
-2.95918177149643
 21
0.4931969619160654
 31
0.0
210
0.0
220
0.0
230
1.0
 40
0.9124143795447333
 41
-1.570796326794895
 42
1.570796326794898
  0
ELLIPSE
  5
61B
330
5CB
100
AcDbEntity
  8
0
 62
     9
100
AcDbEllipse
 10
49.44711163021214
 20
16.26744110702452
 30
0.0
 11
-2.761902986729996
 21
0.4603171644549941
 31
0.0
210
0.0
220
0.0
230
1.0
 40
0.9775868352265018
 41
1.570796326794898
 42
4.712388980384746
  0
ELLIPSE
  5
61C
330
5CB
100
AcDbEntity
  8
0
 62
     9
100
AcDbEllipse
 10
49.44711163021214
 20
16.26744110702452
 30
0.0
 11
0.2301585822274944
 21
1.380951493365002
 31
0.0
210
0.0
220
0.0
230
1.0
 40
0.7142857142857153
 41
0.0000000000000057
 42
6.283185307179591
  0
ELLIPSE
  5
61D
330
5CB
100
AcDbEntity
  8
0
 62
     9
100
AcDbEllipse
 10
49.44711163021214
 20
16.26744110702452
 30
0.0
 11
-2.761902986729996
 21
0.4603171644549941
 31
0.0
210
0.0
220
0.0
230
1.0
 40
0.9775868352265018
 41
1.570796326794898
 42
4.712388980384746
  0
ELLIPSE
  5
61E
330
5CB
100
AcDbEntity
  8
0
 62
     9
100
AcDbEllipse
 10
49.44711163021214
 20
16.26744110702452
 30
0.0
 11
-2.95918177149643
 21
0.4931969619160654
 31
0.0
210
0.0
220
0.0
230
1.0
 40
0.9124143795447333
 41
-1.570796326794895
 42
1.570796326794898
  0
LWPOLYLINE
  5
61F
330
5CB
100
AcDbEntity
  8
0
 62
     9
100
AcDbPolyline
 90
        9
 70
     1
 43
0.0
 10
58.55654016458515
 20
18.96744110702451
 42
-0.2331806805711746
 10
59.93894953778931
 20
18.1674411070245
 10
60.3722828711227
 20
20.76744110702453
 10
62.19711163021213
 20
20.76744110702453
 10
60.9971116302122
 20
13.5674411070245
 10
59.37504162213258
 20
13.5674411070245
 10
59.4417082887993
 20
13.96744110702451
 42
-0.1739556898927748
 10
57.82179391671604
 20
13.57628675069759
 42
-0.5407746774695647
 10
55.9454888670491
 20
17.34201778295647
 42
-0.2526349863601347
  0
ELLIPSE
  5
620
330
5CB
100
AcDbEntity
  8
0
 62
     9
100
AcDbEllipse
 10
58.50015732739461
 20
16.22572662798402
 30
0.0
 11
0.2137186834969643
 21
1.282312100981784
 31
0.0
210
0.0
220
0.0
230
1.0
 40
0.8461538461538408
 41
0.0000000000000129
 42
6.283185307179599
  0
TEXT
  5
621
330
5CB
100
AcDbEntity
  8
3
100
AcDbText
 10
22.00000045003116
 20
66.50000017354523
 30
0.0
 40
2.0
  1
Material:
100
AcDbText
  0
TEXT
  5
622
330
5CB
100
AcDbEntity
  8
3
100
AcDbText
 10
22.00000045003116
 20
56.50000017354525
 30
0.0
 40
2.0
  1
Treatment:
100
AcDbText
  0
LINE
  5
623
330
5CB
100
AcDbEntity
  8
0
100
AcDbLine
 10
175.0000004500311
 20
70.00000017354523
 30
0.0
 11
175.0000004500311
 21
35.00000017354523
 31
0.0
  0
LINE
  5
624
330
5CB
100
AcDbEntity
  8
0
100
AcDbLine
 10
90.00000045003117
 20
40.00000017354523
 30
0.0
 11
90.00000045003117
 21
50.00000017354523
 31
0.0
  0
LINE
  5
625
330
5CB
100
AcDbEntity
  8
0
100
AcDbLine
 10
113.0000004500312
 20
35.00000017354529
 30
0.0
 11
113.0000004500312
 21
65.00000017354529
 31
0.0
  0
LINE
  5
626
330
5CB
100
AcDbEntity
  8
0
100
AcDbLine
 10
120.0000004500311
 20
35.00000017354523
 30
0.0
 11
120.0000004500311
 21
70.00000017354523
 31
0.0
  0
LINE
  5
627
330
5CB
100
AcDbEntity
  8
0
100
AcDbLine
 10
113.0000004500312
 20
35.00000017354529
 30
0.0
 11
113.0000004500312
 21
65.00000017354529
 31
0.0
  0
LINE
  5
628
330
5CB
100
AcDbEntity
  8
0
100
AcDbLine
 10
113.0000004500312
 20
35.00000017354523
 30
0.0
 11
113.0000004500312
 21
70.00000017354523
 31
0.0
  0
LINE
  5
629
330
5CB
100
AcDbEntity
  8
0
100
AcDbLine
 10
189.0000004500311
 20
70.00000017354523
 30
0.0
 11
189.0000004500311
 21
35.00000017354523
 31
0.0
  0
LINE
  5
62A
330
5CB
100
AcDbEntity
  8
0
100
AcDbLine
 10
113.0000004500312
 20
45.00000017354523
 30
0.0
 11
200.0000004500312
 21
45.00000017354523
 31
0.0
  0
LINE
  5
62B
330
5CB
100
AcDbEntity
  8
0
100
AcDbLine
 10
113.0000004500312
 20
35.00000017354523
 30
0.0
 11
200.0000004500312
 21
35.00000017354523
 31
0.0
  0
LINE
  5
62C
330
5CB
100
AcDbEntity
  8
0
100
AcDbLine
 10
113.0000004500312
 20
40.00000017354523
 30
0.0
 11
200.0000004500312
 21
40.00000017354523
 31
0.0
  0
LINE
  5
62D
330
5CB
100
AcDbEntity
  8
0
100
AcDbLine
 10
113.0000004500312
 20
50.00000017354523
 30
0.0
 11
200.0000004500312
 21
50.00000017354523
 31
0.0
  0
LINE
  5
62E
330
5CB
100
AcDbEntity
  8
0
100
AcDbLine
 10
113.0000004500312
 20
55.00000017354523
 30
0.0
 11
200.0000004500312
 21
55.00000017354523
 31
0.0
  0
LINE
  5
62F
330
5CB
100
AcDbEntity
  8
0
100
AcDbLine
 10
113.0000004500312
 20
35.00000017354535
 30
0.0
 11
200.0000004500312
 21
35.00000017354535
 31
0.0
  0
TEXT
  5
630
330
5CB
100
AcDbEntity
  8
3
100
AcDbText
 10
143.3095242595549
 20
36.83333350687862
 30
0.0
 40
2.0
  1
Change
 72
     4
 11
148.5000004500311
 21
37.50000017354529
 31
0.0
100
AcDbText
  0
LINE
  5
631
330
5CB
100
AcDbEntity
  8
0
100
AcDbLine
 10
113.0000004500312
 20
29.50000017354529
 30
0.0
 11
200.0000004500312
 21
29.50000017354529
 31
0.0
  0
TEXT
  5
632
330
5CB
100
AcDbEntity
  8
3
100
AcDbText
 10
79.95569889726451
 20
13.00000017354523
 30
0.0
 40
3.0
  1
Holland
 72
     1
 11
87.59855604012164
 21
14.50000017354523
 31
0.0
100
AcDbText
 73
     2
  0
LINE
  5
633
330
5CB
100
AcDbEntity
  8
0
100
AcDbLine
 10
113.0000004500312
 20
35.00000017354535
 30
0.0
 11
113.0000004500312
 21
24.00000017354523
 31
0.0
  0
TEXT
  5
634
330
5CB
100
AcDbEntity
  8
3
100
AcDbText
 10
115.9523814024121
 20
31.25000017354526
 30
0.0
 40
2.0
  1
Scale:
 72
     1
 11
120.0000004500311
 21
32.25000017354526
 31
0.0
100
AcDbText
 73
     2
  0
LINE
  5
635
330
5CB
100
AcDbEntity
  8
0
100
AcDbLine
 10
127.0000004500311
 20
35.00000017354523
 30
0.0
 11
127.0000004500311
 21
24.00000017354523
 31
0.0
  0
TEXT
  5
636
330
5CB
100
AcDbEntity
  8
3
100
AcDbText
 10
116.0000004500311
 20
20.00000017354517
 30
0.0
 40
2.0
  1
Drawing number
100
AcDbText
  0
LINE
  5
637
330
5CB
100
AcDbEntity
  8
0
100
AcDbLine
 10
113.0000004500312
 20
10.00000017354523
 30
0.0
 11
113.0000004500312
 21
24.00000017354523
 31
0.0
  0
TEXT
  5
638
330
5CB
100
AcDbEntity
  8
3
100
AcDbText
 10
116.0952385452692
 20
25.75000017354526
 30
0.0
 40
2.0
  1
Units:
 72
     1
 11
120.0000004500311
 21
26.75000017354526
 31
0.0
100
AcDbText
 73
     2
  0
TEXT
  5
639
330
5CB
100
AcDbEntity
  8
3
100
AcDbText
 10
113.7857147357454
 20
36.50000017354529
 30
0.0
 40
2.0
  1
Rev.
 72
     1
 11
116.5000004500311
 21
37.50000017354529
 31
0.0
100
AcDbText
 73
     2
  0
LINE
  5
63A
330
5CB
100
AcDbEntity
  8
0
100
AcDbLine
 10
182.5000004500311
 20
24.00000017354518
 30
0.0
 11
176.0000004500311
 21
24.00000017354518
 31
0.0
  0
LINE
  5
63B
330
5CB
100
AcDbEntity
  8
0
100
AcDbLine
 10
175.0000004500311
 20
35.00000017354535
 30
0.0
 11
175.0000004500311
 21
24.00000017354523
 31
0.0
  0
TEXT
  5
63C
330
5CB
100
AcDbEntity
  8
3
100
AcDbText
 10
163.9047623547931
 20
31.25000017354526
 30
0.0
 40
2.0
  1
Drawn
 72
     1
 11
168.0000004500311
 21
32.25000017354526
 31
0.0
100
AcDbText
 73
     2
  0
LINE
  5
63D
330
5CB
100
AcDbEntity
  8
0
100
AcDbLine
 10
161.0000004500311
 20
35.00000017354535
 30
0.0
 11
161.0000004500311
 21
24.00000017354523
 31
0.0
  0
LINE
  5
63E
330
5CB
100
AcDbEntity
  8
0
100
AcDbLine
 10
175.0000004500311
 20
10.00000017354523
 30
0.0
 11
175.0000004500311
 21
24.00000017354518
 31
0.0
  0
TEXT
  5
63F
330
5CB
100
AcDbEntity
  8
3
100
AcDbText
 10
162.1428575928883
 20
25.75000017354526
 30
0.0
 40
2.0
  1
Checked
 72
     1
 11
168.0000004500311
 21
26.75000017354526
 31
0.0
100
AcDbText
 73
     2
  0
LINE
  5
640
330
5CB
100
AcDbEntity
  8
0
100
AcDbLine
 10
189.000000450031
 20
35.00000017354535
 30
0.0
 11
189.000000450031
 21
24.00000017354523
 31
0.0
  0
TEXT
  5
641
330
5CB
100
AcDbEntity
  8
3
100
AcDbText
 10
184.7857147357454
 20
20.00000017354523
 30
0.0
 40
2.0
  1
Size
 72
     1
 11
187.5000004500311
 21
20.00000017354523
 31
0.0
100
AcDbText
  0
TEXT
  5
642
330
5CB
100
AcDbEntity
  8
3
100
AcDbText
 10
183.0952385452692
 20
12.4989256031196
 30
0.0
 40
5.0
  1
A4
 72
     1
 11
187.5000004500311
 21
14.9989256031196
 31
0.0
100
AcDbText
 73
     2
  0
TEXT
  5
643
330
5CB
100
AcDbEntity
  8
3
100
AcDbText
 10
189.9761909262216
 20
36.50000017354523
 30
0.0
 40
2.0
  1
Initials
 72
     1
 11
194.5000004500311
 21
37.50000017354523
 31
0.0
100
AcDbText
 73
     2
  0
TEXT
  5
644
330
5CB
100
AcDbEntity
  8
3
100
AcDbText
 10
178.857143307174
 20
36.50000017354523
 30
0.0
 40
2.0
  1
Date
 72
     1
 11
182.0000004500311
 21
37.50000017354523
 31
0.0
100
AcDbText
 73
     2
  0
LINE
  5
645
330
5CB
100
AcDbEntity
  8
0
100
AcDbLine
 10
113.0000004500312
 20
65.00000017354523
 30
0.0
 11
200.0000004500312
 21
65.00000017354523
 31
0.0
  0
LINE
  5
646
330
5CB
100
AcDbEntity
  8
0
100
AcDbLine
 10
113.0000004500312
 20
60.00000017354523
 30
0.0
 11
200.0000004500312
 21
60.00000017354523
 31
0.0
  0
LINE
  5
647
330
5CB
100
AcDbEntity
  8
0
100
AcDbLine
 10
0.0000004500311661
 20
297.0000001735452
 30
0.0
 11
0.0000004500311661
 21
287.0000001735452
 31
0.0
  0
LINE
  5
648
330
5CB
100
AcDbEntity
  8
0
100
AcDbLine
 10
0.0000004500311661
 20
297.0000001735452
 30
0.0
 11
10.00000045003116
 21
297.0000001735452
 31
0.0
  0
LINE
  5
649
330
5CB
100
AcDbEntity
  8
0
100
AcDbLine
 10
210.0000004500396
 20
0.0000001735452315
 30
0.0
 11
210.0000004500396
 21
10.00000017354523
 31
0.0
  0
LINE
  5
64A
330
5CB
100
AcDbEntity
  8
0
100
AcDbLine
 10
210.0000004500396
 20
297.0000001735452
 30
0.0
 11
210.0000004500396
 21
287.0000001735452
 31
0.0
  0
INSERT
  5
64B
330
5CB
100
AcDbEntity
  8
0
100
AcDbBlockReference
  2
A$C1D384272
 10
90.00000045003117
 20
40.00000017354523
 30
0.0
  0
ENDBLK
  5
64C
330
5CB
100
AcDbEntity
  8
0
100
AcDbBlockEnd
  0
BLOCK
  5
7FA
330
7F0
100
AcDbEntity
  8
0
100
AcDbBlockBegin
  2
*D7
 70
     1
 10
0.0
 20
0.0
 30
0.0
  3
*D7
  1

  0
LINE
  5
832
330
7F0
100
AcDbEntity
  8
0
 62
     2
370
    -2
100
AcDbLine
 10
356.8126112213614
 20
259.9579464993922
 30
0.0
 11
356.8126112213614
 21
247.9793232951123
 31
0.0
  0
LINE
  5
833
330
7F0
100
AcDbEntity
  8
0
 62
     2
370
    -2
100
AcDbLine
 10
398.8126112213614
 20
259.9579464993924
 30
0.0
 11
398.8126112213614
 21
247.9793232951123
 31
0.0
  0
LINE
  5
834
330
7F0
100
AcDbEntity
  8
0
 62
     2
370
    -2
100
AcDbLine
 10
360.8126112213614
 20
250.4793232951123
 30
0.0
 11
394.8126112213614
 21
250.4793232951123
 31
0.0
  0
SOLID
  5
835
330
7F0
100
AcDbEntity
  8
0
 62
     2
100
AcDbTrace
 10
360.8126112213614
 20
251.1459899617789
 30
0.0
 11
360.8126112213614
 21
249.8126566284456
 31
0.0
 12
356.8126112213614
 22
250.4793232951123
 32
0.0
 13
356.8126112213614
 23
250.4793232951123
 33
0.0
  0
SOLID
  5
836
330
7F0
100
AcDbEntity
  8
0
 62
     2
100
AcDbTrace
 10
394.8126112213614
 20
251.1459899617789
 30
0.0
 11
394.8126112213614
 21
249.8126566284456
 31
0.0
 12
398.8126112213614
 22
250.4793232951123
 32
0.0
 13
398.8126112213614
 23
250.4793232951123
 33
0.0
  0
MTEXT
  5
837
330
7F0
100
AcDbEntity
  8
0
 62
     3
100
AcDbMText
 10
377.8126112213614
 20
252.9793232951123
 30
0.0
 40
3.0
 41
0.0
 71
     5
 72
     1
  1
\A1;42
 73
     1
 44
1.0
1001
ACAD
1000
MTEXTBEGIN
1070
    73
1070
     1
1070
    44
1040
1.0
1070
    74
1070
     0
1000
MTEXTEND
  0
POINT
  5
838
330
7F0
100
AcDbEntity
  8
DEFPOINTS
 62
     0
100
AcDbPoint
 10
356.8126112213614
 20
262.4579464993922
 30
0.0
  0
POINT
  5
839
330
7F0
100
AcDbEntity
  8
DEFPOINTS
 62
     0
100
AcDbPoint
 10
398.8126112213614
 20
262.4579464993924
 30
0.0
  0
POINT
  5
83A
330
7F0
100
AcDbEntity
  8
DEFPOINTS
 62
     0
100
AcDbPoint
 10
398.8126112213614
 20
250.4793232951123
 30
0.0
  0
ENDBLK
  5
7FB
330
7F0
100
AcDbEntity
  8
0
100
AcDbBlockEnd
  0
BLOCK
  5
809
330
7FD
100
AcDbEntity
  8
0
100
AcDbBlockBegin
  2
*D8
 70
     1
 10
0.0
 20
0.0
 30
0.0
  3
*D8
  1

  0
LINE
  5
83B
330
7FD
100
AcDbEntity
  8
0
 62
     2
370
    -2
100
AcDbLine
 10
448.5272104992272
 20
280.5579464993924
 30
0.0
 11
475.1833500466286
 21
280.5579464993924
 31
0.0
  0
LINE
  5
83C
330
7FD
100
AcDbEntity
  8
0
 62
     2
370
    -2
100
AcDbLine
 10
448.5272104992272
 20
274.3579464993922
 30
0.0
 11
475.1833500466286
 21
274.3579464993922
 31
0.0
  0
LINE
  5
83D
330
7FD
100
AcDbEntity
  8
0
 62
     2
370
    -2
100
AcDbLine
 10
472.6833500466287
 20
284.5579464993924
 30
0.0
 11
472.6833500466287
 21
288.5579464993924
 31
0.0
  0
LINE
  5
83E
330
7FD
100
AcDbEntity
  8
0
 62
     2
370
    -2
100
AcDbLine
 10
472.6833500466287
 20
270.3579464993922
 30
0.0
 11
472.6833500466287
 21
258.072232213678
 31
0.0
  0
LINE
  5
83F
330
7FD
100
AcDbEntity
  8
0
 62
     2
370
    -2
100
AcDbLine
 10
472.6833500466287
 20
280.5579464993924
 30
0.0
 11
472.6833500466287
 21
274.3579464993922
 31
0.0
  0
SOLID
  5
840
330
7FD
100
AcDbEntity
  8
0
 62
     2
100
AcDbTrace
 10
472.016683379962
 20
284.5579464993924
 30
0.0
 11
473.3500167132953
 21
284.5579464993924
 31
0.0
 12
472.6833500466287
 22
280.5579464993924
 32
0.0
 13
472.6833500466287
 23
280.5579464993924
 33
0.0
  0
SOLID
  5
841
330
7FD
100
AcDbEntity
  8
0
 62
     2
100
AcDbTrace
 10
472.016683379962
 20
270.3579464993922
 30
0.0
 11
473.3500167132953
 21
270.3579464993922
 31
0.0
 12
472.6833500466287
 22
274.3579464993922
 32
0.0
 13
472.6833500466287
 23
274.3579464993922
 33
0.0
  0
MTEXT
  5
842
330
7FD
100
AcDbEntity
  8
0
 62
     3
100
AcDbMText
 10
470.1833500466285
 20
262.2150893565351
 30
0.0
 40
3.0
 41
0.0
 71
     5
 72
     1
  1
\A1;6.2
 11
0.0000000000000001
 21
1.0
 31
0.0
 73
     1
 44
1.0
1001
ACAD
1000
MTEXTBEGIN
1070
    73
1070
     1
1070
    44
1040
1.0
1070
    74
1070
     0
1000
MTEXTEND
  0
POINT
  5
843
330
7FD
100
AcDbEntity
  8
DEFPOINTS
 62
     0
100
AcDbPoint
 10
446.0272104992273
 20
280.5579464993924
 30
0.0
  0
POINT
  5
844
330
7FD
100
AcDbEntity
  8
DEFPOINTS
 62
     0
100
AcDbPoint
 10
446.0272104992273
 20
274.3579464993922
 30
0.0
  0
POINT
  5
845
330
7FD
100
AcDbEntity
  8
DEFPOINTS
 62
     0
100
AcDbPoint
 10
472.6833500466287
 20
274.3579464993922
 30
0.0
  0
ENDBLK
  5
80A
330
7FD
100
AcDbEntity
  8
0
100
AcDbBlockEnd
  0
BLOCK
  5
816
330
80C
100
AcDbEntity
  8
0
100
AcDbBlockBegin
  2
*D9
 70
     1
 10
0.0
 20
0.0
 30
0.0
  3
*D9
  1

  0
LINE
  5
846
330
80C
100
AcDbEntity
  8
0
 62
     2
370
    -2
100
AcDbLine
 10
375.3126112213613
 20
270.9579464993923
 30
0.0
 11
346.476507717452
 21
270.9579464993923
 31
0.0
  0
LINE
  5
847
330
80C
100
AcDbEntity
  8
0
 62
     2
370
    -2
100
AcDbLine
 10
375.3126112213613
 20
283.9579464993924
 30
0.0
 11
346.476507717452
 21
283.9579464993924
 31
0.0
  0
LINE
  5
848
330
80C
100
AcDbEntity
  8
0
 62
     2
370
    -2
100
AcDbLine
 10
348.976507717452
 20
274.9579464993923
 30
0.0
 11
348.976507717452
 21
279.9579464993924
 31
0.0
  0
SOLID
  5
849
330
80C
100
AcDbEntity
  8
0
 62
     2
100
AcDbTrace
 10
348.3098410507853
 20
274.9579464993923
 30
0.0
 11
349.6431743841187
 21
274.9579464993923
 31
0.0
 12
348.976507717452
 22
270.9579464993923
 32
0.0
 13
348.976507717452
 23
270.9579464993923
 33
0.0
  0
SOLID
  5
84A
330
80C
100
AcDbEntity
  8
0
 62
     2
100
AcDbTrace
 10
348.3098410507853
 20
279.9579464993924
 30
0.0
 11
349.6431743841187
 21
279.9579464993924
 31
0.0
 12
348.976507717452
 22
283.9579464993924
 32
0.0
 13
348.976507717452
 23
283.9579464993924
 33
0.0
  0
MTEXT
  5
84B
330
80C
100
AcDbEntity
  8
0
 62
     3
100
AcDbMText
 10
346.4765077174519
 20
277.4579464993924
 30
0.0
 40
3.0
 41
0.0
 71
     5
 72
     1
  1
\A1;13
 11
0.0000000000000001
 21
1.0
 31
0.0
 73
     1
 44
1.0
1001
ACAD
1000
MTEXTBEGIN
1070
    73
1070
     1
1070
    44
1040
1.0
1070
    74
1070
     0
1000
MTEXTEND
  0
POINT
  5
84C
330
80C
100
AcDbEntity
  8
DEFPOINTS
 62
     0
100
AcDbPoint
 10
377.8126112213613
 20
270.9579464993923
 30
0.0
  0
POINT
  5
84D
330
80C
100
AcDbEntity
  8
DEFPOINTS
 62
     0
100
AcDbPoint
 10
377.8126112213613
 20
283.9579464993924
 30
0.0
  0
POINT
  5
84E
330
80C
100
AcDbEntity
  8
DEFPOINTS
 62
     0
100
AcDbPoint
 10
348.976507717452
 20
283.9579464993924
 30
0.0
  0
ENDBLK
  5
817
330
80C
100
AcDbEntity
  8
0
100
AcDbBlockEnd
  0
BLOCK
  5
823
330
819
100
AcDbEntity
  8
0
100
AcDbBlockBegin
  2
*D10
 70
     1
 10
0.0
 20
0.0
 30
0.0
  3
*D10
  1

  0
LINE
  5
84F
330
819
100
AcDbEntity
  8
0
 62
     2
370
    -2
100
AcDbLine
 10
401.3126112213613
 20
292.4579464993923
 30
0.0
 11
411.7239750283849
 21
292.4579464993923
 31
0.0
  0
LINE
  5
850
330
819
100
AcDbEntity
  8
0
 62
     2
370
    -2
100
AcDbLine
 10
401.3126112213613
 20
262.4579464993924
 30
0.0
 11
411.7239750283849
 21
262.4579464993924
 31
0.0
  0
LINE
  5
851
330
819
100
AcDbEntity
  8
0
 62
     2
370
    -2
100
AcDbLine
 10
409.223975028385
 20
288.4579464993923
 30
0.0
 11
409.223975028385
 21
266.4579464993924
 31
0.0
  0
SOLID
  5
852
330
819
100
AcDbEntity
  8
0
 62
     2
100
AcDbTrace
 10
408.5573083617182
 20
288.4579464993923
 30
0.0
 11
409.8906416950517
 21
288.4579464993923
 31
0.0
 12
409.223975028385
 22
292.4579464993923
 32
0.0
 13
409.223975028385
 23
292.4579464993923
 33
0.0
  0
SOLID
  5
853
330
819
100
AcDbEntity
  8
0
 62
     2
100
AcDbTrace
 10
408.5573083617182
 20
266.4579464993924
 30
0.0
 11
409.8906416950517
 21
266.4579464993924
 31
0.0
 12
409.223975028385
 22
262.4579464993924
 32
0.0
 13
409.223975028385
 23
262.4579464993924
 33
0.0
  0
MTEXT
  5
854
330
819
100
AcDbEntity
  8
0
 62
     3
100
AcDbMText
 10
406.7239750283849
 20
277.4579464993924
 30
0.0
 40
3.0
 41
0.0
 71
     5
 72
     1
  1
\A1;30
 11
0.0000000000000001
 21
1.0
 31
0.0
 73
     1
 44
1.0
1001
ACAD
1000
MTEXTBEGIN
1070
    73
1070
     1
1070
    44
1040
1.0
1070
    74
1070
     0
1000
MTEXTEND
  0
POINT
  5
855
330
819
100
AcDbEntity
  8
DEFPOINTS
 62
     0
100
AcDbPoint
 10
398.8126112213614
 20
292.4579464993923
 30
0.0
  0
POINT
  5
856
330
819
100
AcDbEntity
  8
DEFPOINTS
 62
     0
100
AcDbPoint
 10
398.8126112213614
 20
262.4579464993924
 30
0.0
  0
POINT
  5
857
330
819
100
AcDbEntity
  8
DEFPOINTS
 62
     0
100
AcDbPoint
 10
409.223975028385
 20
262.4579464993924
 30
0.0
  0
ENDBLK
  5
824
330
819
100
AcDbEntity
  8
0
100
AcDbBlockEnd
  0
BLOCK
  5
830
330
826
100
AcDbEntity
  8
0
100
AcDbBlockBegin
  2
*D11
 70
     1
 10
0.0
 20
0.0
 30
0.0
  3
*D11
  1

  0
LINE
  5
858
330
826
100
AcDbEntity
  8
0
 62
     2
370
    -2
100
AcDbLine
 10
434.1201542692253
 20
294.9579464993923
 30
0.0
 11
434.1201542692253
 21
300.6733267653006
 31
0.0
  0
LINE
  5
859
330
826
100
AcDbEntity
  8
0
 62
     2
370
    -2
100
AcDbLine
 10
464.4201542692253
 20
288.4579464993923
 30
0.0
 11
464.4201542692253
 21
300.6733267653006
 31
0.0
  0
LINE
  5
85A
330
826
100
AcDbEntity
  8
0
 62
     2
370
    -2
100
AcDbLine
 10
438.1201542692253
 20
298.1733267653007
 30
0.0
 11
460.4201542692253
 21
298.1733267653007
 31
0.0
  0
SOLID
  5
85B
330
826
100
AcDbEntity
  8
0
 62
     2
100
AcDbTrace
 10
438.1201542692253
 20
298.8399934319673
 30
0.0
 11
438.1201542692253
 21
297.506660098634
 31
0.0
 12
434.1201542692253
 22
298.1733267653007
 32
0.0
 13
434.1201542692253
 23
298.1733267653007
 33
0.0
  0
SOLID
  5
85C
330
826
100
AcDbEntity
  8
0
 62
     2
100
AcDbTrace
 10
460.4201542692253
 20
298.8399934319673
 30
0.0
 11
460.4201542692253
 21
297.506660098634
 31
0.0
 12
464.4201542692253
 22
298.1733267653007
 32
0.0
 13
464.4201542692253
 23
298.1733267653007
 33
0.0
  0
MTEXT
  5
85D
330
826
100
AcDbEntity
  8
0
 62
     3
100
AcDbMText
 10
449.2701542692254
 20
300.6733267653006
 30
0.0
 40
3.0
 41
0.0
 71
     5
 72
     1
  1
\A1;30.3
 73
     1
 44
1.0
1001
ACAD
1000
MTEXTBEGIN
1070
    73
1070
     1
1070
    44
1040
1.0
1070
    74
1070
     0
1000
MTEXTEND
  0
POINT
  5
85E
330
826
100
AcDbEntity
  8
DEFPOINTS
 62
     0
100
AcDbPoint
 10
434.1201542692253
 20
292.4579464993923
 30
0.0
  0
POINT
  5
85F
330
826
100
AcDbEntity
  8
DEFPOINTS
 62
     0
100
AcDbPoint
 10
464.4201542692253
 20
285.9579464993923
 30
0.0
  0
POINT
  5
860
330
826
100
AcDbEntity
  8
DEFPOINTS
 62
     0
100
AcDbPoint
 10
464.4201542692253
 20
298.1733267653007
 30
0.0
  0
ENDBLK
  5
831
330
826
100
AcDbEntity
  8
0
100
AcDbBlockEnd
  0
ENDSEC
  0
SECTION
  2
ENTITIES
  0
INSERT
  5
6
330
25
100
AcDbEntity
  8
AME_FRZ
100
AcDbBlockReference
  2
AME_NIL
 10
0.0
 20
0.0
 30
0.0
  0
INSERT
  5
D
330
25
100
AcDbEntity
  8
AME_FRZ
100
AcDbBlockReference
  2
AME_SOL
 10
0.0
 20
0.0
 30
0.0
1001
AME_SOL
1000
R2.1
1000
AME2
1000
sq mm
1070
     3
1070
     0
1070
     3
1000
wire
1040
45.0
1000
U
1040
2.5
1000
mm
1000
gm
1000
MILD_STEEL
1070
    25
1000
CSG
1070
     1
1070
     3
1070
     3
1070
     3
1070
     0
1000
cu cm
1070
     6
1070
     0
1005
6
  0
LINE
  5
71D
330
25
100
AcDbEntity
  8
0
100
AcDbLine
 10
435.0701542692253
 20
292.4579464993923
 30
0.0
 11
438.7874683670455
 21
278.9579464993924
 31
0.0
  0
ARC
  5
71E
330
25
100
AcDbEntity
  8
0
100
AcDbCircle
 10
438.5990864573598
 20
289.9579464993923
 30
0.0
 40
2.5
100
AcDbArc
 50
45.0
 51
90.0
  0
LINE
  5
71F
330
25
100
AcDbEntity
  8
0
100
AcDbLine
 10
440.3668534103263
 20
291.7257134523587
 30
0.0
 11
442.402387316259
 21
289.6901795464259
 31
0.0
  0
LINE
  5
720
330
25
100
AcDbEntity
  8
0
100
AcDbLine
 10
460.5518069720727
 20
278.7079464993922
 30
0.0
 11
459.5538177632148
 21
278.7079464993922
 31
0.0
  0
LINE
  5
721
330
25
100
AcDbEntity
  8
0
100
AcDbLine
 10
458.6342558843632
 20
276.7079464993924
 30
0.0
 11
450.2060526540875
 21
276.7079464993924
 31
0.0
  0
LINE
  5
722
330
25
100
AcDbEntity
  8
VERBORGEN
100
AcDbLine
 10
448.9201542692254
 20
282.4579464993923
 30
0.0
 11
448.9201542692254
 21
288.9579464993923
 31
0.0
  0
LINE
  5
723
330
25
100
AcDbEntity
  8
VERBORGEN
100
AcDbLine
 10
451.1701542692253
 20
276.7079464993924
 30
0.0
 11
451.1701542692254
 21
282.4579464993923
 31
0.0
  0
LINE
  5
724
330
25
100
AcDbEntity
  8
VERBORGEN
100
AcDbLine
 10
459.9201542692254
 20
282.4579464993923
 30
0.0
 11
448.9201542692254
 21
282.4579464993923
 31
0.0
  0
LINE
  5
725
330
25
100
AcDbEntity
  8
VERBORGEN
100
AcDbLine
 10
459.9201542692254
 20
282.4579464993923
 30
0.0
 11
459.9201542692254
 21
288.9579464993923
 31
0.0
  0
LINE
  5
726
330
25
100
AcDbEntity
  8
VERBORGEN
100
AcDbLine
 10
457.6701542692254
 20
276.7079464993924
 30
0.0
 11
457.6701542692254
 21
282.4579464993923
 31
0.0
  0
ARC
  5
727
330
25
100
AcDbEntity
  8
0
100
AcDbCircle
 10
449.2864907752358
 20
278.2079464993922
 30
0.0
 40
0.5
100
AcDbArc
 50
14.99999999999917
 51
90.0
  0
ARC
  5
728
330
25
100
AcDbEntity
  8
0
100
AcDbCircle
 10
459.5538177632148
 20
278.2079464993922
 30
0.0
 40
0.5
100
AcDbArc
 50
90.0
 51
165.0000000000008
  0
ARC
  5
729
330
25
100
AcDbEntity
  8
0
100
AcDbCircle
 10
461.4201542692254
 20
285.9579464993923
 30
0.0
 40
3.0
100
AcDbArc
 50
0.0
 51
90.0
  0
ARC
  5
72A
330
25
100
AcDbEntity
  8
0
100
AcDbCircle
 10
446.0272104992273
 20
277.4579464993923
 30
0.0
 40
3.1
100
AcDbArc
 50
23.77999473140694
 51
151.0614722598203
  0
LINE
  5
72B
330
25
100
AcDbEntity
  8
0
100
AcDbLine
 10
443.3142785059771
 20
278.9579464993924
 30
0.0
 11
438.7874683670455
 21
278.9579464993924
 31
0.0
  0
ARC
  5
72C
330
25
100
AcDbEntity
  8
0
100
AcDbCircle
 10
444.1701542692253
 20
291.4579464993924
 30
0.0
 40
2.5
100
AcDbArc
 50
225.0
 51
270.0
  0
LINE
  5
72D
330
25
100
AcDbEntity
  8
0
100
AcDbLine
 10
461.4201542692254
 20
288.9579464993923
 30
0.0
 11
444.1701542692253
 21
288.9579464993923
 31
0.0
  0
LINE
  5
72E
330
25
100
AcDbEntity
  8
0
100
AcDbLine
 10
464.4201542692254
 20
278.8407685643778
 30
0.0
 11
464.4201542692254
 21
285.9579464993923
 31
0.0
  0
LINE
  5
72F
330
25
100
AcDbEntity
  8
0
100
AcDbLine
 10
448.8640220897281
 20
278.7079464993922
 30
0.0
 11
463.9221558465128
 21
278.7079464993922
 31
0.0
  0
LINE
  5
730
330
25
100
AcDbEntity
  8
HARTLIJN
100
AcDbLine
 10
454.4201542692253
 20
273.6480581068814
 30
0.0
 11
454.4201542692253
 21
290.7088673913818
 31
0.0
  0
LINE
  5
731
330
25
100
AcDbEntity
  8
0
100
AcDbLine
 10
438.5990864573598
 20
292.4579464993923
 30
0.0
 11
435.0701542692253
 21
292.4579464993923
 31
0.0
  0
LINE
  5
732
330
25
100
AcDbEntity
  8
0
100
AcDbLine
 10
459.0708548500703
 20
278.3373560219435
 30
0.0
 11
458.6342558843632
 21
276.7079464993924
 31
0.0
  0
LINE
  5
733
330
25
100
AcDbEntity
  8
0
100
AcDbLine
 10
450.2060526540875
 20
276.7079464993924
 30
0.0
 11
449.7694536883804
 21
278.3373560219434
 31
0.0
  0
LINE
  5
734
330
25
100
AcDbEntity
  8
HARTLIJN
100
AcDbLine
 10
446.0272104992273
 20
281.0855542411894
 30
0.0
 11
446.0272104992273
 21
273.6480581068814
 31
0.0
  0
LINE
  5
735
330
25
100
AcDbEntity
  8
VERBORGEN
100
AcDbLine
 10
464.4201542692254
 20
283.9579464993923
 30
0.0
 11
437.5483636677721
 21
283.9579464993923
 31
0.0
  0
LINE
  5
736
330
25
100
AcDbEntity
  8
2
100
AcDbLine
 10
461.4201542692253
 20
285.9579464993923
 30
0.0
 11
461.4201542692253
 21
278.7079464993922
 31
0.0
  0
LINE
  5
737
330
25
100
AcDbEntity
  8
2
100
AcDbLine
 10
461.4201542692253
 20
285.9579464993923
 30
0.0
 11
447.1701542692253
 21
285.9579464993923
 31
0.0
  0
ARC
  5
738
330
25
100
AcDbEntity
  8
2
100
AcDbCircle
 10
447.1701542692253
 20
290.9579464993923
 30
0.0
 40
5.0
100
AcDbArc
 50
225.0
 51
270.0
  0
LINE
  5
739
330
25
100
AcDbEntity
  8
2
100
AcDbLine
 10
438.9205845594643
 20
292.4579464993923
 30
0.0
 11
443.6346203632925
 21
287.4224125934595
 31
0.0
  0
POINT
  5
73A
330
25
100
AcDbEntity
  8
DEFPOINTS
  6
ByBlock
 62
     0
100
AcDbPoint
 10
443.8284241018299
 20
279.6432012622565
 30
0.0
  0
POINT
  5
73B
330
25
100
AcDbEntity
  8
DEFPOINTS
  6
ByBlock
 62
     0
100
AcDbPoint
 10
446.0272104992273
 20
277.4579464993923
 30
0.0
  0
ARC
  5
73C
330
25
100
AcDbEntity
  8
0
100
AcDbCircle
 10
464.8201542692254
 20
280.0899023812908
 30
0.0
 40
0.4
100
AcDbArc
 50
180.0
 51
312.3872413294872
  0
ARC
  5
73D
330
25
100
AcDbEntity
  8
0
100
AcDbCircle
 10
463.9221558465128
 20
279.7079464993922
 30
0.0
 40
1.0
100
AcDbArc
 50
270.0
 51
309.3458297662119
  0
LINE
  5
73E
330
25
100
AcDbEntity
  8
0
100
AcDbLine
 10
435.0701542692253
 20
292.4579464993923
 30
0.0
 11
434.1201542692253
 21
292.4579464993923
 31
0.0
1001
ACAD
1000
ASC_BOUNDS
1002
{
1070
    19
1002
}
  0
LINE
  5
73F
330
25
100
AcDbEntity
  8
0
100
AcDbLine
 10
438.2367551673683
 20
280.9579464993923
 30
0.0
 11
434.1201542692253
 21
292.4579464993923
 31
0.0
1001
ACAD
1000
ASC_BOUNDS
1002
{
1070
    19
1002
}
  0
INSERT
  5
740
330
25
100
AcDbEntity
  8
0
100
AcDbBlockReference
  2
*X3
 10
621.0270129433418
 20
183.8416855871806
 30
0.0
 41
-1.0
1001
ACAD
1000
HATCH
1002
{
1070
    19
1000
ANSI31
1040
5.0
1040
0.0
1002
}
  0
LINE
  5
741
330
25
100
AcDbEntity
  8
0
100
AcDbLine
 10
435.0701542692253
 20
262.4579464993924
 30
0.0
 11
438.7874683670454
 21
275.9579464993923
 31
0.0
  0
LINE
  5
742
330
25
100
AcDbEntity
  8
0
100
AcDbLine
 10
461.4201542692253
 20
265.9579464993923
 30
0.0
 11
444.1701542692253
 21
265.9579464993923
 31
0.0
  0
LINE
  5
743
330
25
100
AcDbEntity
  8
0
100
AcDbLine
 10
438.5990864573598
 20
262.4579464993924
 30
0.0
 11
435.0701542692253
 21
262.4579464993924
 31
0.0
  0
ARC
  5
744
330
25
100
AcDbEntity
  8
0
100
AcDbCircle
 10
444.1701542692253
 20
263.4579464993923
 30
0.0
 40
2.5
100
AcDbArc
 50
90.0
 51
135.0
  0
LINE
  5
745
330
25
100
AcDbEntity
  8
0
100
AcDbLine
 10
440.3668534103263
 20
263.1901795464259
 30
0.0
 11
442.402387316259
 21
265.2257134523587
 31
0.0
  0
ARC
  5
746
330
25
100
AcDbEntity
  8
0
100
AcDbCircle
 10
438.5990864573598
 20
264.9579464993923
 30
0.0
 40
2.5
100
AcDbArc
 50
270.0
 51
315.0
  0
LINE
  5
747
330
25
100
AcDbEntity
  8
0
100
AcDbLine
 10
460.5518069720726
 20
276.2079464993925
 30
0.0
 11
460.1701542692254
 21
276.2079464993925
 31
0.0
  0
LINE
  5
748
330
25
100
AcDbEntity
  8
0
100
AcDbLine
 10
459.6701542692253
 20
278.2079464993922
 30
0.0
 11
459.6701542692254
 21
276.7079464993924
 31
0.0
  0
LINE
  5
749
330
25
100
AcDbEntity
  8
VERBORGEN
100
AcDbLine
 10
459.0361796730098
 20
278.2079464993922
 30
0.0
 11
458.5002812881477
 21
276.2079464993924
 31
0.0
  0
LINE
  5
74A
330
25
100
AcDbEntity
  8
VERBORGEN
100
AcDbLine
 10
449.8041288654408
 20
278.2079464993922
 30
0.0
 11
450.3400272503029
 21
276.2079464993924
 31
0.0
  0
LINE
  5
74B
330
25
100
AcDbEntity
  8
0
100
AcDbLine
 10
459.6701542692253
 20
278.2079464993922
 30
0.0
 11
449.1701542692253
 21
278.2079464993922
 31
0.0
  0
LINE
  5
74C
330
25
100
AcDbEntity
  8
0
100
AcDbLine
 10
449.1701542692253
 20
278.2079464993922
 30
0.0
 11
449.1701542692253
 21
276.7079464993924
 31
0.0
  0
ARC
  5
74D
330
25
100
AcDbEntity
  8
0
100
AcDbCircle
 10
448.6701542692253
 20
276.7079464993924
 30
0.0
 40
0.5
100
AcDbArc
 50
295.4331616932685
 51
0.0
  0
ARC
  5
74E
330
25
100
AcDbEntity
  8
0
100
AcDbCircle
 10
460.1701542692254
 20
276.7079464993924
 30
0.0
 40
0.5
100
AcDbArc
 50
180.0
 51
270.0
  0
ARC
  5
74F
330
25
100
AcDbEntity
  8
0
100
AcDbCircle
 10
461.4201542692253
 20
268.9579464993923
 30
0.0
 40
3.0
100
AcDbArc
 50
270.0
 51
0.0
  0
ARC
  5
750
330
25
100
AcDbEntity
  8
0
100
AcDbCircle
 10
446.0272104992273
 20
277.4579464993923
 30
0.0
 40
3.1
100
AcDbArc
 50
208.9385277401796
 51
337.1950854185672
  0
LINE
  5
751
330
25
100
AcDbEntity
  8
0
100
AcDbLine
 10
443.3142785059771
 20
275.9579464993923
 30
0.0
 11
438.7874683670454
 21
275.9579464993923
 31
0.0
  0
LINE
  5
752
330
25
100
AcDbEntity
  8
VERBORGEN
100
AcDbLine
 10
451.1701542692253
 20
269.9579464993923
 30
0.0
 11
451.1701542692254
 21
276.2079464993925
 31
0.0
  0
LINE
  5
753
330
25
100
AcDbEntity
  8
VERBORGEN
100
AcDbLine
 10
460.2513919880406
 20
265.9579464993923
 30
0.0
 11
460.2513919880406
 21
270.9579464993923
 31
0.0
  0
LINE
  5
754
330
25
100
AcDbEntity
  8
VERBORGEN
100
AcDbLine
 10
448.5889165504102
 20
265.9579464993923
 30
0.0
 11
448.5889165504102
 21
270.9579464993923
 31
0.0
  0
LINE
  5
755
330
25
100
AcDbEntity
  8
VERBORGEN
100
AcDbLine
 10
449.4201542692254
 20
269.9579464993923
 30
0.0
 11
448.8428040000357
 21
270.9579464993923
 31
0.0
  0
LINE
  5
756
330
25
100
AcDbEntity
  8
VERBORGEN
100
AcDbLine
 10
459.4201542692253
 20
269.9579464993923
 30
0.0
 11
459.997504538415
 21
270.9579464993923
 31
0.0
  0
LINE
  5
757
330
25
100
AcDbEntity
  8
VERBORGEN
100
AcDbLine
 10
460.2513919880406
 20
270.9579464993923
 30
0.0
 11
448.5889165504102
 21
270.9579464993923
 31
0.0
  0
LINE
  5
758
330
25
100
AcDbEntity
  8
VERBORGEN
100
AcDbLine
 10
459.4201542692253
 20
269.9579464993923
 30
0.0
 11
449.4201542692254
 21
269.9579464993923
 31
0.0
  0
LINE
  5
759
330
25
100
AcDbEntity
  8
VERBORGEN
100
AcDbLine
 10
457.6701542692253
 20
269.9579464993923
 30
0.0
 11
457.6701542692253
 21
276.2079464993924
 31
0.0
  0
LINE
  5
75A
330
25
100
AcDbEntity
  8
0
100
AcDbLine
 10
464.4201542692253
 20
268.9579464993923
 30
0.0
 11
464.4201542692253
 21
276.0751244344068
 31
0.0
  0
LINE
  5
75B
330
25
100
AcDbEntity
  8
HARTLIJN
100
AcDbLine
 10
446.0272104992273
 20
273.8303387575953
 30
0.0
 11
446.0272104992273
 21
281.2678348919032
 31
0.0
  0
LINE
  5
75C
330
25
100
AcDbEntity
  8
HARTLIJN
100
AcDbLine
 10
466.7751542692253
 20
277.4579464993923
 30
0.0
 11
434.6244422490317
 21
277.4579464993923
 31
0.0
  0
LINE
  5
75D
330
25
100
AcDbEntity
  8
HARTLIJN
100
AcDbLine
 10
454.4201542692253
 20
281.2678348919032
 30
0.0
 11
454.4201542692253
 21
264.2070256074028
 31
0.0
  0
LINE
  5
75E
330
25
100
AcDbEntity
  8
VERBORGEN
100
AcDbLine
 10
437.5483636677721
 20
270.9579464993923
 30
0.0
 11
464.4201542692253
 21
270.9579464993923
 31
0.0
  0
LINE
  5
75F
330
25
100
AcDbEntity
  8
VERBORGEN
100
AcDbLine
 10
457.3357731286329
 20
265.9579464993923
 30
0.0
 11
457.3357731286329
 21
270.9579464993923
 31
0.0
  0
LINE
  5
760
330
25
100
AcDbEntity
  8
VERBORGEN
100
AcDbLine
 10
451.5045354098178
 20
265.9579464993923
 30
0.0
 11
451.5045354098178
 21
270.9579464993923
 31
0.0
  0
LINE
  5
761
330
25
100
AcDbEntity
  8
2
100
AcDbLine
 10
461.4201542692253
 20
268.9579464993923
 30
0.0
 11
461.4201542692253
 21
276.2079464993924
 31
0.0
  0
LINE
  5
762
330
25
100
AcDbEntity
  8
2
100
AcDbLine
 10
461.4201542692253
 20
268.9579464993923
 30
0.0
 11
447.1701542692253
 21
268.9579464993923
 31
0.0
  0
LINE
  5
763
330
25
100
AcDbEntity
  8
2
100
AcDbLine
 10
438.9205845594643
 20
262.4579464993924
 30
0.0
 11
443.6346203632925
 21
267.4934804053251
 31
0.0
  0
ARC
  5
764
330
25
100
AcDbEntity
  8
2
100
AcDbCircle
 10
447.1701542692253
 20
263.9579464993923
 30
0.0
 40
5.0
100
AcDbArc
 50
90.0
 51
135.0
  0
LINE
  5
765
330
25
100
AcDbEntity
  8
0
100
AcDbLine
 10
463.9221558465128
 20
276.2079464993924
 30
0.0
 11
448.8640220897281
 21
276.2079464993924
 31
0.0
  0
ARC
  5
766
330
25
100
AcDbEntity
  8
0
100
AcDbCircle
 10
464.8201542692254
 20
274.8259906174939
 30
0.0
 40
0.4
100
AcDbArc
 50
47.6127586705128
 51
180.0
  0
ARC
  5
767
330
25
100
AcDbEntity
  8
0
100
AcDbCircle
 10
463.9221558465128
 20
275.2079464993924
 30
0.0
 40
1.0
100
AcDbArc
 50
50.65417023378808
 51
90.0
  0
LINE
  5
768
330
25
100
AcDbEntity
  8
0
100
AcDbLine
 10
438.2367551673683
 20
273.9579464993923
 30
0.0
 11
434.1201542692253
 21
262.4579464993924
 31
0.0
  0
LINE
  5
769
330
25
100
AcDbEntity
  8
0
100
AcDbLine
 10
435.0701542692253
 20
262.4579464993924
 30
0.0
 11
434.1201542692253
 21
262.4579464993924
 31
0.0
  0
INSERT
  5
76A
330
25
100
AcDbEntity
  8
0
100
AcDbBlockReference
  2
*X3
 10
621.0270129433418
 20
371.0742074116039
 30
0.0
 50
180.0
1001
ACAD
1000
HATCH
1002
{
1070
    19
1000
ANSI31
1040
5.0
1040
0.0
1002
}
  0
ARC
  5
76B
330
25
100
AcDbEntity
  8
0
100
AcDbCircle
 10
464.6356546226723
 20
278.7046110206985
 30
0.0
 40
0.2433538534959039
100
AcDbArc
 50
29.03059065865961
 51
109.067460583188
  0
ARC
  5
76C
330
25
100
AcDbEntity
  8
0
100
AcDbCircle
 10
460.7550733500012
 20
277.5687466993036
 30
0.0
 40
4.281122518776707
100
AcDbArc
 50
358.5169560705387
 51
17.03189901054133
  0
ARC
  5
76D
330
25
100
AcDbEntity
  8
0
100
AcDbCircle
 10
465.1616806562641
 20
279.6335749802197
 30
0.0
 40
0.1762087467688447
100
AcDbArc
 50
41.52377058608848
 51
114.0714410024573
  0
ARC
  5
76E
330
25
100
AcDbEntity
  8
0
100
AcDbCircle
 10
461.7086165484129
 20
277.2414515023545
 30
0.0
 40
4.37571807272409
100
AcDbArc
 50
2.835949610840589
 51
34.98607660807805
  0
ARC
  5
76F
330
25
100
AcDbEntity
  8
0
100
AcDbCircle
 10
464.6356546226723
 20
276.2112819780861
 30
0.0
 40
0.2433538534959039
100
AcDbArc
 50
250.932539416812
 51
330.9694093413404
  0
ARC
  5
770
330
25
100
AcDbEntity
  8
0
100
AcDbCircle
 10
460.7550733500012
 20
277.347146299481
 30
0.0
 40
4.281122518776707
100
AcDbArc
 50
342.9681009894587
 51
1.483043929461248
  0
ARC
  5
771
330
25
100
AcDbEntity
  8
0
100
AcDbCircle
 10
465.1616806562641
 20
275.282318018565
 30
0.0
 40
0.1762087467688447
100
AcDbArc
 50
245.9285589975427
 51
318.4762294139115
  0
ARC
  5
772
330
25
100
AcDbEntity
  8
0
100
AcDbCircle
 10
461.7086165484129
 20
277.6744414964302
 30
0.0
 40
4.37571807272409
100
AcDbArc
 50
325.0139233919219
 51
357.1640503891594
  0
LINE
  5
773
330
25
100
AcDbEntity
  8
2
100
AcDbLine
 10
444.1701542692253
 20
327.3402362328081
 30
0.0
 11
444.1701542692253
 21
364.1334009665642
 31
0.0
  0
LINE
  5
774
330
25
100
AcDbEntity
  8
2
100
AcDbLine
 10
442.402387316259
 20
326.8066598872668
 30
0.0
 11
442.402387316259
 21
364.6669773121056
 31
0.0
  0
LINE
  5
775
330
25
100
AcDbEntity
  8
2
100
AcDbLine
 10
440.3668534103263
 20
325.8765018043848
 30
0.0
 11
440.3668534103262
 21
365.5971353949875
 31
0.0
  0
LINE
  5
776
330
25
100
AcDbEntity
  8
2
100
AcDbLine
 10
438.5990864573598
 20
324.7368185996861
 30
0.0
 11
438.5990864573598
 21
366.7368185996862
 31
0.0
  0
CIRCLE
  5
777
330
25
100
AcDbEntity
  8
0
100
AcDbCircle
 10
454.4201542692253
 20
333.7368185996862
 30
0.0
 40
3.25
  0
CIRCLE
  5
778
330
25
100
AcDbEntity
  8
0
100
AcDbCircle
 10
454.4201542692253
 20
357.7368185996862
 30
0.0
 40
3.25
  0
ARC
  5
779
330
25
100
AcDbEntity
  8
0
100
AcDbCircle
 10
461.4201542692254
 20
327.7368185996862
 30
0.0
 40
3.0
100
AcDbArc
 50
270.0
 51
0.0
  0
ARC
  5
77A
330
25
100
AcDbEntity
  8
0
100
AcDbCircle
 10
461.4201542692254
 20
363.7368185996862
 30
0.0
 40
3.0
100
AcDbArc
 50
0.0
 51
90.0
  0
LINE
  5
77B
330
25
100
AcDbEntity
  8
HARTLIJN
100
AcDbLine
 10
467.879713080593
 20
345.7368185996862
 30
0.0
 11
432.4008924603378
 21
345.7368185996862
 31
0.0
  0
LINE
  5
77C
330
25
100
AcDbEntity
  8
HARTLIJN
100
AcDbLine
 10
447.7323952781102
 20
357.7368185996862
 30
0.0
 11
461.1079132603405
 21
357.7368185996862
 31
0.0
  0
LINE
  5
77D
330
25
100
AcDbEntity
  8
0
100
AcDbLine
 10
464.4201542692254
 20
327.7368185996862
 30
0.0
 11
464.4201542692254
 21
363.7368185996862
 31
0.0
  0
LINE
  5
77E
330
25
100
AcDbEntity
  8
0
100
AcDbLine
 10
461.4201542692254
 20
366.7368185996862
 30
0.0
 11
435.0701542692253
 21
366.7368185996862
 31
0.0
  0
LINE
  5
77F
330
25
100
AcDbEntity
  8
0
100
AcDbLine
 10
461.4201542692254
 20
324.7368185996862
 30
0.0
 11
435.0701542692253
 21
324.7368185996862
 31
0.0
  0
LINE
  5
780
330
25
100
AcDbEntity
  8
0
100
AcDbLine
 10
435.0701542692253
 20
324.7368185996862
 30
0.0
 11
435.0701542692253
 21
366.7368185996862
 31
0.0
  0
LINE
  5
781
330
25
100
AcDbEntity
  8
HARTLIJN
100
AcDbLine
 10
454.4201542692253
 20
322.9909083289868
 30
0.0
 11
454.4201542692253
 21
368.0352452410028
 31
0.0
  0
CIRCLE
  5
782
330
25
100
AcDbEntity
  8
0
100
AcDbCircle
 10
454.4201542692253
 20
333.7368185996862
 30
0.0
 40
5.500000000000042
  0
CIRCLE
  5
783
330
25
100
AcDbEntity
  8
0
100
AcDbCircle
 10
454.4201542692253
 20
357.7368185996862
 30
0.0
 40
5.500000000000042
  0
LWPOLYLINE
  5
784
330
25
100
AcDbEntity
  8
2
100
AcDbPolyline
 90
       22
 70
     1
 43
0.3
 10
450.6311322420491
 20
340.9992845994417
 10
452.1561322420491
 20
340.9992845994417
 42
-0.4142135623730956
 10
452.4102989087158
 20
340.745117932775
 10
452.4102989087158
 20
340.2367845994417
 42
-0.4142135623730951
 10
452.1561322420491
 20
339.9826179327749
 10
450.8852989087158
 20
339.9826179327749
 42
-0.1359329595457253
 10
450.7545312375447
 20
340.0188384808231
 10
449.4836979042113
 20
340.7813384808231
 42
-0.2634471391023
 10
449.3602989087158
 20
340.9992845994417
 10
449.3602989087158
 20
343.795117932775
 42
-0.4142135623730951
 10
449.6144655753824
 20
344.0492845994417
 10
452.1561322420491
 20
344.0492845994417
 42
-0.4142135623730951
 10
452.4102989087158
 20
343.795117932775
 10
452.4102989087158
 20
343.2867845994417
 42
-0.4142135623730951
 10
452.1561322420491
 20
343.032617932775
 10
450.6311322420491
 20
343.032617932775
 42
1.0
 10
450.6311322420491
 20
342.5242845994417
 10
452.1561322420491
 20
342.5242845994417
 42
-0.4142135623730951
 10
452.4102989087158
 20
342.2701179327751
 10
452.4102989087158
 20
341.7617845994416
 42
-0.4142135623730951
 10
452.1561322420491
 20
341.507617932775
 10
450.6311322420491
 20
341.507617932775
 42
1.0
  0
LWPOLYLINE
  5
785
330
25
100
AcDbEntity
  8
2
100
AcDbPolyline
 90
       18
 70
     1
 43
0.0
 10
449.7281323642387
 20
350.7324515104876
 42
0.5575365158350514
 10
449.3602989087158
 20
350.505117932775
 10
449.3602989087158
 20
348.9292845994417
 42
0.2634471391023
 10
449.4836979042113
 20
348.7113384808231
 10
450.7545312375447
 20
347.948838480823
 42
0.1359329595457264
 10
450.8852989087158
 20
347.912617932775
 10
452.1561322420492
 20
347.912617932775
 42
0.4142135623730953
 10
452.4102989087158
 20
348.1667845994416
 10
452.4102989087158
 20
349.9967845994417
 42
0.4142135623730948
 10
452.1561322420492
 20
350.2509512661084
 10
451.6477989087158
 20
350.2509512661084
 42
0.4142135623730951
 10
451.3936322420492
 20
349.9967845994417
 10
451.3936322420492
 20
349.1834512661084
 42
-0.5829708565575866
 10
451.0086979042113
 20
348.9655051474898
 10
450.500364570878
 20
349.2705051474898
 42
-0.2634471391023
 10
450.3769655753825
 20
349.4884512661083
 10
450.3769655753825
 20
350.2509512661084
 42
0.2840790438404123
 10
450.236465697572
 20
350.4782848438209
  0
LWPOLYLINE
  5
786
330
25
100
AcDbEntity
  8
2
100
AcDbPolyline
 90
       18
 70
     1
 43
0.0
 10
449.7281323642387
 20
347.6316181771541
 42
0.5575365158350514
 10
449.3602989087158
 20
347.4042845994417
 10
449.3602989087158
 20
345.8284512661084
 42
0.2634471391023
 10
449.4836979042113
 20
345.6105051474898
 10
450.7545312375447
 20
344.8480051474898
 42
0.1359329595457264
 10
450.8852989087158
 20
344.8117845994417
 10
452.1561322420492
 20
344.8117845994417
 42
0.4142135623730953
 10
452.4102989087158
 20
345.0659512661083
 10
452.4102989087158
 20
346.8959512661083
 42
0.4142135623730948
 10
452.1561322420492
 20
347.1501179327751
 10
451.6477989087158
 20
347.1501179327751
 42
0.4142135623730951
 10
451.3936322420492
 20
346.8959512661083
 10
451.3936322420492
 20
346.0826179327749
 42
-0.5829708565575866
 10
451.0086979042113
 20
345.8646718141565
 10
450.500364570878
 20
346.1696718141563
 42
-0.2634471391023
 10
450.3769655753825
 20
346.387617932775
 10
450.3769655753825
 20
347.1501179327751
 42
0.2840790438404123
 10
450.236465697572
 20
347.3774515104876
  0
INSERT
  5
787
330
25
100
AcDbEntity
  8
2
100
AcDbBlockReference
  2
*X2
 10
598.0718916781614
 20
59.58040663662757
 30
0.0
 50
90.0
1001
ACAD
1000
HATCH
1002
{
1070
    16
1000
ANSI31
1040
0.02
1040
0.0
1002
}
  0
TEXT
  5
788
330
25
100
AcDbEntity
  8
3
100
AcDbText
 10
447.3689760593849
 20
333.4874997998817
 30
0.0
 40
2.0
  1
Made in Holland
 50
90.0
 41
1.026146880825156
  7
ISO
 72
     5
 11
447.3689760593849
 21
358.1150249396854
 31
0.0
100
AcDbText
  0
LINE
  5
789
330
25
100
AcDbEntity
  8
2
100
AcDbLine
 10
461.4201542692254
 20
327.7368185996862
 30
0.0
 11
447.1701542692255
 21
327.7368185996862
 31
0.0
  0
LINE
  5
78A
330
25
100
AcDbEntity
  8
2
100
AcDbLine
 10
461.4201542692254
 20
327.7368185996862
 30
0.0
 11
461.4201542692254
 21
363.7368185996862
 31
0.0
  0
LINE
  5
78B
330
25
100
AcDbEntity
  8
2
100
AcDbLine
 10
461.4201542692254
 20
363.7368185996862
 30
0.0
 11
447.1701542692253
 21
363.7368185996862
 31
0.0
  0
ARC
  5
78C
330
25
100
AcDbEntity
  8
0
100
AcDbCircle
 10
466.7751542692253
 20
353.3618185996863
 30
0.0
 40
4.706553941048445
100
AcDbArc
 50
98.50622419091086
 51
120.0242233769275
  0
ARC
  5
78D
330
25
100
AcDbEntity
  8
0
100
AcDbCircle
 10
466.7751542692253
 20
367.8118185996861
 30
0.0
 40
4.706553941048511
100
AcDbArc
 50
239.9757766230725
 51
261.4937758090891
  0
ARC
  5
78E
330
25
100
AcDbEntity
  8
0
100
AcDbCircle
 10
466.7751542692253
 20
338.1118185996861
 30
0.0
 40
4.706553941048445
100
AcDbArc
 50
239.9757766230725
 51
261.4937758090891
  0
ARC
  5
78F
330
25
100
AcDbEntity
  8
0
100
AcDbCircle
 10
466.7751542692253
 20
323.6618185996863
 30
0.0
 40
4.706553941048511
100
AcDbArc
 50
98.50622419091086
 51
120.0242233769275
  0
ARC
  5
790
330
25
100
AcDbEntity
  8
2
100
AcDbCircle
 10
447.6371909751093
 20
312.6586169348329
 30
0.0
 40
15.08543299778386
100
AcDbArc
 50
91.77412930111566
 51
126.8074670244129
  0
ARC
  5
791
330
25
100
AcDbEntity
  8
2
100
AcDbCircle
 10
447.6371909751093
 20
378.8150202645395
 30
0.0
 40
15.08543299778386
100
AcDbArc
 50
233.1925329755871
 51
268.2258706988843
  0
LINE
  5
792
330
25
100
AcDbEntity
  8
0
100
AcDbLine
 10
464.9201542692253
 20
329.8683725407349
 30
0.0
 11
466.0789756375749
 21
329.8683725407348
 31
0.0
  0
LINE
  5
793
330
25
100
AcDbEntity
  8
0
100
AcDbLine
 10
466.0789756375749
 20
331.8683725407348
 30
0.0
 11
464.9201542692253
 21
331.8683725407348
 31
0.0
  0
ARC
  5
794
330
25
100
AcDbEntity
  8
0
100
AcDbCircle
 10
464.9201542692253
 20
330.3683725407349
 30
0.0
 40
0.5
100
AcDbArc
 50
180.0
 51
270.0
  0
LINE
  5
795
330
25
100
AcDbEntity
  8
0
100
AcDbLine
 10
464.4201542692253
 20
331.3683725407348
 30
0.0
 11
464.4201542692253
 21
330.3683725407349
 31
0.0
  0
ARC
  5
796
330
25
100
AcDbEntity
  8
0
100
AcDbCircle
 10
464.9201542692253
 20
331.3683725407348
 30
0.0
 40
0.5
100
AcDbArc
 50
90.0
 51
180.0
  0
LINE
  5
797
330
25
100
AcDbEntity
  8
0
100
AcDbLine
 10
466.0789756375749
 20
359.6052646586376
 30
0.0
 11
464.9201542692253
 21
359.6052646586376
 31
0.0
  0
LINE
  5
798
330
25
100
AcDbEntity
  8
0
100
AcDbLine
 10
464.9201542692253
 20
361.6052646586376
 30
0.0
 11
466.0789756375749
 21
361.6052646586376
 31
0.0
  0
ARC
  5
799
330
25
100
AcDbEntity
  8
0
100
AcDbCircle
 10
464.9201542692253
 20
360.1052646586376
 30
0.0
 40
0.5
100
AcDbArc
 50
180.0
 51
270.0
  0
LINE
  5
79A
330
25
100
AcDbEntity
  8
0
100
AcDbLine
 10
464.4201542692253
 20
360.1052646586376
 30
0.0
 11
464.4201542692253
 21
361.1052646586376
 31
0.0
  0
ARC
  5
79B
330
25
100
AcDbEntity
  8
0
100
AcDbCircle
 10
464.9201542692253
 20
361.1052646586376
 30
0.0
 40
0.5
100
AcDbArc
 50
90.0
 51
180.0
  0
LINE
  5
79C
330
25
100
AcDbEntity
  8
0
100
AcDbLine
 10
466.0789756375749
 20
328.3165995089056
 30
0.0
 11
466.0789756375749
 21
333.4570376904668
 31
0.0
  0
LINE
  5
79D
330
25
100
AcDbEntity
  8
0
100
AcDbLine
 10
466.0789756375749
 20
358.0165995089056
 30
0.0
 11
466.0789756375749
 21
363.1570376904667
 31
0.0
  0
LINE
  5
79E
330
25
100
AcDbEntity
  8
HARTLIJN
100
AcDbLine
 10
447.7323952781102
 20
333.7368185996862
 30
0.0
 11
461.1079132603405
 21
333.7368185996862
 31
0.0
  0
ARC
  5
79F
330
25
100
AcDbEntity
  8
0
100
AcDbCircle
 10
398.3126112213613
 20
275.7079464993924
 30
0.0
 40
0.5
100
AcDbArc
 50
0.0
 51
90.0
  0
ARC
  5
7A0
330
25
100
AcDbEntity
  8
0
100
AcDbCircle
 10
357.3126112213614
 20
275.7079464993924
 30
0.0
 40
0.5
100
AcDbArc
 50
90.0
 51
180.0
  0
LINE
  5
7A1
330
25
100
AcDbEntity
  8
0
100
AcDbLine
 10
395.0626112213614
 20
278.2079464993922
 30
0.0
 11
395.0626112213614
 21
276.2079464993924
 31
0.0
  0
LINE
  5
7A2
330
25
100
AcDbEntity
  8
0
100
AcDbLine
 10
384.5626112213614
 20
278.2079464993922
 30
0.0
 11
384.5626112213614
 21
276.2079464993924
 31
0.0
  0
LINE
  5
7A3
330
25
100
AcDbEntity
  8
0
100
AcDbLine
 10
384.1912866324479
 20
276.2079464993924
 30
0.0
 11
398.3126112213613
 21
276.2079464993924
 31
0.0
  0
LINE
  5
7A4
330
25
100
AcDbEntity
  8
0
100
AcDbLine
 10
398.8126112213614
 20
262.4579464993924
 30
0.0
 11
356.8126112213614
 21
262.4579464993922
 31
0.0
  0
LINE
  5
7A5
330
25
100
AcDbEntity
  8
HARTLIJN
100
AcDbLine
 10
377.8126112213613
 20
293.7351928836655
 30
0.0
 11
377.8126112213613
 21
259.0314246987962
 31
0.0
  0
LINE
  5
7A6
330
25
100
AcDbEntity
  8
0
100
AcDbLine
 10
398.8126112213614
 20
262.4579464993924
 30
0.0
 11
398.8126112213613
 21
275.7079464993924
 31
0.0
  0
LINE
  5
7A7
330
25
100
AcDbEntity
  8
0
100
AcDbLine
 10
356.8126112213614
 20
262.4579464993922
 30
0.0
 11
356.8126112213614
 21
275.7079464993924
 31
0.0
  0
LINE
  5
7A8
330
25
100
AcDbEntity
  8
0
100
AcDbLine
 10
384.5626112213614
 20
278.2079464993922
 30
0.0
 11
395.0626112213614
 21
278.2079464993922
 31
0.0
  0
LINE
  5
7A9
330
25
100
AcDbEntity
  8
0
100
AcDbLine
 10
371.0626112213613
 20
278.2079464993921
 30
0.0
 11
360.5626112213613
 21
278.2079464993922
 31
0.0
  0
LINE
  5
7AA
330
25
100
AcDbEntity
  8
0
100
AcDbLine
 10
371.0626112213613
 20
278.2079464993921
 30
0.0
 11
371.0626112213613
 21
276.7079464993924
 31
0.0
  0
LINE
  5
7AB
330
25
100
AcDbEntity
  8
0
100
AcDbLine
 10
360.5626112213613
 20
278.2079464993922
 30
0.0
 11
360.5626112213613
 21
276.7079464993924
 31
0.0
  0
LINE
  5
7AC
330
25
100
AcDbEntity
  8
0
100
AcDbLine
 10
360.0626112213613
 20
276.2079464993924
 30
0.0
 11
357.3126112213614
 21
276.2079464993924
 31
0.0
  0
ARC
  5
7AD
330
25
100
AcDbEntity
  8
0
100
AcDbCircle
 10
360.0626112213613
 20
276.7079464993924
 30
0.0
 40
0.5
100
AcDbArc
 50
270.0
 51
0.0
  0
ARC
  5
7AE
330
25
100
AcDbEntity
  8
0
100
AcDbCircle
 10
371.5626112213613
 20
276.7079464993924
 30
0.0
 40
0.5
100
AcDbArc
 50
180.0
 51
254.6766558033252
  0
LINE
  5
7AF
330
25
100
AcDbEntity
  8
HARTLIJN
100
AcDbLine
 10
401.3128306286967
 20
277.4579464993923
 30
0.0
 11
354.312391814026
 21
277.4579464993923
 31
0.0
  0
ARC
  5
7B0
330
25
100
AcDbEntity
  8
0
100
AcDbCircle
 10
377.8126112213613
 20
277.4579464993923
 30
0.0
 40
6.5
100
AcDbArc
 50
190.9278697382809
 51
348.91251078903
  0
LINE
  5
7B1
330
25
100
AcDbEntity
  8
0
100
AcDbLine
 10
394.5626112213614
 20
278.7079464993923
 30
0.0
 11
394.4286366251458
 21
278.2079464993922
 31
0.0
  0
LINE
  5
7B2
330
25
100
AcDbEntity
  8
0
100
AcDbLine
 10
385.0626112213614
 20
278.7079464993923
 30
0.0
 11
385.1965858175769
 21
278.2079464993922
 31
0.0
  0
LINE
  5
7B3
330
25
100
AcDbEntity
  8
0
100
AcDbLine
 10
356.8126112213613
 20
279.2079464993923
 30
0.0
 11
356.8126112213613
 21
292.4579464993925
 31
0.0
  0
LINE
  5
7B4
330
25
100
AcDbEntity
  8
0
100
AcDbLine
 10
398.8126112213614
 20
279.2079464993923
 30
0.0
 11
398.8126112213614
 21
292.4579464993923
 31
0.0
  0
LINE
  5
7B5
330
25
100
AcDbEntity
  8
0
100
AcDbLine
 10
398.8126112213614
 20
292.4579464993923
 30
0.0
 11
356.8126112213613
 21
292.4579464993925
 31
0.0
  0
LINE
  5
7B6
330
25
100
AcDbEntity
  8
0
100
AcDbLine
 10
361.0626112213613
 20
278.7079464993923
 30
0.0
 11
361.196585817577
 21
278.2079464993922
 31
0.0
  0
LINE
  5
7B7
330
25
100
AcDbEntity
  8
0
100
AcDbLine
 10
370.5626112213614
 20
278.7079464993923
 30
0.0
 11
370.4286366251458
 21
278.2079464993921
 31
0.0
  0
LINE
  5
7B8
330
25
100
AcDbEntity
  8
0
100
AcDbLine
 10
371.4339358102748
 20
278.7079464993923
 30
0.0
 11
370.5626112213614
 21
278.7079464993923
 31
0.0
  0
LINE
  5
7B9
330
25
100
AcDbEntity
  8
0
100
AcDbLine
 10
384.1912866324479
 20
278.7079464993923
 30
0.0
 11
398.3126112213613
 21
278.7079464993923
 31
0.0
  0
ARC
  5
7BA
330
25
100
AcDbEntity
  8
0
100
AcDbCircle
 10
357.3126112213614
 20
279.2079464993923
 30
0.0
 40
0.5
100
AcDbArc
 50
180.0
 51
270.0
  0
ARC
  5
7BB
330
25
100
AcDbEntity
  8
0
100
AcDbCircle
 10
398.3126112213613
 20
279.2079464993923
 30
0.0
 40
0.5
100
AcDbArc
 50
270.0
 51
0.0
  0
LINE
  5
7BC
330
25
100
AcDbEntity
  8
0
100
AcDbLine
 10
361.0626112213613
 20
278.7079464993923
 30
0.0
 11
357.3126112213614
 21
278.7079464993923
 31
0.0
  0
LINE
  5
7BD
330
25
100
AcDbEntity
  8
HARTLIJN
100
AcDbLine
 10
354.3123918140259
 20
277.4579464993923
 30
0.0
 11
401.3128306286967
 21
277.4579464993923
 31
0.0
  0
ARC
  5
7BE
330
25
100
AcDbEntity
  8
0
100
AcDbCircle
 10
377.8126112213613
 20
277.4579464993924
 30
0.0
 40
6.5
100
AcDbArc
 50
11.08748921097003
 51
168.91251078903
  0
LINE
  5
7BF
330
25
100
AcDbEntity
  8
0
100
AcDbLine
 10
371.4339358102748
 20
276.2079464993924
 30
0.0
 11
357.3126112213614
 21
276.2079464993924
 31
0.0
  0
LINE
  5
7C0
330
25
100
AcDbEntity
  8
0
100
AcDbLine
 10
371.4339358102748
 20
278.7079464993923
 30
0.0
 11
357.3126112213614
 21
278.7079464993923
 31
0.0
  0
INSERT
  5
7C1
330
25
100
AcDbEntity
  8
0
100
AcDbBlockReference
 66
     1
  2
calca4
 10
301.8919458768942
 20
133.2163723999343
 30
0.0
  0
ATTRIB
  5
7C2
330
7C1
100
AcDbEntity
  8
3
100
AcDbText
 10
323.8919463269253
 20
163.7163725734796
 30
0.0
 40
4.0
  1
Clamp
100
AcDbAttribute
  2
NAME
 70
     0
  0
ATTRIB
  5
7C3
330
7C1
100
AcDbEntity
  8
3
100
AcDbText
 10
323.8919463269253
 20
159.2163725734796
 30
0.0
 40
2.5
  1
Code: 757.01.16
100
AcDbAttribute
  2
ADDITIONAL_NAME
 70
     0
  0
ATTRIB
  5
7C4
330
7C1
100
AcDbEntity
  8
3
100
AcDbText
 10
417.8919463269253
 20
145.6963725734797
 30
0.0
 40
4.5
  1
K5105
100
AcDbAttribute
  2
DRAWING_NO.
 70
     0
  0
ATTRIB
  5
7C5
330
7C1
100
AcDbEntity
  8
3
100
AcDbText
 10
431.9306044738901
 20
164.4663725734796
 30
0.0
 40
2.0
  1
1:1
 41
0.8
 11
431.9306044738901
 21
165.4663725734796
 31
0.0
100
AcDbAttribute
  2
SCALE
 70
     0
 74
     2
  0
ATTRIB
  5
7C6
330
7C1
100
AcDbEntity
  8
3
100
AcDbText
 10
478.4824225174014
 20
164.4663725734796
 30
0.0
 40
2.0
  1
22-2-10
 41
0.8
 72
     1
 11
483.8919463269253
 21
165.4663725734796
 31
0.0
100
AcDbAttribute
  2
DATE
 70
     0
 74
     2
  0
ATTRIB
  5
7C7
330
7C1
100
AcDbEntity
  8
3
100
AcDbText
 10
494.5824225174015
 20
164.4663725734796
 30
0.0
 40
2.0
  1
WP
 72
     1
 11
496.3919463269253
 21
165.4663725734796
 31
0.0
100
AcDbAttribute
  2
INITIALS
 70
     0
 74
     2
  0
ATTRIB
  5
7C8
330
7C1
100
AcDbEntity
  8
3
100
AcDbText
 10
323.8919463269253
 20
195.2163725734796
 30
0.0
 40
2.5
  1

100
AcDbAttribute
  2
MATERIAL
 70
     0
  0
ATTRIB
  5
7C9
330
7C1
100
AcDbEntity
  8
3
100
AcDbText
 10
323.8919463269253
 20
185.2163725734795
 30
0.0
 40
2.5
  1

100
AcDbAttribute
  2
PRODUCTTREATMENT
 70
     0
  0
ATTRIB
  5
7CA
330
7C1
100
AcDbEntity
  8
3
100
AcDbText
 10
323.8919463269253
 20
175.2163725734796
 30
0.0
 40
2.5
  1

100
AcDbAttribute
  2
SEMIFINISHED_PRODUCT
 70
     0
  0
ATTRIB
  5
7CB
330
7C1
100
AcDbEntity
  8
3
100
AcDbText
 10
431.8919463269253
 20
158.9663725734796
 30
0.0
 40
2.0
  1
mm
 41
0.8
 11
431.8919463269253
 21
159.9663725734796
 31
0.0
100
AcDbAttribute
  2
UNITS
 70
     0
 74
     2
  0
ATTRIB
  5
7CC
330
7C1
100
AcDbEntity
  8
3
100
AcDbText
 10
483.8919463269253
 20
158.9663725734796
 30
0.0
 40
2.0
  1

 41
0.8
 72
     1
 11
483.8919463269253
 21
159.9663725734796
 31
0.0
100
AcDbAttribute
  2
DATE
 70
     0
 74
     2
  0
ATTRIB
  5
7CD
330
7C1
100
AcDbEntity
  8
3
100
AcDbText
 10
496.3919463269253
 20
158.9663725734796
 30
0.0
 40
2.0
  1

 72
     1
 11
496.3919463269253
 21
159.9663725734796
 31
0.0
100
AcDbAttribute
  2
INITIALS
 70
     0
 74
     2
  0
ATTRIB
  5
7CE
330
7C1
100
AcDbEntity
  8
3
100
AcDbText
 10
418.3919463269253
 20
174.7163725734796
 30
0.0
 40
2.0
  1

 72
     1
 11
418.3919463269253
 21
175.7163725734796
 31
0.0
100
AcDbAttribute
  2
REV1
 70
     0
 74
     2
  0
ATTRIB
  5
7CF
330
7C1
100
AcDbEntity
  8
3
100
AcDbText
 10
423.8919463269253
 20
174.7163725734796
 30
0.0
 40
2.0
  1

100
AcDbAttribute
  2
Change 1
 70
     0
  0
ATTRIB
  5
7D0
330
7C1
100
AcDbEntity
  8
3
100
AcDbText
 10
483.8919463269253
 20
174.7163725734796
 30
0.0
 40
2.0
  1

 41
0.8
 72
     1
 11
483.8919463269253
 21
175.7163725734796
 31
0.0
100
AcDbAttribute
  2
DATE 1
 70
     0
 74
     2
  0
ATTRIB
  5
7D1
330
7C1
100
AcDbEntity
  8
3
100
AcDbText
 10
496.3919463269253
 20
174.7163725734796
 30
0.0
 40
2.0
  1

 72
     1
 11
496.3919463269253
 21
175.7163725734796
 31
0.0
100
AcDbAttribute
  2
Initial1
 70
     0
 74
     2
  0
ATTRIB
  5
7D2
330
7C1
100
AcDbEntity
  8
3
100
AcDbText
 10
418.3919463269253
 20
179.7163725734796
 30
0.0
 40
2.0
  1

 72
     1
 11
418.3919463269253
 21
180.7163725734796
 31
0.0
100
AcDbAttribute
  2
Rev2
 70
     0
 74
     2
  0
ATTRIB
  5
7D3
330
7C1
100
AcDbEntity
  8
3
100
AcDbText
 10
423.8919463269253
 20
179.7163725734796
 30
0.0
 40
2.0
  1

100
AcDbAttribute
  2
Change 2
 70
     0
  0
ATTRIB
  5
7D4
330
7C1
100
AcDbEntity
  8
3
100
AcDbText
 10
483.8919463269253
 20
179.7163725734796
 30
0.0
 40
2.0
  1

 41
0.8
 72
     1
 11
483.8919463269253
 21
180.7163725734796
 31
0.0
100
AcDbAttribute
  2
Date 2
 70
     0
 74
     2
  0
ATTRIB
  5
7D5
330
7C1
100
AcDbEntity
  8
3
100
AcDbText
 10
496.3919463269253
 20
179.7163725734796
 30
0.0
 40
2.0
  1

 72
     1
 11
496.3919463269253
 21
180.7163725734796
 31
0.0
100
AcDbAttribute
  2
Initial2
 70
     0
 74
     2
  0
ATTRIB
  5
7D6
330
7C1
100
AcDbEntity
  8
3
100
AcDbText
 10
418.3919463269253
 20
184.7163725734796
 30
0.0
 40
2.0
  1

 72
     1
 11
418.3919463269253
 21
185.7163725734796
 31
0.0
100
AcDbAttribute
  2
Rev3
 70
     0
 74
     2
  0
ATTRIB
  5
7D7
330
7C1
100
AcDbEntity
  8
3
100
AcDbText
 10
423.8919463269253
 20
184.7163725734796
 30
0.0
 40
2.0
  1

100
AcDbAttribute
  2
Change 3
 70
     0
  0
ATTRIB
  5
7D8
330
7C1
100
AcDbEntity
  8
3
100
AcDbText
 10
483.8919463269253
 20
184.7163725734796
 30
0.0
 40
2.0
  1

 41
0.8
 72
     1
 11
483.8919463269253
 21
185.7163725734796
 31
0.0
100
AcDbAttribute
  2
Date 3
 70
     0
 74
     2
  0
ATTRIB
  5
7D9
330
7C1
100
AcDbEntity
  8
3
100
AcDbText
 10
496.3919463269253
 20
184.7163725734796
 30
0.0
 40
2.0
  1

 72
     1
 11
496.3919463269253
 21
185.7163725734796
 31
0.0
100
AcDbAttribute
  2
Initial3
 70
     0
 74
     2
  0
ATTRIB
  5
7DA
330
7C1
100
AcDbEntity
  8
3
100
AcDbText
 10
418.3919463269253
 20
189.7163725734796
 30
0.0
 40
2.0
  1

 72
     1
 11
418.3919463269253
 21
190.7163725734796
 31
0.0
100
AcDbAttribute
  2
Rev4
 70
     0
 74
     2
  0
ATTRIB
  5
7DB
330
7C1
100
AcDbEntity
  8
3
100
AcDbText
 10
423.8919463269253
 20
189.7163725734796
 30
0.0
 40
2.0
  1

100
AcDbAttribute
  2
Change 4
 70
     0
  0
ATTRIB
  5
7DC
330
7C1
100
AcDbEntity
  8
3
100
AcDbText
 10
483.8919463269253
 20
189.7163725734796
 30
0.0
 40
2.0
  1

 41
0.8
 72
     1
 11
483.8919463269253
 21
190.7163725734796
 31
0.0
100
AcDbAttribute
  2
Date 4
 70
     0
 74
     2
  0
ATTRIB
  5
7DD
330
7C1
100
AcDbEntity
  8
3
100
AcDbText
 10
496.3919463269253
 20
189.7163725734796
 30
0.0
 40
2.0
  1

 72
     1
 11
496.3919463269253
 21
190.7163725734796
 31
0.0
100
AcDbAttribute
  2
Initial4
 70
     0
 74
     2
  0
ATTRIB
  5
7DE
330
7C1
100
AcDbEntity
  8
3
100
AcDbText
 10
418.3919463269253
 20
194.7163725734796
 30
0.0
 40
2.0
  1

 72
     1
 11
418.3919463269253
 21
195.7163725734796
 31
0.0
100
AcDbAttribute
  2
Rev5
 70
     0
 74
     2
  0
ATTRIB
  5
7DF
330
7C1
100
AcDbEntity
  8
3
100
AcDbText
 10
423.8919463269253
 20
194.7163725734796
 30
0.0
 40
2.0
  1

100
AcDbAttribute
  2
Change 5
 70
     0
  0
ATTRIB
  5
7E0
330
7C1
100
AcDbEntity
  8
3
100
AcDbText
 10
483.8919463269253
 20
194.7163725734796
 30
0.0
 40
2.0
  1

 41
0.8
 72
     1
 11
483.8919463269253
 21
195.7163725734796
 31
0.0
100
AcDbAttribute
  2
Date 5
 70
     0
 74
     2
  0
ATTRIB
  5
7E1
330
7C1
100
AcDbEntity
  8
3
100
AcDbText
 10
496.3919463269253
 20
194.7163725734796
 30
0.0
 40
2.0
  1

 72
     1
 11
496.3919463269253
 21
195.7163725734796
 31
0.0
100
AcDbAttribute
  2
Initial5
 70
     0
 74
     2
  0
ATTRIB
  5
7E2
330
7C1
100
AcDbEntity
  8
3
100
AcDbText
 10
418.3919463269253
 20
199.7163725734796
 30
0.0
 40
2.0
  1

 72
     1
 11
418.3919463269253
 21
200.7163725734796
 31
0.0
100
AcDbAttribute
  2
Rev6
 70
     0
 74
     2
  0
ATTRIB
  5
7E3
330
7C1
100
AcDbEntity
  8
3
100
AcDbText
 10
423.8919463269253
 20
199.7163725734796
 30
0.0
 40
2.0
  1

100
AcDbAttribute
  2
Change 6
 70
     0
  0
ATTRIB
  5
7E4
330
7C1
100
AcDbEntity
  8
3
100
AcDbText
 10
483.8919463269253
 20
199.7163725734796
 30
0.0
 40
2.0
  1

 41
0.8
 72
     1
 11
483.8919463269253
 21
200.7163725734796
 31
0.0
100
AcDbAttribute
  2
Date 6
 70
     0
 74
     2
  0
ATTRIB
  5
7E5
330
7C1
100
AcDbEntity
  8
3
100
AcDbText
 10
496.3919463269253
 20
199.7163725734796
 30
0.0
 40
2.0
  1

 72
     1
 11
496.3919463269253
 21
200.7163725734796
 31
0.0
100
AcDbAttribute
  2
Initial6
 70
     0
 74
     2
  0
SEQEND
  5
7E6
330
7C1
100
AcDbEntity
  8
0
  0
DIMENSION
  5
7EF
330
25
100
AcDbEntity
  8
0
100
AcDbDimension
  2
*D7
 10
398.8126112213614
 20
250.4793232951123
 30
0.0
 11
377.8126112213614
 21
252.9793232951123
 31
0.0
 70
    32
 71
     5
 42
41.99999999999994
  3
MCC
100
AcDbAlignedDimension
 13
356.8126112213614
 23
262.4579464993922
 33
0.0
 14
398.8126112213614
 24
262.4579464993924
 34
0.0
100
AcDbRotatedDimension
  0
DIMENSION
  5
7FC
330
25
100
AcDbEntity
  8
0
100
AcDbDimension
  2
*D8
 10
472.6833500466287
 20
274.3579464993922
 30
0.0
 11
470.1833500466285
 21
262.2150893565351
 31
0.0
 70
    32
 71
     5
 42
6.200000000000102
  3
MCC
100
AcDbAlignedDimension
 13
446.0272104992273
 23
280.5579464993924
 33
0.0
 14
446.0272104992273
 24
274.3579464993922
 34
0.0
 50
90.0
100
AcDbRotatedDimension
  0
DIMENSION
  5
80B
330
25
100
AcDbEntity
  8
0
100
AcDbDimension
  2
*D9
 10
348.976507717452
 20
283.9579464993924
 30
0.0
 11
346.4765077174519
 21
277.4579464993924
 31
0.0
 70
    32
 71
     5
 42
13.00000000000011
  3
MCC
100
AcDbAlignedDimension
 13
377.8126112213613
 23
270.9579464993923
 33
0.0
 14
377.8126112213613
 24
283.9579464993924
 34
0.0
 50
90.0
100
AcDbRotatedDimension
  0
DIMENSION
  5
818
330
25
100
AcDbEntity
  8
0
100
AcDbDimension
  2
*D10
 10
409.223975028385
 20
262.4579464993924
 30
0.0
 11
406.7239750283849
 21
277.4579464993924
 31
0.0
 70
    32
 71
     5
 42
29.99999999999989
  3
MCC
100
AcDbAlignedDimension
 13
398.8126112213614
 23
292.4579464993923
 33
0.0
 14
398.8126112213614
 24
262.4579464993924
 34
0.0
 50
90.0
100
AcDbRotatedDimension
  0
DIMENSION
  5
825
330
25
100
AcDbEntity
  8
0
100
AcDbDimension
  2
*D11
 10
464.4201542692253
 20
298.1733267653007
 30
0.0
 11
449.2701542692254
 21
300.6733267653006
 31
0.0
 70
    32
 71
     5
 42
30.29999999999996
  3
MCC
100
AcDbAlignedDimension
 13
434.1201542692253
 23
292.4579464993923
 33
0.0
 14
464.4201542692253
 24
285.9579464993923
 34
0.0
100
AcDbRotatedDimension
  0
ENDSEC
  0
SECTION
  2
OBJECTS
  0
DICTIONARY
  5
19
330
0
100
AcDbDictionary
281
     1
  3
ACAD_COLOR
350
4D1
  3
ACAD_GROUP
350
1A
  3
ACAD_LAYOUT
350
319
  3
ACAD_MATERIAL
350
4D0
  3
ACAD_MLINESTYLE
350
1B
  3
ACAD_PLOTSETTINGS
350
31A
  3
ACAD_PLOTSTYLENAME
350
317
  3
ACAD_TABLESTYLE
350
4D2
  3
ACDBHEADERROUNDTRIPXREC
350
87F
  3
AcDbVariableDictionary
350
537
  0
DICTIONARY
  5
35F
330
25
100
AcDbDictionary
280
     1
281
     1
  3
ACAD_LAYOUTSELFREF
360
46A
  0
DICTIONARY
  5
35D
330
22
100
AcDbDictionary
280
     1
281
     1
  3
ACAD_LAYOUTSELFREF
360
469
  0
DICTIONARY
  5
5CC
330
5CB
100
AcDbDictionary
280
     1
281
     1
  0
DICTIONARY
  5
4D1
102
{ACAD_REACTORS
330
19
102
}
330
19
100
AcDbDictionary
281
     1
  0
DICTIONARY
  5
1A
102
{ACAD_REACTORS
330
19
102
}
330
19
100
AcDbDictionary
281
     1
  0
DICTIONARY
  5
319
102
{ACAD_REACTORS
330
19
102
}
330
19
100
AcDbDictionary
281
     1
  3
Layout1
350
31C
  3
Model
350
31B
  0
DICTIONARY
  5
4D0
102
{ACAD_REACTORS
330
19
102
}
330
19
100
AcDbDictionary
281
     1
  0
DICTIONARY
  5
1B
102
{ACAD_REACTORS
330
19
102
}
330
19
100
AcDbDictionary
281
     1
  3
STANDARD
350
28
  0
DICTIONARY
  5
31A
102
{ACAD_REACTORS
330
19
102
}
330
19
100
AcDbDictionary
281
     1
  0
ACDBDICTIONARYWDFLT
  5
317
102
{ACAD_REACTORS
330
19
102
}
330
19
100
AcDbDictionary
281
     1
  3
Normal
350
318
100
AcDbDictionaryWithDefault
340
318
  0
DICTIONARY
  5
4D2
102
{ACAD_REACTORS
330
19
102
}
330
19
100
AcDbDictionary
281
     1
  3
Standard
350
4D3
  0
DICTIONARY
  5
87F
102
{ACAD_REACTORS
330
19
102
}
330
19
100
AcDbDictionary
281
     1
  0
DICTIONARY
  5
537
102
{ACAD_REACTORS
330
19
102
}
330
19
100
AcDbDictionary
281
     1
  3
CTABLESTYLE
350
538
  3
DIMASSOC
350
87C
  3
PROJECTNAME
350
87D
  0
XRECORD
  5
46A
102
{ACAD_REACTORS
330
35F
102
}
330
35F
100
AcDbXrecord
280
     1
340
25
  0
XRECORD
  5
469
102
{ACAD_REACTORS
330
35D
102
}
330
35D
100
AcDbXrecord
280
     1
340
22
  0
LAYOUT
  5
31C
102
{ACAD_XDICTIONARY
360
882
102
}
102
{ACAD_REACTORS
330
319
102
}
330
319
100
AcDbPlotSettings
  1

  2
C:\PROGRAM FILES\AUTOCAD LT 2000I\plotters\A3 LaserJet 4V.pc3
  4

  6

 40
0.0
 41
0.0
 42
0.0
 43
0.0
 44
0.0
 45
0.0
 46
0.0
 47
0.0
 48
0.0
 49
0.0
140
0.0
141
0.0
142
1.0
143
1.0
 70
   688
 72
     0
 73
     0
 74
     5
  7
MCC.ctb
 75
    16
147
1.0
148
0.0
149
0.0
100
AcDbLayout
  1
Layout1
 70
     0
 71
     1
 10
0.0
 20
0.0
 11
12.0
 21
9.0
 12
0.0
 22
0.0
 32
0.0
 14
1.000000000000000E+20
 24
1.000000000000000E+20
 34
1.000000000000000E+20
 15
-1.000000000000000E+20
 25
-1.000000000000000E+20
 35
-1.000000000000000E+20
146
0.0
 13
0.0
 23
0.0
 33
0.0
 16
1.0
 26
0.0
 36
0.0
 17
0.0
 27
1.0
 37
0.0
 76
     0
330
22
  0
LAYOUT
  5
31B
102
{ACAD_XDICTIONARY
360
880
102
}
102
{ACAD_REACTORS
330
319
102
}
330
319
100
AcDbPlotSettings
  1

  2
none_device
  4
ISO_A4_(210.00_x_297.00_MM)
  6

 40
7.5
 41
20.0
 42
7.5
 43
20.0
 44
210.0
 45
297.0
 46
0.0
 47
0.0
 48
0.0
 49
0.0
140
0.0
141
0.0
142
1.0
143
2.105918712204682
 70
 11952
 72
     1
 73
     1
 74
     0
  7
MCC.ctb
 75
     0
147
0.4748521366017503
148
-136.2804684173138
149
-132.0596580439566
100
AcDbLayout
  1
Model
 70
     1
 71
     0
 10
0.0
 20
0.0
 11
12.0
 21
9.0
 12
0.0
 22
0.0
 32
0.0
 14
0.0
 24
0.0
 34
0.0
 15
0.0
 25
0.0
 35
0.0
146
0.0
 13
0.0
 23
0.0
 33
0.0
 16
1.0
 26
0.0
 36
0.0
 17
0.0
 27
1.0
 37
0.0
 76
     0
330
25
1001
ACAD_PSEXT
1000
None
1000
None
1000
Not applicable
1000
The layout will not be plotted unless a new plotter configuration name is selected.
1070
     0
  0
MLINESTYLE
  5
28
102
{ACAD_REACTORS
330
1B
102
}
330
1B
100
AcDbMlineStyle
  2
STANDARD
 70
     0
  3

 62
     0
 51
90.0
 52
90.0
 71
     2
 49
0.5
 62
   256
  6
BYLAYER
 49
-0.5
 62
   256
  6
BYLAYER
  0
ACDBPLACEHOLDER
  5
318
102
{ACAD_REACTORS
330
317
102
}
330
317
  0
TABLESTYLE
  5
4D3
102
{ACAD_REACTORS
330
4D2
102
}
330
4D2
100
AcDbTableStyle
  3
Standard
 70
     0
 71
     0
 40
1.5
 41
1.5
280
     0
281
     0
  7
STANDARD
140
4.5
170
     2
 62
     0
 63
     7
283
     0
274
    -2
284
     1
 64
     0
275
    -2
285
     1
 65
     0
276
    -2
286
     1
 66
     0
277
    -2
287
     1
 67
     0
278
    -2
288
     1
 68
     0
279
    -2
289
     1
 69
     0
  7
STANDARD
140
6.0
170
     5
 62
     0
 63
     7
283
     0
274
    -2
284
     1
 64
     0
275
    -2
285
     1
 65
     0
276
    -2
286
     1
 66
     0
277
    -2
287
     1
 67
     0
278
    -2
288
     1
 68
     0
279
    -2
289
     1
 69
     0
  7
STANDARD
140
4.5
170
     5
 62
     0
 63
     7
283
     0
274
    -2
284
     1
 64
     0
275
    -2
285
     1
 65
     0
276
    -2
286
     1
 66
     0
277
    -2
287
     1
 67
     0
278
    -2
288
     1
 68
     0
279
    -2
289
     1
 69
     0
  0
DICTIONARYVAR
  5
538
102
{ACAD_REACTORS
330
537
102
}
330
537
100
DictionaryVariables
280
     0
  1
STANDARD
  0
DICTIONARYVAR
  5
87C
102
{ACAD_REACTORS
330
537
102
}
330
537
100
DictionaryVariables
280
     0
  1
1
  0
DICTIONARYVAR
  5
87D
102
{ACAD_REACTORS
330
537
102
}
330
537
100
DictionaryVariables
280
     0
  1

  0
DICTIONARY
  5
882
330
31C
100
AcDbDictionary
280
     1
281
     1
  3
ACAD_XREC_ROUNDTRIP
360
883
  0
DICTIONARY
  5
880
330
31B
100
AcDbDictionary
280
     1
281
     1
  3
ACAD_XREC_ROUNDTRIP
360
881
  0
XRECORD
  5
883
102
{ACAD_REACTORS
330
882
102
}
330
882
100
AcDbXrecord
280
     1
102
SHADEPLOT
 70
     0
102
SHADEPLOTRESLEVEL
 70
     2
102
SHADEPLOTCUSTOMDPI
 70
   300
  0
XRECORD
  5
881
102
{ACAD_REACTORS
330
880
102
}
330
880
100
AcDbXrecord
280
     1
102
SHADEPLOT
 70
     0
102
SHADEPLOTRESLEVEL
 70
     2
102
SHADEPLOTCUSTOMDPI
 70
   300
  0
ENDSEC
  0
EOF
