  0
SECTION
  2
HEADER
  9
$ACADVER
  1
AC1009
  9
$INSBASE
 10
0
 20
0
  9
$EXTMIN
 10
-45.1863964540808
 20
51.8393511666382
  9
$EXTMAX
 10
279.458489172501
 20
345.082774843379
  9
$LIMMIN
 10
-45.1863964540808
 20
51.8393511666382
  9
$LIMMAX
 10
279.458489172501
 20
345.082774843379
  9
$VIEWCTR
 10
10
 20
10
  9
$VIEWSIZE
 40
10
  9
$SNAPMODE
 70
0
  9
$SNAPUNIT
 10
1
 20
1
  9
$SNAPBASE
 10
0
 20
0
  9
$SNAPANG
 50
0
  9
$SNAPSTYLE
 70
0
  9
$SNAPISOPAIR
 70
0
  9
$GRIDMODE
 70
0
  9
$GRIDUNIT
 10
0
 20
0
  9
$ORTHOMODE
 70
0
  9
$REGENMODE
 70
1
  9
$FILLMODE
 70
1
  9
$QTEXTMODE
 70
0
  9
$DRAGMODE
 70
2
  9
$LTSCALE
 40
1
  9
$OSMODE
 70
0
  9
$ATTMODE
 70
1
  9
$TEXTSIZE
 40
3.5
  9
$TRACEWID
 40
0.5
  9
$TEXTSTYLE
  7
STANDARD
  9
$CLAYER
  8
0
  9
$CELTYPE
  6
BYLAYER
  9
$CECOLOR
 62
256
  9
$DIMSCALE
 40
1
  9
$DIMASZ
 40
0.18
  9
$DIMEXO
 40
0.0625
  9
$DIMDLI
 40
0.38
  9
$DIMRND
 40
0
  9
$DIMDLE
 40
0
  9
$DIMEXE
 40
0.18
  9
$DIMTP
 40
0
  9
$DIMTM
 40
0
  9
$DIMTXT
 40
0.18
  9
$DIMCEN
 40
0.09
  9
$DIMTSZ
 40
0
  9
$DIMTOL
 70
0
  9
$DIMLIM
 70
0
  9
$DIMTIH
 70
1
  9
$DIMTOH
 70
1
  9
$DIMSE1
 70
0
  9
$DIMSE2
 70
0
  9
$DIMTAD
 70
0
  9
$DIMZIN
 70
0
  9
$DIMBLK
  1

  9
$DIMASO
 70
1
  9
$DIMSHO
 70
1
  9
$DIMPOST
  1

  9
$DIMAPOST
  1

  9
$DIMALT
 70
0
  9
$DIMALTD
 70
2
  9
$DIMALTF
 40
25.4
  9
$DIMLFAC
 40
1
  9
$DIMTOFL
 70
0
  9
$DIMTVP
 40
0
  9
$DIMTIX
 70
0
  9
$DIMSOXD
 70
0
  9
$DIMSAH
 70
0
  9
$DIMBLK1
  1

  9
$DIMBLK2
  1

  9
$DIMSTYLE
  2
*UNNAMED
  9
$DIMCLRD
 70
0
  9
$DIMCLRE
 70
0
  9
$DIMCLRT
 70
0
  9
$DIMTFAC
 40
1
  9
$DIMGAP
 40
0.09
  9
$LUNITS
 70
2
  9
$LUPREC
 70
4
  9
$AXISMODE
 70
0
  9
$AXISUNIT
 10
0
 20
0
  9
$SKETCHINC
 40
0.1
  9
$FILLETRAD
 40
2
  9
$AUNITS
 70
0
  9
$AUPREC
 70
0
  9
$MENU
  1
ACAD
  9
$ELEVATION
 40
0
  9
$THICKNESS
 40
0
  9
$VIEWDIR
 10
0
 20
0
 30
1
  9
$LIMCHECK
 70
0
  9
$BLIPMODE
 70
1
  9
$CHAMFERA
 40
0
  9
$CHAMFERB
 40
0
  9
$FASTZOOM
 70
1
  9
$SKPOLY
 70
0
  9
$ANGBASE
 50
0
  9
$ANGDIR
 70
0
  9
$PDMODE
 70
0
  9
$PDSIZE
 40
0
  9
$PLINEWID
 40
0
  9
$COORDS
 70
2
  0
ENDSEC
  0
SECTION
  2
TABLES
  0
TABLE
  2
DIMSTYLE
 70
3
  0
DIMSTYLE
  2
DMST_1
 70
0
  3

  4

  5

  6

  7

 40
1
 41
3.200000000000001
 42
1
 43
7
 44
1
 45
0
 46
0
 47
0
 48
0
140
3.200000000000001
141
0
142
0
143
25.4
144
1
145
0
146
1
147
0.09
 71
0
 72
0
 73
0
 74
0
 75
0
 76
0
 77
1
 78
9
170
0
171
2
172
0
173
0
174
0
175
0
176
2
177
2
178
2
  0
DIMSTYLE
  2
DMST_2
 70
0
  3

  4

  5

  6

  7

 40
1
 41
3.5
 42
2.2
 43
7
 44
6.336
 45
0
 46
0
 47
0
 48
0
140
3.5
141
0
142
0
143
25.4
144
1
145
0
146
1
147
0.9
 71
0
 72
0
 73
0
 74
0
 75
0
 76
0
 77
0
 78
1
170
0
171
2
172
0
173
0
174
0
175
0
176
2
177
2
178
2
  0
DIMSTYLE
  2
DMST_3
 70
0
  3

  4

  5

  6

  7

 40
1
 41
2.25
 42
2.2
 43
7
 44
6.336
 45
0
 46
0
 47
0
 48
0
140
3.5
141
0
142
0
143
25.4
144
1
145
0
146
1
147
0.9
 71
0
 72
0
 73
0
 74
0
 75
0
 76
0
 77
0
 78
1
170
0
171
2
172
0
173
0
174
0
175
0
176
2
177
2
178
2
  0
ENDTAB
  0
TABLE
  2
LTYPE
 70
9
  0
LTYPE
  2
CONTINUOUS
 70
64
  3
Solid line
 72
65
 73
0
 40
0
  0
LTYPE
  2
BORDER
 70
64
  3
__ __ . __ __ .
 72
65
 73
6
 40
14.95075131175048
 49
4.271643231928708
 49
-2.135821615964354
 49
4.271643231928708
 49
-2.135821615964354
 49
0
 49
-2.135821615964354
  0
LTYPE
  2
CENTER
 70
64
  3
____ _ ____ _
 72
65
 73
4
 40
17.08657292771483
 49
10.67910807982177
 49
-2.135821615964354
 49
2.135821615964354
 49
-2.135821615964354
  0
LTYPE
  2
DASHDOT
 70
64
  3
__ . __ . __ .
 72
65
 73
4
 40
8.543286463857417
 49
4.271643231928708
 49
-2.135821615964354
 49
0
 49
-2.135821615964354
  0
LTYPE
  2
DASHED
 70
64
  3
__ __ __ __ __
 72
65
 73
2
 40
6.407464847893063
 49
4.271643231928708
 49
-2.135821615964354
  0
LTYPE
  2
DIVIDE
 70
64
  3
__ . . __ . . 
 72
65
 73
6
 40
10.67910807982177
 49
4.271643231928708
 49
-2.135821615964354
 49
0
 49
-2.135821615964354
 49
0
 49
-2.135821615964354
  0
LTYPE
  2
DOT
 70
64
  3
..............
 72
65
 73
4
 40
4.271643231928708
 49
0
 49
-2.135821615964354
 49
0
 49
-2.135821615964354
  0
LTYPE
  2
HIDDEN
 70
64
  3
_ _ _ _ _ _ _
 72
65
 73
2
 40
3.203732423946531
 49
2.135821615964354
 49
-1.067910807982177
  0
LTYPE
  2
PHANTOM
 70
64
  3
_____ _ _ _____ _ _ 
 72
65
 73
6
 40
21.35821615964354
 49
10.67910807982177
 49
-2.135821615964354
 49
2.135821615964354
 49
-2.135821615964354
 49
2.135821615964354
 49
-2.135821615964354
  0
ENDTAB
  0
TABLE
  2
LAYER
 70
4
  0
LAYER
  2
DEFAULT_1
 70
0
 62
7
  6
CONTINUOUS
  0
LAYER
  2
0
 70
0
 62
7
  6
CONTINUOUS
  0
LAYER
  2
1
 70
0
 62
7
  6
CONTINUOUS
  0
ENDTAB
  0
TABLE
  2
STYLE
 70
4
  0
STYLE
  2
STANDARD
 70
0
 40
0
 41
1
 50
0
 71
0
 42
3.5
  3
txt
  4

  0
STYLE
  2
SIMPLEX
 70
0
 40
0
 41
1
 50
0
 71
0
 42
3.5
  3
simplex
  4

  0
STYLE
  2
COMPLEX
 70
0
 40
0
 41
1
 50
0
 71
0
 42
3.5
  3
complex
  4

  0
STYLE
  2
ITALIC
 70
0
 40
0
 41
1
 50
0
 71
0
 42
3.5
  3
italic
  4

  0
ENDTAB
  0
TABLE
  2
VIEW
 70
0
  0
ENDTAB
  0
ENDSEC
  0
SECTION
  2
BLOCKS
  0
BLOCK
  8
1
  2
*D0
 70
1
 10
0
 20
0
 30
0
  0
LINE
  8
1
 62
2
 10
-19.9952161639001
 20
78.81291952970599
 30
0
 11
-19.9952161639001
 21
94.81291952290599
 31
0
  0
LINE
  8
1
 62
2
 10
8.674414974655811
 20
94.81291952290599
 30
0
 11
-20.9952161639001
 21
94.81291952290599
 31
0
  0
LINE
  8
1
 62
2
 10
13.62362145965581
 20
78.81291952970599
 30
0
 11
-20.9952161639001
 21
78.81291952970599
 31
0
  0
SOLID
  8
1
 62
2
 10
-19.9952161639001
 20
94.81291952290599
 30
0
 11
-19.5792161639001
 21
91.61291952290598
 31
0
 12
-20.4112161639001
 22
91.61291952290598
 32
0
 13
-20.4112161639001
 23
91.61291952290598
 33
0
  0
SOLID
  8
1
 62
2
 10
-19.9952161639001
 20
78.81291952970599
 30
0
 11
-20.4112161639001
 21
82.012919529706
 31
0
 12
-19.5792161639001
 22
82.012919529706
 32
0
 13
-19.5792161639001
 23
82.012919529706
 33
0
  0
TEXT
  8
1
 62
2
 10
-21.1952161639001
 20
84.89291952630599
 30
0
 40
3.200000000000001
  1
16
 50
90
 41
0.9
  0
ENDBLK
  8
0
  0
BLOCK
  8
1
  2
*D1
 70
1
 10
0
 20
0
 30
0
  0
LINE
  8
1
 62
2
 10
-19.9952161639001
 20
94.81291952290599
 30
0
 11
-19.9952161639001
 21
174.812919522906
 31
0
  0
LINE
  8
1
 62
2
 10
8.674414974655811
 20
174.812919522906
 30
0
 11
-20.9952161639001
 21
174.812919522906
 31
0
  0
LINE
  8
1
 62
2
 10
8.674414974655811
 20
94.81291952290599
 30
0
 11
-20.9952161639001
 21
94.81291952290599
 31
0
  0
SOLID
  8
1
 62
2
 10
-19.9952161639001
 20
174.812919522906
 30
0
 11
-19.5792161639001
 21
171.612919522906
 31
0
 12
-20.4112161639001
 22
171.612919522906
 32
0
 13
-20.4112161639001
 23
171.612919522906
 33
0
  0
SOLID
  8
1
 62
2
 10
-19.9952161639001
 20
94.81291952290599
 30
0
 11
-20.4112161639001
 21
98.01291952290599
 31
0
 12
-19.5792161639001
 22
98.01291952290599
 32
0
 13
-19.5792161639001
 23
98.01291952290599
 33
0
  0
TEXT
  8
1
 62
2
 10
-21.1952161639001
 20
132.412919522906
 30
0
 40
3.200000000000001
  1
80
 50
90
 41
0.9
  0
ENDBLK
  8
0
  0
BLOCK
  8
1
  2
*D2
 70
1
 10
0
 20
0
 30
0
  0
LINE
  8
1
 62
2
 10
-19.8352161639001
 20
174.812919522906
 30
0
 11
-19.8352161639001
 21
255.312919522906
 31
0
  0
LINE
  8
1
 62
2
 10
-4.12558502534419
 20
255.312919522906
 30
0
 11
-20.8352161639001
 21
255.312919522906
 31
0
  0
LINE
  8
1
 62
2
 10
8.674414974655811
 20
174.812919522906
 30
0
 11
-20.8352161639001
 21
174.812919522906
 31
0
  0
SOLID
  8
1
 62
2
 10
-19.8352161639001
 20
255.312919522906
 30
0
 11
-19.4192161639001
 21
252.112919522906
 31
0
 12
-20.2512161639001
 22
252.112919522906
 32
0
 13
-20.2512161639001
 23
252.112919522906
 33
0
  0
SOLID
  8
1
 62
2
 10
-19.8352161639001
 20
174.812919522906
 30
0
 11
-20.2512161639001
 21
178.012919522906
 31
0
 12
-19.4192161639001
 22
178.012919522906
 32
0
 13
-19.4192161639001
 23
178.012919522906
 33
0
  0
TEXT
  8
1
 62
2
 10
-21.0352161639001
 20
215.209259685436
 30
0
 40
3.200000000000001
  1
81
 50
90
 41
0.9
  0
ENDBLK
  8
0
  0
BLOCK
  8
1
  2
*D3
 70
1
 10
0
 20
0
 30
0
  0
LINE
  8
1
 62
2
 10
278.458489172501
 20
262.562919522906
 30
0
 11
278.458489172501
 21
278.214213326611
 31
0
  0
LINE
  8
1
 62
2
 10
278.458489172501
 20
248.062919522906
 30
0
 11
278.458489172501
 21
262.562919522906
 31
0
  0
LINE
  8
1
 62
2
 10
259.3321067274558
 20
262.562919522906
 30
0
 11
279.458489172501
 21
262.562919522906
 31
0
  0
LINE
  8
1
 62
2
 10
251.5921175810558
 20
248.062919522906
 30
0
 11
279.458489172501
 21
248.062919522906
 31
0
  0
SOLID
  8
1
 62
2
 10
278.458489172501
 20
248.062919522906
 30
0
 11
278.042489172501
 21
251.262919522906
 31
0
 12
278.874489172501
 22
251.262919522906
 32
0
 13
278.874489172501
 23
251.262919522906
 33
0
  0
SOLID
  8
1
 62
2
 10
278.458489172501
 20
262.562919522906
 30
0
 11
278.874489172501
 21
259.362919522906
 31
0
 12
278.042489172501
 22
259.362919522906
 32
0
 13
278.042489172501
 23
259.362919522906
 33
0
  0
TEXT
  8
1
 62
2
 10
276.938489172501
 20
270.374213326611
 30
0
 40
3.200000000000001
  1
14,5
 50
90
 41
0.9
  0
TEXT
  8
1
 62
2
 10
276.938489172501
 20
266.854213326611
 30
0
 40
3.200000000000001
  1
Ö
 50
90
 41
0.9
  0
ENDBLK
  8
0
  0
BLOCK
  8
1
  2
*D4
 70
1
 10
0
 20
0
 30
0
  0
LINE
  8
1
 62
2
 10
177.4421175810558
 20
340.682774843379
 30
0
 11
241.4421175810558
 21
340.682774843379
 31
0
  0
LINE
  8
1
 62
2
 10
241.4421175810558
 20
332.719489251906
 30
0
 11
241.4421175810558
 21
341.682774843379
 31
0
  0
LINE
  8
1
 62
2
 10
177.4421175810558
 20
188.812919522906
 30
0
 11
177.4421175810558
 21
341.682774843379
 31
0
  0
SOLID
  8
1
 62
2
 10
241.4421175810558
 20
340.682774843379
 30
0
 11
238.2421175810558
 21
340.266774843379
 31
0
 12
238.2421175810558
 22
341.098774843379
 32
0
 13
238.2421175810558
 23
341.098774843379
 33
0
  0
SOLID
  8
1
 62
2
 10
177.4421175810558
 20
340.682774843379
 30
0
 11
180.6421175810558
 21
341.098774843379
 31
0
 12
180.6421175810558
 22
340.266774843379
 32
0
 13
180.6421175810558
 23
340.266774843379
 33
0
  0
TEXT
  8
1
 62
2
 10
207.0421175810558
 20
341.882774843379
 30
0
 40
3.200000000000001
  1
64
 41
0.9
  0
ENDBLK
  8
0
  0
BLOCK
  8
1
  2
*D5
 70
1
 10
0
 20
0
 30
0
  0
LINE
  8
1
 62
2
 10
156.148052028548
 20
187.812919522906
 30
0
 11
156.148052028548
 21
255.312919522906
 31
0
  0
LINE
  8
1
 62
2
 10
214.9421175810558
 20
255.312919522906
 30
0
 11
155.148052028548
 21
255.312919522906
 31
0
  0
LINE
  8
1
 62
2
 10
176.4421175810558
 20
187.812919522906
 30
0
 11
155.148052028548
 21
187.812919522906
 31
0
  0
SOLID
  8
1
 62
2
 10
156.148052028548
 20
187.812919522906
 30
0
 11
155.732052028548
 21
191.012919522906
 31
0
 12
156.564052028548
 22
191.012919522906
 32
0
 13
156.564052028548
 23
191.012919522906
 33
0
  0
SOLID
  8
1
 62
2
 10
156.148052028548
 20
255.312919522906
 30
0
 11
156.564052028548
 21
252.112919522906
 31
0
 12
155.732052028548
 22
252.112919522906
 32
0
 13
155.732052028548
 23
252.112919522906
 33
0
  0
TEXT
  8
1
 62
2
 10
154.948052028548
 20
219.162919522906
 30
0
 40
3.200000000000001
  1
68
 50
90
 41
0.9
  0
ENDBLK
  8
0
  0
BLOCK
  8
1
  2
*D6
 70
1
 10
0
 20
0
 30
0
  0
LINE
  8
1
 62
2
 10
155.631470000652
 20
78.81291952290599
 30
0
 11
155.631470000652
 21
187.812919522906
 31
0
  0
LINE
  8
1
 62
2
 10
176.4421175810558
 20
187.812919522906
 30
0
 11
154.631470000652
 21
187.812919522906
 31
0
  0
LINE
  8
1
 62
2
 10
176.4421175810558
 20
78.81291952290599
 30
0
 11
154.631470000652
 21
78.81291952290599
 31
0
  0
SOLID
  8
1
 62
2
 10
155.631470000652
 20
78.81291952290599
 30
0
 11
155.215470000652
 21
82.01291952290599
 31
0
 12
156.047470000652
 22
82.01291952290599
 32
0
 13
156.047470000652
 23
82.01291952290599
 33
0
  0
SOLID
  8
1
 62
2
 10
155.631470000652
 20
187.812919522906
 30
0
 11
156.047470000652
 21
184.612919522906
 31
0
 12
155.215470000652
 22
184.612919522906
 32
0
 13
155.215470000652
 23
184.612919522906
 33
0
  0
TEXT
  8
1
 62
2
 10
154.431470000652
 20
129.952919522906
 30
0
 40
3.200000000000001
  1
109
 50
90
 41
0.9
  0
ENDBLK
  8
0
  0
BLOCK
  8
1
  2
*D7
 70
1
 10
0
 20
0
 30
0
  0
LINE
  8
1
 62
2
 10
-6.37558502534419
 20
52.8393511666382
 30
0
 11
35.62441497465581
 21
52.8393511666382
 31
0
  0
LINE
  8
1
 62
2
 10
35.62441497465581
 20
132.312919522906
 30
0
 11
35.62441497465581
 21
51.8393511666382
 31
0
  0
LINE
  8
1
 62
2
 10
-6.37558502534419
 20
132.312919522906
 30
0
 11
-6.37558502534419
 21
51.8393511666382
 31
0
  0
SOLID
  8
1
 62
2
 10
-6.37558502534419
 20
52.8393511666382
 30
0
 11
-3.175585025344188
 21
53.2553511666382
 31
0
 12
-3.175585025344188
 22
52.42335116663821
 32
0
 13
-3.175585025344188
 23
52.42335116663821
 33
0
  0
SOLID
  8
1
 62
2
 10
35.62441497465581
 20
52.8393511666382
 30
0
 11
32.4244149746558
 21
52.42335116663821
 31
0
 12
32.4244149746558
 22
53.2553511666382
 32
0
 13
32.4244149746558
 23
53.2553511666382
 33
0
  0
TEXT
  8
1
 62
2
 10
12.22441497465581
 20
54.0393511666382
 30
0
 40
3.200000000000001
  1
42
 41
0.9
  0
ENDBLK
  8
0
  0
BLOCK
  8
1
  2
*D8
 70
1
 10
0
 20
0
 30
0
  0
LINE
  8
1
 62
2
 10
-40.7863964540808
 20
78.81291952970601
 30
0
 11
-40.7863964540808
 21
325.719489251906
 31
0
  0
LINE
  8
1
 62
2
 10
1.874414974655814
 20
325.719489251906
 30
0
 11
-41.7863964540808
 21
325.719489251906
 31
0
  0
LINE
  8
1
 62
2
 10
13.62362145965581
 20
78.81291952970601
 30
0
 11
-41.7863964540808
 21
78.81291952970601
 31
0
  0
SOLID
  8
1
 62
2
 10
-40.7863964540808
 20
78.81291952970601
 30
0
 11
-41.20239645408081
 21
82.01291952970601
 31
0
 12
-40.3703964540808
 22
82.01291952970601
 32
0
 13
-40.3703964540808
 23
82.01291952970601
 33
0
  0
SOLID
  8
1
 62
2
 10
-40.7863964540808
 20
325.719489251906
 30
0
 11
-40.3703964540808
 21
322.519489251906
 31
0
 12
-41.20239645408081
 22
322.519489251906
 32
0
 13
-41.20239645408081
 23
322.519489251906
 33
0
  0
TEXT
  8
1
 62
2
 10
-41.9863964540808
 20
202.216475118494
 30
0
 40
3.200000000000001
  1
247
 50
90
 41
0.9
  0
ENDBLK
  8
0
  0
BLOCK
  8
0
  2
*D9
 70
1
 10
0
 20
0
 30
0
  0
LINE
  8
0
 62
2
 10
17.5936295738558
 20
339.210312004661
 30
0
 11
41.1377616730558
 21
339.210312004661
 31
0
  0
LINE
  8
0
 62
2
 10
-11.8755850253442
 20
339.210312004661
 30
0
 11
11.6685470738558
 21
339.210312004661
 31
0
  0
LINE
  8
0
 62
2
 10
41.1377616730558
 20
323.725093968906
 30
0
 11
41.1377616730558
 21
341.410312004661
 31
0
  0
LINE
  8
0
 62
2
 10
-11.8755850253442
 20
323.725093968906
 30
0
 11
-11.8755850253442
 21
341.410312004661
 31
0
  0
SOLID
  8
0
 62
2
 10
-11.8755850253442
 20
339.210312004661
 30
0
 11
-8.375585025344201
 21
339.665312004661
 31
0
 12
-8.375585025344201
 22
338.755312004661
 32
0
 13
-8.375585025344201
 23
338.755312004661
 33
0
  0
SOLID
  8
0
 62
2
 10
41.1377616730558
 20
339.210312004661
 30
0
 11
37.6377616730558
 21
338.755312004661
 31
0
 12
37.6377616730558
 22
339.665312004661
 32
0
 13
37.6377616730558
 23
339.665312004661
 33
0
  0
TEXT
  8
0
 62
2
 10
12.5685470738558
 20
337.460312004661
 30
0
 40
3.5
  1
53
 41
0.7071570000000002
  0
ENDBLK
  8
0
  0
BLOCK
  8
0
  2
*D10
 70
1
 10
0
 20
0
 30
0
  0
LINE
  8
0
 62
2
 10
19.12441497465581
 20
67.8358001645009
 30
0
 11
23.62441497465581
 21
67.8358001645009
 31
0
  0
LINE
  8
0
 62
2
 10
10.12441497465581
 20
67.8358001645009
 30
0
 11
5.62441497465581
 21
67.8358001645009
 31
0
  0
LINE
  8
0
 62
2
 10
19.12441497465581
 20
91.612919536506
 30
0
 11
19.12441497465581
 21
65.63580016450089
 31
0
  0
LINE
  8
0
 62
2
 10
10.12441497465581
 20
91.61291952290598
 30
0
 11
10.12441497465581
 21
65.63580016450089
 31
0
  0
SOLID
  8
0
 62
2
 10
10.12441497465581
 20
67.8358001645009
 30
0
 11
7.87441497465581
 21
67.54330016450089
 31
0
 12
7.87441497465581
 22
68.1283001645009
 32
0
 13
7.87441497465581
 23
68.1283001645009
 33
0
  0
SOLID
  8
0
 62
2
 10
19.12441497465581
 20
67.8358001645009
 30
0
 11
21.37441497465581
 21
68.1283001645009
 31
0
 12
21.37441497465581
 22
67.54330016450089
 32
0
 13
21.37441497465581
 23
67.54330016450089
 33
0
  0
TEXT
  8
0
 62
2
 10
13.79939847465581
 20
66.0858001645009
 30
0
 40
3.5
  1
9
 41
0.7071570000000002
  0
ENDBLK
  8
0
  0
BLOCK
  8
0
  2
*D11
 70
1
 10
0
 20
0
 30
0
  0
LINE
  8
0
 62
2
 10
222.0296588310558
 20
60.1666594154899
 30
0
 11
260.6921175810558
 21
60.1666594154899
 31
0
  0
LINE
  8
0
 62
2
 10
177.4421175810558
 20
60.1666594154899
 30
0
 11
216.1045763310558
 21
60.1666594154899
 31
0
  0
LINE
  8
0
 62
2
 10
260.6921175810558
 20
227.112919522906
 30
0
 11
260.6921175810558
 21
57.9666594154899
 31
0
  0
LINE
  8
0
 62
2
 10
177.4421175810558
 20
79.912919522906
 30
0
 11
177.4421175810558
 21
57.9666594154899
 31
0
  0
SOLID
  8
0
 62
2
 10
177.4421175810558
 20
60.1666594154899
 30
0
 11
180.9421175810558
 21
60.6216594154899
 31
0
 12
180.9421175810558
 22
59.71165941548991
 32
0
 13
180.9421175810558
 23
59.71165941548991
 33
0
  0
SOLID
  8
0
 62
2
 10
260.6921175810558
 20
60.1666594154899
 30
0
 11
257.1921175810558
 21
59.71165941548991
 31
0
 12
257.1921175810558
 22
60.6216594154899
 32
0
 13
257.1921175810558
 23
60.6216594154899
 33
0
  0
TEXT
  8
0
 62
2
 10
217.0045763310558
 20
58.4166594154899
 30
0
 40
3.5
  1
83
 41
0.7071570000000002
  0
ENDBLK
  8
0
  0
BLOCK
  8
0
  2
*D12
 70
1
 10
0
 20
0
 30
0
  0
LINE
  8
0
 62
2
 10
186.4421175810558
 20
69.8463745826158
 30
0
 11
190.9421175810558
 21
69.8463745826158
 31
0
  0
LINE
  8
0
 62
2
 10
177.4421175810558
 20
69.8463745826158
 30
0
 11
172.9421175810558
 21
69.8463745826158
 31
0
  0
LINE
  8
0
 62
2
 10
186.4421175810558
 20
80.59817500870598
 30
0
 11
186.4421175810558
 21
67.64637458261579
 31
0
  0
LINE
  8
0
 62
2
 10
177.4421175810558
 20
75.61291952290598
 30
0
 11
177.4421175810558
 21
67.64637458261579
 31
0
  0
SOLID
  8
0
 62
2
 10
177.4421175810558
 20
69.8463745826158
 30
0
 11
175.1921175810558
 21
69.55387458261579
 31
0
 12
175.1921175810558
 22
70.1388745826158
 32
0
 13
175.1921175810558
 23
70.1388745826158
 33
0
  0
SOLID
  8
0
 62
2
 10
186.4421175810558
 20
69.8463745826158
 30
0
 11
188.6921175810558
 21
70.1388745826158
 31
0
 12
188.6921175810558
 22
69.55387458261579
 32
0
 13
188.6921175810558
 23
69.55387458261579
 33
0
  0
TEXT
  8
0
 62
2
 10
181.1171010810558
 20
68.0963745826158
 30
0
 40
3.5
  1
9
 41
0.7071570000000002
  0
ENDBLK
  8
0
  0
ENDSEC
  0
SECTION
  2
ENTITIES
  0
POLYLINE
  8
0
 62
7
 66
1
  0
VERTEX
  8
0
 10
41.12441497465581
 20
320.525093146706
 30
0
  0
VERTEX
  8
0
 10
41.10676915745582
 20
320.790252086306
 30
0
  0
VERTEX
  8
0
 10
41.05414325025579
 20
321.050729569906
 30
0
  0
VERTEX
  8
0
 10
40.96746637905581
 20
321.301926807906
 30
0
  0
VERTEX
  8
0
 10
40.84826885185579
 20
321.539408847306
 30
0
  0
VERTEX
  8
0
 10
40.69865513845581
 20
321.758982884706
 30
0
  0
VERTEX
  8
0
 10
40.52126671385581
 20
321.956772291106
 30
0
  0
VERTEX
  8
0
 10
40.31923542285581
 20
322.129285052306
 30
0
  0
VERTEX
  8
0
 10
40.09612818445579
 20
322.273475424106
 30
0
  0
VERTEX
  8
0
 10
39.85588401785581
 20
322.386797702106
 30
0
  0
VERTEX
  8
0
 10
39.6027444914558
 20
322.467251170706
 30
0
  0
SEQEND
  8
0
  0
POLYLINE
  8
0
 62
7
 66
1
  0
VERTEX
  8
0
 10
39.6027444914558
 20
322.467251170706
 30
0
  0
VERTEX
  8
0
 10
39.59319167165582
 20
322.468645670306
 30
0
  0
VERTEX
  8
0
 10
39.57217006885581
 20
322.472755636906
 30
0
  0
VERTEX
  8
0
 10
39.53952114525579
 20
322.479622100506
 30
0
  0
VERTEX
  8
0
 10
39.49586448265579
 20
322.489121971306
 30
0
  0
SEQEND
  8
0
  0
POLYLINE
  8
0
 62
7
 66
1
  0
VERTEX
  8
0
 10
18.3428526228558
 20
320.753638037306
 30
0
  0
VERTEX
  8
0
 10
18.3252945960558
 20
321.003638599506
 30
0
  0
VERTEX
  8
0
 10
18.2747711916558
 20
321.249481513906
 30
0
  0
VERTEX
  8
0
 10
18.1921226450558
 20
321.487078263106
 30
0
  0
VERTEX
  8
0
 10
18.0787234516558
 20
321.712477468906
 30
0
  0
VERTEX
  8
0
 10
17.9364595092558
 20
321.921930604906
 30
0
  0
VERTEX
  8
0
 10
17.76769675405581
 20
322.111954338506
 30
0
  0
VERTEX
  8
0
 10
17.5752418132558
 20
322.279388459106
 30
0
  0
VERTEX
  8
0
 10
17.36229532965581
 20
322.421448435506
 30
0
  0
VERTEX
  8
0
 10
17.1323987334558
 20
322.535771723906
 30
0
  0
VERTEX
  8
0
 10
16.88937534485581
 20
322.620457058306
 30
0
  0
VERTEX
  8
0
 10
16.63726679105581
 20
322.674096070506
 30
0
  0
VERTEX
  8
0
 10
16.3802657906558
 20
322.695796710906
 30
0
  0
SEQEND
  8
0
  0
POLYLINE
  8
0
 62
7
 66
1
  0
VERTEX
  8
0
 10
41.12441497465581
 20
320.525093146706
 30
0
  0
VERTEX
  8
0
 10
41.0961362288558
 20
320.526501621906
 30
0
  0
VERTEX
  8
0
 10
41.03285485165581
 20
320.530618207706
 30
0
  0
SEQEND
  8
0
  0
POLYLINE
  8
0
 62
7
 66
1
  0
VERTEX
  8
0
 10
18.3428500572558
 20
313.160620568106
 30
0
  0
VERTEX
  8
0
 10
18.32007113545581
 20
313.190486175706
 30
0
  0
VERTEX
  8
0
 10
18.26195569545581
 20
313.219351405106
 30
0
  0
VERTEX
  8
0
 10
18.16924226485581
 20
313.247361179706
 30
0
  0
VERTEX
  8
0
 10
18.04306680545581
 20
313.274080729906
 30
0
  0
VERTEX
  8
0
 10
17.88494459865581
 20
313.299212929706
 30
0
  0
VERTEX
  8
0
 10
17.6967964914558
 20
313.322489772906
 30
0
  0
VERTEX
  8
0
 10
17.48091071965581
 20
313.343600106706
 30
0
  0
VERTEX
  8
0
 10
17.2398437924558
 20
313.362376244106
 30
0
  0
VERTEX
  8
0
 10
16.97643017085581
 20
313.378592651906
 30
0
  0
VERTEX
  8
0
 10
16.69383009145581
 20
313.392111716306
 30
0
  0
VERTEX
  8
0
 10
16.39542760245581
 20
313.402737681906
 30
0
  0
VERTEX
  8
0
 10
16.08473425285581
 20
313.410419438706
 30
0
  0
VERTEX
  8
0
 10
15.7654048968558
 20
313.415026080506
 30
0
  0
VERTEX
  8
0
 10
15.4412116352558
 20
313.416601242506
 30
0
  0
SEQEND
  8
0
  0
POLYLINE
  8
0
 62
7
 66
1
  0
VERTEX
  8
0
 10
18.3428500572558
 20
320.753638037306
 30
0
  0
VERTEX
  8
0
 10
18.32009280685581
 20
320.726992869706
 30
0
  0
VERTEX
  8
0
 10
18.2620294984558
 20
320.701234918106
 30
0
  0
VERTEX
  8
0
 10
18.1693874410558
 20
320.676233716906
 30
0
  0
VERTEX
  8
0
 10
18.0432921074558
 20
320.652380663106
 30
0
  0
VERTEX
  8
0
 10
17.8852487528558
 20
320.629944556706
 30
0
  0
VERTEX
  8
0
 10
17.6971701574558
 20
320.609162724106
 30
0
  0
VERTEX
  8
0
 10
17.48133881425581
 20
320.590312005506
 30
0
  0
VERTEX
  8
0
 10
17.2403038160558
 20
320.573542660306
 30
0
  0
VERTEX
  8
0
 10
16.9768937466558
 20
320.559055274706
 30
0
  0
VERTEX
  8
0
 10
16.69426546825581
 20
320.546975709306
 30
0
  0
VERTEX
  8
0
 10
16.3958008084558
 20
320.537481840906
 30
0
  0
VERTEX
  8
0
 10
16.0850122214558
 20
320.530618208506
 30
0
  0
VERTEX
  8
0
 10
15.7655575660558
 20
320.526501622706
 30
0
  0
VERTEX
  8
0
 10
15.4412116352558
 20
320.525093146706
 30
0
  0
SEQEND
  8
0
  0
POLYLINE
  8
0
 62
7
 66
1
  0
VERTEX
  8
0
 10
16.3802657782558
 20
322.695796061306
 30
0
  0
VERTEX
  8
0
 10
16.3722176928558
 20
322.669261669906
 30
0
  0
VERTEX
  8
0
 10
16.35255796185581
 20
322.643552788106
 30
0
  0
VERTEX
  8
0
 10
16.3208577098558
 20
322.618520188906
 30
0
  0
VERTEX
  8
0
 10
16.27783157965581
 20
322.594611553706
 30
0
  0
VERTEX
  8
0
 10
16.22385730045581
 20
322.572156088106
 30
0
  0
VERTEX
  8
0
 10
16.15971432605581
 20
322.551359989906
 30
0
  0
VERTEX
  8
0
 10
16.08606395025581
 20
322.532484352306
 30
0
  0
VERTEX
  8
0
 10
16.0038769422558
 20
322.515693694906
 30
0
  0
VERTEX
  8
0
 10
15.91404015465581
 20
322.501201585506
 30
0
  0
VERTEX
  8
0
 10
15.81770663245581
 20
322.489121971306
 30
0
  0
VERTEX
  8
0
 10
15.71594098405581
 20
322.479622100306
 30
0
  0
VERTEX
  8
0
 10
15.61010049545581
 20
322.472755636706
 30
0
  0
VERTEX
  8
0
 10
15.50208869205581
 20
322.468645670106
 30
0
  0
VERTEX
  8
0
 10
15.39146926465581
 20
322.467251170706
 30
0
  0
SEQEND
  8
0
  0
POLYLINE
  8
0
 62
7
 66
1
  0
VERTEX
  8
0
 10
-11.5423864377442
 20
320.546975709306
 30
0
  0
VERTEX
  8
0
 10
-11.77067820414419
 20
320.530618208506
 30
0
  0
VERTEX
  8
0
 10
-11.83395958134419
 20
320.526501622706
 30
0
  0
VERTEX
  8
0
 10
-11.86223832694419
 20
320.525093146706
 30
0
  0
SEQEND
  8
0
  0
POLYLINE
  8
0
 62
7
 66
1
  0
VERTEX
  8
0
 10
10.9059981482558
 20
320.753638037906
 30
0
  0
VERTEX
  8
0
 10
10.9235559836558
 20
321.003637533506
 30
0
  0
VERTEX
  8
0
 10
10.97407878665581
 20
321.249479429306
 30
0
  0
VERTEX
  8
0
 10
11.0567263392558
 20
321.487075260506
 30
0
  0
VERTEX
  8
0
 10
11.1701241742558
 20
321.712473698306
 30
0
  0
VERTEX
  8
0
 10
11.31238643225581
 20
321.921926261506
 30
0
  0
VERTEX
  8
0
 10
11.48114722585581
 20
322.111949656906
 30
0
  0
VERTEX
  8
0
 10
11.6735999840558
 20
322.279383706906
 30
0
  0
VERTEX
  8
0
 10
11.8865441278558
 20
322.421443905706
 30
0
  0
VERTEX
  8
0
 10
12.11643829625581
 20
322.535767725706
 30
0
  0
VERTEX
  8
0
 10
12.3594592424558
 20
322.620453908706
 30
0
  0
VERTEX
  8
0
 10
12.61156541425581
 20
322.674094083906
 30
0
  0
VERTEX
  8
0
 10
12.86856416865581
 20
322.695796190106
 30
0
  0
SEQEND
  8
0
  0
POLYLINE
  8
0
 62
7
 66
1
  0
VERTEX
  8
0
 10
-10.11517084594419
 20
322.515693694906
 30
0
  0
VERTEX
  8
0
 10
-10.23368783494419
 20
322.489121971306
 30
0
  0
VERTEX
  8
0
 10
-10.2773444977442
 20
322.479622100306
 30
0
  0
VERTEX
  8
0
 10
-10.3099934217442
 20
322.472755636706
 30
0
  0
VERTEX
  8
0
 10
-10.3310150243442
 20
322.468645670106
 30
0
  0
VERTEX
  8
0
 10
-10.3405678437442
 20
322.467251170706
 30
0
  0
SEQEND
  8
0
  0
POLYLINE
  8
0
 62
7
 66
1
  0
VERTEX
  8
0
 10
12.86856417105581
 20
322.695796061306
 30
0
  0
VERTEX
  8
0
 10
12.8096932546558
 20
322.989876799506
 30
0
  0
VERTEX
  8
0
 10
12.69251048825581
 20
323.262605299306
 30
0
  0
VERTEX
  8
0
 10
12.52398410205581
 20
323.513420828906
 30
0
  0
VERTEX
  8
0
 10
12.31577836045581
 20
323.744005583706
 30
0
  0
VERTEX
  8
0
 10
12.0766169314558
 20
323.955355933506
 30
0
  0
VERTEX
  8
0
 10
11.81165922765581
 20
324.148968621906
 30
0
  0
VERTEX
  8
0
 10
11.52591644805581
 20
324.326466273906
 30
0
  0
VERTEX
  8
0
 10
11.2229125616558
 20
324.488467613506
 30
0
  0
VERTEX
  8
0
 10
10.90617346145581
 20
324.635839713506
 30
0
  0
VERTEX
  8
0
 10
10.57620858485581
 20
324.769460154106
 30
0
  0
VERTEX
  8
0
 10
10.23471867145581
 20
324.890359189506
 30
0
  0
VERTEX
  8
0
 10
9.880343635855809
 20
324.998945871106
 30
0
  0
VERTEX
  8
0
 10
9.512269932255805
 20
325.096124233906
 30
0
  0
VERTEX
  8
0
 10
9.130735432055801
 20
325.181439582106
 30
0
  0
VERTEX
  8
0
 10
8.734662044455803
 20
325.254911193906
 30
0
  0
VERTEX
  8
0
 10
8.323964301255799
 20
325.316021181306
 30
0
  0
VERTEX
  8
0
 10
7.895716553455799
 20
325.364490046706
 30
0
  0
VERTEX
  8
0
 10
7.452830886855807
 20
325.399621899506
 30
0
  0
VERTEX
  8
0
 10
6.993268438255811
 20
325.420639486506
 30
0
  0
VERTEX
  8
0
 10
6.520799698655807
 20
325.427507400106
 30
0
  0
VERTEX
  8
0
 10
6.035393033255801
 20
325.419706188906
 30
0
  0
VERTEX
  8
0
 10
5.539260854655808
 20
325.397910733906
 30
0
  0
VERTEX
  8
0
 10
3.53470200845581
 20
325.3624268595061
 30
0
  0
VERTEX
  8
0
 10
3.019029076855802
 20
325.313842283706
 30
0
  0
VERTEX
  8
0
 10
2.491957409255804
 20
325.252703275906
 30
0
  0
VERTEX
  8
0
 10
1.951154605855805
 20
325.179440004306
 30
0
  0
VERTEX
  8
0
 10
1.397812821255798
 20
325.094920526506
 30
0
  0
VERTEX
  8
0
 10
0.8239358130557974
 20
324.998377444306
 30
0
  0
VERTEX
  8
0
 10
0.2239775690558048
 20
324.889418482506
 30
0
  0
VERTEX
  8
0
 10
-0.4049575945442001
 20
324.767786328706
 30
0
  0
VERTEX
  8
0
 10
-1.066122772144198
 20
324.633202859506
 30
0
  0
VERTEX
  8
0
 10
-1.762875638944195
 20
324.485338233906
 30
0
  0
VERTEX
  8
0
 10
-2.495379271544195
 20
324.324577957906
 30
0
  0
VERTEX
  8
0
 10
-3.275790346944191
 20
324.148497869106
 30
0
  0
VERTEX
  8
0
 10
-4.114653037544201
 20
323.955057947906
 30
0
  0
VERTEX
  8
0
 10
-5.016125580744202
 20
323.743491272906
 30
0
  0
VERTEX
  8
0
 10
-5.98636492134419
 20
323.512616214706
 30
0
  0
VERTEX
  8
0
 10
-7.029843779944201
 20
323.261636878706
 30
0
  0
VERTEX
  8
0
 10
-8.152953965744189
 20
322.989214772906
 30
0
  0
SEQEND
  8
0
  0
POLYLINE
  8
0
 62
7
 66
1
  0
VERTEX
  8
0
 10
10.90597989205581
 20
320.753638037306
 30
0
  0
VERTEX
  8
0
 10
10.85767127505581
 20
321.047799769906
 30
0
  0
VERTEX
  8
0
 10
10.75453209745581
 20
321.320569724506
 30
0
  0
VERTEX
  8
0
 10
10.6082470208558
 20
321.571376570506
 30
0
  0
VERTEX
  8
0
 10
10.42764933545581
 20
321.801934298506
 30
0
  0
VERTEX
  8
0
 10
10.22005525265581
 20
322.013271358706
 30
0
  0
VERTEX
  8
0
 10
9.99092297905581
 20
322.206873041506
 30
0
  0
VERTEX
  8
0
 10
9.743873772655803
 20
322.384361346506
 30
0
  0
VERTEX
  8
0
 10
9.482573457055807
 20
322.546354597106
 30
0
  0
VERTEX
  8
0
 10
9.20960372165581
 20
322.693719213906
 30
0
  0
VERTEX
  8
0
 10
8.926203627855799
 20
322.827332905106
 30
0
  0
VERTEX
  8
0
 10
8.632889447055803
 20
322.948225831706
 30
0
  0
VERTEX
  8
0
 10
8.329430421255808
 20
323.056807054306
 30
0
  0
VERTEX
  8
0
 10
8.014365777655797
 20
323.153980685706
 30
0
  0
VERTEX
  8
0
 10
7.687859478055799
 20
323.239291731306
 30
0
  0
VERTEX
  8
0
 10
7.349162773255799
 20
323.312759017506
 30
0
  0
VERTEX
  8
0
 10
6.997463959655804
 20
323.373865193506
 30
0
  0
VERTEX
  8
0
 10
6.630899714255804
 20
323.422330901706
 30
0
  0
VERTEX
  8
0
 10
6.250200961855811
 20
323.457460988706
 30
0
  0
VERTEX
  8
0
 10
5.854981432855809
 20
323.478479100306
 30
0
  0
VERTEX
  8
0
 10
3.946516242255811
 20
323.485349480306
 30
0
  0
VERTEX
  8
0
 10
3.525800541855801
 20
323.477552986906
 30
0
  0
VERTEX
  8
0
 10
3.093760827055803
 20
323.455763423106
 30
0
  0
VERTEX
  8
0
 10
2.652402629455807
 20
323.420285741506
 30
0
  0
VERTEX
  8
0
 10
2.199837674455807
 20
323.371707353706
 30
0
  0
VERTEX
  8
0
 10
1.734945550655809
 20
323.310573556306
 30
0
  0
VERTEX
  8
0
 10
1.256565305255805
 20
323.237315648706
 30
0
  0
VERTEX
  8
0
 10
0.7649133830557986
 20
323.152802846506
 30
0
  0
VERTEX
  8
0
 10
0.2540641378558064
 20
323.056266699306
 30
0
  0
VERTEX
  8
0
 10
-0.2818308161441934
 20
322.947314014306
 30
0
  0
VERTEX
  8
0
 10
-0.8446873381441975
 20
322.825688233706
 30
0
  0
VERTEX
  8
0
 10
-1.437669933344196
 20
322.691111093706
 30
0
  0
VERTEX
  8
0
 10
-2.063466463544202
 20
322.543254518106
 30
0
  0
VERTEX
  8
0
 10
-2.722352877944189
 20
322.382506515506
 30
0
  0
VERTEX
  8
0
 10
-3.424817132144199
 20
322.206440568106
 30
0
  0
VERTEX
  8
0
 10
-4.180538433144193
 20
322.013014217506
 30
0
  0
VERTEX
  8
0
 10
-4.993335104944194
 20
321.801463293106
 30
0
  0
VERTEX
  8
0
 10
-5.868208595944196
 20
321.570622863506
 30
0
  0
VERTEX
  8
0
 10
-6.809916276144193
 20
321.319652753706
 30
0
  0
VERTEX
  8
0
 10
-7.82516707974419
 20
321.047170917706
 30
0
  0
VERTEX
  8
0
 10
-8.90940036254419
 20
320.753638037306
 30
0
  0
SEQEND
  8
0
  0
POLYLINE
  8
0
 62
7
 66
1
  0
VERTEX
  8
0
 10
27.15843415845581
 20
310.241376832906
 30
0
  0
VERTEX
  8
0
 10
26.77291463705581
 20
310.191721328306
 30
0
  0
VERTEX
  8
0
 10
26.3948876528558
 20
310.152764471906
 30
0
  0
VERTEX
  8
0
 10
26.0248219008558
 20
310.124338976906
 30
0
  0
VERTEX
  8
0
 10
25.66252711245581
 20
310.106946704506
 30
0
  0
VERTEX
  8
0
 10
25.30753060465581
 20
310.101062859906
 30
0
  0
VERTEX
  8
0
 10
24.96132338525581
 20
310.106600123106
 30
0
  0
VERTEX
  8
0
 10
24.6251089412558
 20
310.123780661106
 30
0
  0
VERTEX
  8
0
 10
24.29883447965581
 20
310.152151217306
 30
0
  0
VERTEX
  8
0
 10
23.9827615774558
 20
310.191285190906
 30
0
  0
VERTEX
  8
0
 10
23.67708436825581
 20
310.241324781906
 30
0
  0
SEQEND
  8
0
  0
POLYLINE
  8
0
 62
7
 66
1
  0
VERTEX
  8
0
 10
-10.28721160034419
 20
311.463910434906
 30
0
  0
VERTEX
  8
0
 10
-10.3308373973442
 20
311.474539845306
 30
0
  0
VERTEX
  8
0
 10
-10.36346377734419
 20
311.482222232906
 30
0
  0
VERTEX
  8
0
 10
-10.38447371334419
 20
311.486820440706
 30
0
  0
VERTEX
  8
0
 10
-10.3940249913442
 20
311.488380187506
 30
0
  0
SEQEND
  8
0
  0
POLYLINE
  8
0
 62
7
 66
1
  0
VERTEX
  8
0
 10
7.083345094455808
 20
310.241065617106
 30
0
  0
VERTEX
  8
0
 10
6.778643721855801
 20
310.191169316506
 30
0
  0
VERTEX
  8
0
 10
6.463166619655809
 20
310.152124636706
 30
0
  0
VERTEX
  8
0
 10
6.136914914055808
 20
310.123775940706
 30
0
  0
VERTEX
  8
0
 10
5.800556323055801
 20
310.1065901399061
 30
0
  0
VERTEX
  8
0
 10
3.954576924455807
 20
310.1010612999062
 30
0
  0
VERTEX
  8
0
 10
3.599805003655803
 20
310.106952319106
 30
0
  0
VERTEX
  8
0
 10
3.237422777855798
 20
310.124348528506
 30
0
  0
VERTEX
  8
0
 10
2.867196634455809
 20
310.152776696506
 30
0
  0
VERTEX
  8
0
 10
2.489113126455806
 20
310.191736436706
 30
0
  0
VERTEX
  8
0
 10
2.103586630455808
 20
310.241394544106
 30
0
  0
SEQEND
  8
0
  0
POLYLINE
  8
0
 62
7
 66
1
  0
VERTEX
  8
0
 10
-8.90940036254419
 20
313.160620568106
 30
0
  0
VERTEX
  8
0
 10
-9.235612230544191
 20
313.190486175706
 30
0
  0
VERTEX
  8
0
 10
-10.17177640774419
 20
313.274080729906
 30
0
  0
SEQEND
  8
0
  0
POLYLINE
  8
0
 62
7
 66
1
  0
VERTEX
  8
0
 10
26.0600041548558
 20
307.251251475306
 30
0
  0
VERTEX
  8
0
 10
26.33532624165581
 20
307.143488115906
 30
0
  0
VERTEX
  8
0
 10
26.5826280204558
 20
307.051722163106
 30
0
  0
VERTEX
  8
0
 10
26.8032542310558
 20
306.974459612106
 30
0
  0
VERTEX
  8
0
 10
27.00002572025581
 20
306.916182478306
 30
0
  0
VERTEX
  8
0
 10
27.17551714525581
 20
306.881372777306
 30
0
  0
VERTEX
  8
0
 10
27.3308650934558
 20
306.868536504306
 30
0
  0
SEQEND
  8
0
  0
POLYLINE
  8
0
 62
7
 66
1
  0
VERTEX
  8
0
 10
26.34761293505581
 20
308.726902501306
 30
0
  0
VERTEX
  8
0
 10
26.7398974926558
 20
308.701662332306
 30
0
  0
VERTEX
  8
0
 10
27.21403800405581
 20
308.674009076106
 30
0
  0
SEQEND
  8
0
  0
POLYLINE
  8
0
 62
7
 66
1
  0
VERTEX
  8
0
 10
-11.77074912674419
 20
313.410419438706
 30
0
  0
VERTEX
  8
0
 10
-11.8339812873442
 20
313.415026080506
 30
0
  0
VERTEX
  8
0
 10
-11.86223832694419
 20
313.416601242506
 30
0
  0
SEQEND
  8
0
  0
POLYLINE
  8
0
 62
7
 66
1
  0
VERTEX
  8
0
 10
5.814005858055808
 20
308.777847184506
 30
0
  0
VERTEX
  8
0
 10
6.151860262855806
 20
308.775443371906
 30
0
  0
VERTEX
  8
0
 10
6.489634941655808
 20
308.764924344706
 30
0
  0
VERTEX
  8
0
 10
6.826411866655803
 20
308.750442785306
 30
0
  0
VERTEX
  8
0
 10
7.155098641855801
 20
308.732364186106
 30
0
  0
VERTEX
  8
0
 10
7.467742560455804
 20
308.712522329906
 30
0
  0
VERTEX
  8
0
 10
8.092123999855801
 20
308.678597171906
 30
0
  0
SEQEND
  8
0
  0
POLYLINE
  8
0
 62
7
 66
1
  0
VERTEX
  8
0
 10
21.5776775646558
 20
308.701463965506
 30
0
  0
VERTEX
  8
0
 10
23.67558798005581
 20
308.7362574571059
 30
0
  0
VERTEX
  8
0
 10
23.8636771456558
 20
308.746508397106
 30
0
  0
VERTEX
  8
0
 10
24.0639071150558
 20
308.756323608506
 30
0
  0
VERTEX
  8
0
 10
24.2739464736558
 20
308.764941710706
 30
0
  0
VERTEX
  8
0
 10
24.49157293165581
 20
308.771943639506
 30
0
  0
VERTEX
  8
0
 10
24.7138673002558
 20
308.776258513506
 30
0
  0
VERTEX
  8
0
 10
24.9386166718558
 20
308.778055122106
 30
0
  0
VERTEX
  8
0
 10
25.1624527194558
 20
308.776494947706
 30
0
  0
VERTEX
  8
0
 10
25.3830730302558
 20
308.772422732106
 30
0
  0
VERTEX
  8
0
 10
25.59743179625581
 20
308.765607492706
 30
0
  0
VERTEX
  8
0
 10
25.8033533260558
 20
308.757097417306
 30
0
  0
VERTEX
  8
0
 10
25.99836637005581
 20
308.747297414706
 30
0
  0
SEQEND
  8
0
  0
POLYLINE
  8
0
 62
7
 66
1
  0
VERTEX
  8
0
 10
7.970243032455798
 20
307.251251796106
 30
0
  0
VERTEX
  8
0
 10
8.309621568255807
 20
307.168362723106
 30
0
  0
VERTEX
  8
0
 10
8.64316161225581
 20
307.094074096106
 30
0
  0
VERTEX
  8
0
 10
8.969141090455807
 20
307.027674443506
 30
0
  0
VERTEX
  8
0
 10
9.288697633455811
 20
306.971298180306
 30
0
  0
VERTEX
  8
0
 10
9.603383441255801
 20
306.926740005706
 30
0
  0
VERTEX
  8
0
 10
9.911300308255804
 20
306.894307595106
 30
0
  0
VERTEX
  8
0
 10
10.2112792724558
 20
306.875020095506
 30
0
  0
VERTEX
  8
0
 10
10.5029605172558
 20
306.868537791506
 30
0
  0
SEQEND
  8
0
  0
POLYLINE
  8
0
 62
7
 66
1
  0
VERTEX
  8
0
 10
16.38443080405581
 20
311.232399513106
 30
0
  0
VERTEX
  8
0
 10
16.3763129886558
 20
311.262164289306
 30
0
  0
VERTEX
  8
0
 10
16.35655205545581
 20
311.290988288906
 30
0
  0
VERTEX
  8
0
 10
16.3247168090558
 20
311.319035687306
 30
0
  0
VERTEX
  8
0
 10
16.28152929765581
 20
311.345813958306
 30
0
  0
VERTEX
  8
0
 10
16.2273711644558
 20
311.370963028906
 30
0
  0
VERTEX
  8
0
 10
16.1630298686558
 20
311.394249713706
 30
0
  0
VERTEX
  8
0
 10
16.0891744584558
 20
311.415381856706
 30
0
  0
VERTEX
  8
0
 10
16.00678085405581
 20
311.434176297506
 30
0
  0
VERTEX
  8
0
 10
15.91674518685581
 20
311.450394290306
 30
0
  0
VERTEX
  8
0
 10
15.8202157234558
 20
311.463910434906
 30
0
  0
VERTEX
  8
0
 10
15.7182539860558
 20
311.474539845306
 30
0
  0
VERTEX
  8
0
 10
15.6122202828558
 20
311.482222232906
 30
0
  0
VERTEX
  8
0
 10
15.50402030145581
 20
311.486820440706
 30
0
  0
VERTEX
  8
0
 10
15.39321674245581
 20
311.488380187506
 30
0
  0
SEQEND
  8
0
  0
POLYLINE
  8
0
 62
7
 66
1
  0
VERTEX
  8
0
 10
2.187010373055799
 20
308.681571089106
 30
0
  0
VERTEX
  8
0
 10
2.706764431255806
 20
308.712246552706
 30
0
  0
VERTEX
  8
0
 10
2.997520872855802
 20
308.732001728706
 30
0
  0
VERTEX
  8
0
 10
3.311605824055803
 20
308.750073900506
 30
0
  0
VERTEX
  8
0
 10
3.639982693855799
 20
308.764717446306
 30
0
  0
VERTEX
  8
0
 10
3.972820223255809
 20
308.7754872403061
 30
0
  0
VERTEX
  8
0
 10
5.813991629455799
 20
308.777829435706
 30
0
  0
SEQEND
  8
0
  0
POLYLINE
  8
0
 62
7
 66
1
  0
VERTEX
  8
0
 10
3.202098710055807
 20
307.251222111106
 30
0
  0
VERTEX
  8
0
 10
3.402450365855799
 20
307.325521111906
 30
0
  0
VERTEX
  8
0
 10
3.621178939655806
 20
307.393404766506
 30
0
  0
VERTEX
  8
0
 10
3.860997532455826
 20
307.457757820906
 30
0
  0
VERTEX
  8
0
 10
5.61748958845584
 20
307.5099260365059
 30
0
  0
VERTEX
  8
0
 10
5.8852471076558
 20
307.541255174106
 30
0
  0
VERTEX
  8
0
 10
6.165943184255809
 20
307.554629979906
 30
0
  0
SEQEND
  8
0
  0
POLYLINE
  8
0
 62
7
 66
1
  0
VERTEX
  8
0
 10
0.5551276792558042
 20
308.696881945706
 30
0
  0
VERTEX
  8
0
 10
0.6944548526558094
 20
308.680962522906
 30
0
  0
VERTEX
  8
0
 10
0.8433882166558107
 20
308.668484489106
 30
0
  0
VERTEX
  8
0
 10
1.002195935055809
 20
308.659590357506
 30
0
  0
VERTEX
  8
0
 10
1.171144719855803
 20
308.654367219106
 30
0
  0
VERTEX
  8
0
 10
1.350267099255802
 20
308.652834039306
 30
0
  0
VERTEX
  8
0
 10
1.540466457455807
 20
308.654932201306
 30
0
  0
VERTEX
  8
0
 10
1.742217077855798
 20
308.660543941506
 30
0
  0
VERTEX
  8
0
 10
1.957089947855806
 20
308.669502752906
 30
0
  0
VERTEX
  8
0
 10
2.187010373055799
 20
308.681571089106
 30
0
  0
SEQEND
  8
0
  0
POLYLINE
  8
0
 62
7
 66
1
  0
VERTEX
  8
0
 10
19.25259443565581
 20
308.696882475706
 30
0
  0
VERTEX
  8
0
 10
19.49136090785581
 20
308.677067569506
 30
0
  0
VERTEX
  8
0
 10
19.74100919265581
 20
308.663091381306
 30
0
  0
VERTEX
  8
0
 10
20.0014842328558
 20
308.655042995906
 30
0
  0
VERTEX
  8
0
 10
20.2726561854558
 20
308.652867357306
 30
0
  0
VERTEX
  8
0
 10
20.55337364165581
 20
308.656312141706
 30
0
  0
VERTEX
  8
0
 10
20.8471198920558
 20
308.665032019706
 30
0
  0
VERTEX
  8
0
 10
21.15744234805581
 20
308.678648965506
 30
0
  0
VERTEX
  8
0
 10
21.5776775646558
 20
308.701463965506
 30
0
  0
SEQEND
  8
0
  0
POLYLINE
  8
0
 62
7
 66
1
  0
VERTEX
  8
0
 10
41.12441497465581
 20
313.416601242506
 30
0
  0
VERTEX
  8
0
 10
41.09615793505581
 20
313.415026081306
 30
0
  0
VERTEX
  8
0
 10
41.03292577425582
 20
313.410419439506
 30
0
  0
VERTEX
  8
0
 10
40.9354308822558
 20
313.402737680906
 30
0
  0
VERTEX
  8
0
 10
40.6424716764558
 20
313.378592652306
 30
0
  0
SEQEND
  8
0
  0
POLYLINE
  8
0
 62
7
 66
1
  0
VERTEX
  8
0
 10
8.092123999855801
 20
308.678597171906
 30
0
  0
VERTEX
  8
0
 10
8.403579141855801
 20
308.664959950706
 30
0
  0
VERTEX
  8
0
 10
8.699179880255798
 20
308.656234140306
 30
0
  0
VERTEX
  8
0
 10
8.9814255538558
 20
308.652856691106
 30
0
  0
VERTEX
  8
0
 10
9.252622979255804
 20
308.655146488106
 30
0
  0
VERTEX
  8
0
 10
9.512161624255811
 20
308.663277992706
 30
0
  0
VERTEX
  8
0
 10
9.76007589685581
 20
308.677243956306
 30
0
  0
VERTEX
  8
0
 10
9.996231070055799
 20
308.696882231106
 30
0
  0
SEQEND
  8
0
  0
POLYLINE
  8
0
 62
7
 66
1
  0
VERTEX
  8
0
 10
27.21403800405581
 20
308.674009076106
 30
0
  0
VERTEX
  8
0
 10
27.5674267100558
 20
308.658949781906
 30
0
  0
VERTEX
  8
0
 10
27.89077613305581
 20
308.652894278906
 30
0
  0
VERTEX
  8
0
 10
28.18713143125581
 20
308.656847130306
 30
0
  0
VERTEX
  8
0
 10
28.4591956052558
 20
308.671444890506
 30
0
  0
VERTEX
  8
0
 10
28.70705427265581
 20
308.696878452706
 30
0
  0
SEQEND
  8
0
  0
POLYLINE
  8
0
 62
7
 66
1
  0
VERTEX
  8
0
 10
37.5970877728558
 20
312.986116109506
 30
0
  0
VERTEX
  8
0
 10
36.33863331505582
 20
312.606570933506
 30
0
  0
VERTEX
  8
0
 10
35.65545874265581
 20
312.401956575306
 30
0
  0
VERTEX
  8
0
 10
34.92994102725581
 20
312.185989568906
 30
0
  0
VERTEX
  8
0
 10
34.18184353745581
 20
311.965389294706
 30
0
  0
VERTEX
  8
0
 10
33.4169055046558
 20
311.742868964906
 30
0
  0
VERTEX
  8
0
 10
32.67063933005581
 20
311.528775769306
 30
0
  0
VERTEX
  8
0
 10
31.9840865640558
 20
311.336156429506
 30
0
  0
VERTEX
  8
0
 10
31.3384790796558
 20
311.159625560906
 30
0
  0
VERTEX
  8
0
 10
30.73042697845581
 20
310.998471928506
 30
0
  0
VERTEX
  8
0
 10
30.1546424760558
 20
310.851719806306
 30
0
  0
VERTEX
  8
0
 10
29.60607507865581
 20
310.718219692106
 30
0
  0
VERTEX
  8
0
 10
29.0814538072558
 20
310.597781680906
 30
0
  0
VERTEX
  8
0
 10
28.5770181678558
 20
310.489768327906
 30
0
  0
VERTEX
  8
0
 10
28.0901379664558
 20
310.394372750906
 30
0
  0
VERTEX
  8
0
 10
27.61675829285581
 20
310.311573165306
 30
0
  0
VERTEX
  8
0
 10
27.15843415845581
 20
310.241376832906
 30
0
  0
SEQEND
  8
0
  0
POLYLINE
  8
0
 62
7
 66
1
  0
VERTEX
  8
0
 10
10.90597989205581
 20
313.160620568106
 30
0
  0
VERTEX
  8
0
 10
10.89605196125581
 20
313.042957673306
 30
0
  0
VERTEX
  8
0
 10
10.87732373905581
 20
312.921909008706
 30
0
  0
VERTEX
  8
0
 10
10.84913683785581
 20
312.797952757506
 30
0
  0
VERTEX
  8
0
 10
10.8102151836558
 20
312.669654369906
 30
0
  0
VERTEX
  8
0
 10
10.7589851426558
 20
312.535997631906
 30
0
  0
VERTEX
  8
0
 10
10.6934382260558
 20
312.396205720306
 30
0
  0
VERTEX
  8
0
 10
10.61108555085581
 20
312.249249070706
 30
0
  0
VERTEX
  8
0
 10
10.50906035825581
 20
312.094869694706
 30
0
  0
VERTEX
  8
0
 10
10.3829137918558
 20
311.931172967506
 30
0
  0
VERTEX
  8
0
 10
10.23186550425581
 20
311.762039235706
 30
0
  0
VERTEX
  8
0
 10
10.0540316346558
 20
311.589094806906
 30
0
  0
VERTEX
  8
0
 10
9.8517437506558
 20
311.417207171906
 30
0
  0
VERTEX
  8
0
 10
9.628759655055802
 20
311.251111708706
 30
0
  0
VERTEX
  8
0
 10
9.387798166455809
 20
311.092831064306
 30
0
  0
VERTEX
  8
0
 10
9.134626531855801
 20
310.946126813306
 30
0
  0
VERTEX
  8
0
 10
8.869833373855798
 20
310.810517550506
 30
0
  0
VERTEX
  8
0
 10
8.596039141455805
 20
310.686913723906
 30
0
  0
VERTEX
  8
0
 10
8.313096314055798
 20
310.574901347106
 30
0
  0
VERTEX
  8
0
 10
8.021535337655806
 20
310.474400239306
 30
0
  0
VERTEX
  8
0
 10
7.720232666855807
 20
310.385319430306
 30
0
  0
VERTEX
  8
0
 10
7.406996156855811
 20
310.307526510706
 30
0
  0
VERTEX
  8
0
 10
7.083345094455808
 20
310.241065617106
 30
0
  0
SEQEND
  8
0
  0
POLYLINE
  8
0
 62
7
 66
1
  0
VERTEX
  8
0
 10
33.99833097665581
 20
90.765523773106
 30
0
  0
VERTEX
  8
0
 10
33.8832219454558
 20
90.005893239106
 30
0
  0
VERTEX
  8
0
 10
33.6692254520558
 20
89.26445250110601
 30
0
  0
VERTEX
  8
0
 10
33.3594245170558
 20
88.55188340310599
 30
0
  0
VERTEX
  8
0
 10
32.9582824038558
 20
87.87845183850601
 30
0
  0
VERTEX
  8
0
 10
32.47157831665581
 20
87.25385985210602
 30
0
  0
VERTEX
  8
0
 10
31.90632414045581
 20
86.687105862306
 30
0
  0
VERTEX
  8
0
 10
31.2706634210558
 20
86.18635502270598
 30
0
  0
VERTEX
  8
0
 10
30.57375404345581
 20
85.75882158850601
 30
0
  0
VERTEX
  8
0
 10
29.8256362934558
 20
85.41066497990602
 30
0
  0
VERTEX
  8
0
 10
29.0370882100558
 20
85.14690104570599
 30
0
  0
SEQEND
  8
0
  0
POLYLINE
  8
0
 62
7
 66
1
  0
VERTEX
  8
0
 10
33.9955492756558
 20
90.12826752610602
 30
0
  0
VERTEX
  8
0
 10
33.8804162938558
 20
89.35660557210599
 30
0
  0
VERTEX
  8
0
 10
33.6663876908558
 20
88.603304161506
 30
0
  0
VERTEX
  8
0
 10
33.35654720465581
 20
87.87921690990601
 30
0
  0
VERTEX
  8
0
 10
32.95535903745581
 20
87.19477651370602
 30
0
  0
VERTEX
  8
0
 10
32.4686035340558
 20
86.55984443450598
 30
0
  0
VERTEX
  8
0
 10
31.90329389985581
 20
85.98356881510597
 30
0
  0
VERTEX
  8
0
 10
31.26757515245581
 20
85.47425267210599
 30
0
  0
VERTEX
  8
0
 10
30.5706067690558
 20
85.039234265706
 30
0
  0
VERTEX
  8
0
 10
29.8224307156558
 20
84.68478136910602
 30
0
  0
VERTEX
  8
0
 10
29.03382676125581
 20
84.416000963106
 30
0
  0
SEQEND
  8
0
  0
POLYLINE
  8
0
 62
7
 66
1
  0
VERTEX
  8
0
 10
25.8195430182558
 20
85.75372974490597
 30
0
  0
VERTEX
  8
0
 10
25.58292377045581
 20
85.56184573930597
 30
0
  0
VERTEX
  8
0
 10
25.33910947845581
 20
85.38726886750601
 30
0
  0
VERTEX
  8
0
 10
25.0902669416558
 20
85.229614993506
 30
0
  0
VERTEX
  8
0
 10
24.8387178102558
 20
85.09011351470599
 30
0
  0
VERTEX
  8
0
 10
24.5866986082558
 20
84.96999308530599
 30
0
  0
VERTEX
  8
0
 10
24.33608974865581
 20
84.868867069906
 30
0
  0
SEQEND
  8
0
  0
POLYLINE
  8
0
 62
7
 66
1
  0
VERTEX
  8
0
 10
34.0155570028558
 20
93.14726274350602
 30
0
  0
VERTEX
  8
0
 10
33.9237481932558
 20
92.54688323830601
 30
0
  0
VERTEX
  8
0
 10
33.76234921685581
 20
91.95762335030599
 30
0
  0
VERTEX
  8
0
 10
33.5329913114558
 20
91.38543865150598
 30
0
  0
VERTEX
  8
0
 10
33.2379925672558
 20
90.83611213650602
 30
0
  0
VERTEX
  8
0
 10
32.8803344972558
 20
90.31519577550597
 30
0
  0
VERTEX
  8
0
 10
32.46363190425581
 20
89.82795440130599
 30
0
  0
VERTEX
  8
0
 10
31.99209634885581
 20
89.37931249990601
 30
0
  0
VERTEX
  8
0
 10
31.47049357005581
 20
88.97380442850601
 30
0
  0
VERTEX
  8
0
 10
30.9040953262558
 20
88.615528599306
 30
0
  0
VERTEX
  8
0
 10
30.29862612985581
 20
88.308106064306
 30
0
  0
SEQEND
  8
0
  0
POLYLINE
  8
0
 62
7
 66
1
  0
VERTEX
  8
0
 10
29.03729490065581
 20
85.17337496390599
 30
0
  0
VERTEX
  8
0
 10
28.79927188925581
 20
84.95181401690599
 30
0
  0
VERTEX
  8
0
 10
28.54095801445581
 20
84.73815777090601
 30
0
  0
VERTEX
  8
0
 10
28.2611195526558
 20
84.53169526730602
 30
0
  0
VERTEX
  8
0
 10
27.96310768865581
 20
84.33399765570601
 30
0
  0
VERTEX
  8
0
 10
27.6502952362558
 20
84.14658777650601
 30
0
  0
VERTEX
  8
0
 10
27.3214662648558
 20
83.96882362470598
 30
0
  0
SEQEND
  8
0
  0
POLYLINE
  8
0
 62
7
 66
1
  0
VERTEX
  8
0
 10
21.6272541306558
 20
307.335802779906
 30
0
  0
VERTEX
  8
0
 10
23.29416637465579
 20
307.3717363167061
 30
0
  0
VERTEX
  8
0
 10
23.4608833544558
 20
307.409264585506
 30
0
  0
VERTEX
  8
0
 10
23.63808385885581
 20
307.446242485506
 30
0
  0
VERTEX
  8
0
 10
23.8229369408558
 20
307.480794705906
 30
0
  0
VERTEX
  8
0
 10
24.0128512222558
 20
307.510830585106
 30
0
  0
VERTEX
  8
0
 10
24.2052863858558
 20
307.534002657306
 30
0
  0
VERTEX
  8
0
 10
24.39780116825581
 20
307.549206023306
 30
0
  0
VERTEX
  8
0
 10
24.5880919336558
 20
307.554333857906
 30
0
  0
VERTEX
  8
0
 10
24.7740161546558
 20
307.550044473106
 30
0
  0
VERTEX
  8
0
 10
24.9535620360558
 20
307.535616366706
 30
0
  0
VERTEX
  8
0
 10
25.12506939305581
 20
307.513082153706
 30
0
  0
VERTEX
  8
0
 10
25.28698814785581
 20
307.483441391506
 30
0
  0
VERTEX
  8
0
 10
25.43807747025581
 20
307.449071750106
 30
0
  0
VERTEX
  8
0
 10
25.57727245685581
 20
307.412048776106
 30
0
  0
VERTEX
  8
0
 10
25.70349760785581
 20
307.374278399106
 30
0
  0
VERTEX
  8
0
 10
25.81598300645581
 20
307.337923832106
 30
0
  0
VERTEX
  8
0
 10
25.91354126065581
 20
307.304288771906
 30
0
  0
VERTEX
  8
0
 10
25.9943376152558
 20
307.275651082306
 30
0
  0
VERTEX
  8
0
 10
26.0600041548558
 20
307.251251475306
 30
0
  0
SEQEND
  8
0
  0
POLYLINE
  8
0
 62
7
 66
1
  0
VERTEX
  8
0
 10
1.931311572455797
 20
306.868535950106
 30
0
  0
VERTEX
  8
0
 10
1.904932302055798
 20
307.117211556506
 30
0
  0
VERTEX
  8
0
 10
1.849616625455809
 20
307.360429844106
 30
0
  0
VERTEX
  8
0
 10
1.766230622855801
 20
307.594382617106
 30
0
  0
VERTEX
  8
0
 10
1.656079866055805
 20
307.815406796706
 30
0
  0
VERTEX
  8
0
 10
1.520888986055809
 20
308.020041710306
 30
0
  0
VERTEX
  8
0
 10
1.3627746820558
 20
308.205083274506
 30
0
  0
VERTEX
  8
0
 10
1.184212571455802
 20
308.367634179906
 30
0
  0
VERTEX
  8
0
 10
0.9879984488558051
 20
308.505149238306
 30
0
  0
VERTEX
  8
0
 10
0.777204496055802
 20
308.615475255506
 30
0
  0
VERTEX
  8
0
 10
0.5551312058558011
 20
308.696884731306
 30
0
  0
SEQEND
  8
0
  0
POLYLINE
  8
0
 62
7
 66
1
  0
VERTEX
  8
0
 10
2.103586630455808
 20
310.241394544106
 30
0
  0
VERTEX
  8
0
 10
1.639840366255811
 20
310.312487926106
 30
0
  0
VERTEX
  8
0
 10
1.160290813455802
 20
310.396562786306
 30
0
  0
VERTEX
  8
0
 10
0.6662877860558041
 20
310.493662481706
 30
0
  0
VERTEX
  8
0
 10
0.1543196432558034
 20
310.603656942106
 30
0
  0
VERTEX
  8
0
 10
-0.3773186091441971
 20
310.726127620906
 30
0
  0
VERTEX
  8
0
 10
-0.9335597941442018
 20
310.861983301706
 30
0
  0
VERTEX
  8
0
 10
-1.519171630344189
 20
311.011760386906
 30
0
  0
VERTEX
  8
0
 10
-2.137579122944189
 20
311.176157473106
 30
0
  0
VERTEX
  8
0
 10
-2.791502461544198
 20
311.355436545306
 30
0
  0
VERTEX
  8
0
 10
-3.488284213344201
 20
311.551443841906
 30
0
  0
VERTEX
  8
0
 10
-4.233986394744193
 20
311.765508669706
 30
0
  0
VERTEX
  8
0
 10
-5.035668475944192
 20
311.999443810106
 30
0
  0
VERTEX
  8
0
 10
-5.901242696944195
 20
312.255385249506
 30
0
  0
VERTEX
  8
0
 10
-6.833371607144201
 20
312.533692679306
 30
0
  0
VERTEX
  8
0
 10
-7.837439807344197
 20
312.835571746106
 30
0
  0
VERTEX
  8
0
 10
-8.90940036254419
 20
313.160620568106
 30
0
  0
SEQEND
  8
0
  0
POLYLINE
  8
0
 62
7
 66
1
  0
VERTEX
  8
0
 10
0.5551306470558046
 20
308.696884731306
 30
0
  0
VERTEX
  8
0
 10
-0.03442095074419171
 20
308.819471374306
 30
0
  0
VERTEX
  8
0
 10
-0.6526645989441988
 20
308.955693448906
 30
0
  0
VERTEX
  8
0
 10
-1.300713623544198
 20
309.105226454306
 30
0
  0
VERTEX
  8
0
 10
-1.983922013744191
 20
309.269043892106
 30
0
  0
VERTEX
  8
0
 10
-2.705032582144199
 20
309.447410028306
 30
0
  0
VERTEX
  8
0
 10
-3.4723123043442
 20
309.642128068106
 30
0
  0
VERTEX
  8
0
 10
-4.292319797544195
 20
309.854518793706
 30
0
  0
VERTEX
  8
0
 10
-5.172440749944201
 20
310.086293740306
 30
0
  0
VERTEX
  8
0
 10
-6.121514905744192
 20
310.339511328706
 30
0
  0
VERTEX
  8
0
 10
-7.141537484744191
 20
310.614451686306
 30
0
  0
VERTEX
  8
0
 10
-8.237231725944199
 20
310.912201864506
 30
0
  0
VERTEX
  8
0
 10
-9.517458297944202
 20
311.262164289306
 30
0
  0
SEQEND
  8
0
  0
POLYLINE
  8
0
 62
7
 66
1
  0
VERTEX
  8
0
 10
6.165943184255809
 20
307.554629979906
 30
0
  0
VERTEX
  8
0
 10
6.454059728655807
 20
307.541653179506
 30
0
  0
VERTEX
  8
0
 10
6.750563420655809
 20
307.510681605306
 30
0
  0
VERTEX
  8
0
 10
7.057277430255809
 20
307.458939992906
 30
0
  0
VERTEX
  8
0
 10
7.366669841255799
 20
307.394754134906
 30
0
  0
VERTEX
  8
0
 10
7.670569004655803
 20
307.326449824106
 30
0
  0
VERTEX
  8
0
 10
7.970243032455798
 20
307.251251796106
 30
0
  0
SEQEND
  8
0
  0
POLYLINE
  8
0
 62
7
 66
1
  0
VERTEX
  8
0
 10
38.77963494545581
 20
311.262164289306
 30
0
  0
VERTEX
  8
0
 10
37.38055011205582
 20
310.879770109306
 30
0
  0
VERTEX
  8
0
 10
36.6774171084558
 20
310.688594297106
 30
0
  0
VERTEX
  8
0
 10
35.9354789178558
 20
310.487933217706
 30
0
  0
VERTEX
  8
0
 10
35.1471921132558
 20
310.276149219906
 30
0
  0
VERTEX
  8
0
 10
34.33320509225581
 20
310.059421676306
 30
0
  0
VERTEX
  8
0
 10
33.4980790258558
 20
309.839939132706
 30
0
  0
VERTEX
  8
0
 10
32.67951787265581
 20
309.628036418306
 30
0
  0
VERTEX
  8
0
 10
31.92311207625581
 20
309.436387815706
 30
0
  0
VERTEX
  8
0
 10
31.2096377512558
 20
309.260163508906
 30
0
  0
VERTEX
  8
0
 10
30.5370306588558
 20
309.099131492506
 30
0
  0
VERTEX
  8
0
 10
29.89923394785581
 20
308.952172616706
 30
0
  0
VERTEX
  8
0
 10
29.2894151760558
 20
308.817940836306
 30
0
  0
VERTEX
  8
0
 10
28.7070456840558
 20
308.696884832906
 30
0
  0
SEQEND
  8
0
  0
POLYLINE
  8
0
 62
7
 66
1
  0
VERTEX
  8
0
 10
18.74586995185581
 20
306.868537308106
 30
0
  0
VERTEX
  8
0
 10
19.0405825340558
 20
306.875222444506
 30
0
  0
VERTEX
  8
0
 10
19.34251552385581
 20
306.894730938306
 30
0
  0
VERTEX
  8
0
 10
19.65138645245581
 20
306.927469371106
 30
0
  0
VERTEX
  8
0
 10
19.96591096085581
 20
306.972217998506
 30
0
  0
VERTEX
  8
0
 10
20.28368799405581
 20
307.028401401306
 30
0
  0
VERTEX
  8
0
 10
20.6075830018558
 20
307.094493185306
 30
0
  0
VERTEX
  8
0
 10
20.9399246132558
 20
307.168560373706
 30
0
  0
VERTEX
  8
0
 10
21.3742527322558
 20
307.274809645306
 30
0
  0
SEQEND
  8
0
  0
POLYLINE
  8
0
 62
7
 66
1
  0
VERTEX
  8
0
 10
39.65620163885579
 20
311.488380187506
 30
0
  0
VERTEX
  8
0
 10
39.64665036045581
 20
311.486820440506
 30
0
  0
VERTEX
  8
0
 10
39.62564042425579
 20
311.482222232706
 30
0
  0
VERTEX
  8
0
 10
39.59301404485579
 20
311.474539845306
 30
0
  0
VERTEX
  8
0
 10
39.5493882482558
 20
311.463910435106
 30
0
  0
VERTEX
  8
0
 10
39.43095118445579
 20
311.434176297506
 30
0
  0
SEQEND
  8
0
  0
POLYLINE
  8
0
 62
7
 66
1
  0
VERTEX
  8
0
 10
34.0320999504558
 20
95.28597587290597
 30
0
  0
VERTEX
  8
0
 10
33.9410501020558
 20
94.73114448270599
 30
0
  0
VERTEX
  8
0
 10
33.78349226465581
 20
94.18646881610601
 30
0
  0
VERTEX
  8
0
 10
33.56094854725581
 20
93.65721078610602
 30
0
  0
VERTEX
  8
0
 10
33.2755688632558
 20
93.14848336170599
 30
0
  0
VERTEX
  8
0
 10
32.93011016185581
 20
92.66520117250599
 30
0
  0
VERTEX
  8
0
 10
32.52790979365581
 20
92.21203303170597
 30
0
  0
VERTEX
  8
0
 10
32.07285126625581
 20
91.79335516210597
 30
0
  0
VERTEX
  8
0
 10
31.56933672445581
 20
91.41321724950598
 30
0
  0
VERTEX
  8
0
 10
31.0222386488558
 20
91.07529458030598
 30
0
  0
VERTEX
  8
0
 10
30.4368421342558
 20
90.782847677706
 30
0
  0
SEQEND
  8
0
  0
POLYLINE
  8
0
 62
7
 66
1
  0
VERTEX
  8
0
 10
34.04040079705581
 20
96.80188117850599
 30
0
  0
VERTEX
  8
0
 10
33.9493956720558
 20
96.261967389706
 30
0
  0
VERTEX
  8
0
 10
33.79380891685581
 20
95.73175643270599
 30
0
  0
VERTEX
  8
0
 10
33.5751003666558
 20
95.21622315530601
 30
0
  0
VERTEX
  8
0
 10
33.29532211345581
 20
94.72020468810598
 30
0
  0
VERTEX
  8
0
 10
32.95709925265581
 20
94.24835505870601
 30
0
  0
VERTEX
  8
0
 10
32.5636052516558
 20
93.80510152370601
 30
0
  0
VERTEX
  8
0
 10
32.11852987885581
 20
93.39460110850598
 30
0
  0
VERTEX
  8
0
 10
31.62605604065581
 20
93.02071118890598
 30
0
  0
VERTEX
  8
0
 10
31.0908139242558
 20
92.68694331690597
 30
0
  0
VERTEX
  8
0
 10
30.5178253530558
 20
92.39642461330601
 30
0
  0
SEQEND
  8
0
  0
POLYLINE
  8
0
 62
7
 66
1
  0
VERTEX
  8
0
 10
26.8038648970558
 20
86.90696878370602
 30
0
  0
VERTEX
  8
0
 10
26.6683145366558
 20
86.69487674490597
 30
0
  0
VERTEX
  8
0
 10
26.51973058085581
 20
86.49019730970599
 30
0
  0
VERTEX
  8
0
 10
26.35925260545581
 20
86.29244601890599
 30
0
  0
VERTEX
  8
0
 10
26.1881799742558
 20
86.10311742450597
 30
0
  0
VERTEX
  8
0
 10
26.0078644346558
 20
85.92370653610601
 30
0
  0
VERTEX
  8
0
 10
25.8195430182558
 20
85.75372974490597
 30
0
  0
SEQEND
  8
0
  0
POLYLINE
  8
0
 62
7
 66
1
  0
VERTEX
  8
0
 10
30.2096924686558
 20
86.98865813790599
 30
0
  0
VERTEX
  8
0
 10
30.1659107324558
 20
86.73518665150601
 30
0
  0
VERTEX
  8
0
 10
30.06664703825581
 20
86.45356265590601
 30
0
  0
VERTEX
  8
0
 10
29.90443261405581
 20
86.14459740050597
 30
0
  0
VERTEX
  8
0
 10
29.6790906790558
 20
85.820356812706
 30
0
  0
VERTEX
  8
0
 10
29.39258287805581
 20
85.49445752350601
 30
0
  0
VERTEX
  8
0
 10
29.03732505065581
 20
85.17328383550597
 30
0
  0
SEQEND
  8
0
  0
POLYLINE
  8
0
 62
7
 66
1
  0
VERTEX
  8
0
 10
13.8076183138558
 20
320.525093146706
 30
0
  0
VERTEX
  8
0
 10
13.48327238325581
 20
320.526501621906
 30
0
  0
VERTEX
  8
0
 10
13.1638177278558
 20
320.530618207706
 30
0
  0
VERTEX
  8
0
 10
12.85302914085581
 20
320.537481841506
 30
0
  0
VERTEX
  8
0
 10
12.55456448105581
 20
320.546975711106
 30
0
  0
VERTEX
  8
0
 10
12.27193620265581
 20
320.559055274506
 30
0
  0
VERTEX
  8
0
 10
12.00852613305581
 20
320.573542658506
 30
0
  0
VERTEX
  8
0
 10
11.76749113505581
 20
320.590312006106
 30
0
  0
VERTEX
  8
0
 10
11.5516597918558
 20
320.609162726706
 30
0
  0
VERTEX
  8
0
 10
11.3635811964558
 20
320.629944554706
 30
0
  0
VERTEX
  8
0
 10
11.20553784145581
 20
320.652380657906
 30
0
  0
VERTEX
  8
0
 10
11.07944250825581
 20
320.676233719106
 30
0
  0
VERTEX
  8
0
 10
10.98680045085581
 20
320.701234927506
 30
0
  0
VERTEX
  8
0
 10
10.9287371424558
 20
320.726992877306
 30
0
  0
VERTEX
  8
0
 10
10.90597989205581
 20
320.753638037306
 30
0
  0
SEQEND
  8
0
  0
POLYLINE
  8
0
 62
7
 66
1
  0
VERTEX
  8
0
 10
10.5029605172558
 20
306.868537791506
 30
0
  0
VERTEX
  8
0
 10
10.49324662145581
 20
307.117212791306
 30
0
  0
VERTEX
  8
0
 10
10.4728780516558
 20
307.360430436506
 30
0
  0
VERTEX
  8
0
 10
10.4421737032558
 20
307.594382576106
 30
0
  0
VERTEX
  8
0
 10
10.4016143266558
 20
307.815406131906
 30
0
  0
VERTEX
  8
0
 10
10.35183497645581
 20
308.020040451106
 30
0
  0
VERTEX
  8
0
 10
10.29361505985581
 20
308.205081490706
 30
0
  0
VERTEX
  8
0
 10
10.22786605305581
 20
308.367631915306
 30
0
  0
VERTEX
  8
0
 10
10.1556176976558
 20
308.505146814706
 30
0
  0
VERTEX
  8
0
 10
10.0780015030558
 20
308.615473116906
 30
0
  0
VERTEX
  8
0
 10
9.9962326634558
 20
308.696883153706
 30
0
  0
SEQEND
  8
0
  0
POLYLINE
  8
0
 62
7
 66
1
  0
VERTEX
  8
0
 10
14.62441497465581
 20
247.573905880706
 30
0
  0
VERTEX
  8
0
 10
15.30371169185581
 20
247.601561230306
 30
0
  0
VERTEX
  8
0
 10
15.97964330045581
 20
247.686626488706
 30
0
  0
VERTEX
  8
0
 10
16.6530337416558
 20
247.828910274506
 30
0
  0
VERTEX
  8
0
 10
17.31697698845581
 20
248.028986731906
 30
0
  0
VERTEX
  8
0
 10
17.96699853725581
 20
248.287518769906
 30
0
  0
VERTEX
  8
0
 10
18.5974043486558
 20
248.604048711506
 30
0
  0
VERTEX
  8
0
 10
19.2046597200558
 20
248.979925274506
 30
0
  0
VERTEX
  8
0
 10
19.77935832885581
 20
249.410392182706
 30
0
  0
VERTEX
  8
0
 10
20.31456872905581
 20
249.894499120106
 30
0
  0
VERTEX
  8
0
 10
20.80216387025581
 20
250.422176921706
 30
0
  0
VERTEX
  8
0
 10
21.2330983454558
 20
250.985954219706
 30
0
  0
VERTEX
  8
0
 10
21.60632545325581
 20
251.577087305906
 30
0
  0
VERTEX
  8
0
 10
21.9172522138558
 20
252.185733968506
 30
0
  0
VERTEX
  8
0
 10
22.1686626768558
 20
252.807718352106
 30
0
  0
VERTEX
  8
0
 10
22.3607411180558
 20
253.436401424506
 30
0
  0
VERTEX
  8
0
 10
22.4959184670558
 20
254.069330503906
 30
0
  0
VERTEX
  8
0
 10
22.5757610898558
 20
254.701781079506
 30
0
  0
VERTEX
  8
0
 10
22.6014916546558
 20
255.333929607306
 30
0
  0
VERTEX
  8
0
 10
22.5745935972558
 20
255.964583692906
 30
0
  0
VERTEX
  8
0
 10
22.49415958325581
 20
256.593125376306
 30
0
  0
VERTEX
  8
0
 10
22.35973917765581
 20
257.219739587706
 30
0
  0
VERTEX
  8
0
 10
22.16979685285581
 20
257.840825263306
 30
0
  0
VERTEX
  8
0
 10
21.92235691005581
 20
258.454756594506
 30
0
  0
VERTEX
  8
0
 10
21.6167080440558
 20
259.055792745306
 30
0
  0
VERTEX
  8
0
 10
21.2498811280558
 20
259.640797217106
 30
0
  0
VERTEX
  8
0
 10
20.8255589474558
 20
260.200331188506
 30
0
  0
VERTEX
  8
0
 10
20.34375661725581
 20
260.726577814306
 30
0
  0
VERTEX
  8
0
 10
19.81288514685581
 20
261.211534668506
 30
0
  0
VERTEX
  8
0
 10
19.2394859450558
 20
261.645346561506
 30
0
  0
VERTEX
  8
0
 10
18.63145686985581
 20
262.025754938106
 30
0
  0
VERTEX
  8
0
 10
17.99851446905581
 20
262.346819450506
 30
0
  0
VERTEX
  8
0
 10
17.3443814044558
 20
262.609730286706
 30
0
  0
VERTEX
  8
0
 10
16.6749834754558
 20
262.813525129706
 30
0
  0
VERTEX
  8
0
 10
15.99503340845581
 20
262.958721146106
 30
0
  0
VERTEX
  8
0
 10
15.31194566045581
 20
263.045539279106
 30
0
  0
VERTEX
  8
0
 10
14.62441497465581
 20
263.073905880706
 30
0
  0
SEQEND
  8
0
  0
POLYLINE
  8
0
 62
7
 66
1
  0
VERTEX
  8
0
 10
27.3022472278558
 20
88.55050500050601
 30
0
  0
VERTEX
  8
0
 10
27.2841788400558
 20
88.30883893290599
 30
0
  0
VERTEX
  8
0
 10
27.2420783856558
 20
88.04939934010599
 30
0
  0
VERTEX
  8
0
 10
27.1733635588558
 20
87.76758115930602
 30
0
  0
VERTEX
  8
0
 10
27.0770939646558
 20
87.477123765106
 30
0
  0
VERTEX
  8
0
 10
26.9540433422558
 20
87.19178149110599
 30
0
  0
VERTEX
  8
0
 10
26.8038648970558
 20
86.90696878370602
 30
0
  0
SEQEND
  8
0
  0
POLYLINE
  8
0
 62
7
 66
1
  0
VERTEX
  8
0
 10
38.6705933726558
 20
311.232399437906
 30
0
  0
VERTEX
  8
0
 10
38.6684290822558
 20
311.254501857306
 30
0
  0
VERTEX
  8
0
 10
38.65752485005579
 20
311.308202358306
 30
0
  0
VERTEX
  8
0
 10
38.6380614378558
 20
311.392610737906
 30
0
  0
VERTEX
  8
0
 10
38.6103614940558
 20
311.506327741906
 30
0
  0
VERTEX
  8
0
 10
38.5748842066558
 20
311.647468262506
 30
0
  0
VERTEX
  8
0
 10
38.53221768985581
 20
311.813692586506
 30
0
  0
VERTEX
  8
0
 10
38.4282535884558
 20
312.210000377506
 30
0
  0
SEQEND
  8
0
  0
POLYLINE
  8
0
 62
7
 66
1
  0
VERTEX
  8
0
 10
14.62441497465581
 20
263.073905880706
 30
0
  0
VERTEX
  8
0
 10
13.93716718325581
 20
263.045589941306
 30
0
  0
VERTEX
  8
0
 10
13.25415288305581
 20
262.958781653106
 30
0
  0
VERTEX
  8
0
 10
12.57403087485581
 20
262.813564307106
 30
0
  0
VERTEX
  8
0
 10
11.9043291014558
 20
262.609688029906
 30
0
  0
VERTEX
  8
0
 10
11.24985205185581
 20
262.346604747506
 30
0
  0
VERTEX
  8
0
 10
10.61655292785581
 20
262.025292349706
 30
0
  0
VERTEX
  8
0
 10
10.0081781798558
 20
261.644527274906
 30
0
  0
VERTEX
  8
0
 10
9.43453946765581
 20
261.210365802306
 30
0
  0
VERTEX
  8
0
 10
8.903670312255798
 20
260.725181853506
 30
0
  0
VERTEX
  8
0
 10
8.421994730455808
 20
260.198798939706
 30
0
  0
VERTEX
  8
0
 10
7.997869586855799
 20
259.639245088906
 30
0
  0
VERTEX
  8
0
 10
7.631267409455802
 20
259.054280671506
 30
0
  0
VERTEX
  8
0
 10
7.325808746255802
 20
258.453297256506
 30
0
  0
VERTEX
  8
0
 10
7.078540282455805
 20
257.839429276706
 30
0
  0
VERTEX
  8
0
 10
6.888743192055799
 20
257.218403046106
 30
0
  0
VERTEX
  8
0
 10
6.754450285655807
 20
256.591834491706
 30
0
  0
VERTEX
  8
0
 10
6.674128974655801
 20
255.963302733506
 30
0
  0
VERTEX
  8
0
 10
6.647337069855809
 20
255.332644508906
 30
0
  0
VERTEX
  8
0
 10
6.6731746158558
 20
254.700497788106
 30
0
  0
VERTEX
  8
0
 10
6.753130235855807
 20
254.068037995106
 30
0
  0
VERTEX
  8
0
 10
6.88843550425581
 20
253.435069265506
 30
0
  0
VERTEX
  8
0
 10
7.080653644255804
 20
252.806343433906
 30
0
  0
VERTEX
  8
0
 10
7.332220381255809
 20
252.184329908106
 30
0
  0
VERTEX
  8
0
 10
7.643305017455802
 20
251.575680104106
 30
0
  0
VERTEX
  8
0
 10
8.016687794255802
 20
250.984584711306
 30
0
  0
VERTEX
  8
0
 10
8.447743591455804
 20
250.420895316306
 30
0
  0
VERTEX
  8
0
 10
8.935395476055803
 20
249.893378232106
 30
0
  0
VERTEX
  8
0
 10
9.470580117055803
 20
249.409479967506
 30
0
  0
VERTEX
  8
0
 10
10.04511918425581
 20
248.979270437706
 30
0
  0
VERTEX
  8
0
 10
10.65214722085581
 20
248.603645736906
 30
0
  0
VERTEX
  8
0
 10
11.2823062152558
 20
248.287303391706
 30
0
  0
VERTEX
  8
0
 10
11.93207661285581
 20
248.028909020706
 30
0
  0
VERTEX
  8
0
 10
12.5957686642558
 20
247.828909801706
 30
0
  0
VERTEX
  8
0
 10
13.26899393205581
 20
247.686658584306
 30
0
  0
VERTEX
  8
0
 10
13.94494506285581
 20
247.601595015906
 30
0
  0
VERTEX
  8
0
 10
14.62441497465581
 20
247.573905880706
 30
0
  0
SEQEND
  8
0
  0
POLYLINE
  8
0
 62
7
 66
1
  0
VERTEX
  8
0
 10
28.4668043708558
 20
81.75878780210599
 30
0
  0
VERTEX
  8
0
 10
28.41881575705581
 20
81.86119493110601
 30
0
  0
VERTEX
  8
0
 10
28.33339007545581
 20
81.945173997106
 30
0
  0
VERTEX
  8
0
 10
28.20886644365581
 20
82.01122817250598
 30
0
  0
VERTEX
  8
0
 10
28.04997683385581
 20
82.05866945330598
 30
0
  0
VERTEX
  8
0
 10
27.8592839876558
 20
82.08689339590598
 30
0
  0
VERTEX
  8
0
 10
27.6415844086558
 20
82.09635492610602
 30
0
  0
VERTEX
  8
0
 10
27.40175758665581
 20
82.08712057030601
 30
0
  0
VERTEX
  8
0
 10
27.14217950285581
 20
82.05960071850598
 30
0
  0
VERTEX
  8
0
 10
26.86452047945581
 20
82.01379037070598
 30
0
  0
VERTEX
  8
0
 10
26.5758582140558
 20
81.95078503270599
 30
0
  0
VERTEX
  8
0
 10
26.28148232365581
 20
81.87075926210599
 30
0
  0
VERTEX
  8
0
 10
25.9886312332558
 20
81.775770053906
 30
0
  0
VERTEX
  8
0
 10
25.7045204210558
 20
81.66706128550601
 30
0
  0
VERTEX
  8
0
 10
25.43473705045581
 20
81.54635262370601
 30
0
  0
VERTEX
  8
0
 10
25.1847325356558
 20
81.414403187706
 30
0
  0
VERTEX
  8
0
 10
24.9622772360558
 20
81.27466743850602
 30
0
  0
VERTEX
  8
0
 10
24.7752189068558
 20
81.12866162210599
 30
0
  0
VERTEX
  8
0
 10
24.62886847985581
 20
80.98246906310601
 30
0
  0
VERTEX
  8
0
 10
24.5320942838558
 20
80.84369523950602
 30
0
  0
VERTEX
  8
0
 10
24.4820255784558
 20
80.709421714906
 30
0
  0
SEQEND
  8
0
  0
POLYLINE
  8
0
 62
7
 66
1
  0
VERTEX
  8
0
 10
29.7673997848558
 20
230.812919522906
 30
0
  0
VERTEX
  8
0
 10
29.7544447486558
 20
231.465552812106
 30
0
  0
VERTEX
  8
0
 10
29.71580113945581
 20
232.107018961706
 30
0
  0
VERTEX
  8
0
 10
29.65213020145581
 20
232.726342289306
 30
0
  0
VERTEX
  8
0
 10
29.56452141285581
 20
233.312925919706
 30
0
  0
VERTEX
  8
0
 10
29.45447384045581
 20
233.856733224906
 30
0
  0
VERTEX
  8
0
 10
29.32387048365581
 20
234.348459562106
 30
0
  0
VERTEX
  8
0
 10
29.1749460566558
 20
234.779691441306
 30
0
  0
VERTEX
  8
0
 10
29.01024873985581
 20
235.143050513306
 30
0
  0
VERTEX
  8
0
 10
28.8325965860558
 20
235.432319774906
 30
0
  0
VERTEX
  8
0
 10
28.64502928805581
 20
235.642549961506
 30
0
  0
VERTEX
  8
0
 10
28.4507561780558
 20
235.770144194506
 30
0
  0
VERTEX
  8
0
 10
28.25310131165581
 20
235.812919522906
 30
0
  0
SEQEND
  8
0
  0
POLYLINE
  8
0
 62
7
 66
1
  0
VERTEX
  8
0
 10
34.5209407228558
 20
230.813169810506
 30
0
  0
VERTEX
  8
0
 10
34.4789082850558
 20
231.465777931906
 30
0
  0
VERTEX
  8
0
 10
34.3535942672558
 20
232.107216176506
 30
0
  0
VERTEX
  8
0
 10
34.1471426900558
 20
232.726510057106
 30
0
  0
VERTEX
  8
0
 10
33.86308577265581
 20
233.313063958906
 30
0
  0
VERTEX
  8
0
 10
33.50628349805581
 20
233.856842421306
 30
0
  0
VERTEX
  8
0
 10
33.08284046345581
 20
234.348541836506
 30
0
  0
VERTEX
  8
0
 10
32.60000143465581
 20
234.779749627506
 30
0
  0
VERTEX
  8
0
 10
32.06602739545581
 20
235.143088179106
 30
0
  0
VERTEX
  8
0
 10
31.4900542074558
 20
235.432341064306
 30
0
  0
VERTEX
  8
0
 10
30.8819363040558
 20
235.642559401106
 30
0
  0
VERTEX
  8
0
 10
30.25207808785581
 20
235.770146524506
 30
0
  0
SEQEND
  8
0
  0
POLYLINE
  8
0
 62
7
 66
1
  0
VERTEX
  8
0
 10
35.6230233362558
 20
230.812952972906
 30
0
  0
VERTEX
  8
0
 10
35.5802445796558
 20
231.465580884306
 30
0
  0
VERTEX
  8
0
 10
35.45264899185581
 20
232.107041673706
 30
0
  0
VERTEX
  8
0
 10
35.24241975025579
 20
232.726359862506
 30
0
  0
VERTEX
  8
0
 10
34.9531539048558
 20
233.312938835306
 30
0
  0
VERTEX
  8
0
 10
34.58980083225582
 20
233.856742148306
 30
0
  0
VERTEX
  8
0
 10
34.15857755165581
 20
234.348465255106
 30
0
  0
VERTEX
  8
0
 10
33.66686234985581
 20
234.779694708906
 30
0
  0
VERTEX
  8
0
 10
33.12306853905581
 20
235.143052116906
 30
0
  0
VERTEX
  8
0
 10
32.5365005026558
 20
235.432320385706
 30
0
  0
VERTEX
  8
0
 10
31.91719449725581
 20
235.642550097306
 30
0
  0
VERTEX
  8
0
 10
31.2757469300558
 20
235.770144193506
 30
0
  0
VERTEX
  8
0
 10
30.62313305365581
 20
235.812919522906
 30
0
  0
SEQEND
  8
0
  0
POLYLINE
  8
0
 62
7
 66
1
  0
VERTEX
  8
0
 10
-6.3741932683442
 20
230.812952972906
 30
0
  0
VERTEX
  8
0
 10
-6.331414512944193
 20
231.465580873306
 30
0
  0
VERTEX
  8
0
 10
-6.203818929144191
 20
232.107041652306
 30
0
  0
VERTEX
  8
0
 10
-5.993589693944202
 20
232.726359831906
 30
0
  0
VERTEX
  8
0
 10
-5.704323857144189
 20
233.312938796906
 30
0
  0
VERTEX
  8
0
 10
-5.340970795144202
 20
233.856742104506
 30
0
  0
VERTEX
  8
0
 10
-4.909747526544194
 20
234.348465208306
 30
0
  0
VERTEX
  8
0
 10
-4.418032337944197
 20
234.779694661906
 30
0
  0
VERTEX
  8
0
 10
-3.874238540744202
 20
235.143052072706
 30
0
  0
VERTEX
  8
0
 10
-3.287670517944193
 20
235.432320347506
 30
0
  0
VERTEX
  8
0
 10
-2.668364525744195
 20
235.642550068706
 30
0
  0
VERTEX
  8
0
 10
-2.026916970544193
 20
235.770144177706
 30
0
  0
VERTEX
  8
0
 10
-1.374303104344193
 20
235.812919522906
 30
0
  0
SEQEND
  8
0
  0
POLYLINE
  8
0
 62
7
 66
1
  0
VERTEX
  8
0
 10
-5.272042887544203
 20
230.813169807106
 30
0
  0
VERTEX
  8
0
 10
-5.230011076944194
 20
231.465775816106
 30
0
  0
VERTEX
  8
0
 10
-5.104698949944194
 20
232.107212057106
 30
0
  0
VERTEX
  8
0
 10
-4.898250481144203
 20
232.726504148706
 30
0
  0
VERTEX
  8
0
 10
-4.614197813744198
 20
233.313056575306
 30
0
  0
VERTEX
  8
0
 10
-4.257400826944192
 20
233.856833966906
 30
0
  0
VERTEX
  8
0
 10
-3.833963987544195
 20
234.348532794706
 30
0
  0
VERTEX
  8
0
 10
-3.351131908944197
 20
234.779740546106
 30
0
  0
VERTEX
  8
0
 10
-2.817165402144198
 20
235.143079654906
 30
0
  0
VERTEX
  8
0
 10
-2.241200140544194
 20
235.432333724706
 30
0
  0
VERTEX
  8
0
 10
-1.633090357944198
 20
235.642553885706
 30
0
  0
VERTEX
  8
0
 10
-1.003240250744199
 20
235.770143464906
 30
0
  0
VERTEX
  8
0
 10
-0.362425972344198
 20
235.812919522706
 30
0
  0
SEQEND
  8
0
  0
POLYLINE
  8
0
 62
7
 66
1
  0
VERTEX
  8
0
 10
-0.5185698445441886
 20
230.812919522906
 30
0
  0
VERTEX
  8
0
 10
-0.5056147897442003
 20
231.465550901906
 30
0
  0
VERTEX
  8
0
 10
-0.4669713041441952
 20
232.107015524706
 30
0
  0
VERTEX
  8
0
 10
-0.4033005931441949
 20
232.726337752106
 30
0
  0
VERTEX
  8
0
 10
-0.3156920881441891
 20
233.312920778106
 30
0
  0
VERTEX
  8
0
 10
-0.205644805144189
 20
233.856727989706
 30
0
  0
VERTEX
  8
0
 10
-0.07504169534419702
 20
234.348454696306
 30
0
  0
VERTEX
  8
0
 10
0.07388257265580478
 20
234.779687327106
 30
0
  0
VERTEX
  8
0
 10
0.2385798526558034
 20
235.143047399106
 30
0
  0
VERTEX
  8
0
 10
0.4162321184558095
 20
235.432317755306
 30
0
  0
VERTEX
  8
0
 10
0.6037996850558045
 20
235.642548947306
 30
0
  0
VERTEX
  8
0
 10
0.7980732150558083
 20
235.770143912506
 30
0
  0
VERTEX
  8
0
 10
0.9957286376558017
 20
235.812919522906
 30
0
  0
SEQEND
  8
0
  0
POLYLINE
  8
0
 62
7
 66
1
  0
VERTEX
  8
0
 10
4.766804370855809
 20
80.709421714906
 30
0
  0
VERTEX
  8
0
 10
4.716735605655799
 20
80.84369531410601
 30
0
  0
VERTEX
  8
0
 10
4.619961379855809
 20
80.982469169306
 30
0
  0
VERTEX
  8
0
 10
4.473610956655804
 20
81.12866170590598
 30
0
  0
VERTEX
  8
0
 10
4.286552654655807
 20
81.27466747910597
 30
0
  0
VERTEX
  8
0
 10
4.064097398855807
 20
81.41440319670602
 30
0
  0
VERTEX
  8
0
 10
3.814092938455801
 20
81.54635260450601
 30
0
  0
VERTEX
  8
0
 10
3.5443096336558
 20
81.667061243506
 30
0
  0
VERTEX
  8
0
 10
3.26019887205581
 20
81.77576999890601
 30
0
  0
VERTEX
  8
0
 10
2.967347779255803
 20
81.870759214906
 30
0
  0
VERTEX
  8
0
 10
2.672971867255811
 20
81.95078500030598
 30
0
  0
VERTEX
  8
0
 10
2.384309585855803
 20
82.01379034890601
 30
0
  0
VERTEX
  8
0
 10
2.106650539055806
 20
82.05960070590601
 30
0
  0
VERTEX
  8
0
 10
1.847072409255802
 20
82.08712056410599
 30
0
  0
VERTEX
  8
0
 10
1.607245553055805
 20
82.09635492610602
 30
0
  0
VERTEX
  8
0
 10
1.389546004855802
 20
82.08689340750601
 30
0
  0
VERTEX
  8
0
 10
1.1988531844558
 20
82.05866946830599
 30
0
  0
VERTEX
  8
0
 10
1.039963515655799
 20
82.011228160906
 30
0
  0
VERTEX
  8
0
 10
0.9154398240558095
 20
81.94517396170602
 30
0
  0
VERTEX
  8
0
 10
0.8300141462558059
 20
81.86119490270602
 30
0
  0
VERTEX
  8
0
 10
0.7820255784558015
 20
81.75878780210599
 30
0
  0
SEQEND
  8
0
  0
POLYLINE
  8
0
 62
7
 66
1
  0
VERTEX
  8
0
 10
13.8573606844558
 20
322.467251170706
 30
0
  0
VERTEX
  8
0
 10
13.74674125725581
 20
322.468645670306
 30
0
  0
VERTEX
  8
0
 10
13.63872945405581
 20
322.472755636906
 30
0
  0
VERTEX
  8
0
 10
13.53288896525581
 20
322.479622100506
 30
0
  0
VERTEX
  8
0
 10
13.4311233166558
 20
322.489121971306
 30
0
  0
VERTEX
  8
0
 10
13.3347897944558
 20
322.501201585506
 30
0
  0
VERTEX
  8
0
 10
13.24495300685581
 20
322.515693694906
 30
0
  0
VERTEX
  8
0
 10
13.16276599905581
 20
322.532484352306
 30
0
  0
VERTEX
  8
0
 10
13.08911562325581
 20
322.551359989906
 30
0
  0
VERTEX
  8
0
 10
13.0249726484558
 20
322.572156087906
 30
0
  0
VERTEX
  8
0
 10
12.97099836925581
 20
322.594611553506
 30
0
  0
VERTEX
  8
0
 10
12.9279722396558
 20
322.618520189106
 30
0
  0
VERTEX
  8
0
 10
12.89627198825581
 20
322.643552788106
 30
0
  0
VERTEX
  8
0
 10
12.87661225705581
 20
322.669261669906
 30
0
  0
VERTEX
  8
0
 10
12.86856417105581
 20
322.695796061306
 30
0
  0
SEQEND
  8
0
  0
POLYLINE
  8
0
 62
7
 66
1
  0
VERTEX
  8
0
 10
23.8864371064558
 20
230.312919522906
 30
0
  0
VERTEX
  8
0
 10
24.3119969112558
 20
230.303602714706
 30
0
  0
VERTEX
  8
0
 10
24.7638650604558
 20
230.261406139506
 30
0
  0
VERTEX
  8
0
 10
25.2442083308558
 20
230.188804174106
 30
0
  0
VERTEX
  8
0
 10
25.7457424112558
 20
230.078373688506
 30
0
  0
VERTEX
  8
0
 10
26.2642526792558
 20
229.924722662706
 30
0
  0
VERTEX
  8
0
 10
26.7928245328558
 20
229.724232145706
 30
0
  0
VERTEX
  8
0
 10
27.32618507625581
 20
229.471961152106
 30
0
  0
VERTEX
  8
0
 10
27.85550960925581
 20
229.166483765106
 30
0
  0
VERTEX
  8
0
 10
28.37359307985581
 20
228.804201410306
 30
0
  0
VERTEX
  8
0
 10
28.8708514010558
 20
228.386691075506
 30
0
  0
VERTEX
  8
0
 10
29.33395416165581
 20
227.914377406506
 30
0
  0
VERTEX
  8
0
 10
29.7676160218558
 20
227.387118854506
 30
0
  0
SEQEND
  8
0
  0
POLYLINE
  8
0
 62
7
 66
1
  0
VERTEX
  8
0
 10
24.28215104945581
 20
225.543066024306
 30
0
  0
VERTEX
  8
0
 10
24.3610200956558
 20
225.494162497306
 30
0
  0
VERTEX
  8
0
 10
24.4393695508558
 20
225.442433798506
 30
0
  0
SEQEND
  8
0
  0
POLYLINE
  8
0
 62
7
 66
1
  0
VERTEX
  8
0
 10
19.5318922626558
 20
225.442433798506
 30
0
  0
VERTEX
  8
0
 10
19.7539616946558
 20
225.579258914306
 30
0
  0
VERTEX
  8
0
 10
19.9761898746558
 20
225.695803407506
 30
0
  0
VERTEX
  8
0
 10
20.19874143405581
 20
225.790792910106
 30
0
  0
VERTEX
  8
0
 10
20.42112247885581
 20
225.868050524706
 30
0
  0
VERTEX
  8
0
 10
20.64398658805581
 20
225.930559479506
 30
0
  0
VERTEX
  8
0
 10
20.8640559740558
 20
225.979565029506
 30
0
  0
VERTEX
  8
0
 10
21.07857790485581
 20
226.016741102306
 30
0
  0
VERTEX
  8
0
 10
21.28663079405581
 20
226.043784908306
 30
0
  0
VERTEX
  8
0
 10
21.4864962498558
 20
226.062594274506
 30
0
  0
VERTEX
  8
0
 10
21.6778119564558
 20
226.074241278706
 30
0
  0
VERTEX
  8
0
 10
21.85970667225581
 20
226.080204288906
 30
0
  0
VERTEX
  8
0
 10
22.0319887818558
 20
226.081162262906
 30
0
  0
VERTEX
  8
0
 10
22.1938964538558
 20
226.078140672706
 30
0
  0
VERTEX
  8
0
 10
22.3462690958558
 20
226.071578341306
 30
0
  0
VERTEX
  8
0
 10
22.48947328165581
 20
226.062164725906
 30
0
  0
VERTEX
  8
0
 10
22.6241656818558
 20
226.050173395306
 30
0
  0
VERTEX
  8
0
 10
22.75092064645581
 20
226.036044809306
 30
0
  0
VERTEX
  8
0
 10
22.8703517100558
 20
226.019967752506
 30
0
  0
VERTEX
  8
0
 10
22.98304081285581
 20
226.002245320306
 30
0
  0
VERTEX
  8
0
 10
23.0896570872558
 20
225.982975039706
 30
0
  0
VERTEX
  8
0
 10
23.1908519268558
 20
225.962351944906
 30
0
  0
VERTEX
  8
0
 10
23.28726048885581
 20
225.940386609106
 30
0
  0
VERTEX
  8
0
 10
23.3795228958558
 20
225.917184732706
 30
0
  0
VERTEX
  8
0
 10
23.46827564545581
 20
225.892655967306
 30
0
  0
VERTEX
  8
0
 10
23.55415780965581
 20
225.866813366706
 30
0
  0
VERTEX
  8
0
 10
23.6378017884558
 20
225.839452425106
 30
0
  0
VERTEX
  8
0
 10
23.71986907025581
 20
225.810474736106
 30
0
  0
VERTEX
  8
0
 10
23.8009114618558
 20
225.779575056906
 30
0
  0
VERTEX
  8
0
 10
23.8817308460558
 20
225.746455366906
 30
0
  0
VERTEX
  8
0
 10
23.96223848345581
 20
225.710995594106
 30
0
  0
VERTEX
  8
0
 10
24.04267321785581
 20
225.672993583706
 30
0
  0
VERTEX
  8
0
 10
24.12285418305581
 20
225.632397563906
 30
0
  0
VERTEX
  8
0
 10
24.2027149410558
 20
225.589108931306
 30
0
  0
VERTEX
  8
0
 10
24.28215104945581
 20
225.543066024306
 30
0
  0
SEQEND
  8
0
  0
POLYLINE
  8
0
 62
7
 66
1
  0
VERTEX
  8
0
 10
29.76760413905581
 20
227.387118851306
 30
0
  0
VERTEX
  8
0
 10
29.4852781682558
 20
227.174505108306
 30
0
  0
VERTEX
  8
0
 10
29.1925962574558
 20
226.968696287106
 30
0
  0
VERTEX
  8
0
 10
28.8989291688558
 20
226.776281814306
 30
0
  0
VERTEX
  8
0
 10
28.6136792040558
 20
226.603422272906
 30
0
  0
VERTEX
  8
0
 10
28.3459791716558
 20
226.455652159906
 30
0
  0
VERTEX
  8
0
 10
28.10439998105581
 20
226.337702687706
 30
0
  0
VERTEX
  8
0
 10
27.89667622945581
 20
226.253350303506
 30
0
  0
VERTEX
  8
0
 10
27.72945856285581
 20
226.205295780306
 30
0
  0
VERTEX
  8
0
 10
27.60810074265581
 20
226.195077743906
 30
0
  0
VERTEX
  8
0
 10
27.5364882360558
 20
226.223023409106
 30
0
  0
SEQEND
  8
0
  0
POLYLINE
  8
0
 62
7
 66
1
  0
VERTEX
  8
0
 10
35.62302321785582
 20
230.812952972906
 30
0
  0
VERTEX
  8
0
 10
35.60508486525579
 20
230.813153170906
 30
0
  0
VERTEX
  8
0
 10
35.4269605552558
 20
230.813453688706
 30
0
  0
SEQEND
  8
0
  0
POLYLINE
  8
0
 62
7
 66
1
  0
VERTEX
  8
0
 10
-0.5187860725442022
 20
227.387118854506
 30
0
  0
VERTEX
  8
0
 10
-0.09493165194419362
 20
227.904471919906
 30
0
  0
VERTEX
  8
0
 10
0.3610204876558072
 20
228.371015052506
 30
0
  0
VERTEX
  8
0
 10
0.8537331334558047
 20
228.787512934306
 30
0
  0
VERTEX
  8
0
 10
1.370120553255802
 20
229.151671518906
 30
0
  0
VERTEX
  8
0
 10
1.901220395255805
 20
229.460542151306
 30
0
  0
VERTEX
  8
0
 10
2.438660656055802
 20
229.716853341306
 30
0
  0
VERTEX
  8
0
 10
2.97311105665581
 20
229.920718330106
 30
0
  0
VERTEX
  8
0
 10
3.497873250255807
 20
230.077034269306
 30
0
  0
VERTEX
  8
0
 10
4.004765275255807
 20
230.188746799506
 30
0
  0
VERTEX
  8
0
 10
4.48851230445581
 20
230.261823692506
 30
0
  0
VERTEX
  8
0
 10
4.94015444185581
 20
230.304083306706
 30
0
  0
VERTEX
  8
0
 10
5.362392842855797
 20
230.312919522906
 30
0
  0
SEQEND
  8
0
  0
POLYLINE
  8
0
 62
7
 66
1
  0
VERTEX
  8
0
 10
1.712287981455802
 20
226.223061902706
 30
0
  0
VERTEX
  8
0
 10
2.062343474455801
 20
226.664101670506
 30
0
  0
VERTEX
  8
0
 10
2.448176021855801
 20
227.051810948106
 30
0
  0
VERTEX
  8
0
 10
2.862419625855807
 20
227.385895073106
 30
0
  0
VERTEX
  8
0
 10
3.294181957055798
 20
227.664149947706
 30
0
  0
VERTEX
  8
0
 10
3.733548963255799
 20
227.887309495906
 30
0
  0
VERTEX
  8
0
 10
4.170761730655798
 20
228.057821687306
 30
0
  0
VERTEX
  8
0
 10
4.596947733455806
 20
228.179780141706
 30
0
  0
VERTEX
  8
0
 10
5.003878356255811
 20
228.258553579506
 30
0
  0
VERTEX
  8
0
 10
5.383097405055807
 20
228.300464095106
 30
0
  0
VERTEX
  8
0
 10
5.732873728055807
 20
228.312919522906
 30
0
  0
SEQEND
  8
0
  0
POLYLINE
  8
0
 62
7
 66
1
  0
VERTEX
  8
0
 10
1.927361819855804
 20
83.96881704110598
 30
0
  0
VERTEX
  8
0
 10
2.125456008455799
 20
84.05396875470598
 30
0
  0
VERTEX
  8
0
 10
2.332712887855806
 20
84.18965090310599
 30
0
  0
VERTEX
  8
0
 10
2.543002567655805
 20
84.37185043250599
 30
0
  0
VERTEX
  8
0
 10
2.750105464855807
 20
84.59517845870602
 30
0
  0
VERTEX
  8
0
 10
2.947896257055803
 20
84.85302965310598
 30
0
  0
VERTEX
  8
0
 10
3.130525048055802
 20
85.13777760450597
 30
0
  0
VERTEX
  8
0
 10
3.292590388255803
 20
85.441000384706
 30
0
  0
VERTEX
  8
0
 10
3.429299028455802
 20
85.753729639906
 30
0
  0
SEQEND
  8
0
  0
POLYLINE
  8
0
 62
7
 66
1
  0
VERTEX
  8
0
 10
0.2115349540558071
 20
85.17337467710598
 30
0
  0
VERTEX
  8
0
 10
0.4789540370558001
 20
85.18926821050599
 30
0
  0
VERTEX
  8
0
 10
0.7541158188558086
 20
85.24854663390602
 30
0
  0
VERTEX
  8
0
 10
1.030128443655798
 20
85.34972522070598
 30
0
  0
VERTEX
  8
0
 10
1.300078747655803
 20
85.49026978730598
 30
0
  0
VERTEX
  8
0
 10
1.557205407455811
 20
85.66666016650601
 30
0
  0
VERTEX
  8
0
 10
1.795068286455802
 20
85.87447837810601
 30
0
  0
VERTEX
  8
0
 10
2.007709741055805
 20
86.108519281106
 30
0
  0
VERTEX
  8
0
 10
2.189803837255809
 20
86.36292094610599
 30
0
  0
VERTEX
  8
0
 10
2.336789748655804
 20
86.631311476306
 30
0
  0
VERTEX
  8
0
 10
2.444985988455798
 20
86.90696860110597
 30
0
  0
SEQEND
  8
0
  0
POLYLINE
  8
0
 62
7
 66
1
  0
VERTEX
  8
0
 10
29.0306809000558
 20
81.099806230306
 30
0
  0
VERTEX
  8
0
 10
29.5480749346558
 20
81.29221026170598
 30
0
  0
VERTEX
  8
0
 10
30.0452562072558
 20
81.52431780190597
 30
0
  0
VERTEX
  8
0
 10
30.52362756045581
 20
81.79739343590597
 30
0
  0
VERTEX
  8
0
 10
30.9789804660558
 20
82.10764340950601
 30
0
  0
VERTEX
  8
0
 10
31.4081042078558
 20
82.45264022170602
 30
0
  0
VERTEX
  8
0
 10
31.8094081922558
 20
82.82954969870599
 30
0
  0
VERTEX
  8
0
 10
32.1806513972558
 20
83.235746373506
 30
0
  0
VERTEX
  8
0
 10
32.5205743916558
 20
83.66817662310598
 30
0
  0
VERTEX
  8
0
 10
32.8273415958558
 20
84.123722310706
 30
0
  0
VERTEX
  8
0
 10
33.1004404308558
 20
84.59995151090601
 30
0
  0
VERTEX
  8
0
 10
33.33891346505581
 20
85.094241232706
 30
0
  0
VERTEX
  8
0
 10
33.5422596748558
 20
85.60404653690597
 30
0
  0
VERTEX
  8
0
 10
33.7097554272558
 20
86.12670248770598
 30
0
  0
VERTEX
  8
0
 10
33.8411111192558
 20
86.65994608310598
 30
0
  0
VERTEX
  8
0
 10
33.9357295852558
 20
87.20023209390598
 30
0
  0
VERTEX
  8
0
 10
33.9938098804558
 20
87.74874226350602
 30
0
  0
SEQEND
  8
0
  0
POLYLINE
  8
0
 62
7
 66
1
  0
VERTEX
  8
0
 10
24.53821842545581
 20
223.810636614706
 30
0
  0
VERTEX
  8
0
 10
24.9968865164558
 20
223.806359298706
 30
0
  0
VERTEX
  8
0
 10
25.44476880525581
 20
223.790889183106
 30
0
  0
VERTEX
  8
0
 10
25.87133375945581
 20
223.764590028106
 30
0
  0
VERTEX
  8
0
 10
26.2665511038558
 20
223.728080232706
 30
0
  0
VERTEX
  8
0
 10
26.62112767305581
 20
223.682218293506
 30
0
  0
VERTEX
  8
0
 10
26.9267259312558
 20
223.628082617306
 30
0
  0
VERTEX
  8
0
 10
27.17616002185581
 20
223.566946163106
 30
0
  0
VERTEX
  8
0
 10
27.3635647356558
 20
223.500246510706
 30
0
  0
VERTEX
  8
0
 10
27.4845334266558
 20
223.429552055706
 30
0
  0
VERTEX
  8
0
 10
27.53622162925581
 20
223.356525127706
 30
0
  0
SEQEND
  8
0
  0
POLYLINE
  8
0
 62
7
 66
1
  0
VERTEX
  8
0
 10
23.51595622125581
 20
228.312919522906
 30
0
  0
VERTEX
  8
0
 10
23.80662628645581
 20
228.304321900906
 30
0
  0
VERTEX
  8
0
 10
24.11669610745581
 20
228.276072554706
 30
0
  0
VERTEX
  8
0
 10
24.44503070165581
 20
228.224283042306
 30
0
  0
VERTEX
  8
0
 10
24.7881117984558
 20
228.145313822506
 30
0
  0
VERTEX
  8
0
 10
25.14231888485581
 20
228.035748847706
 30
0
  0
VERTEX
  8
0
 10
25.50365031445581
 20
227.892487090906
 30
0
  0
VERTEX
  8
0
 10
25.8675816668558
 20
227.712851221306
 30
0
  0
VERTEX
  8
0
 10
26.2289759620558
 20
227.494825315106
 30
0
  0
VERTEX
  8
0
 10
26.58225720085581
 20
227.237120378506
 30
0
  0
VERTEX
  8
0
 10
26.9218783974558
 20
226.939018046306
 30
0
  0
VERTEX
  8
0
 10
27.24174191305581
 20
226.600969936506
 30
0
  0
VERTEX
  8
0
 10
27.53654196785581
 20
226.223061902706
 30
0
  0
SEQEND
  8
0
  0
POLYLINE
  8
0
 62
7
 66
1
  0
VERTEX
  8
0
 10
5.046531668055806
 20
225.589342497906
 30
0
  0
VERTEX
  8
0
 10
5.126529380455807
 20
225.632687515706
 30
0
  0
VERTEX
  8
0
 10
5.206846808255804
 20
225.673331106306
 30
0
  0
VERTEX
  8
0
 10
5.2874202594558
 20
225.711373476906
 30
0
  0
VERTEX
  8
0
 10
5.368070808855805
 20
225.746868149706
 30
0
  0
VERTEX
  8
0
 10
5.449039725455805
 20
225.780017944306
 30
0
  0
VERTEX
  8
0
 10
5.530242376255799
 20
225.810944756906
 30
0
  0
VERTEX
  8
0
 10
5.612477540655803
 20
225.839944881106
 30
0
  0
VERTEX
  8
0
 10
5.696296383255799
 20
225.867322791706
 30
0
  0
VERTEX
  8
0
 10
5.782357113255799
 20
225.893175840906
 30
0
  0
VERTEX
  8
0
 10
5.871289637255799
 20
225.917707347706
 30
0
  0
VERTEX
  8
0
 10
5.963730026455806
 20
225.940903886306
 30
0
  0
VERTEX
  8
0
 10
6.060311853255811
 20
225.962854969706
 30
0
  0
VERTEX
  8
0
 10
6.161672521055806
 20
225.983455102706
 30
0
  0
VERTEX
  8
0
 10
6.268442464055809
 20
226.002693244706
 30
0
  0
VERTEX
  8
0
 10
6.381276164455798
 20
226.020375546106
 30
0
  0
VERTEX
  8
0
 10
6.500839520455799
 20
226.036405217306
 30
0
  0
VERTEX
  8
0
 10
6.62772871985581
 20
226.050480038306
 30
0
  0
VERTEX
  8
0
 10
6.762567206855806
 20
226.062413280306
 30
0
  0
VERTEX
  8
0
 10
6.905939110855798
 20
226.071761682706
 30
0
  0
VERTEX
  8
0
 10
7.058511853455798
 20
226.078251777906
 30
0
  0
VERTEX
  8
0
 10
7.220659002055811
 20
226.081187459906
 30
0
  0
VERTEX
  8
0
 10
7.393249130855807
 20
226.080125052306
 30
0
  0
VERTEX
  8
0
 10
7.575464641255806
 20
226.074033798306
 30
0
  0
VERTEX
  8
0
 10
7.767094073855802
 20
226.062223867106
 30
0
  0
VERTEX
  8
0
 10
7.967187585055811
 20
226.043228804906
 30
0
  0
VERTEX
  8
0
 10
8.175307922655804
 20
226.015972305506
 30
0
  0
VERTEX
  8
0
 10
8.389705853655798
 20
225.978594094506
 30
0
  0
VERTEX
  8
0
 10
8.609403291655809
 20
225.929409648506
 30
0
  0
VERTEX
  8
0
 10
8.831649545655807
 20
225.866815405506
 30
0
  0
VERTEX
  8
0
 10
9.053076715655806
 20
225.789651975306
 30
0
  0
VERTEX
  8
0
 10
9.274558342255801
 20
225.694902316706
 30
0
  0
VERTEX
  8
0
 10
9.4958141958558
 20
225.578737486306
 30
0
  0
VERTEX
  8
0
 10
9.716937686455808
 20
225.442433798506
 30
0
  0
SEQEND
  8
0
  0
POLYLINE
  8
0
 62
7
 66
1
  0
VERTEX
  8
0
 10
24.20816840225581
 20
219.039793671306
 30
0
  0
VERTEX
  8
0
 10
24.13018010225581
 20
218.997291280706
 30
0
  0
VERTEX
  8
0
 10
24.05188775125581
 20
218.957369859306
 30
0
  0
VERTEX
  8
0
 10
23.9733470776558
 20
218.919934841906
 30
0
  0
VERTEX
  8
0
 10
23.8947468168558
 20
218.884944359906
 30
0
  0
VERTEX
  8
0
 10
23.8157861406558
 20
218.852182101106
 30
0
  0
VERTEX
  8
0
 10
23.7364894900558
 20
218.821511628906
 30
0
  0
VERTEX
  8
0
 10
23.65606979405581
 20
218.792651448706
 30
0
  0
VERTEX
  8
0
 10
23.57396051685581
 20
218.765302987506
 30
0
  0
VERTEX
  8
0
 10
23.48952449305581
 20
218.739381045306
 30
0
  0
VERTEX
  8
0
 10
23.40214397205581
 20
218.714694555906
 30
0
  0
VERTEX
  8
0
 10
23.31119417465581
 20
218.691262544906
 30
0
  0
VERTEX
  8
0
 10
23.21605260265581
 20
218.669003860906
 30
0
  0
VERTEX
  8
0
 10
23.1160946642558
 20
218.648027967906
 30
0
  0
VERTEX
  8
0
 10
23.01069975985581
 20
218.628352075306
 30
0
  0
VERTEX
  8
0
 10
22.89923341305581
 20
218.610171795706
 30
0
  0
VERTEX
  8
0
 10
22.7810411644558
 20
218.593588943906
 30
0
  0
VERTEX
  8
0
 10
22.6555623626558
 20
218.578902123906
 30
0
  0
VERTEX
  8
0
 10
22.52220123365581
 20
218.566302389906
 30
0
  0
VERTEX
  8
0
 10
22.3804086850558
 20
218.556214204706
 30
0
  0
VERTEX
  8
0
 10
22.2295867976558
 20
218.548906838906
 30
0
  0
VERTEX
  8
0
 10
22.06928627625581
 20
218.545036922506
 30
0
  0
VERTEX
  8
0
 10
21.89873101865581
 20
218.545010189706
 30
0
  0
VERTEX
  8
0
 10
21.71830352525581
 20
218.549848596306
 30
0
  0
VERTEX
  8
0
 10
21.52792860105581
 20
218.560188911106
 30
0
  0
VERTEX
  8
0
 10
21.32820323005581
 20
218.577592428506
 30
0
  0
VERTEX
  8
0
 10
21.1192059586558
 20
218.603111388906
 30
0
  0
VERTEX
  8
0
 10
20.90241690305581
 20
218.638909722906
 30
0
  0
VERTEX
  8
0
 10
20.6783266750558
 20
218.686817186506
 30
0
  0
VERTEX
  8
0
 10
20.4499823354558
 20
218.748888543506
 30
0
  0
VERTEX
  8
0
 10
20.2204374946558
 20
218.826833423106
 30
0
  0
VERTEX
  8
0
 10
19.9901631180558
 20
218.923516983106
 30
0
  0
VERTEX
  8
0
 10
19.76083414505581
 20
219.042803637106
 30
0
  0
VERTEX
  8
0
 10
19.5318922626558
 20
219.183405247306
 30
0
  0
SEQEND
  8
0
  0
POLYLINE
  8
0
 62
7
 66
1
  0
VERTEX
  8
0
 10
5.362392842855797
 20
230.312919522706
 30
0
  0
VERTEX
  8
0
 10
5.366954111855804
 20
230.000049262306
 30
0
  0
VERTEX
  8
0
 10
5.380525595855801
 20
229.694883275106
 30
0
  0
VERTEX
  8
0
 10
5.402773090655799
 20
229.404935776706
 30
0
  0
VERTEX
  8
0
 10
5.433148761655801
 20
229.137346207106
 30
0
  0
VERTEX
  8
0
 10
5.470904633455803
 20
228.898703451906
 30
0
  0
VERTEX
  8
0
 10
5.515111013655798
 20
228.694883578306
 30
0
  0
VERTEX
  8
0
 10
5.564679381455804
 20
228.530905191506
 30
0
  0
VERTEX
  8
0
 10
5.618389197255809
 20
228.410805846506
 30
0
  0
VERTEX
  8
0
 10
5.674917954255804
 20
228.337542662306
 30
0
  0
VERTEX
  8
0
 10
5.732873728055807
 20
228.312919522906
 30
0
  0
SEQEND
  8
0
  0
POLYLINE
  8
0
 62
7
 66
1
  0
VERTEX
  8
0
 10
9.716937686455808
 20
225.442433798506
 30
0
  0
VERTEX
  8
0
 10
10.1722683580558
 20
225.582917990306
 30
0
  0
VERTEX
  8
0
 10
10.6378477710558
 20
225.703333859506
 30
0
  0
VERTEX
  8
0
 10
11.1128995754558
 20
225.802638877106
 30
0
  0
VERTEX
  8
0
 10
11.59975282145581
 20
225.883960630506
 30
0
  0
VERTEX
  8
0
 10
12.10425270085581
 20
225.949919347706
 30
0
  0
VERTEX
  8
0
 10
12.6150744390558
 20
226.000994578306
 30
0
  0
VERTEX
  8
0
 10
13.12215607705581
 20
226.037915646906
 30
0
  0
VERTEX
  8
0
 10
13.6275543604558
 20
226.062553455906
 30
0
  0
VERTEX
  8
0
 10
14.12913800505581
 20
226.076982162706
 30
0
  0
VERTEX
  8
0
 10
14.62940914225581
 20
226.081321326106
 30
0
  0
VERTEX
  8
0
 10
15.12977821825581
 20
226.076789044106
 30
0
  0
VERTEX
  8
0
 10
15.63138900405581
 20
226.062163856306
 30
0
  0
VERTEX
  8
0
 10
16.13660608065581
 20
226.037307398306
 30
0
  0
VERTEX
  8
0
 10
16.64317746485581
 20
226.000188478306
 30
0
  0
VERTEX
  8
0
 10
17.1529379634558
 20
225.948956786106
 30
0
  0
VERTEX
  8
0
 10
17.65599178845581
 20
225.882931312906
 30
0
  0
VERTEX
  8
0
 10
18.14099988285581
 20
225.801700669706
 30
0
  0
VERTEX
  8
0
 10
18.61412686185581
 20
225.702605686306
 30
0
  0
VERTEX
  8
0
 10
19.07805577145581
 20
225.582500525106
 30
0
  0
VERTEX
  8
0
 10
19.5318922626558
 20
225.442433798506
 30
0
  0
SEQEND
  8
0
  0
POLYLINE
  8
0
 62
7
 66
1
  0
VERTEX
  8
0
 10
29.5893826988558
 20
218.742328822706
 30
0
  0
VERTEX
  8
0
 10
28.8039825568558
 20
218.739783150906
 30
0
  0
VERTEX
  8
0
 10
28.6392727064558
 20
218.740230245306
 30
0
  0
VERTEX
  8
0
 10
28.5331890828558
 20
218.741318826706
 30
0
  0
VERTEX
  8
0
 10
28.4890961356558
 20
218.743014370506
 30
0
  0
SEQEND
  8
0
  0
POLYLINE
  8
0
 62
7
 66
1
  0
VERTEX
  8
0
 10
29.54151842945581
 20
223.355993339506
 30
0
  0
VERTEX
  8
0
 10
28.7620025750558
 20
223.353411838306
 30
0
  0
VERTEX
  8
0
 10
28.59864698745581
 20
223.353827417106
 30
0
  0
VERTEX
  8
0
 10
28.49344595045581
 20
223.354876150706
 30
0
  0
VERTEX
  8
0
 10
28.44970690285581
 20
223.356525065706
 30
0
  0
SEQEND
  8
0
  0
POLYLINE
  8
0
 62
7
 66
1
  0
VERTEX
  8
0
 10
0.650086211255811
 20
223.353828242106
 30
0
  0
VERTEX
  8
0
 10
0.7553010308558044
 20
223.354876855706
 30
0
  0
VERTEX
  8
0
 10
0.7990603760558059
 20
223.356525620506
 30
0
  0
SEQEND
  8
0
  0
POLYLINE
  8
0
 62
7
 66
1
  0
VERTEX
  8
0
 10
0.6095572428558
 20
218.740230255506
 30
0
  0
VERTEX
  8
0
 10
0.7156408664558001
 20
218.741318839906
 30
0
  0
VERTEX
  8
0
 10
0.759733813855803
 20
218.743014387106
 30
0
  0
SEQEND
  8
0
  0
POLYLINE
  8
0
 62
7
 66
1
  0
VERTEX
  8
0
 10
35.62441497465581
 20
133.312919522906
 30
0
  0
VERTEX
  8
0
 10
35.57908335865581
 20
125.712764134706
 30
0
  0
VERTEX
  8
0
 10
35.44314131865581
 20
118.114127024506
 30
0
  0
VERTEX
  8
0
 10
35.21655504465581
 20
110.516134385906
 30
0
  0
VERTEX
  8
0
 10
34.89942596685582
 20
102.921407637706
 30
0
  0
VERTEX
  8
0
 10
34.49185551545581
 20
95.33256819910599
 30
0
  0
VERTEX
  8
0
 10
33.9938098804558
 20
87.74874226350602
 30
0
  0
SEQEND
  8
0
  0
POLYLINE
  8
0
 62
7
 66
1
  0
VERTEX
  8
0
 10
34.52132214545581
 20
218.760723207306
 30
0
  0
VERTEX
  8
0
 10
34.8479595058558
 20
219.405327108106
 30
0
  0
VERTEX
  8
0
 10
35.1175708882558
 20
220.049925367106
 30
0
  0
VERTEX
  8
0
 10
35.33006118685582
 20
220.694584226706
 30
0
  0
VERTEX
  8
0
 10
35.48519307145581
 20
221.338869553506
 30
0
  0
VERTEX
  8
0
 10
35.5828634152558
 20
221.982347104506
 30
0
  0
VERTEX
  8
0
 10
35.62311314105581
 20
222.625083609106
 30
0
  0
SEQEND
  8
0
  0
POLYLINE
  8
0
 62
7
 66
1
  0
VERTEX
  8
0
 10
34.51892097965582
 20
212.688218239106
 30
0
  0
VERTEX
  8
0
 10
34.84676740345581
 20
213.564011719106
 30
0
  0
VERTEX
  8
0
 10
35.11723356465579
 20
214.439704446706
 30
0
  0
VERTEX
  8
0
 10
35.33024593065581
 20
215.315367969906
 30
0
  0
VERTEX
  8
0
 10
35.48560376485581
 20
216.190466530706
 30
0
  0
VERTEX
  8
0
 10
35.5832269808558
 20
217.064464314106
 30
0
  0
VERTEX
  8
0
 10
35.6231645902558
 20
217.937433685506
 30
0
  0
SEQEND
  8
0
  0
POLYLINE
  8
0
 62
7
 66
1
  0
VERTEX
  8
0
 10
31.84953075825581
 20
200.194327806906
 30
0
  0
VERTEX
  8
0
 10
31.88448510465581
 20
196.693475288706
 30
0
  0
VERTEX
  8
0
 10
31.91641557885581
 20
193.043985487506
 30
0
  0
VERTEX
  8
0
 10
31.9449684464558
 20
189.261071237706
 30
0
  0
VERTEX
  8
0
 10
31.9695568990558
 20
185.314267068106
 30
0
  0
VERTEX
  8
0
 10
31.9895701692558
 20
181.185705959306
 30
0
  0
VERTEX
  8
0
 10
32.00409199365581
 20
176.859614610706
 30
0
  0
VERTEX
  8
0
 10
32.0121999270558
 20
172.321907912906
 30
0
  0
VERTEX
  8
0
 10
32.0125573180558
 20
167.560602593306
 30
0
  0
VERTEX
  8
0
 10
32.0038216766558
 20
162.566091418106
 30
0
  0
VERTEX
  8
0
 10
31.98418126165581
 20
157.333377633506
 30
0
  0
VERTEX
  8
0
 10
31.9516684268558
 20
151.851535144906
 30
0
  0
VERTEX
  8
0
 10
31.90430801925581
 20
146.152311750106
 30
0
  0
VERTEX
  8
0
 10
31.8397933150558
 20
140.248765167906
 30
0
  0
VERTEX
  8
0
 10
31.75655502625581
 20
134.209954815306
 30
0
  0
VERTEX
  8
0
 10
31.65202375445581
 20
128.056458957106
 30
0
  0
VERTEX
  8
0
 10
31.5274410892558
 20
121.957987962306
 30
0
  0
VERTEX
  8
0
 10
31.38355572705581
 20
116.029306304106
 30
0
  0
VERTEX
  8
0
 10
31.22389592465581
 20
110.394265507506
 30
0
  0
VERTEX
  8
0
 10
31.0524981080558
 20
105.160739952906
 30
0
  0
VERTEX
  8
0
 10
30.8740386240558
 20
100.386284509706
 30
0
  0
VERTEX
  8
0
 10
30.6957571710558
 20
96.15518283130598
 30
0
  0
SEQEND
  8
0
  0
POLYLINE
  8
0
 62
7
 66
1
  0
VERTEX
  8
0
 10
34.4741629498558
 20
200.482760958106
 30
0
  0
VERTEX
  8
0
 10
34.8163928530558
 20
201.853429916506
 30
0
  0
VERTEX
  8
0
 10
35.0984474908558
 20
203.223834504906
 30
0
  0
VERTEX
  8
0
 10
35.32027672425581
 20
204.594068378506
 30
0
  0
VERTEX
  8
0
 10
35.48170566765582
 20
205.963328890906
 30
0
  0
VERTEX
  8
0
 10
35.58267870005581
 20
207.330813406106
 30
0
  0
VERTEX
  8
0
 10
35.62326693165581
 20
208.696617126106
 30
0
  0
SEQEND
  8
0
  0
POLYLINE
  8
0
 62
7
 66
1
  0
VERTEX
  8
0
 10
35.62311314105581
 20
222.625083609106
 30
0
  0
VERTEX
  8
0
 10
35.62351092185581
 20
222.649234869106
 30
0
  0
VERTEX
  8
0
 10
35.62408951485581
 20
222.697537478106
 30
0
  0
SEQEND
  8
0
  0
POLYLINE
  8
0
 62
7
 66
1
  0
VERTEX
  8
0
 10
35.6231645902558
 20
217.937433685506
 30
0
  0
VERTEX
  8
0
 10
35.6235466506558
 20
217.970190040706
 30
0
  0
VERTEX
  8
0
 10
35.6242760424558
 20
218.068459312906
 30
0
  0
SEQEND
  8
0
  0
POLYLINE
  8
0
 62
7
 66
1
  0
VERTEX
  8
0
 10
34.04040058285581
 20
96.80188119370598
 30
0
  0
VERTEX
  8
0
 10
34.52281790665582
 20
103.739272277306
 30
0
  0
VERTEX
  8
0
 10
34.9179139200558
 20
110.680220033906
 30
0
  0
VERTEX
  8
0
 10
35.22565771445581
 20
117.624077252306
 30
0
  0
VERTEX
  8
0
 10
35.44597657085579
 20
124.569096108106
 30
0
  0
VERTEX
  8
0
 10
35.57883943605582
 20
131.513528734306
 30
0
  0
VERTEX
  8
0
 10
35.62425725865582
 20
138.456730419306
 30
0
  0
SEQEND
  8
0
  0
POLYLINE
  8
0
 62
7
 66
1
  0
VERTEX
  8
0
 10
34.01555701585581
 20
93.14726274270601
 30
0
  0
VERTEX
  8
0
 10
34.50603402745581
 20
100.357726640506
 30
0
  0
VERTEX
  8
0
 10
34.9076250682558
 20
107.572327209906
 30
0
  0
VERTEX
  8
0
 10
35.22029823245582
 20
114.790327716106
 30
0
  0
VERTEX
  8
0
 10
35.4439852038558
 20
122.010010827906
 30
0
  0
VERTEX
  8
0
 10
35.57865399545581
 20
129.229659039706
 30
0
  0
VERTEX
  8
0
 10
35.62430915785579
 20
136.448537493506
 30
0
  0
SEQEND
  8
0
  0
POLYLINE
  8
0
 62
7
 66
1
  0
VERTEX
  8
0
 10
33.99833099805581
 20
90.76552377150597
 30
0
  0
VERTEX
  8
0
 10
34.4944271286558
 20
98.15343998910601
 30
0
  0
VERTEX
  8
0
 10
34.90055115125581
 20
105.546198726506
 30
0
  0
VERTEX
  8
0
 10
35.2166641170558
 20
112.943039889706
 30
0
  0
VERTEX
  8
0
 10
35.4426878354558
 20
120.342132274306
 30
0
  0
VERTEX
  8
0
 10
35.57858327665581
 20
127.741644029106
 30
0
  0
VERTEX
  8
0
 10
35.6243507228558
 20
135.140815797706
 30
0
  0
SEQEND
  8
0
  0
POLYLINE
  8
0
 62
7
 66
1
  0
VERTEX
  8
0
 10
34.3125041724558
 20
165.676557498306
 30
0
  0
VERTEX
  8
0
 10
34.28287117685581
 20
158.994601916706
 30
0
  0
VERTEX
  8
0
 10
34.2277264134558
 20
146.050053108306
 30
0
  0
SEQEND
  8
0
  0
POLYLINE
  8
0
 62
7
 66
1
  0
VERTEX
  8
0
 10
24.53668947105581
 20
219.347847690906
 30
0
  0
VERTEX
  8
0
 10
24.99537953385581
 20
219.334344329906
 30
0
  0
VERTEX
  8
0
 10
25.44328306245581
 20
219.297270805506
 30
0
  0
VERTEX
  8
0
 10
25.86986717845581
 20
219.237498936906
 30
0
  0
VERTEX
  8
0
 10
26.2651003498558
 20
219.156434316706
 30
0
  0
VERTEX
  8
0
 10
26.6196882920558
 20
219.055983256706
 30
0
  0
VERTEX
  8
0
 10
26.9252925316558
 20
218.938507959306
 30
0
  0
VERTEX
  8
0
 10
27.17472649365581
 20
218.806770967906
 30
0
  0
VERTEX
  8
0
 10
27.36212450065581
 20
218.663870203506
 30
0
  0
VERTEX
  8
0
 10
27.48307971025581
 20
218.513166113706
 30
0
  0
VERTEX
  8
0
 10
27.53474774505581
 20
218.358202649106
 30
0
  0
SEQEND
  8
0
  0
POLYLINE
  8
0
 62
7
 66
1
  0
VERTEX
  8
0
 10
4.96334937965581
 20
219.084770678506
 30
0
  0
VERTEX
  8
0
 10
4.886160543055809
 20
219.132729356506
 30
0
  0
VERTEX
  8
0
 10
4.809460398455798
 20
219.183405247306
 30
0
  0
SEQEND
  8
0
  0
POLYLINE
  8
0
 62
7
 66
1
  0
VERTEX
  8
0
 10
9.716937686455808
 20
219.183405247306
 30
0
  0
VERTEX
  8
0
 10
9.488982292055809
 20
219.043340077306
 30
0
  0
VERTEX
  8
0
 10
9.26063984525581
 20
218.924432613506
 30
0
  0
VERTEX
  8
0
 10
9.031419641055805
 20
218.827967828906
 30
0
  0
VERTEX
  8
0
 10
8.802793794055802
 20
218.750090804506
 30
0
  0
VERTEX
  8
0
 10
8.575019019655798
 20
218.687916985106
 30
0
  0
VERTEX
  8
0
 10
8.351250811055806
 20
218.639820251706
 30
0
  0
VERTEX
  8
0
 10
8.134547602255807
 20
218.603820350306
 30
0
  0
VERTEX
  8
0
 10
7.925457285855799
 20
218.578095130906
 30
0
  0
VERTEX
  8
0
 10
7.725498410655803
 20
218.560515145906
 30
0
  0
VERTEX
  8
0
 10
7.534817442655807
 20
218.550022035106
 30
0
  0
VERTEX
  8
0
 10
7.354088025855802
 20
218.545063293306
 30
0
  0
VERTEX
  8
0
 10
7.183247176455808
 20
218.544991907906
 30
0
  0
VERTEX
  8
0
 10
7.022723709455804
 20
218.548779942306
 30
0
  0
VERTEX
  8
0
 10
6.871715873855806
 20
218.556017665706
 30
0
  0
VERTEX
  8
0
 10
6.72976778565581
 20
218.566042343106
 30
0
  0
VERTEX
  8
0
 10
6.596270659855804
 20
218.578585050906
 30
0
  0
VERTEX
  8
0
 10
6.470665457655798
 20
218.593218918506
 30
0
  0
VERTEX
  8
0
 10
6.352347059055802
 20
218.609755051106
 30
0
  0
VERTEX
  8
0
 10
6.240740852255811
 20
218.627895994106
 30
0
  0
VERTEX
  8
0
 10
6.135196275055804
 20
218.647540556306
 30
0
  0
VERTEX
  8
0
 10
6.0350766532558
 20
218.668494272906
 30
0
  0
VERTEX
  8
0
 10
5.939765709455799
 20
218.690739508106
 30
0
  0
VERTEX
  8
0
 10
5.848641493055808
 20
218.714167025106
 30
0
  0
VERTEX
  8
0
 10
5.7610843486558
 20
218.738857163506
 30
0
  0
VERTEX
  8
0
 10
5.67647238545581
 20
218.764790556306
 30
0
  0
VERTEX
  8
0
 10
5.594190358455805
 20
218.792157087906
 30
0
  0
VERTEX
  8
0
 10
5.513604276855801
 20
218.821040950506
 30
0
  0
VERTEX
  8
0
 10
5.434148486455811
 20
218.851739853906
 30
0
  0
VERTEX
  8
0
 10
5.355039019855809
 20
218.884533598706
 30
0
  0
VERTEX
  8
0
 10
5.276296825055809
 20
218.919560104506
 30
0
  0
VERTEX
  8
0
 10
5.197619482255803
 20
218.957035940306
 30
0
  0
VERTEX
  8
0
 10
5.119193128455805
 20
218.997004959706
 30
0
  0
VERTEX
  8
0
 10
5.041070334255807
 20
219.039563461906
 30
0
  0
VERTEX
  8
0
 10
4.96334937965581
 20
219.084770678506
 30
0
  0
SEQEND
  8
0
  0
POLYLINE
  8
0
 62
7
 66
1
  0
VERTEX
  8
0
 10
19.5318922626558
 20
219.183405247306
 30
0
  0
VERTEX
  8
0
 10
19.0794984112558
 20
219.043648023706
 30
0
  0
VERTEX
  8
0
 10
18.6156494208558
 20
218.923586277106
 30
0
  0
VERTEX
  8
0
 10
18.1406320048558
 20
218.824146280506
 30
0
  0
VERTEX
  8
0
 10
17.6535860234558
 20
218.742549213706
 30
0
  0
VERTEX
  8
0
 10
17.15037904245581
 20
218.676560964306
 30
0
  0
VERTEX
  8
0
 10
16.6411146588558
 20
218.625473679706
 30
0
  0
VERTEX
  8
0
 10
16.1351624086558
 20
218.588437202706
 30
0
  0
VERTEX
  8
0
 10
15.63059203945581
 20
218.563644335306
 30
0
  0
VERTEX
  8
0
 10
15.12930726305581
 20
218.549044454906
 30
0
  0
VERTEX
  8
0
 10
14.6291757224558
 20
218.544517677306
 30
0
  0
VERTEX
  8
0
 10
14.1291372370558
 20
218.548860479106
 30
0
  0
VERTEX
  8
0
 10
13.62787898925581
 20
218.563273153706
 30
0
  0
VERTEX
  8
0
 10
13.12313949425581
 20
218.587857641706
 30
0
  0
VERTEX
  8
0
 10
12.61670457045581
 20
218.624705478906
 30
0
  0
VERTEX
  8
0
 10
12.10642989585581
 20
218.675643466306
 30
0
  0
VERTEX
  8
0
 10
11.6018444066558
 20
218.741567749706
 30
0
  0
VERTEX
  8
0
 10
11.1130380410558
 20
218.823250812306
 30
0
  0
VERTEX
  8
0
 10
10.6361834726558
 20
218.922890441706
 30
0
  0
VERTEX
  8
0
 10
10.17075868605581
 20
219.043248830306
 30
0
  0
VERTEX
  8
0
 10
9.716937686455808
 20
219.183405247306
 30
0
  0
SEQEND
  8
0
  0
POLYLINE
  8
0
 62
7
 66
1
  0
VERTEX
  8
0
 10
29.6739660090558
 20
210.784028582506
 30
0
  0
VERTEX
  8
0
 10
29.09834612405581
 20
210.782511570506
 30
0
  0
VERTEX
  8
0
 10
28.8767448438558
 20
210.782865007706
 30
0
  0
VERTEX
  8
0
 10
28.70932527845581
 20
210.783952550706
 30
0
  0
VERTEX
  8
0
 10
28.6014911140558
 20
210.785739097906
 30
0
  0
VERTEX
  8
0
 10
28.5567228394558
 20
210.788166985906
 30
0
  0
SEQEND
  8
0
  0
POLYLINE
  8
0
 62
7
 66
1
  0
VERTEX
  8
0
 10
29.07990402825581
 20
212.673651057706
 30
0
  0
VERTEX
  8
0
 10
28.69262744765581
 20
212.674312572106
 30
0
  0
VERTEX
  8
0
 10
28.5852871578558
 20
212.675653768506
 30
0
  0
VERTEX
  8
0
 10
28.5407107456558
 20
212.677618288906
 30
0
  0
SEQEND
  8
0
  0
POLYLINE
  8
0
 62
7
 66
1
  0
VERTEX
  8
0
 10
-2.473441595544202
 20
210.802685382906
 30
0
  0
VERTEX
  8
0
 10
-2.16398399814419
 20
210.798632852506
 30
0
  0
VERTEX
  8
0
 10
-1.472930411944191
 20
210.791326888706
 30
0
  0
SEQEND
  8
0
  0
POLYLINE
  8
0
 62
7
 66
1
  0
VERTEX
  8
0
 10
34.5156480186558
 20
210.783891911706
 30
0
  0
VERTEX
  8
0
 10
34.29561853665581
 20
210.786104952106
 30
0
  0
VERTEX
  8
0
 10
33.54043311905581
 20
210.791779035306
 30
0
  0
SEQEND
  8
0
  0
POLYLINE
  8
0
 62
7
 66
1
  0
VERTEX
  8
0
 10
-4.719969997744201
 20
210.788748123906
 30
0
  0
VERTEX
  8
0
 10
-3.159252073144202
 20
210.798804031106
 30
0
  0
VERTEX
  8
0
 10
-2.473441606544199
 20
210.802685382906
 30
0
  0
SEQEND
  8
0
  0
POLYLINE
  8
0
 62
7
 66
1
  0
VERTEX
  8
0
 10
0.5562025022558004
 20
212.674312578706
 30
0
  0
VERTEX
  8
0
 10
0.6635427916558001
 20
212.675653777106
 30
0
  0
VERTEX
  8
0
 10
0.708119203655798
 20
212.677618299506
 30
0
  0
SEQEND
  8
0
  0
POLYLINE
  8
0
 62
7
 66
1
  0
VERTEX
  8
0
 10
0.3720851020558058
 20
210.782865144906
 30
0
  0
VERTEX
  8
0
 10
0.5395046684558054
 20
210.783952749106
 30
0
  0
VERTEX
  8
0
 10
0.6473388354557983
 20
210.785739361506
 30
0
  0
VERTEX
  8
0
 10
0.6921071140558013
 20
210.788167316906
 30
0
  0
SEQEND
  8
0
  0
POLYLINE
  8
0
 62
7
 66
1
  0
VERTEX
  8
0
 10
24.53668947105581
 20
219.347847619306
 30
0
  0
VERTEX
  8
0
 10
24.5174172796558
 20
215.855035940306
 30
0
  0
VERTEX
  8
0
 10
24.48876547225581
 20
212.470791735106
 30
0
  0
VERTEX
  8
0
 10
24.45064772205581
 20
209.211933473106
 30
0
  0
VERTEX
  8
0
 10
24.4033230092558
 20
206.088328942306
 30
0
  0
VERTEX
  8
0
 10
24.34692153325581
 20
203.110197022106
 30
0
  0
VERTEX
  8
0
 10
24.28174331185581
 20
200.292401305106
 30
0
  0
VERTEX
  8
0
 10
24.20796851425581
 20
197.646833737306
 30
0
  0
VERTEX
  8
0
 10
24.1260868866558
 20
195.189027574306
 30
0
  0
VERTEX
  8
0
 10
24.0365027142558
 20
192.932816855706
 30
0
  0
VERTEX
  8
0
 10
23.93965254925581
 20
190.886945457706
 30
0
  0
VERTEX
  8
0
 10
23.8359880904558
 20
189.061042983706
 30
0
  0
VERTEX
  8
0
 10
23.72586818525581
 20
187.461074159306
 30
0
  0
VERTEX
  8
0
 10
23.6098659242558
 20
186.093124400306
 30
0
  0
VERTEX
  8
0
 10
23.4877902772558
 20
184.965564309506
 30
0
  0
SEQEND
  8
0
  0
POLYLINE
  8
0
 62
7
 66
1
  0
VERTEX
  8
0
 10
27.5347477908558
 20
218.358202649506
 30
0
  0
VERTEX
  8
0
 10
27.51842455145581
 20
215.122996955706
 30
0
  0
VERTEX
  8
0
 10
27.4948869196558
 20
211.985331721906
 30
0
  0
VERTEX
  8
0
 10
27.46407807885581
 20
208.941142818306
 30
0
  0
VERTEX
  8
0
 10
27.42616847845581
 20
206.002622633306
 30
0
  0
VERTEX
  8
0
 10
27.3812590538558
 20
203.177656678906
 30
0
  0
VERTEX
  8
0
 10
27.3295015322558
 20
200.475101454506
 30
0
  0
VERTEX
  8
0
 10
27.27098696465581
 20
197.902803606506
 30
0
  0
VERTEX
  8
0
 10
27.2059983162558
 20
195.471678206706
 30
0
  0
VERTEX
  8
0
 10
27.13473528725581
 20
193.192605542906
 30
0
  0
VERTEX
  8
0
 10
27.05753872585581
 20
191.073536612906
 30
0
  0
VERTEX
  8
0
 10
26.9747334766558
 20
189.124735552506
 30
0
  0
VERTEX
  8
0
 10
26.88656725265581
 20
187.350143236106
 30
0
  0
VERTEX
  8
0
 10
26.7932935718558
 20
185.755514028506
 30
0
  0
VERTEX
  8
0
 10
26.69521986225581
 20
184.345671595706
 30
0
  0
VERTEX
  8
0
 10
26.5927870492558
 20
183.128200448706
 30
0
  0
VERTEX
  8
0
 10
26.48584815765581
 20
182.100572417106
 30
0
  0
SEQEND
  8
0
  0
POLYLINE
  8
0
 62
7
 66
1
  0
VERTEX
  8
0
 10
39.65620163885579
 20
311.488380187506
 30
0
  0
VERTEX
  8
0
 10
39.9019348656558
 20
311.573647683506
 30
0
  0
VERTEX
  8
0
 10
40.13452281065581
 20
311.690116351906
 30
0
  0
VERTEX
  8
0
 10
40.35002775985579
 20
311.835814394706
 30
0
  0
VERTEX
  8
0
 10
40.5448012062558
 20
312.008275155306
 30
0
  0
VERTEX
  8
0
 10
40.7155456276558
 20
312.204578883106
 30
0
  0
VERTEX
  8
0
 10
40.8593703110558
 20
312.421402161306
 30
0
  0
VERTEX
  8
0
 10
40.97384029545582
 20
312.655074174506
 30
0
  0
VERTEX
  8
0
 10
41.05701759485579
 20
312.901638854906
 30
0
  0
VERTEX
  8
0
 10
41.10749401105581
 20
313.156921856906
 30
0
  0
VERTEX
  8
0
 10
41.12441497465581
 20
313.416601242506
 30
0
  0
SEQEND
  8
0
  0
POLYLINE
  8
0
 62
7
 66
1
  0
VERTEX
  8
0
 10
38.53346942265581
 20
322.279383706906
 30
0
  0
VERTEX
  8
0
 10
38.5650159098558
 20
322.421443905706
 30
0
  0
VERTEX
  8
0
 10
38.58951417185581
 20
322.535767725706
 30
0
  0
VERTEX
  8
0
 10
38.60655679105581
 20
322.620453908706
 30
0
  0
VERTEX
  8
0
 10
38.61586034025579
 20
322.674094083906
 30
0
  0
VERTEX
  8
0
 10
38.6172700972558
 20
322.695796190106
 30
0
  0
SEQEND
  8
0
  0
POLYLINE
  8
0
 62
7
 66
1
  0
VERTEX
  8
0
 10
28.6322294428558
 20
200.295962847506
 30
0
  0
VERTEX
  8
0
 10
28.65157646105581
 20
196.830225586906
 30
0
  0
VERTEX
  8
0
 10
28.66825440425581
 20
193.220554691906
 30
0
  0
VERTEX
  8
0
 10
28.68248163805581
 20
189.475915985506
 30
0
  0
VERTEX
  8
0
 10
28.6936030646558
 20
185.569411998306
 30
0
  0
VERTEX
  8
0
 10
28.7012998786558
 20
181.481483324906
 30
0
  0
VERTEX
  8
0
 10
28.7047815676558
 20
177.199081594706
 30
0
  0
VERTEX
  8
0
 10
28.70351455625581
 20
172.705273071506
 30
0
  0
VERTEX
  8
0
 10
28.69640922705581
 20
167.992154446706
 30
0
  0
VERTEX
  8
0
 10
28.68267444345581
 20
163.045857755906
 30
0
  0
VERTEX
  8
0
 10
28.66088118785581
 20
157.867343228706
 30
0
  0
VERTEX
  8
0
 10
28.6298308830558
 20
152.440274404506
 30
0
  0
VERTEX
  8
0
 10
28.58804107225581
 20
146.802673387506
 30
0
  0
VERTEX
  8
0
 10
28.53395008765581
 20
140.962922705706
 30
0
  0
VERTEX
  8
0
 10
28.46659698385581
 20
134.993604627506
 30
0
  0
VERTEX
  8
0
 10
28.38393853845581
 20
128.917715109906
 30
0
  0
VERTEX
  8
0
 10
28.28765991325581
 20
122.892395614706
 30
0
  0
VERTEX
  8
0
 10
28.17759459265581
 20
117.049713674906
 30
0
  0
VERTEX
  8
0
 10
28.05725438865581
 20
111.487887032306
 30
0
  0
VERTEX
  8
0
 10
27.9287311216558
 20
106.338838098106
 30
0
  0
VERTEX
  8
0
 10
27.7961182510558
 20
101.633520398906
 30
0
  0
VERTEX
  8
0
 10
27.66480535145581
 20
97.45622755630598
 30
0
  0
SEQEND
  8
0
  0
POLYLINE
  8
0
 62
7
 66
1
  0
VERTEX
  8
0
 10
28.5977601666558
 20
205.543532674906
 30
0
  0
VERTEX
  8
0
 10
28.62147346945581
 20
202.045074911906
 30
0
  0
VERTEX
  8
0
 10
28.6322294428558
 20
200.295962847506
 30
0
  0
SEQEND
  8
0
  0
POLYLINE
  8
0
 62
7
 66
1
  0
VERTEX
  8
0
 10
31.7897413634558
 20
205.499318829306
 30
0
  0
VERTEX
  8
0
 10
31.83047500225581
 20
201.962327842306
 30
0
  0
VERTEX
  8
0
 10
31.8495313264558
 20
200.194327627906
 30
0
  0
SEQEND
  8
0
  0
POLYLINE
  8
0
 62
7
 66
1
  0
VERTEX
  8
0
 10
27.53654196785581
 20
226.223061902706
 30
0
  0
VERTEX
  8
0
 10
27.7676994788558
 20
225.862823747706
 30
0
  0
VERTEX
  8
0
 10
27.9615664280558
 20
225.495384348906
 30
0
  0
VERTEX
  8
0
 10
28.11968120065581
 20
225.124403131306
 30
0
  0
VERTEX
  8
0
 10
28.2436643518558
 20
224.754868866306
 30
0
  0
VERTEX
  8
0
 10
28.33571108425581
 20
224.391817639706
 30
0
  0
VERTEX
  8
0
 10
28.39890750685581
 20
224.036677841506
 30
0
  0
VERTEX
  8
0
 10
28.43609881305581
 20
223.690803287906
 30
0
  0
VERTEX
  8
0
 10
28.44976957325581
 20
223.356525620506
 30
0
  0
SEQEND
  8
0
  0
POLYLINE
  8
0
 62
7
 66
1
  0
VERTEX
  8
0
 10
29.7676234806558
 20
227.387118856706
 30
0
  0
VERTEX
  8
0
 10
30.2250478786558
 20
226.883184762906
 30
0
  0
VERTEX
  8
0
 10
30.60512191305581
 20
226.367757034306
 30
0
  0
VERTEX
  8
0
 10
30.9162995326558
 20
225.849081547506
 30
0
  0
VERTEX
  8
0
 10
31.1611921480558
 20
225.332545892706
 30
0
  0
VERTEX
  8
0
 10
31.3423511004558
 20
224.825300955106
 30
0
  0
VERTEX
  8
0
 10
31.46775231825581
 20
224.328324085706
 30
0
  0
VERTEX
  8
0
 10
31.5418081056558
 20
223.842307826306
 30
0
  0
VERTEX
  8
0
 10
31.56872969965581
 20
223.374000240906
 30
0
  0
SEQEND
  8
0
  0
POLYLINE
  8
0
 62
7
 66
1
  0
VERTEX
  8
0
 10
25.12441497465581
 20
227.591670103306
 30
0
  0
VERTEX
  8
0
 10
25.1905734864558
 20
227.555329917706
 30
0
  0
VERTEX
  8
0
 10
25.6457245204558
 20
227.234514850706
 30
0
  0
VERTEX
  8
0
 10
26.06214695165581
 20
226.865089783106
 30
0
  0
VERTEX
  8
0
 10
26.4348843320558
 20
226.451442623906
 30
0
  0
VERTEX
  8
0
 10
26.75947048945581
 20
225.998338042706
 30
0
  0
VERTEX
  8
0
 10
27.03152321005581
 20
225.511687222706
 30
0
  0
VERTEX
  8
0
 10
27.24746818665581
 20
224.997906747306
 30
0
  0
VERTEX
  8
0
 10
27.40477493725581
 20
224.463092869706
 30
0
  0
VERTEX
  8
0
 10
27.50148472685581
 20
223.913664430906
 30
0
  0
VERTEX
  8
0
 10
27.53627674525581
 20
223.356525620506
 30
0
  0
SEQEND
  8
0
  0
POLYLINE
  8
0
 62
7
 66
1
  0
VERTEX
  8
0
 10
24.4393695508558
 20
224.351579980306
 30
0
  0
VERTEX
  8
0
 10
24.48735448445581
 20
224.204513453306
 30
0
  0
VERTEX
  8
0
 10
24.5249437526558
 20
224.009915089706
 30
0
  0
VERTEX
  8
0
 10
24.53821842545581
 20
223.810635986306
 30
0
  0
SEQEND
  8
0
  0
POLYLINE
  8
0
 62
7
 66
1
  0
VERTEX
  8
0
 10
23.48779027245581
 20
184.965564317706
 30
0
  0
VERTEX
  8
0
 10
23.8747972140558
 20
184.938260210506
 30
0
  0
VERTEX
  8
0
 10
24.2553301516558
 20
184.863045495506
 30
0
  0
VERTEX
  8
0
 10
24.62302245765581
 20
184.741165487306
 30
0
  0
VERTEX
  8
0
 10
24.9717240646558
 20
184.574659412506
 30
0
  0
VERTEX
  8
0
 10
25.2956027570558
 20
184.366315667906
 30
0
  0
VERTEX
  8
0
 10
25.5892408062558
 20
184.119616622106
 30
0
  0
VERTEX
  8
0
 10
25.8477268902558
 20
183.838691672506
 30
0
  0
VERTEX
  8
0
 10
26.06673674445581
 20
183.528236442506
 30
0
  0
VERTEX
  8
0
 10
26.2426070502558
 20
183.193445967506
 30
0
  0
VERTEX
  8
0
 10
26.37239525745581
 20
182.839916862706
 30
0
  0
VERTEX
  8
0
 10
26.45392998585581
 20
182.473561983106
 30
0
  0
VERTEX
  8
0
 10
26.4858485960558
 20
182.100522073106
 30
0
  0
SEQEND
  8
0
  0
POLYLINE
  8
0
 62
7
 66
1
  0
VERTEX
  8
0
 10
19.2526007314558
 20
308.696884769306
 30
0
  0
VERTEX
  8
0
 10
18.90988365265581
 20
308.819882560306
 30
0
  0
VERTEX
  8
0
 10
18.5792078096558
 20
308.956694645306
 30
0
  0
VERTEX
  8
0
 10
18.26012654565581
 20
309.106929535506
 30
0
  0
VERTEX
  8
0
 10
17.9543160090558
 20
309.271761696706
 30
0
  0
VERTEX
  8
0
 10
17.6626436580558
 20
309.452488837306
 30
0
  0
VERTEX
  8
0
 10
17.38902995705581
 20
309.648349741106
 30
0
  0
VERTEX
  8
0
 10
17.1379980930558
 20
309.863691878506
 30
0
  0
VERTEX
  8
0
 10
16.91620430325581
 20
310.084486898906
 30
0
  0
VERTEX
  8
0
 10
16.74362319605581
 20
310.298015991106
 30
0
  0
VERTEX
  8
0
 10
16.6109400006558
 20
310.504698006706
 30
0
  0
VERTEX
  8
0
 10
16.5128929802558
 20
310.699995163506
 30
0
  0
VERTEX
  8
0
 10
16.4466820868558
 20
310.886058551906
 30
0
  0
VERTEX
  8
0
 10
16.40091484185581
 20
311.063606480506
 30
0
  0
VERTEX
  8
0
 10
16.38443080405581
 20
311.232399513106
 30
0
  0
SEQEND
  8
0
  0
POLYLINE
  8
0
 62
7
 66
1
  0
VERTEX
  8
0
 10
23.67708436825581
 20
310.241324781906
 30
0
  0
VERTEX
  8
0
 10
23.33341869445584
 20
310.3125118891062
 30
0
  0
VERTEX
  8
0
 10
21.48775641325581
 20
310.396572453506
 30
0
  0
VERTEX
  8
0
 10
21.16853743025581
 20
310.493481085906
 30
0
  0
VERTEX
  8
0
 10
20.86029013285581
 20
310.603313953706
 30
0
  0
VERTEX
  8
0
 10
20.5625499310558
 20
310.725872996506
 30
0
  0
VERTEX
  8
0
 10
20.2746228610558
 20
310.861955509506
 30
0
  0
VERTEX
  8
0
 10
19.99660214465581
 20
311.011974297106
 30
0
  0
VERTEX
  8
0
 10
19.7292311764558
 20
311.176884770906
 30
0
  0
VERTEX
  8
0
 10
19.4734229650558
 20
311.357911765506
 30
0
  0
VERTEX
  8
0
 10
19.23313800765581
 20
311.554659816306
 30
0
  0
VERTEX
  8
0
 10
19.0077973630558
 20
311.771950781906
 30
0
  0
VERTEX
  8
0
 10
18.8142000952558
 20
311.995357528506
 30
0
  0
VERTEX
  8
0
 10
18.66084137245581
 20
312.212048467906
 30
0
  0
VERTEX
  8
0
 10
18.54233933805581
 20
312.422058819706
 30
0
  0
VERTEX
  8
0
 10
18.45618281425581
 20
312.620397359906
 30
0
  0
VERTEX
  8
0
 10
18.39673217865581
 20
312.809311831106
 30
0
  0
VERTEX
  8
0
 10
18.35995540625581
 20
312.989459233706
 30
0
  0
VERTEX
  8
0
 10
18.3428500572558
 20
313.160620568106
 30
0
  0
SEQEND
  8
0
  0
POLYLINE
  8
0
 62
7
 66
1
  0
VERTEX
  8
0
 10
15.44063477725581
 20
320.790253002106
 30
0
  0
VERTEX
  8
0
 10
15.4389144460558
 20
321.050731154106
 30
0
  0
VERTEX
  8
0
 10
15.4360810138558
 20
321.301928793906
 30
0
  0
VERTEX
  8
0
 10
15.4321845082558
 20
321.539410966906
 30
0
  0
VERTEX
  8
0
 10
15.4272937256558
 20
321.758984889306
 30
0
  0
VERTEX
  8
0
 10
15.42149501645581
 20
321.956773985306
 30
0
  0
VERTEX
  8
0
 10
15.4148907608558
 20
322.129286305106
 30
0
  0
VERTEX
  8
0
 10
15.40759755925581
 20
322.273476189506
 30
0
  0
VERTEX
  8
0
 10
15.39974417605581
 20
322.386798023306
 30
0
  0
VERTEX
  8
0
 10
15.39146926465581
 20
322.467251170706
 30
0
  0
SEQEND
  8
0
  0
POLYLINE
  8
0
 62
7
 66
1
  0
VERTEX
  8
0
 10
31.54140914185581
 20
200.177002828906
 30
0
  0
VERTEX
  8
0
 10
31.2030329484558
 20
200.164208054506
 30
0
  0
VERTEX
  8
0
 10
30.8456466038558
 20
200.156368460506
 30
0
  0
VERTEX
  8
0
 10
30.48112565105581
 20
200.153744547706
 30
0
  0
VERTEX
  8
0
 10
30.12158270885581
 20
200.156423505906
 30
0
  0
VERTEX
  8
0
 10
29.77896498125581
 20
200.164316316306
 30
0
  0
VERTEX
  8
0
 10
29.46465726765581
 20
200.177160709506
 30
0
  0
VERTEX
  8
0
 10
29.18910365705581
 20
200.194529880906
 30
0
  0
VERTEX
  8
0
 10
28.9614604836558
 20
200.215846672706
 30
0
  0
VERTEX
  8
0
 10
28.78929207245581
 20
200.240402751706
 30
0
  0
VERTEX
  8
0
 10
28.6783193844558
 20
200.267382147706
 30
0
  0
VERTEX
  8
0
 10
28.6322299164558
 20
200.295888365506
 30
0
  0
SEQEND
  8
0
  0
POLYLINE
  8
0
 62
7
 66
1
  0
VERTEX
  8
0
 10
-1.268995778944202
 20
92.39642374490597
 30
0
  0
VERTEX
  8
0
 10
-0.9576018135442013
 20
92.28683964210597
 30
0
  0
VERTEX
  8
0
 10
-0.6264013617442004
 20
92.22156603070602
 30
0
  0
VERTEX
  8
0
 10
-0.285116715344202
 20
92.20251899830601
 30
0
  0
VERTEX
  8
0
 10
0.05623381605580846
 20
92.23025766470602
 30
0
  0
VERTEX
  8
0
 10
0.3876299882558101
 20
92.30396776950602
 30
0
  0
VERTEX
  8
0
 10
0.6993437648558114
 20
92.42148557470597
 30
0
  0
VERTEX
  8
0
 10
0.98222488005581
 20
92.57936137970597
 30
0
  0
VERTEX
  8
0
 10
1.227969442255798
 20
92.77296078670599
 30
0
  0
VERTEX
  8
0
 10
1.429363692655798
 20
92.99660074270599
 30
0
  0
VERTEX
  8
0
 10
1.580495762255808
 20
93.24371636270598
 30
0
  0
VERTEX
  8
0
 10
1.6769292138558
 20
93.50705364090601
 30
0
  0
VERTEX
  8
0
 10
1.715833272455811
 20
93.778882389106
 30
0
  0
SEQEND
  8
0
  0
POLYLINE
  8
0
 62
7
 66
1
  0
VERTEX
  8
0
 10
-1.188012195544189
 20
90.782847819106
 30
0
  0
VERTEX
  8
0
 10
-0.8767459923441976
 20
90.67507297170602
 30
0
  0
VERTEX
  8
0
 10
-0.5464751365442027
 20
90.61190427390602
 30
0
  0
VERTEX
  8
0
 10
-0.2067894923441997
 20
90.59517591530602
 30
0
  0
VERTEX
  8
0
 10
0.1324477042558101
 20
90.62537362630599
 30
0
  0
VERTEX
  8
0
 10
0.4613862394558055
 20
90.70162057530598
 30
0
  0
VERTEX
  8
0
 10
0.7704749342558017
 20
90.821702828306
 30
0
  0
VERTEX
  8
0
 10
1.050738977455808
 20
90.98213363330598
 30
0
  0
VERTEX
  8
0
 10
1.294040520455809
 20
91.17825466370601
 30
0
  0
VERTEX
  8
0
 10
1.493314971455803
 20
91.40437127790597
 30
0
  0
VERTEX
  8
0
 10
1.642776125255807
 20
91.65391787170597
 30
0
  0
VERTEX
  8
0
 10
1.738084173455803
 20
91.91964852010597
 30
0
  0
VERTEX
  8
0
 10
1.776471717255802
 20
92.19384737150597
 30
0
  0
SEQEND
  8
0
  0
POLYLINE
  8
0
 62
7
 66
1
  0
VERTEX
  8
0
 10
-1.049796271544196
 20
88.30810612350598
 30
0
  0
VERTEX
  8
0
 10
-0.7386677669441895
 20
88.19965331310601
 30
0
  0
VERTEX
  8
0
 10
-0.4098293787441918
 20
88.13784182830597
 30
0
  0
VERTEX
  8
0
 10
-0.07266826234419455
 20
88.12443616470597
 30
0
  0
VERTEX
  8
0
 10
0.2631908426558027
 20
88.159819005906
 30
0
  0
VERTEX
  8
0
 10
0.5881603648558098
 20
88.24298029890599
 30
0
  0
VERTEX
  8
0
 10
0.8929635906558104
 20
88.371546087306
 30
0
  0
VERTEX
  8
0
 10
1.168899482455799
 20
88.54184627930601
 30
0
  0
VERTEX
  8
0
 10
1.408091061255803
 20
88.74901941570602
 30
0
  0
VERTEX
  8
0
 10
1.60371026585581
 20
88.98715144710599
 30
0
  0
VERTEX
  8
0
 10
1.750172870655803
 20
89.24944455930597
 30
0
  0
VERTEX
  8
0
 10
1.843297893855805
 20
89.52841122510597
 30
0
  0
VERTEX
  8
0
 10
1.88042695025581
 20
89.81608794770597
 30
0
  0
SEQEND
  8
0
  0
POLYLINE
  8
0
 62
7
 66
1
  0
VERTEX
  8
0
 10
12.8643991434558
 20
311.232399437906
 30
0
  0
VERTEX
  8
0
 10
12.6078541566558
 20
311.254501857306
 30
0
  0
VERTEX
  8
0
 10
12.3562475336558
 20
311.308202358306
 30
0
  0
VERTEX
  8
0
 10
12.1137502052558
 20
311.392610737906
 30
0
  0
VERTEX
  8
0
 10
11.88438209565581
 20
311.506327741906
 30
0
  0
VERTEX
  8
0
 10
11.67194548325581
 20
311.647468262506
 30
0
  0
VERTEX
  8
0
 10
11.47996197005581
 20
311.813692586506
 30
0
  0
VERTEX
  8
0
 10
11.31161410325581
 20
312.002245182106
 30
0
  0
VERTEX
  8
0
 10
11.16969261745581
 20
312.210000377506
 30
0
  0
VERTEX
  8
0
 10
11.05655017205581
 20
312.433514176106
 30
0
  0
VERTEX
  8
0
 10
10.9740623506558
 20
312.669081347306
 30
0
  0
VERTEX
  8
0
 10
10.92359656945581
 20
312.912796850506
 30
0
  0
VERTEX
  8
0
 10
10.9059894096558
 20
313.160620567706
 30
0
  0
SEQEND
  8
0
  0
POLYLINE
  8
0
 62
7
 66
1
  0
VERTEX
  8
0
 10
30.20969643285581
 20
86.98865124850602
 30
0
  0
VERTEX
  8
0
 10
29.89874746665581
 20
86.88076878670597
 30
0
  0
VERTEX
  8
0
 10
29.5709260746558
 20
86.820506010906
 30
0
  0
VERTEX
  8
0
 10
29.2354848350558
 20
86.80956380490602
 30
0
  0
VERTEX
  8
0
 10
28.9018913918558
 20
86.84825100630599
 30
0
  0
VERTEX
  8
0
 10
28.57956123605581
 20
86.935475690506
 30
0
  0
VERTEX
  8
0
 10
28.2775919584558
 20
87.06877598930601
 30
0
  0
VERTEX
  8
0
 10
28.00450647525581
 20
87.24438957510597
 30
0
  0
VERTEX
  8
0
 10
27.76801247385581
 20
87.45735985190601
 30
0
  0
VERTEX
  8
0
 10
27.57478486705581
 20
87.70167585090599
 30
0
  0
VERTEX
  8
0
 10
27.43027739745581
 20
87.97044188830597
 30
0
  0
VERTEX
  8
0
 10
27.3385687086558
 20
88.25607219070599
 30
0
  0
VERTEX
  8
0
 10
27.3022472278558
 20
88.55050500050601
 30
0
  0
SEQEND
  8
0
  0
POLYLINE
  8
0
 62
7
 66
1
  0
VERTEX
  8
0
 10
30.29862611665581
 20
88.30810608590599
 30
0
  0
VERTEX
  8
0
 10
29.9874976214558
 20
88.19965341510601
 30
0
  0
VERTEX
  8
0
 10
29.6586592440558
 20
88.13784201570599
 30
0
  0
VERTEX
  8
0
 10
29.32149813925581
 20
88.124436381306
 30
0
  0
VERTEX
  8
0
 10
28.98563904525581
 20
88.15981919450599
 30
0
  0
VERTEX
  8
0
 10
28.66066953305581
 20
88.24298040330598
 30
0
  0
VERTEX
  8
0
 10
28.3558663146558
 20
88.37154605410598
 30
0
  0
VERTEX
  8
0
 10
28.07993042745581
 20
88.54184605930601
 30
0
  0
VERTEX
  8
0
 10
27.8407388494558
 20
88.74901896550597
 30
0
  0
VERTEX
  8
0
 10
27.6451196412558
 20
88.98715073070599
 30
0
  0
VERTEX
  8
0
 10
27.4986570286558
 20
89.249443548106
 30
0
  0
VERTEX
  8
0
 10
27.4055319930558
 20
89.52840990030597
 30
0
  0
VERTEX
  8
0
 10
27.36840291965581
 20
89.81608630010601
 30
0
  0
SEQEND
  8
0
  0
POLYLINE
  8
0
 62
7
 66
1
  0
VERTEX
  8
0
 10
30.4368421350558
 20
90.78284767650598
 30
0
  0
VERTEX
  8
0
 10
30.12557593105581
 20
90.67507287490599
 30
0
  0
VERTEX
  8
0
 10
29.79530507425581
 20
90.61190420390597
 30
0
  0
VERTEX
  8
0
 10
29.4556194288558
 20
90.595175852306
 30
0
  0
VERTEX
  8
0
 10
29.1163822304558
 20
90.62537355050597
 30
0
  0
VERTEX
  8
0
 10
28.78744369385581
 20
90.70162046690598
 30
0
  0
VERTEX
  8
0
 10
28.47835499725581
 20
90.821702668706
 30
0
  0
VERTEX
  8
0
 10
28.1980909526558
 20
90.98213340550598
 30
0
  0
VERTEX
  8
0
 10
27.95478940845581
 20
91.17825435190599
 30
0
  0
VERTEX
  8
0
 10
27.7555149566558
 20
91.404370869106
 30
0
  0
VERTEX
  8
0
 10
27.6060538022558
 20
91.65391735570597
 30
0
  0
VERTEX
  8
0
 10
27.5107457540558
 20
91.919647889506
 30
0
  0
VERTEX
  8
0
 10
27.4723582106558
 20
92.19384662230601
 30
0
  0
SEQEND
  8
0
  0
POLYLINE
  8
0
 62
7
 66
1
  0
VERTEX
  8
0
 10
30.51782499065581
 20
92.39642512750601
 30
0
  0
VERTEX
  8
0
 10
30.20643110645581
 20
92.28684144550601
 30
0
  0
VERTEX
  8
0
 10
29.8752307648558
 20
92.22156810110602
 30
0
  0
VERTEX
  8
0
 10
29.53394624605581
 20
92.20252117230598
 30
0
  0
VERTEX
  8
0
 10
29.1925958486558
 20
92.230259775506
 30
0
  0
VERTEX
  8
0
 10
28.8611998048558
 20
92.30396965230597
 30
0
  0
VERTEX
  8
0
 10
28.54948614005581
 20
92.42148707290602
 30
0
  0
VERTEX
  8
0
 10
28.26660510925581
 20
92.57936235030599
 30
0
  0
VERTEX
  8
0
 10
28.02086059505581
 20
92.77296110570597
 30
0
  0
VERTEX
  8
0
 10
27.8194663498558
 20
92.99660030950599
 30
0
  0
VERTEX
  8
0
 10
27.6683342370558
 20
93.24371510330599
 30
0
  0
VERTEX
  8
0
 10
27.5719006918558
 20
93.507051511106
 30
0
  0
VERTEX
  8
0
 10
27.5329964902558
 20
93.77887937630601
 30
0
  0
SEQEND
  8
0
  0
POLYLINE
  8
0
 62
7
 66
1
  0
VERTEX
  8
0
 10
-5.225332720944195
 20
200.482760963306
 30
0
  0
VERTEX
  8
0
 10
-5.021531086944194
 20
200.425055574306
 30
0
  0
VERTEX
  8
0
 10
-4.716715682344201
 20
200.370157106106
 30
0
  0
VERTEX
  8
0
 10
-4.315491781344193
 20
200.318894986906
 30
0
  0
VERTEX
  8
0
 10
-3.823921288344195
 20
200.272043710506
 30
0
  0
VERTEX
  8
0
 10
-3.249431129544192
 20
200.230311128706
 30
0
  0
SEQEND
  8
0
  0
POLYLINE
  8
0
 62
7
 66
1
  0
VERTEX
  8
0
 10
34.47416294725581
 20
200.482760958106
 30
0
  0
VERTEX
  8
0
 10
34.2703615750558
 20
200.425055570506
 30
0
  0
VERTEX
  8
0
 10
33.9655463890558
 20
200.370157095906
 30
0
  0
VERTEX
  8
0
 10
33.56432269285581
 20
200.318894967306
 30
0
  0
VERTEX
  8
0
 10
33.0727522962558
 20
200.272043669506
 30
0
  0
VERTEX
  8
0
 10
32.4982619640558
 20
200.230311049306
 30
0
  0
VERTEX
  8
0
 10
31.54140914185581
 20
200.177002828906
 30
0
  0
SEQEND
  8
0
  0
POLYLINE
  8
0
 62
7
 66
1
  0
VERTEX
  8
0
 10
38.17157673045581
 20
320.753638037906
 30
0
  0
VERTEX
  8
0
 10
38.23251799905582
 20
321.003637533506
 30
0
  0
VERTEX
  8
0
 10
38.34885645345581
 20
321.487075260506
 30
0
  0
SEQEND
  8
0
  0
POLYLINE
  8
0
 62
7
 66
1
  0
VERTEX
  8
0
 10
-0.9608623153442011
 20
86.98865849250598
 30
0
  0
VERTEX
  8
0
 10
-0.6499109657441977
 20
86.88076765710599
 30
0
  0
VERTEX
  8
0
 10
-0.3220856813441912
 20
86.82049787410597
 30
0
  0
VERTEX
  8
0
 10
0.01336044405580594
 20
86.80955028030598
 30
0
  0
VERTEX
  8
0
 10
0.3469592134558042
 20
86.848233858306
 30
0
  0
VERTEX
  8
0
 10
0.6692945722558079
 20
86.93545671470599
 30
0
  0
VERTEX
  8
0
 10
0.9712683844558114
 20
87.06875689950601
 30
0
  0
VERTEX
  8
0
 10
1.244357231855801
 20
87.244371897706
 30
0
  0
VERTEX
  8
0
 10
1.480852995055798
 20
87.45734482730597
 30
0
  0
VERTEX
  8
0
 10
1.674080419255802
 20
87.70166435290599
 30
0
  0
VERTEX
  8
0
 10
1.818585528855806
 20
87.97043435830597
 30
0
  0
VERTEX
  8
0
 10
1.910289569055806
 20
88.25606859610599
 30
0
  0
VERTEX
  8
0
 10
1.9466041314558
 20
88.550504813506
 30
0
  0
SEQEND
  8
0
  0
POLYLINE
  8
0
 62
7
 66
1
  0
VERTEX
  8
0
 10
16.38443080725581
 20
311.232399366306
 30
0
  0
VERTEX
  8
0
 10
16.64097690105581
 20
311.254501049106
 30
0
  0
VERTEX
  8
0
 10
16.8925846790558
 20
311.308200976306
 30
0
  0
VERTEX
  8
0
 10
17.1350831728558
 20
311.392608942706
 30
0
  0
VERTEX
  8
0
 10
17.36445242605581
 20
311.506325690106
 30
0
  0
VERTEX
  8
0
 10
17.5768901290558
 20
311.647466101306
 30
0
  0
VERTEX
  8
0
 10
17.76887465245581
 20
311.813690452306
 30
0
  0
VERTEX
  8
0
 10
17.9372234238558
 20
312.002243197506
 30
0
  0
VERTEX
  8
0
 10
18.07914568745581
 20
312.209998649506
 30
0
  0
VERTEX
  8
0
 10
18.1922887654558
 20
312.433512794106
 30
0
  0
VERTEX
  8
0
 10
18.27477705925581
 20
312.669080382306
 30
0
  0
VERTEX
  8
0
 10
18.3252431408558
 20
312.912796354306
 30
0
  0
VERTEX
  8
0
 10
18.3428504210558
 20
313.160620567706
 30
0
  0
SEQEND
  8
0
  0
POLYLINE
  8
0
 62
7
 66
1
  0
VERTEX
  8
0
 10
15.39321674245581
 20
311.488380187506
 30
0
  0
VERTEX
  8
0
 10
15.40124953405581
 20
311.573647322306
 30
0
  0
VERTEX
  8
0
 10
15.4088526306558
 20
311.690115507906
 30
0
  0
VERTEX
  8
0
 10
15.4158973112558
 20
311.835813027106
 30
0
  0
VERTEX
  8
0
 10
15.4222643088558
 20
312.008273315706
 30
0
  0
VERTEX
  8
0
 10
15.42784582885581
 20
312.204576712106
 30
0
  0
VERTEX
  8
0
 10
15.43254737365581
 20
312.421399867306
 30
0
  0
VERTEX
  8
0
 10
15.4362893434558
 20
312.655072023906
 30
0
  0
VERTEX
  8
0
 10
15.4390083844558
 20
312.901637136506
 30
0
  0
VERTEX
  8
0
 10
15.44065846145581
 20
313.156920862306
 30
0
  0
VERTEX
  8
0
 10
15.4412116352558
 20
313.416601242506
 30
0
  0
SEQEND
  8
0
  0
POLYLINE
  8
0
 62
7
 66
1
  0
VERTEX
  8
0
 10
13.85561320685581
 20
311.488380187506
 30
0
  0
VERTEX
  8
0
 10
13.8475803888558
 20
311.573647254706
 30
0
  0
VERTEX
  8
0
 10
13.8399772688558
 20
311.690115382106
 30
0
  0
VERTEX
  8
0
 10
13.8329325682558
 20
311.835812897906
 30
0
  0
VERTEX
  8
0
 10
13.82656555645581
 20
312.008273240906
 30
0
  0
VERTEX
  8
0
 10
13.82098402925581
 20
312.204576742106
 30
0
  0
VERTEX
  8
0
 10
13.81628248565581
 20
312.421400023306
 30
0
  0
VERTEX
  8
0
 10
13.8125405254558
 20
312.655072288906
 30
0
  0
VERTEX
  8
0
 10
13.8098215032558
 20
312.901637444106
 30
0
  0
VERTEX
  8
0
 10
13.80817145385581
 20
313.156921076706
 30
0
  0
SEQEND
  8
0
  0
POLYLINE
  8
0
 62
7
 66
1
  0
VERTEX
  8
0
 10
24.4393695508558
 20
219.183405247306
 30
0
  0
VERTEX
  8
0
 10
24.36280691405581
 20
219.132816999506
 30
0
  0
VERTEX
  8
0
 10
24.2857544602558
 20
219.084935255706
 30
0
  0
VERTEX
  8
0
 10
24.20816840225581
 20
219.039793671306
 30
0
  0
SEQEND
  8
0
  0
POLYLINE
  8
0
 62
7
 66
1
  0
VERTEX
  8
0
 10
-3.249431129544192
 20
200.230311128706
 30
0
  0
VERTEX
  8
0
 10
-2.292578658144194
 20
200.177001354106
 30
0
  0
VERTEX
  8
0
 10
-1.954202503144202
 20
200.164205490306
 30
0
  0
VERTEX
  8
0
 10
-1.596816214744194
 20
200.156365364306
 30
0
  0
VERTEX
  8
0
 10
-1.23229532974419
 20
200.153741493706
 30
0
  0
VERTEX
  8
0
 10
-0.8727524597441914
 20
200.156421065906
 30
0
  0
VERTEX
  8
0
 10
-0.5301348021441896
 20
200.164315041306
 30
0
  0
VERTEX
  8
0
 10
-0.2158271497442001
 20
200.177161110906
 30
0
  0
VERTEX
  8
0
 10
0.05972641465579898
 20
200.194532413906
 30
0
  0
VERTEX
  8
0
 10
0.2873695614558045
 20
200.215851720906
 30
0
  0
VERTEX
  8
0
 10
0.4595379700558055
 20
200.240410615106
 30
0
  0
VERTEX
  8
0
 10
0.5705106810558078
 20
200.267393031706
 30
0
  0
VERTEX
  8
0
 10
0.6166001984557994
 20
200.295902374906
 30
0
  0
SEQEND
  8
0
  0
POLYLINE
  8
0
 62
7
 66
1
  0
VERTEX
  8
0
 10
34.4833617768558
 20
321.741684169906
 30
0
  0
VERTEX
  8
0
 10
33.8399208920558
 20
321.910040112106
 30
0
  0
VERTEX
  8
0
 10
33.16766912725581
 20
322.083698227906
 30
0
  0
VERTEX
  8
0
 10
32.49527227345581
 20
322.254880486706
 30
0
  0
VERTEX
  8
0
 10
31.85176826825581
 20
322.415197390306
 30
0
  0
VERTEX
  8
0
 10
31.22976084265581
 20
322.566244949506
 30
0
  0
VERTEX
  8
0
 10
30.63130579165581
 20
322.706940711306
 30
0
  0
VERTEX
  8
0
 10
30.05605264065581
 20
322.836930568506
 30
0
  0
VERTEX
  8
0
 10
29.50480135285581
 20
322.955507783906
 30
0
  0
VERTEX
  8
0
 10
28.9755344468558
 20
323.062647791906
 30
0
  0
VERTEX
  8
0
 10
28.46793584505581
 20
323.158051372306
 30
0
  0
VERTEX
  8
0
 10
27.9777827208558
 20
323.241835750706
 30
0
  0
VERTEX
  8
0
 10
27.50127712285581
 20
323.314258183706
 30
0
  0
VERTEX
  8
0
 10
27.03807239685581
 20
323.374599356906
 30
0
  0
VERTEX
  8
0
 10
26.5871699908558
 20
323.422402316106
 30
0
  0
VERTEX
  8
0
 10
26.1473540788558
 20
323.457137236706
 30
0
  0
VERTEX
  8
0
 10
25.7166722210558
 20
323.478222427706
 30
0
  0
VERTEX
  8
0
 10
25.2972226716558
 20
323.485356533706
 30
0
  0
VERTEX
  8
0
 10
24.8899782698558
 20
323.477865098706
 30
0
  0
VERTEX
  8
0
 10
24.49597879105581
 20
323.456285734106
 30
0
  0
VERTEX
  8
0
 10
24.1165667368558
 20
323.420671915706
 30
0
  0
VERTEX
  8
0
 10
23.75129633805581
 20
323.371801592506
 30
0
  0
VERTEX
  8
0
 10
23.40087152025581
 20
323.3103808945061
 30
0
  0
VERTEX
  8
0
 10
21.55006732425581
 20
323.236678755106
 30
0
  0
VERTEX
  8
0
 10
21.22473824605581
 20
323.151205772906
 30
0
  0
VERTEX
  8
0
 10
20.9108108814558
 20
323.053943083306
 30
0
  0
VERTEX
  8
0
 10
20.60847923425581
 20
322.945354700306
 30
0
  0
VERTEX
  8
0
 10
20.3162147800558
 20
322.824502586706
 30
0
  0
VERTEX
  8
0
 10
20.0337355392558
 20
322.690946463306
 30
0
  0
VERTEX
  8
0
 10
19.7615925216558
 20
322.543657070306
 30
0
  0
VERTEX
  8
0
 10
19.5010210846558
 20
322.381736285306
 30
0
  0
VERTEX
  8
0
 10
19.2546622714558
 20
322.204350414906
 30
0
  0
VERTEX
  8
0
 10
19.0261989754558
 20
322.010890789506
 30
0
  0
VERTEX
  8
0
 10
18.81928130825581
 20
321.799784216106
 30
0
  0
VERTEX
  8
0
 10
18.6393737854558
 20
321.569611706506
 30
0
  0
VERTEX
  8
0
 10
18.49368594365581
 20
321.319301978906
 30
0
  0
VERTEX
  8
0
 10
18.3909726444558
 20
321.047117721106
 30
0
  0
VERTEX
  8
0
 10
18.3428500572558
 20
320.753638037306
 30
0
  0
SEQEND
  8
0
  0
POLYLINE
  8
0
 62
7
 66
1
  0
VERTEX
  8
0
 10
13.8076183148558
 20
320.525093146706
 30
0
  0
VERTEX
  8
0
 10
13.8081951502558
 20
320.790253243106
 30
0
  0
VERTEX
  8
0
 10
13.80991546905581
 20
321.050731660706
 30
0
  0
VERTEX
  8
0
 10
13.8127488964558
 20
321.301929599506
 30
0
  0
VERTEX
  8
0
 10
13.81664540405581
 20
321.539412005706
 30
0
  0
VERTEX
  8
0
 10
13.82153619405581
 20
321.758986036506
 30
0
  0
VERTEX
  8
0
 10
13.8273349134558
 20
321.956775093506
 30
0
  0
VERTEX
  8
0
 10
13.83393918005581
 20
322.129287224706
 30
0
  0
VERTEX
  8
0
 10
13.8412323898558
 20
322.273476813306
 30
0
  0
VERTEX
  8
0
 10
13.8490857760558
 20
322.386798302906
 30
0
  0
VERTEX
  8
0
 10
13.8573606846558
 20
322.467251170706
 30
0
  0
SEQEND
  8
0
  0
POLYLINE
  8
0
 62
7
 66
1
  0
VERTEX
  8
0
 10
5.761039673255809
 20
184.965564317506
 30
0
  0
VERTEX
  8
0
 10
5.374118122655801
 20
184.938949999706
 30
0
  0
VERTEX
  8
0
 10
4.992176654455804
 20
184.862693289306
 30
0
  0
VERTEX
  8
0
 10
4.623781845255806
 20
184.740367648706
 30
0
  0
VERTEX
  8
0
 10
4.274544870455799
 20
184.573229985906
 30
0
  0
VERTEX
  8
0
 10
3.950502589655798
 20
184.364388493106
 30
0
  0
VERTEX
  8
0
 10
3.656863327655799
 20
184.117033525306
 30
0
  0
VERTEX
  8
0
 10
3.398092342855804
 20
183.835017543906
 30
0
  0
VERTEX
  8
0
 10
3.1793628144558
 20
183.523746444906
 30
0
  0
VERTEX
  8
0
 10
3.003723496655809
 20
183.187730270106
 30
0
  0
VERTEX
  8
0
 10
2.875061857255801
 20
182.835239504706
 30
0
  0
VERTEX
  8
0
 10
2.794722966455808
 20
182.471024935306
 30
0
  0
VERTEX
  8
0
 10
2.76298135325581
 20
182.100522068306
 30
0
  0
SEQEND
  8
0
  0
POLYLINE
  8
0
 62
7
 66
1
  0
VERTEX
  8
0
 10
1.715834228055797
 20
93.77885700130599
 30
0
  0
VERTEX
  8
0
 10
1.58003098085581
 20
97.58144199970599
 30
0
  0
VERTEX
  8
0
 10
1.446273142855802
 20
101.848464615706
 30
0
  0
VERTEX
  8
0
 10
1.313023914655801
 20
106.604061755106
 30
0
  0
VERTEX
  8
0
 10
1.184893694855802
 20
111.775822699906
 30
0
  0
VERTEX
  8
0
 10
1.065323584255808
 20
117.341458473506
 30
0
  0
VERTEX
  8
0
 10
0.9562846776558018
 20
123.174740759106
 30
0
  0
VERTEX
  8
0
 10
0.8609349190558078
 20
129.186224893106
 30
0
  0
VERTEX
  8
0
 10
0.7791548626558011
 20
135.243270937706
 30
0
  0
VERTEX
  8
0
 10
0.7125536084558064
 20
141.190714609106
 30
0
  0
VERTEX
  8
0
 10
0.6591034614557998
 20
147.006684280506
 30
0
  0
VERTEX
  8
0
 10
0.6178273414558078
 20
152.620117005106
 30
0
  0
VERTEX
  8
0
 10
0.5871825020558106
 20
158.023422458506
 30
0
  0
VERTEX
  8
0
 10
0.5656937552558077
 20
163.179980411306
 30
0
  0
VERTEX
  8
0
 10
0.5521813448558106
 20
168.105817629306
 30
0
  0
VERTEX
  8
0
 10
0.5452343070558072
 20
172.800188117106
 30
0
  0
VERTEX
  8
0
 10
0.5440710778558042
 20
177.276789929506
 30
0
  0
VERTEX
  8
0
 10
0.5476157464558042
 20
181.543488942106
 30
0
  0
VERTEX
  8
0
 10
0.5553403898558003
 20
185.617035698306
 30
0
  0
VERTEX
  8
0
 10
0.5664638250558056
 20
189.510354868106
 30
0
  0
VERTEX
  8
0
 10
0.5806699196558043
 20
193.242789947106
 30
0
  0
VERTEX
  8
0
 10
0.5973100812557988
 20
196.840949118706
 30
0
  0
VERTEX
  8
0
 10
0.6166005072558107
 20
200.295962988106
 30
0
  0
SEQEND
  8
0
  0
POLYLINE
  8
0
 62
7
 66
1
  0
VERTEX
  8
0
 10
5.761039671855798
 20
184.965564309506
 30
0
  0
VERTEX
  8
0
 10
5.63896402485581
 20
186.093124400306
 30
0
  0
VERTEX
  8
0
 10
5.522961763855804
 20
187.461074159306
 30
0
  0
VERTEX
  8
0
 10
5.412841858855799
 20
189.061042983706
 30
0
  0
VERTEX
  8
0
 10
5.309177400055802
 20
190.886945457706
 30
0
  0
VERTEX
  8
0
 10
5.21232723505581
 20
192.932816855706
 30
0
  0
VERTEX
  8
0
 10
5.122743062455811
 20
195.189027574306
 30
0
  0
VERTEX
  8
0
 10
5.040861434855799
 20
197.646833737306
 30
0
  0
VERTEX
  8
0
 10
4.967086637255804
 20
200.292401305106
 30
0
  0
VERTEX
  8
0
 10
4.9019084158558
 20
203.110197022106
 30
0
  0
VERTEX
  8
0
 10
4.84550693985581
 20
206.088328942306
 30
0
  0
VERTEX
  8
0
 10
4.798182227255808
 20
209.211933473106
 30
0
  0
VERTEX
  8
0
 10
4.76006447725581
 20
212.470791735106
 30
0
  0
VERTEX
  8
0
 10
4.731412669655811
 20
215.855035940306
 30
0
  0
VERTEX
  8
0
 10
4.712140478055801
 20
219.347847619306
 30
0
  0
SEQEND
  8
0
  0
POLYLINE
  8
0
 62
7
 66
1
  0
VERTEX
  8
0
 10
2.762981791655804
 20
182.100572444506
 30
0
  0
VERTEX
  8
0
 10
2.656042899855805
 20
183.128200453106
 30
0
  0
VERTEX
  8
0
 10
2.553610086655809
 20
184.345671588906
 30
0
  0
VERTEX
  8
0
 10
2.455536377055807
 20
185.755514025706
 30
0
  0
VERTEX
  8
0
 10
2.362262696455801
 20
187.350143241306
 30
0
  0
VERTEX
  8
0
 10
2.27409647245581
 20
189.124735556906
 30
0
  0
VERTEX
  8
0
 10
2.191291223255803
 20
191.073536615106
 30
0
  0
VERTEX
  8
0
 10
2.114094662055805
 20
193.192605544906
 30
0
  0
VERTEX
  8
0
 10
2.042831632855808
 20
195.471678209106
 30
0
  0
VERTEX
  8
0
 10
1.977842984655808
 20
197.902803609306
 30
0
  0
VERTEX
  8
0
 10
1.919328416855805
 20
200.475101457106
 30
0
  0
VERTEX
  8
0
 10
1.86757089525581
 20
203.177656679706
 30
0
  0
VERTEX
  8
0
 10
1.822661470655802
 20
206.002622633106
 30
0
  0
VERTEX
  8
0
 10
1.784751870655811
 20
208.941142821106
 30
0
  0
VERTEX
  8
0
 10
1.753943029855805
 20
211.985331727306
 30
0
  0
VERTEX
  8
0
 10
1.730405398055808
 20
215.122996959906
 30
0
  0
SEQEND
  8
0
  0
POLYLINE
  8
0
 62
7
 66
1
  0
VERTEX
  8
0
 10
-9.140143031144191
 20
321.712477461506
 30
0
  0
VERTEX
  8
0
 10
-9.233223608944201
 20
322.111954329106
 30
0
  0
VERTEX
  8
0
 10
-9.271293680344201
 20
322.279388449306
 30
0
  0
VERTEX
  8
0
 10
-9.302840113744196
 20
322.421448425906
 30
0
  0
VERTEX
  8
0
 10
-9.327338272144189
 20
322.535771714906
 30
0
  0
VERTEX
  8
0
 10
-9.344380735944199
 20
322.620457050706
 30
0
  0
VERTEX
  8
0
 10
-9.353684077544202
 20
322.674096064706
 30
0
  0
VERTEX
  8
0
 10
-9.355093576544192
 20
322.695796707706
 30
0
  0
SEQEND
  8
0
  0
POLYLINE
  8
0
 62
7
 66
1
  0
VERTEX
  8
0
 10
23.88643710665581
 20
230.312919522906
 30
0
  0
VERTEX
  8
0
 10
23.88187585985581
 20
230.000050230706
 30
0
  0
VERTEX
  8
0
 10
23.8683044394558
 20
229.694884882306
 30
0
  0
VERTEX
  8
0
 10
23.84605702245581
 20
229.404937662106
 30
0
  0
VERTEX
  8
0
 10
23.81568142145581
 20
229.137348064706
 30
0
  0
VERTEX
  8
0
 10
23.7779255938558
 20
228.898705043106
 30
0
  0
VERTEX
  8
0
 10
23.7337192222558
 20
228.694884764706
 30
0
  0
VERTEX
  8
0
 10
23.6841508236558
 20
228.530905932906
 30
0
  0
VERTEX
  8
0
 10
23.63044094265581
 20
228.410806198906
 30
0
  0
VERTEX
  8
0
 10
23.5739120996558
 20
228.337542756506
 30
0
  0
VERTEX
  8
0
 10
23.51595622125581
 20
228.312919522906
 30
0
  0
SEQEND
  8
0
  0
POLYLINE
  8
0
 62
7
 66
1
  0
VERTEX
  8
0
 10
4.710611523855803
 20
223.810636084106
 30
0
  0
VERTEX
  8
0
 10
4.251936721255802
 20
223.806358387906
 30
0
  0
VERTEX
  8
0
 10
3.804047330455802
 20
223.790887977106
 30
0
  0
VERTEX
  8
0
 10
3.377475151455798
 20
223.764588627306
 30
0
  0
VERTEX
  8
0
 10
2.98225072525581
 20
223.728078749106
 30
0
  0
VERTEX
  8
0
 10
2.627667472455798
 20
223.682216846506
 30
0
  0
VERTEX
  8
0
 10
2.322063166055798
 20
223.628081329106
 30
0
  0
VERTEX
  8
0
 10
2.072623873455811
 20
223.566945155106
 30
0
  0
VERTEX
  8
0
 10
1.885214981655807
 20
223.500245899106
 30
0
  0
VERTEX
  8
0
 10
1.764243277655808
 20
223.429551948106
 30
0
  0
VERTEX
  8
0
 10
1.712553324855804
 20
223.356525619506
 30
0
  0
SEQEND
  8
0
  0
POLYLINE
  8
0
 62
7
 66
1
  0
VERTEX
  8
0
 10
4.712140478055801
 20
219.347863276306
 30
0
  0
VERTEX
  8
0
 10
4.25344385285581
 20
219.334359427506
 30
0
  0
VERTEX
  8
0
 10
3.80553467585581
 20
219.297284727306
 30
0
  0
VERTEX
  8
0
 10
3.378946172255809
 20
219.237511096306
 30
0
  0
VERTEX
  8
0
 10
2.983710401055802
 20
219.156444298506
 30
0
  0
VERTEX
  8
0
 10
2.629121957055801
 20
219.055990860706
 30
0
  0
VERTEX
  8
0
 10
2.323519364655809
 20
218.938513203106
 30
0
  0
VERTEX
  8
0
 10
2.074089098655804
 20
218.806774100906
 30
0
  0
VERTEX
  8
0
 10
1.886696497055809
 20
218.663871656506
 30
0
  0
VERTEX
  8
0
 10
1.765747950655808
 20
218.513166479306
 30
0
  0
VERTEX
  8
0
 10
1.714087257455802
 20
218.358202604906
 30
0
  0
SEQEND
  8
0
  0
POLYLINE
  8
0
 62
7
 66
1
  0
VERTEX
  8
0
 10
4.710611523855803
 20
223.810635986306
 30
0
  0
VERTEX
  8
0
 10
4.723878956055799
 20
224.009875059706
 30
0
  0
VERTEX
  8
0
 10
4.761458485855798
 20
224.204446086706
 30
0
  0
VERTEX
  8
0
 10
4.809460398455798
 20
224.351582867306
 30
0
  0
SEQEND
  8
0
  0
POLYLINE
  8
0
 62
7
 66
1
  0
VERTEX
  8
0
 10
35.2134849836558
 20
323.521006556106
 30
0
  0
VERTEX
  8
0
 10
34.53023313665581
 20
323.683829606906
 30
0
  0
VERTEX
  8
0
 10
33.81689693985581
 20
323.852189687706
 30
0
  0
VERTEX
  8
0
 10
33.0713910760558
 20
324.025838421106
 30
0
  0
VERTEX
  8
0
 10
32.3247715372558
 20
324.197009786506
 30
0
  0
VERTEX
  8
0
 10
31.6098728734558
 20
324.357325364106
 30
0
  0
VERTEX
  8
0
 10
30.9181617126558
 20
324.508373973106
 30
0
  0
VERTEX
  8
0
 10
30.25177560005581
 20
324.649069043306
 30
0
  0
VERTEX
  8
0
 10
29.61027258265581
 20
324.779058322106
 30
0
  0
VERTEX
  8
0
 10
28.99424032545581
 20
324.897635421306
 30
0
  0
VERTEX
  8
0
 10
28.4016133788558
 20
325.004776175106
 30
0
  0
VERTEX
  8
0
 10
27.8313662466558
 20
325.100182270706
 30
0
  0
VERTEX
  8
0
 10
27.2795645392558
 20
325.183969761706
 30
0
  0
VERTEX
  8
0
 10
26.7407910266558
 20
325.256394647706
 30
0
  0
VERTEX
  8
0
 10
26.2155262498558
 20
325.316738779306
 30
0
  0
VERTEX
  8
0
 10
25.7016425224558
 20
325.364546347506
 30
0
  0
VERTEX
  8
0
 10
25.1987482812558
 20
325.399286329906
 30
0
  0
VERTEX
  8
0
 10
24.7040865640558
 20
325.420376657906
 30
0
  0
VERTEX
  8
0
 10
24.22004010445581
 20
325.427514659906
 30
0
  0
VERTEX
  8
0
 10
23.7489140172558
 20
325.420024331306
 30
0
  0
VERTEX
  8
0
 10
23.29068887025582
 20
325.3984436017061
 30
0
  0
VERTEX
  8
0
 10
21.3358999140558
 20
325.362825301306
 30
0
  0
VERTEX
  8
0
 10
20.90913296045581
 20
325.313948723306
 30
0
  0
VERTEX
  8
0
 10
20.49989811065581
 20
325.252521033506
 30
0
  0
VERTEX
  8
0
 10
20.1052766550558
 20
325.178811444106
 30
0
  0
VERTEX
  8
0
 10
19.7251204296558
 20
325.093331402706
 30
0
  0
VERTEX
  8
0
 10
19.3583879350558
 20
324.996061367306
 30
0
  0
VERTEX
  8
0
 10
19.0053260548558
 20
324.887464930906
 30
0
  0
VERTEX
  8
0
 10
18.66508895605581
 20
324.766604135306
 30
0
  0
VERTEX
  8
0
 10
18.3362097070558
 20
324.633038660306
 30
0
  0
VERTEX
  8
0
 10
18.0204445064558
 20
324.485739184306
 30
0
  0
VERTEX
  8
0
 10
17.71831167945581
 20
324.323807818706
 30
0
  0
VERTEX
  8
0
 10
17.43336650765581
 20
324.146409944506
 30
0
  0
VERTEX
  8
0
 10
17.16920928645581
 20
323.952936268306
 30
0
  0
VERTEX
  8
0
 10
16.93081934165581
 20
323.741812923106
 30
0
  0
VERTEX
  8
0
 10
16.7234029166558
 20
323.511605455506
 30
0
  0
VERTEX
  8
0
 10
16.5555847134558
 20
323.261286331706
 30
0
  0
VERTEX
  8
0
 10
16.4388889996558
 20
322.989161656306
 30
0
  0
VERTEX
  8
0
 10
16.3802657782558
 20
322.695796061306
 30
0
  0
SEQEND
  8
0
  0
POLYLINE
  8
0
 62
7
 66
1
  0
VERTEX
  8
0
 10
-1.26899490394419
 20
92.39642548370597
 30
0
  0
VERTEX
  8
0
 10
-1.452442520144189
 20
96.27935108930598
 30
0
  0
VERTEX
  8
0
 10
-1.6338843087442
 20
100.604724705906
 30
0
  0
VERTEX
  8
0
 10
-1.813115862344191
 20
105.430972165106
 30
0
  0
VERTEX
  8
0
 10
-1.983950337544201
 20
110.686405308506
 30
0
  0
VERTEX
  8
0
 10
-2.142487631544199
 20
116.325673245706
 30
0
  0
VERTEX
  8
0
 10
-2.284965797944196
 20
122.243997148306
 30
0
  0
VERTEX
  8
0
 10
-2.408249388944199
 20
128.328404802706
 30
0
  0
VERTEX
  8
0
 10
-2.511576907344193
 20
134.462520460906
 30
0
  0
VERTEX
  8
0
 10
-2.593787049344201
 20
140.479115829706
 30
0
  0
VERTEX
  8
0
 10
-2.657441075144192
 20
146.358498367706
 30
0
  0
VERTEX
  8
0
 10
-2.704118015944189
 20
152.033232006906
 30
0
  0
VERTEX
  8
0
 10
-2.736102751944202
 20
157.491034822306
 30
0
  0
VERTEX
  8
0
 10
-2.755356031944189
 20
162.701524401706
 30
0
  0
VERTEX
  8
0
 10
-2.763817221344198
 20
167.675387654506
 30
0
  0
VERTEX
  8
0
 10
-2.763275963744192
 20
172.417740307706
 30
0
  0
VERTEX
  8
0
 10
-2.755057259544202
 20
176.938090380706
 30
0
  0
VERTEX
  8
0
 10
-2.740480976344202
 20
181.248317927906
 30
0
  0
VERTEX
  8
0
 10
-2.720459223144189
 20
185.362369517706
 30
0
  0
VERTEX
  8
0
 10
-2.695897892544195
 20
189.295854009706
 30
0
  0
VERTEX
  8
0
 10
-2.66740187974419
 20
193.066450364106
 30
0
  0
VERTEX
  8
0
 10
-2.635552622144189
 20
196.704294955506
 30
0
  0
VERTEX
  8
0
 10
-2.600700827544202
 20
200.194327764906
 30
0
  0
SEQEND
  8
0
  0
POLYLINE
  8
0
 62
7
 66
1
  0
VERTEX
  8
0
 10
-4.774598713744197
 20
94.18141007150598
 30
0
  0
VERTEX
  8
0
 10
-4.790697497344198
 20
96.54351949950598
 30
0
  0
VERTEX
  8
0
 10
-4.847075588144193
 20
112.180024444706
 30
0
  0
SEQEND
  8
0
  0
POLYLINE
  8
0
 62
7
 66
1
  0
VERTEX
  8
0
 10
-5.240498402944198
 20
203.909885190506
 30
0
  0
VERTEX
  8
0
 10
-5.260796859944193
 20
209.063634484506
 30
0
  0
VERTEX
  8
0
 10
-5.266818062144196
 20
210.783891911706
 30
0
  0
SEQEND
  8
0
  0
POLYLINE
  8
0
 62
7
 66
1
  0
VERTEX
  8
0
 10
-4.847075588144193
 20
112.180024444706
 30
0
  0
VERTEX
  8
0
 10
-4.865289279144193
 20
117.113842732506
 30
0
  0
VERTEX
  8
0
 10
-4.9062323441442
 20
127.933987678506
 30
0
  0
SEQEND
  8
0
  0
POLYLINE
  8
0
 62
7
 66
1
  0
VERTEX
  8
0
 10
-4.749501048944197
 20
90.76552377150597
 30
0
  0
VERTEX
  8
0
 10
-5.245597179344202
 20
98.15343998910601
 30
0
  0
VERTEX
  8
0
 10
-5.651721201944199
 20
105.546198726506
 30
0
  0
VERTEX
  8
0
 10
-5.967834167744201
 20
112.943039889706
 30
0
  0
VERTEX
  8
0
 10
-6.193857886144201
 20
120.342132274306
 30
0
  0
VERTEX
  8
0
 10
-6.329753327544196
 20
127.741644029106
 30
0
  0
VERTEX
  8
0
 10
-6.375520773744199
 20
135.140815797706
 30
0
  0
SEQEND
  8
0
  0
POLYLINE
  8
0
 62
7
 66
1
  0
VERTEX
  8
0
 10
-4.766727066544192
 20
93.14726274270601
 30
0
  0
VERTEX
  8
0
 10
-5.257204078144198
 20
100.357726640706
 30
0
  0
VERTEX
  8
0
 10
-5.658795118944198
 20
107.572327209906
 30
0
  0
VERTEX
  8
0
 10
-5.971468283344194
 20
114.790327716106
 30
0
  0
VERTEX
  8
0
 10
-6.19515525454419
 20
122.010010827906
 30
0
  0
VERTEX
  8
0
 10
-6.3298240463442
 20
129.229659039706
 30
0
  0
VERTEX
  8
0
 10
-6.375479208544192
 20
136.448537493506
 30
0
  0
SEQEND
  8
0
  0
POLYLINE
  8
0
 62
7
 66
1
  0
VERTEX
  8
0
 10
-4.791570633544197
 20
96.80188119370598
 30
0
  0
VERTEX
  8
0
 10
-5.273987848944202
 20
103.739270562506
 30
0
  0
VERTEX
  8
0
 10
-5.66908384454419
 20
110.680217538106
 30
0
  0
VERTEX
  8
0
 10
-5.976827685144201
 20
117.624075145906
 30
0
  0
VERTEX
  8
0
 10
-6.197146589944197
 20
124.569094859906
 30
0
  0
VERTEX
  8
0
 10
-6.330009478944191
 20
131.513528110306
 30
0
  0
VERTEX
  8
0
 10
-6.37542730934419
 20
138.456730419306
 30
0
  0
SEQEND
  8
0
  0
POLYLINE
  8
0
 62
7
 66
1
  0
VERTEX
  8
0
 10
-4.766727053544202
 20
93.14726274350602
 30
0
  0
VERTEX
  8
0
 10
-4.769266145944201
 20
93.48403336890601
 30
0
  0
VERTEX
  8
0
 10
-4.774598713744197
 20
94.18141007150598
 30
0
  0
SEQEND
  8
0
  0
POLYLINE
  8
0
 62
7
 66
1
  0
VERTEX
  8
0
 10
-5.225333000544197
 20
200.482760958106
 30
0
  0
VERTEX
  8
0
 10
-5.567562904144197
 20
201.853429917106
 30
0
  0
VERTEX
  8
0
 10
-5.849617541744195
 20
203.223834505906
 30
0
  0
VERTEX
  8
0
 10
-6.071446775144196
 20
204.594068379306
 30
0
  0
VERTEX
  8
0
 10
-6.232875718544193
 20
205.963328891306
 30
0
  0
VERTEX
  8
0
 10
-6.333848750744195
 20
207.330813406306
 30
0
  0
VERTEX
  8
0
 10
-6.374436982344193
 20
208.696617126106
 30
0
  0
SEQEND
  8
0
  0
POLYLINE
  8
0
 62
7
 66
1
  0
VERTEX
  8
0
 10
-5.270091030544194
 20
212.688218239106
 30
0
  0
VERTEX
  8
0
 10
-5.597937454144201
 20
213.564011718706
 30
0
  0
VERTEX
  8
0
 10
-5.868403615144189
 20
214.439704446106
 30
0
  0
VERTEX
  8
0
 10
-6.081415981344193
 20
215.315367969306
 30
0
  0
VERTEX
  8
0
 10
-6.236773815544197
 20
216.190466530506
 30
0
  0
VERTEX
  8
0
 10
-6.334397031744189
 20
217.064464313906
 30
0
  0
VERTEX
  8
0
 10
-6.374334641144202
 20
217.937433685506
 30
0
  0
SEQEND
  8
0
  0
POLYLINE
  8
0
 62
7
 66
1
  0
VERTEX
  8
0
 10
-5.272492196144199
 20
218.760723207306
 30
0
  0
VERTEX
  8
0
 10
-5.599129556544199
 20
219.405327108106
 30
0
  0
VERTEX
  8
0
 10
-5.8687409389442
 20
220.049925367106
 30
0
  0
VERTEX
  8
0
 10
-6.081231237744191
 20
220.694584226706
 30
0
  0
VERTEX
  8
0
 10
-6.236363122344201
 20
221.338869553506
 30
0
  0
VERTEX
  8
0
 10
-6.334033465944202
 20
221.982347104506
 30
0
  0
VERTEX
  8
0
 10
-6.374283191744198
 20
222.625083609106
 30
0
  0
SEQEND
  8
0
  0
POLYLINE
  8
0
 62
7
 66
1
  0
VERTEX
  8
0
 10
-10.39402499094419
 20
311.488380187506
 30
0
  0
VERTEX
  8
0
 10
-10.6397573621442
 20
311.573647322106
 30
0
  0
VERTEX
  8
0
 10
-10.8723447219442
 20
311.690115507706
 30
0
  0
VERTEX
  8
0
 10
-11.08784935054419
 20
311.835813026706
 30
0
  0
VERTEX
  8
0
 10
-11.28262273774419
 20
312.008273315506
 30
0
  0
VERTEX
  8
0
 10
-11.4533673297442
 20
312.204576711706
 30
0
  0
VERTEX
  8
0
 10
-11.5971923509442
 20
312.421399866906
 30
0
  0
VERTEX
  8
0
 10
-11.71166276494419
 20
312.655072023506
 30
0
  0
VERTEX
  8
0
 10
-11.79484049154419
 20
312.901637136306
 30
0
  0
VERTEX
  8
0
 10
-11.84531723434419
 20
313.156920862106
 30
0
  0
VERTEX
  8
0
 10
-11.86223832694419
 20
313.416601242506
 30
0
  0
SEQEND
  8
0
  0
POLYLINE
  8
0
 62
7
 66
1
  0
VERTEX
  8
0
 10
2.44496505225581
 20
86.90696878350599
 30
0
  0
VERTEX
  8
0
 10
2.294786551655804
 20
87.19178146010597
 30
0
  0
VERTEX
  8
0
 10
2.171735933455807
 20
87.47712376210598
 30
0
  0
VERTEX
  8
0
 10
2.075466392255805
 20
87.76758128750601
 30
0
  0
VERTEX
  8
0
 10
2.00675159385581
 20
88.04939957110599
 30
0
  0
VERTEX
  8
0
 10
1.964651124855806
 20
88.30883910670599
 30
0
  0
VERTEX
  8
0
 10
1.946582721255808
 20
88.55050500050601
 30
0
  0
SEQEND
  8
0
  0
POLYLINE
  8
0
 62
7
 66
1
  0
VERTEX
  8
0
 10
29.03732505065581
 20
85.17328383550597
 30
0
  0
VERTEX
  8
0
 10
28.7699050732558
 20
85.18918557810599
 30
0
  0
VERTEX
  8
0
 10
28.4947426806558
 20
85.24847279910597
 30
0
  0
VERTEX
  8
0
 10
28.21872964305581
 20
85.34966060270597
 30
0
  0
VERTEX
  8
0
 10
27.9487790364558
 20
85.49021464590601
 30
0
  0
VERTEX
  8
0
 10
27.69165209925581
 20
85.66661461690597
 30
0
  0
VERTEX
  8
0
 10
27.4537888900558
 20
85.874442405906
 30
0
  0
VERTEX
  8
0
 10
27.24114698765581
 20
86.10849276050601
 30
0
  0
VERTEX
  8
0
 10
27.0590522772558
 20
86.362903656306
 30
0
  0
VERTEX
  8
0
 10
26.91206555685581
 20
86.63130311830599
 30
0
  0
VERTEX
  8
0
 10
26.8038683068558
 20
86.90696881330598
 30
0
  0
SEQEND
  8
0
  0
POLYLINE
  8
0
 62
7
 66
1
  0
VERTEX
  8
0
 10
-0.5187937971441983
 20
227.387118856706
 30
0
  0
VERTEX
  8
0
 10
-0.236473855344201
 20
227.174507041506
 30
0
  0
VERTEX
  8
0
 10
0.05620117085580034
 20
226.968701681306
 30
0
  0
VERTEX
  8
0
 10
0.3498612724558115
 20
226.776291647306
 30
0
  0
VERTEX
  8
0
 10
0.6351049048558082
 20
226.603436959306
 30
0
  0
VERTEX
  8
0
 10
0.9027999766557997
 20
226.455671570906
 30
0
  0
VERTEX
  8
0
 10
1.144376213855807
 20
226.337726200706
 30
0
  0
VERTEX
  8
0
 10
1.352099539255804
 20
226.253376876906
 30
0
  0
VERTEX
  8
0
 10
1.519319677855805
 20
226.205324048906
 30
0
  0
VERTEX
  8
0
 10
1.6406830668558
 20
226.195106131706
 30
0
  0
VERTEX
  8
0
 10
1.712304250255798
 20
226.223050252506
 30
0
  0
SEQEND
  8
0
  0
POLYLINE
  8
0
 62
7
 66
1
  0
VERTEX
  8
0
 10
1.712553204055809
 20
223.356525620506
 30
0
  0
VERTEX
  8
0
 10
1.7473442020558
 20
223.913655483106
 30
0
  0
VERTEX
  8
0
 10
1.844052767655811
 20
224.463082961106
 30
0
  0
VERTEX
  8
0
 10
2.001362073055802
 20
224.997907355106
 30
0
  0
VERTEX
  8
0
 10
2.217311663255799
 20
225.511697116106
 30
0
  0
VERTEX
  8
0
 10
2.489362988255806
 20
225.998343420906
 30
0
  0
VERTEX
  8
0
 10
2.813943971055807
 20
226.451440427906
 30
0
  0
VERTEX
  8
0
 10
3.186674932055809
 20
226.865081690706
 30
0
  0
VERTEX
  8
0
 10
3.603091316655807
 20
227.234503635106
 30
0
  0
VERTEX
  8
0
 10
4.058241489255806
 20
227.555320561906
 30
0
  0
VERTEX
  8
0
 10
4.124414974655807
 20
227.591669257506
 30
0
  0
SEQEND
  8
0
  0
POLYLINE
  8
0
 62
7
 66
1
  0
VERTEX
  8
0
 10
4.809460398455798
 20
225.442433798506
 30
0
  0
VERTEX
  8
0
 10
4.8879500536558
 20
225.494251701706
 30
0
  0
VERTEX
  8
0
 10
4.966958102455806
 20
225.543233289106
 30
0
  0
VERTEX
  8
0
 10
5.046531668055806
 20
225.589342497906
 30
0
  0
SEQEND
  8
0
  0
POLYLINE
  8
0
 62
7
 66
1
  0
VERTEX
  8
0
 10
-2.319897607144199
 20
223.374000241106
 30
0
  0
VERTEX
  8
0
 10
-2.292849515544191
 20
223.843405767706
 30
0
  0
VERTEX
  8
0
 10
-2.218566337144196
 20
224.330052687706
 30
0
  0
VERTEX
  8
0
 10
-2.092939512944199
 20
224.827215913506
 30
0
  0
VERTEX
  8
0
 10
-1.91168247834419
 20
225.334204540706
 30
0
  0
VERTEX
  8
0
 10
-1.6670755801442
 20
225.849856223506
 30
0
  0
VERTEX
  8
0
 10
-1.35632617514419
 20
226.367706933106
 30
0
  0
VERTEX
  8
0
 10
-0.9763854515441892
 20
226.882962194506
 30
0
  0
VERTEX
  8
0
 10
-0.5187937971441983
 20
227.387118856706
 30
0
  0
SEQEND
  8
0
  0
POLYLINE
  8
0
 62
7
 66
1
  0
VERTEX
  8
0
 10
0.7990603760558059
 20
223.356525620506
 30
0
  0
VERTEX
  8
0
 10
0.8127859804558
 20
223.691567102906
 30
0
  0
VERTEX
  8
0
 10
0.8500937376558113
 20
224.037886595906
 30
0
  0
VERTEX
  8
0
 10
0.9134054110558054
 20
224.393151230306
 30
0
  0
VERTEX
  8
0
 10
1.005503200055799
 20
224.756019537706
 30
0
  0
VERTEX
  8
0
 10
1.129352856055803
 20
225.124939919106
 30
0
  0
VERTEX
  8
0
 10
1.287245495455807
 20
225.495346412306
 30
0
  0
VERTEX
  8
0
 10
1.481039180655799
 20
225.862667325106
 30
0
  0
VERTEX
  8
0
 10
1.712287981455802
 20
226.223061902706
 30
0
  0
SEQEND
  8
0
  0
POLYLINE
  8
0
 62
7
 66
1
  0
VERTEX
  8
0
 10
13.85561320685581
 20
311.488380187506
 30
0
  0
VERTEX
  8
0
 10
13.74480964805581
 20
311.486820440506
 30
0
  0
VERTEX
  8
0
 10
13.6366096666558
 20
311.482222232706
 30
0
  0
VERTEX
  8
0
 10
13.53057596305581
 20
311.474539845306
 30
0
  0
VERTEX
  8
0
 10
13.42861422565581
 20
311.463910435106
 30
0
  0
VERTEX
  8
0
 10
13.3320847622558
 20
311.450394290306
 30
0
  0
VERTEX
  8
0
 10
13.24204909525581
 20
311.434176297506
 30
0
  0
VERTEX
  8
0
 10
13.1596554908558
 20
311.415381856706
 30
0
  0
VERTEX
  8
0
 10
13.0858000806558
 20
311.394249713706
 30
0
  0
VERTEX
  8
0
 10
13.0214587844558
 20
311.370963028906
 30
0
  0
VERTEX
  8
0
 10
12.9673006512558
 20
311.345813958306
 30
0
  0
VERTEX
  8
0
 10
12.9241131402558
 20
311.319035687306
 30
0
  0
VERTEX
  8
0
 10
12.89227789465581
 20
311.290988288906
 30
0
  0
VERTEX
  8
0
 10
12.87251696105581
 20
311.262164289306
 30
0
  0
VERTEX
  8
0
 10
12.8643991450558
 20
311.232399513106
 30
0
  0
SEQEND
  8
0
  0
POLYLINE
  8
0
 62
7
 66
1
  0
VERTEX
  8
0
 10
-6.375585025344194
 20
133.312919522906
 30
0
  0
VERTEX
  8
0
 10
-6.330253409344195
 20
125.712764134706
 30
0
  0
VERTEX
  8
0
 10
-6.194311369344192
 20
118.114127024506
 30
0
  0
VERTEX
  8
0
 10
-5.967725095344193
 20
110.516134385906
 30
0
  0
VERTEX
  8
0
 10
-5.650596017744192
 20
102.921407637706
 30
0
  0
VERTEX
  8
0
 10
-5.243025566344201
 20
95.33256819910599
 30
0
  0
VERTEX
  8
0
 10
-4.744979931144201
 20
87.74874226350602
 30
0
  0
SEQEND
  8
0
  0
POLYLINE
  8
0
 62
7
 66
1
  0
VERTEX
  8
0
 10
0.5775573342558005
 20
84.843646352706
 30
0
  0
VERTEX
  8
0
 10
-0.1437528427441919
 20
85.49445726230601
 30
0
  0
VERTEX
  8
0
 10
-0.4302606585441993
 20
85.82035679830597
 30
0
  0
VERTEX
  8
0
 10
-0.6556019679441931
 20
86.14459682110601
 30
0
  0
VERTEX
  8
0
 10
-0.8178164089441964
 20
86.45356051230601
 30
0
  0
VERTEX
  8
0
 10
-0.9170806057441894
 20
86.73518427590597
 30
0
  0
VERTEX
  8
0
 10
-0.9608623153442011
 20
86.98865849250598
 30
0
  0
SEQEND
  8
0
  0
POLYLINE
  8
0
 62
7
 66
1
  0
VERTEX
  8
0
 10
27.3214618096558
 20
83.968839360706
 30
0
  0
VERTEX
  8
0
 10
27.1233690364558
 20
84.053991883506
 30
0
  0
VERTEX
  8
0
 10
26.91611355605581
 20
84.18967361950598
 30
0
  0
VERTEX
  8
0
 10
26.7058252518558
 20
84.37187156490597
 30
0
  0
VERTEX
  8
0
 10
26.49872370665581
 20
84.59519692670597
 30
0
  0
VERTEX
  8
0
 10
26.3009342484558
 20
84.85304450450599
 30
0
  0
VERTEX
  8
0
 10
26.1183067838558
 20
85.13778804930598
 30
0
  0
VERTEX
  8
0
 10
25.95624277945581
 20
85.44100582230601
 30
0
  0
VERTEX
  8
0
 10
25.8195355046558
 20
85.75372967990597
 30
0
  0
SEQEND
  8
0
  0
POLYLINE
  8
0
 62
7
 66
1
  0
VERTEX
  8
0
 10
-9.408416864744197
 20
311.232398928706
 30
0
  0
VERTEX
  8
0
 10
-9.406252713544191
 20
311.254500382706
 30
0
  0
VERTEX
  8
0
 10
-9.395348597544199
 20
311.308200099306
 30
0
  0
VERTEX
  8
0
 10
-9.375885273944192
 20
311.392607894706
 30
0
  0
VERTEX
  8
0
 10
-9.348185389344195
 20
311.506324525906
 30
0
  0
VERTEX
  8
0
 10
-9.312708130744198
 20
311.647464887506
 30
0
  0
SEQEND
  8
0
  0
POLYLINE
  8
0
 62
7
 66
1
  0
VERTEX
  8
0
 10
5.223182462655799
 20
79.77474011470599
 30
0
  0
VERTEX
  8
0
 10
5.152727037455804
 20
79.79335369310599
 30
0
  0
VERTEX
  8
0
 10
5.084845777655801
 20
79.81717666250597
 30
0
  0
VERTEX
  8
0
 10
5.023665792855809
 20
79.84723740350597
 30
0
  0
VERTEX
  8
0
 10
4.974195176455808
 20
79.880450775106
 30
0
  0
VERTEX
  8
0
 10
4.940366698655808
 20
79.91373163750598
 30
0
  0
VERTEX
  8
0
 10
4.924324053255802
 20
79.94810837030599
 30
0
  0
SEQEND
  8
0
  0
POLYLINE
  8
0
 62
7
 66
1
  0
VERTEX
  8
0
 10
28.9231824626558
 20
81.06506322010597
 30
0
  0
VERTEX
  8
0
 10
28.84947276585581
 20
81.04497417990598
 30
0
  0
VERTEX
  8
0
 10
28.7807782778558
 20
81.03400073810599
 30
0
  0
VERTEX
  8
0
 10
28.7214088146558
 20
81.03218406010598
 30
0
  0
VERTEX
  8
0
 10
28.6737526986558
 20
81.03940065030599
 30
0
  0
VERTEX
  8
0
 10
28.64035976745581
 20
81.05552701270597
 30
0
  0
VERTEX
  8
0
 10
28.62432405325581
 20
81.08060431290602
 30
0
  0
SEQEND
  8
0
  0
POLYLINE
  8
0
 62
7
 66
1
  0
VERTEX
  8
0
 10
-9.106503215144201
 20
312.433512049906
 30
0
  0
VERTEX
  8
0
 10
-8.977092050544201
 20
312.912796100306
 30
0
  0
VERTEX
  8
0
 10
-8.909400392344196
 20
313.160620567706
 30
0
  0
SEQEND
  8
0
  0
POLYLINE
  8
0
 62
7
 66
1
  0
VERTEX
  8
0
 10
3.42928693085581
 20
85.75372974490597
 30
0
  0
VERTEX
  8
0
 10
3.149009408055804
 20
86.014195919906
 30
0
  0
VERTEX
  8
0
 10
2.888821668055797
 20
86.29324811930599
 30
0
  0
VERTEX
  8
0
 10
2.652822652255807
 20
86.590850571906
 30
0
  0
VERTEX
  8
0
 10
2.44496505225581
 20
86.90696878350599
 30
0
  0
SEQEND
  8
0
  0
POLYLINE
  8
0
 62
7
 66
1
  0
VERTEX
  8
0
 10
18.74586995185581
 20
306.868537308106
 30
0
  0
VERTEX
  8
0
 10
18.75558276765581
 20
307.117213228506
 30
0
  0
VERTEX
  8
0
 10
18.77595038285581
 20
307.360431727706
 30
0
  0
VERTEX
  8
0
 10
18.8066538828558
 20
307.594384615306
 30
0
  0
VERTEX
  8
0
 10
18.84721251925581
 20
307.815408779506
 30
0
  0
VERTEX
  8
0
 10
18.89699123765581
 20
308.020043538706
 30
0
  0
VERTEX
  8
0
 10
18.95521062005581
 20
308.205084825306
 30
0
  0
VERTEX
  8
0
 10
19.02095908905581
 20
308.367635356906
 30
0
  0
VERTEX
  8
0
 10
19.09320718045581
 20
308.505149997306
 30
0
  0
VERTEX
  8
0
 10
19.1708236622558
 20
308.615475609306
 30
0
  0
VERTEX
  8
0
 10
19.25259324685581
 20
308.696884769306
 30
0
  0
SEQEND
  8
0
  0
POLYLINE
  8
0
 62
7
 66
1
  0
VERTEX
  8
0
 10
13.8076183138558
 20
313.416601242506
 30
0
  0
VERTEX
  8
0
 10
13.4834250524558
 20
313.415026081306
 30
0
  0
VERTEX
  8
0
 10
13.1640956964558
 20
313.410419439506
 30
0
  0
VERTEX
  8
0
 10
12.8534023468558
 20
313.402737680906
 30
0
  0
VERTEX
  8
0
 10
12.55499985785581
 20
313.392111714306
 30
0
  0
VERTEX
  8
0
 10
12.2723997782558
 20
313.378592652306
 30
0
  0
VERTEX
  8
0
 10
12.00898615665581
 20
313.362376246306
 30
0
  0
VERTEX
  8
0
 10
11.7679192296558
 20
313.343600105506
 30
0
  0
VERTEX
  8
0
 10
11.5520334580558
 20
313.322489769306
 30
0
  0
VERTEX
  8
0
 10
11.3638853502558
 20
313.299212933106
 30
0
  0
VERTEX
  8
0
 10
11.2057631434558
 20
313.274080737906
 30
0
  0
VERTEX
  8
0
 10
11.0795876844558
 20
313.247361175906
 30
0
  0
VERTEX
  8
0
 10
10.98687425405581
 20
313.219351390106
 30
0
  0
VERTEX
  8
0
 10
10.92875881405581
 20
313.190486163306
 30
0
  0
VERTEX
  8
0
 10
10.90597989205581
 20
313.160620568106
 30
0
  0
SEQEND
  8
0
  0
POLYLINE
  8
0
 62
7
 66
1
  0
VERTEX
  8
0
 10
4.912740200455801
 20
84.868867069906
 30
0
  0
VERTEX
  8
0
 10
4.662131136455798
 20
84.96999270530597
 30
0
  0
VERTEX
  8
0
 10
4.41011194785581
 20
85.09011313350601
 30
0
  0
VERTEX
  8
0
 10
4.158563162455806
 20
85.22961520290602
 30
0
  0
VERTEX
  8
0
 10
3.909720921655804
 20
85.38726962090601
 30
0
  0
VERTEX
  8
0
 10
3.6659065272558
 20
85.56184635210599
 30
0
  0
VERTEX
  8
0
 10
3.42928693085581
 20
85.75372974490597
 30
0
  0
SEQEND
  8
0
  0
POLYLINE
  8
0
 62
7
 66
1
  0
VERTEX
  8
0
 10
1.927363684255809
 20
83.96882362470598
 30
0
  0
VERTEX
  8
0
 10
1.435196347855808
 20
84.24171995090597
 30
0
  0
VERTEX
  8
0
 10
0.9853543286558022
 20
84.533260145106
 30
0
  0
VERTEX
  8
0
 10
0.5775573342558005
 20
84.843646352706
 30
0
  0
SEQEND
  8
0
  0
POLYLINE
  8
0
 62
7
 66
1
  0
VERTEX
  8
0
 10
-4.791570645944191
 20
96.80188119270599
 30
0
  0
VERTEX
  8
0
 10
-4.7005656573442
 20
96.26196736450601
 30
0
  0
VERTEX
  8
0
 10
-4.544979029144201
 20
95.73175635650597
 30
0
  0
VERTEX
  8
0
 10
-4.326270595344198
 20
95.21622301790598
 30
0
  0
VERTEX
  8
0
 10
-4.046492447144189
 20
94.720204480306
 30
0
  0
VERTEX
  8
0
 10
-3.708269679144195
 20
94.24835477270597
 30
0
  0
VERTEX
  8
0
 10
-3.314775758344197
 20
93.805101153306
 30
0
  0
VERTEX
  8
0
 10
-2.869700466144195
 20
93.39460065990602
 30
0
  0
VERTEX
  8
0
 10
-2.377226668544196
 20
93.020710636106
 30
0
  0
VERTEX
  8
0
 10
-1.8419844973442
 20
92.68694261510598
 30
0
  0
VERTEX
  8
0
 10
-1.268995777944198
 20
92.39642374630597
 30
0
  0
SEQEND
  8
0
  0
POLYLINE
  8
0
 62
7
 66
1
  0
VERTEX
  8
0
 10
27.3308650934558
 20
306.868536504306
 30
0
  0
VERTEX
  8
0
 10
27.35724414445581
 20
307.117211218106
 30
0
  0
VERTEX
  8
0
 10
27.41255958545581
 20
307.360429011306
 30
0
  0
VERTEX
  8
0
 10
27.49594548085581
 20
307.594381695506
 30
0
  0
VERTEX
  8
0
 10
27.6060963550558
 20
307.815406100706
 30
0
  0
VERTEX
  8
0
 10
27.74128765625581
 20
308.020041462106
 30
0
  0
VERTEX
  8
0
 10
27.89940272185581
 20
308.205083580306
 30
0
  0
VERTEX
  8
0
 10
28.07796629145581
 20
308.367635212306
 30
0
  0
VERTEX
  8
0
 10
28.27418149405581
 20
308.505150512506
 30
0
  0
VERTEX
  8
0
 10
28.4849747818558
 20
308.615476028706
 30
0
  0
VERTEX
  8
0
 10
28.7070458610558
 20
308.696884832906
 30
0
  0
SEQEND
  8
0
  0
POLYLINE
  8
0
 62
7
 66
1
  0
VERTEX
  8
0
 10
-4.766727052944191
 20
93.14726274350602
 30
0
  0
VERTEX
  8
0
 10
-4.674918241544191
 20
92.54688323910597
 30
0
  0
VERTEX
  8
0
 10
-4.513519263544197
 20
91.95762335230597
 30
0
  0
VERTEX
  8
0
 10
-4.284161356944196
 20
91.38543865470598
 30
0
  0
VERTEX
  8
0
 10
-3.989162611744192
 20
90.83611214090598
 30
0
  0
VERTEX
  8
0
 10
-3.631504540944192
 20
90.31519578110601
 30
0
  0
VERTEX
  8
0
 10
-3.214801947544203
 20
89.827954408106
 30
0
  0
VERTEX
  8
0
 10
-2.7432663869442
 20
89.37931250370599
 30
0
  0
VERTEX
  8
0
 10
-2.221663612944198
 20
88.97380443770601
 30
0
  0
VERTEX
  8
0
 10
-1.655265404744199
 20
88.61552862970598
 30
0
  0
VERTEX
  8
0
 10
-1.049796273344199
 20
88.30810612070599
 30
0
  0
SEQEND
  8
0
  0
POLYLINE
  8
0
 62
7
 66
1
  0
VERTEX
  8
0
 10
-4.783269981944201
 20
95.28597587430602
 30
0
  0
VERTEX
  8
0
 10
-4.6922201233442
 20
94.731144493106
 30
0
  0
VERTEX
  8
0
 10
-4.5346622775442
 20
94.18646883630601
 30
0
  0
VERTEX
  8
0
 10
-4.312118553544195
 20
93.65721081630602
 30
0
  0
VERTEX
  8
0
 10
-4.026738864944193
 20
93.14848340210597
 30
0
  0
VERTEX
  8
0
 10
-3.681280160544191
 20
92.66520122310601
 30
0
  0
VERTEX
  8
0
 10
-3.279079791144199
 20
92.21203309210597
 30
0
  0
VERTEX
  8
0
 10
-2.824021261144196
 20
91.793355229106
 30
0
  0
VERTEX
  8
0
 10
-2.320506724744192
 20
91.41321732810599
 30
0
  0
VERTEX
  8
0
 10
-1.773408675944197
 20
91.07529467970602
 30
0
  0
VERTEX
  8
0
 10
-1.188012208144201
 20
90.78284780010597
 30
0
  0
SEQEND
  8
0
  0
POLYLINE
  8
0
 62
7
 66
1
  0
VERTEX
  8
0
 10
4.508087084855802
 20
83.05285118650602
 30
0
  0
VERTEX
  8
0
 10
4.072782794455804
 20
83.15821786030597
 30
0
  0
VERTEX
  8
0
 10
3.636744367455805
 20
83.28319667210599
 30
0
  0
VERTEX
  8
0
 10
3.197422334255805
 20
83.42844591950598
 30
0
  0
VERTEX
  8
0
 10
2.7626420602558
 20
83.59211806290597
 30
0
  0
VERTEX
  8
0
 10
2.340162013055803
 20
83.77210846930598
 30
0
  0
VERTEX
  8
0
 10
1.927363684255809
 20
83.96882362470598
 30
0
  0
SEQEND
  8
0
  0
POLYLINE
  8
0
 62
7
 66
1
  0
VERTEX
  8
0
 10
12.8643991450558
 20
311.232399513106
 30
0
  0
VERTEX
  8
0
 10
12.85364201565581
 20
311.117778408106
 30
0
  0
VERTEX
  8
0
 10
12.83157117725581
 20
310.999981200906
 30
0
  0
VERTEX
  8
0
 10
12.8004590290558
 20
310.879449933706
 30
0
  0
VERTEX
  8
0
 10
12.7572019484558
 20
310.754858479306
 30
0
  0
VERTEX
  8
0
 10
12.7014316120558
 20
310.625276523506
 30
0
  0
VERTEX
  8
0
 10
12.62945210125581
 20
310.489958668706
 30
0
  0
VERTEX
  8
0
 10
12.54065005265581
 20
310.348007518306
 30
0
  0
VERTEX
  8
0
 10
12.42942736225581
 20
310.198948757906
 30
0
  0
VERTEX
  8
0
 10
12.29311265605581
 20
310.040903956506
 30
0
  0
VERTEX
  8
0
 10
12.1294034912558
 20
309.877188066706
 30
0
  0
VERTEX
  8
0
 10
11.93523885965581
 20
309.708952017706
 30
0
  0
VERTEX
  8
0
 10
11.7150232266558
 20
309.540809448306
 30
0
  0
VERTEX
  8
0
 10
11.4684571924558
 20
309.376995677506
 30
0
  0
VERTEX
  8
0
 10
11.20244938225581
 20
309.219796594106
 30
0
  0
VERTEX
  8
0
 10
10.91947678605581
 20
309.072968501706
 30
0
  0
VERTEX
  8
0
 10
10.62299623105581
 20
308.936335475906
 30
0
  0
VERTEX
  8
0
 10
10.3152481266558
 20
308.811108215306
 30
0
  0
VERTEX
  8
0
 10
9.996235556855808
 20
308.696883153706
 30
0
  0
SEQEND
  8
0
  0
POLYLINE
  8
0
 62
7
 66
1
  0
VERTEX
  8
0
 10
1.931311572455797
 20
306.868535950106
 30
0
  0
VERTEX
  8
0
 10
2.018006141055807
 20
306.872466314306
 30
0
  0
VERTEX
  8
0
 10
2.112276217855808
 20
306.884539848306
 30
0
  0
VERTEX
  8
0
 10
2.214648090055803
 20
306.904826027906
 30
0
  0
VERTEX
  8
0
 10
2.325437343455803
 20
306.933116425306
 30
0
  0
VERTEX
  8
0
 10
2.444817514055799
 20
306.969411597106
 30
0
  0
VERTEX
  8
0
 10
2.573629544655802
 20
307.013154066706
 30
0
  0
VERTEX
  8
0
 10
2.712386770655797
 20
307.064114329906
 30
0
  0
VERTEX
  8
0
 10
3.202098710055807
 20
307.251222111106
 30
0
  0
SEQEND
  8
0
  0
POLYLINE
  8
0
 62
7
 66
1
  0
VERTEX
  8
0
 10
-4.744979931144201
 20
87.74874226350602
 30
0
  0
VERTEX
  8
0
 10
-4.686905414944192
 20
87.20033534130602
 30
0
  0
VERTEX
  8
0
 10
-4.5923402037442
 20
86.66022673850597
 30
0
  0
VERTEX
  8
0
 10
-4.461086888344198
 20
86.12725747110602
 30
0
  0
VERTEX
  8
0
 10
-4.293737696344195
 20
85.60490449070602
 30
0
  0
VERTEX
  8
0
 10
-4.090591220744202
 20
85.09538342230599
 30
0
  0
VERTEX
  8
0
 10
-3.85233095794419
 20
84.60131926050599
 30
0
  0
VERTEX
  8
0
 10
-3.579433562144189
 20
84.12519905170598
 30
0
  0
VERTEX
  8
0
 10
-3.272818151944193
 20
83.66965226470597
 30
0
  0
VERTEX
  8
0
 10
-2.932946995944192
 20
83.237078249506
 30
0
  0
VERTEX
  8
0
 10
-2.561667298744197
 20
82.830654408106
 30
0
  0
VERTEX
  8
0
 10
-2.160217485744198
 20
82.45346785530597
 30
0
  0
VERTEX
  8
0
 10
-1.730886161344202
 20
82.10818880370601
 30
0
  0
VERTEX
  8
0
 10
-1.275287884944191
 20
81.797706075306
 30
0
  0
VERTEX
  8
0
 10
-0.7966832181441959
 20
81.52445095710601
 30
0
  0
VERTEX
  8
0
 10
-0.2993457529441912
 20
81.29224195490599
 30
0
  0
VERTEX
  8
0
 10
0.2181490412557992
 20
81.09980623370598
 30
0
  0
SEQEND
  8
0
  0
POLYLINE
  8
0
 62
7
 66
1
  0
VERTEX
  8
0
 10
-4.746719324744191
 20
90.12826752630599
 30
0
  0
VERTEX
  8
0
 10
-4.631586344544189
 20
89.35660557090597
 30
0
  0
VERTEX
  8
0
 10
-4.417557743144201
 20
88.60330415890599
 30
0
  0
VERTEX
  8
0
 10
-4.107717258344195
 20
87.87921690570602
 30
0
  0
VERTEX
  8
0
 10
-3.706529092144194
 20
87.194776507906
 30
0
  0
VERTEX
  8
0
 10
-3.219773589744193
 20
86.55984442710599
 30
0
  0
VERTEX
  8
0
 10
-2.654463955944195
 20
85.98356880590598
 30
0
  0
VERTEX
  8
0
 10
-2.018745208744193
 20
85.47425266130597
 30
0
  0
VERTEX
  8
0
 10
-1.321776825544191
 20
85.03923425310597
 30
0
  0
VERTEX
  8
0
 10
-0.5736007717441964
 20
84.684781355106
 30
0
  0
VERTEX
  8
0
 10
0.2150031830557992
 20
84.41600094770598
 30
0
  0
SEQEND
  8
0
  0
POLYLINE
  8
0
 62
7
 66
1
  0
VERTEX
  8
0
 10
-4.7495010507442
 20
90.76552377150597
 30
0
  0
VERTEX
  8
0
 10
-4.634392053744193
 20
90.00589320950598
 30
0
  0
VERTEX
  8
0
 10
-4.420395588544196
 20
89.26445244050598
 30
0
  0
VERTEX
  8
0
 10
-4.110594675544192
 20
88.55188330930599
 30
0
  0
VERTEX
  8
0
 10
-3.709452577944191
 20
87.87845171110598
 30
0
  0
VERTEX
  8
0
 10
-3.222748500144192
 20
87.25385969070601
 30
0
  0
VERTEX
  8
0
 10
-2.657494327144192
 20
86.68710566810597
 30
0
  0
VERTEX
  8
0
 10
-2.021833605544202
 20
86.18635479790601
 30
0
  0
VERTEX
  8
0
 10
-1.324924220344201
 20
85.75882133530598
 30
0
  0
VERTEX
  8
0
 10
-0.5768064583441941
 20
85.41066470230601
 30
0
  0
VERTEX
  8
0
 10
0.2117416408558057
 20
85.14690074770601
 30
0
  0
SEQEND
  8
0
  0
POLYLINE
  8
0
 62
7
 66
1
  0
VERTEX
  8
0
 10
1.927363684255809
 20
83.96882362470598
 30
0
  0
VERTEX
  8
0
 10
1.497718707655807
 20
84.07530795810601
 30
0
  0
VERTEX
  8
0
 10
1.0690875796558
 20
84.185337733506
 30
0
  0
VERTEX
  8
0
 10
0.6415043966558045
 20
84.29890485590602
 30
0
  0
VERTEX
  8
0
 10
0.2150031830557992
 20
84.41600094770598
 30
0
  0
SEQEND
  8
0
  0
POLYLINE
  8
0
 62
7
 66
1
  0
VERTEX
  8
0
 10
24.33608974865581
 20
84.868867069906
 30
0
  0
VERTEX
  8
0
 10
21.1340718114558
 20
84.27522278650599
 30
0
  0
VERTEX
  8
0
 10
17.90213362665581
 20
83.91900944630601
 30
0
  0
VERTEX
  8
0
 10
14.62542758305581
 20
83.80020195190599
 30
0
  0
VERTEX
  8
0
 10
11.34849651545581
 20
83.91887559490601
 30
0
  0
VERTEX
  8
0
 10
8.11588325845581
 20
84.275105666706
 30
0
  0
VERTEX
  8
0
 10
4.912740200455801
 20
84.868867069906
 30
0
  0
SEQEND
  8
0
  0
POLYLINE
  8
0
 62
7
 66
1
  0
VERTEX
  8
0
 10
24.74074286425581
 20
83.05285118650602
 30
0
  0
VERTEX
  8
0
 10
21.4120703348558
 20
82.439904482906
 30
0
  0
VERTEX
  8
0
 10
18.0377030192558
 20
82.06889993230601
 30
0
  0
VERTEX
  8
0
 10
14.6256193228558
 20
81.94407694090597
 30
0
  0
VERTEX
  8
0
 10
11.21326300185581
 20
82.06874308270596
 30
0
  0
VERTEX
  8
0
 10
7.838085393655803
 20
82.43971736510599
 30
0
  0
VERTEX
  8
0
 10
4.508087084855802
 20
83.05285118650602
 30
0
  0
SEQEND
  8
0
  0
POLYLINE
  8
0
 62
7
 66
1
  0
VERTEX
  8
0
 10
24.0256474866558
 20
79.77474011470599
 30
0
  0
VERTEX
  8
0
 10
21.68719269565581
 20
79.35393116230597
 30
0
  0
VERTEX
  8
0
 10
19.34070342765581
 20
79.05335808070601
 30
0
  0
VERTEX
  8
0
 10
16.98419572085581
 20
78.87301236010597
 30
0
  0
VERTEX
  8
0
 10
14.62362145965581
 20
78.81291952970599
 30
0
  0
VERTEX
  8
0
 10
12.26275074565581
 20
78.87313894550601
 30
0
  0
VERTEX
  8
0
 10
9.906144964855798
 20
79.05356061750598
 30
0
  0
VERTEX
  8
0
 10
7.560349464655801
 20
79.35408306490598
 30
0
  0
VERTEX
  8
0
 10
5.223182462655799
 20
79.77474011470599
 30
0
  0
SEQEND
  8
0
  0
POLYLINE
  8
0
 62
7
 66
1
  0
VERTEX
  8
0
 10
0.6245058960558083
 20
81.08060431290602
 30
0
  0
VERTEX
  8
0
 10
0.6084701818558074
 20
81.05552701270597
 30
0
  0
VERTEX
  8
0
 10
0.5750772506558093
 20
81.03940065030599
 30
0
  0
VERTEX
  8
0
 10
0.5274211344558069
 20
81.03218406010598
 30
0
  0
VERTEX
  8
0
 10
0.468051671455811
 20
81.03400073810599
 30
0
  0
VERTEX
  8
0
 10
0.3993571832558018
 20
81.04497417990598
 30
0
  0
SEQEND
  8
0
  0
POLYLINE
  8
0
 62
7
 66
1
  0
VERTEX
  8
0
 10
27.3214662648558
 20
83.96882362470598
 30
0
  0
VERTEX
  8
0
 10
26.90866802865581
 20
83.77210843150601
 30
0
  0
VERTEX
  8
0
 10
26.4861880522558
 20
83.59211796070599
 30
0
  0
VERTEX
  8
0
 10
26.05140784185581
 20
83.42844568870601
 30
0
  0
VERTEX
  8
0
 10
25.6120858218558
 20
83.28319636330599
 30
0
  0
VERTEX
  8
0
 10
25.1760473146558
 20
83.158217640506
 30
0
  0
VERTEX
  8
0
 10
24.74074286425581
 20
83.05285118650602
 30
0
  0
SEQEND
  8
0
  0
POLYLINE
  8
0
 62
7
 66
1
  0
VERTEX
  8
0
 10
29.0338267662558
 20
84.41600094770598
 30
0
  0
VERTEX
  8
0
 10
28.60734292065581
 20
84.29890954650597
 30
0
  0
VERTEX
  8
0
 10
28.1797655862558
 20
84.18534379630597
 30
0
  0
VERTEX
  8
0
 10
27.7511286968558
 20
84.07531236150601
 30
0
  0
VERTEX
  8
0
 10
27.3214662648558
 20
83.96882362470598
 30
0
  0
SEQEND
  8
0
  0
POLYLINE
  8
0
 62
7
 66
1
  0
VERTEX
  8
0
 10
24.32450589605581
 20
79.94810837030599
 30
0
  0
VERTEX
  8
0
 10
24.30846325065581
 20
79.91373163750598
 30
0
  0
VERTEX
  8
0
 10
24.27463477285581
 20
79.880450775106
 30
0
  0
VERTEX
  8
0
 10
24.2251641564558
 20
79.84723740350597
 30
0
  0
VERTEX
  8
0
 10
24.16398417145581
 20
79.81717666250597
 30
0
  0
VERTEX
  8
0
 10
24.09610291165581
 20
79.79335369310599
 30
0
  0
VERTEX
  8
0
 10
24.0256474866558
 20
79.77474011470599
 30
0
  0
SEQEND
  8
0
  0
POLYLINE
  8
0
 62
7
 66
1
  0
VERTEX
  8
0
 10
-11.8622383271442
 20
320.525093146706
 30
0
  0
VERTEX
  8
0
 10
-11.84459238814419
 20
320.790253002306
 30
0
  0
VERTEX
  8
0
 10
-11.79196617254419
 20
321.050731154306
 30
0
  0
VERTEX
  8
0
 10
-11.7052888961442
 20
321.301928794306
 30
0
  0
VERTEX
  8
0
 10
-11.5860909591442
 20
321.539410967106
 30
0
  0
VERTEX
  8
0
 10
-11.43647692194419
 20
321.758984889506
 30
0
  0
VERTEX
  8
0
 10
-11.2590883317442
 20
321.956773985506
 30
0
  0
VERTEX
  8
0
 10
-11.0570570949442
 20
322.129286305306
 30
0
  0
VERTEX
  8
0
 10
-10.83395016054419
 20
322.273476189706
 30
0
  0
VERTEX
  8
0
 10
-10.5937065529442
 20
322.386798023306
 30
0
  0
VERTEX
  8
0
 10
-10.34056784354419
 20
322.467251170706
 30
0
  0
SEQEND
  8
0
  0
POLYLINE
  8
0
 62
7
 66
1
  0
VERTEX
  8
0
 10
177.6421175810558
 20
89.230185073906
 30
0
  0
VERTEX
  8
0
 10
177.5903537732558
 20
89.22980955330598
 30
0
  0
VERTEX
  8
0
 10
177.5421175830558
 20
89.22870858230601
 30
0
  0
VERTEX
  8
0
 10
177.5006962266558
 20
89.22695719050597
 30
0
  0
VERTEX
  8
0
 10
177.4689125016558
 20
89.22467473230597
 30
0
  0
VERTEX
  8
0
 10
177.4489324162558
 20
89.22201675330598
 30
0
  0
VERTEX
  8
0
 10
177.4421175810558
 20
89.21916439030599
 30
0
  0
SEQEND
  8
0
  0
POLYLINE
  8
0
 62
7
 66
1
  0
VERTEX
  8
0
 10
192.5152926356558
 20
88.12339214430597
 30
0
  0
VERTEX
  8
0
 10
192.3149323738558
 20
88.00250196210601
 30
0
  0
VERTEX
  8
0
 10
191.8397033824558
 20
87.72058731070598
 30
0
  0
VERTEX
  8
0
 10
191.3616457766558
 20
87.44373753870599
 30
0
  0
VERTEX
  8
0
 10
190.8808099672558
 20
87.17198031910601
 30
0
  0
VERTEX
  8
0
 10
190.3972462692558
 20
86.90534304670598
 30
0
  0
VERTEX
  8
0
 10
190.2172817064558
 20
86.807793277906
 30
0
  0
SEQEND
  8
0
  0
POLYLINE
  8
0
 62
7
 66
1
  0
VERTEX
  8
0
 10
191.5480625206558
 20
89.81608731830602
 30
0
  0
VERTEX
  8
0
 10
191.1837975680558
 20
89.597283344706
 30
0
  0
VERTEX
  8
0
 10
190.8178381920558
 20
89.38161634190601
 30
0
  0
VERTEX
  8
0
 10
190.4501617282558
 20
89.169074625306
 30
0
  0
VERTEX
  8
0
 10
190.0808361704558
 20
88.95969324970599
 30
0
  0
VERTEX
  8
0
 10
189.7099295128558
 20
88.75350726970601
 30
0
  0
VERTEX
  8
0
 10
189.3374190910558
 20
88.55050500050601
 30
0
  0
SEQEND
  8
0
  0
POLYLINE
  8
0
 62
7
 66
1
  0
VERTEX
  8
0
 10
196.2270850574558
 20
90.59491780290597
 30
0
  0
VERTEX
  8
0
 10
195.7917678200558
 20
90.28107642910601
 30
0
  0
VERTEX
  8
0
 10
195.0917332048558
 20
89.79028346270599
 30
0
  0
VERTEX
  8
0
 10
194.3841266794558
 20
89.31109591550597
 30
0
  0
VERTEX
  8
0
 10
193.6691281806558
 20
88.843624642706
 30
0
  0
VERTEX
  8
0
 10
192.9469197296558
 20
88.38797854750601
 30
0
  0
VERTEX
  8
0
 10
192.5152926332558
 20
88.12339215610598
 30
0
  0
SEQEND
  8
0
  0
POLYLINE
  8
0
 62
7
 66
1
  0
VERTEX
  8
0
 10
195.1190357294558
 20
92.193851799306
 30
0
  0
VERTEX
  8
0
 10
194.5372042862558
 20
91.77612616410602
 30
0
  0
VERTEX
  8
0
 10
193.9499535834558
 20
91.36692289430602
 30
0
  0
VERTEX
  8
0
 10
193.3572020990558
 20
90.96619487470599
 30
0
  0
VERTEX
  8
0
 10
192.7591943982558
 20
90.57408345130597
 30
0
  0
VERTEX
  8
0
 10
192.1561750460558
 20
90.19072997110601
 30
0
  0
VERTEX
  8
0
 10
191.5480625206558
 20
89.81608731830602
 30
0
  0
SEQEND
  8
0
  0
POLYLINE
  8
0
 62
7
 66
1
  0
VERTEX
  8
0
 10
190.2173331574558
 20
86.80781408690598
 30
0
  0
VERTEX
  8
0
 10
190.0442629134558
 20
86.71300803330598
 30
0
  0
VERTEX
  8
0
 10
189.5584196534558
 20
86.43191661150598
 30
0
  0
VERTEX
  8
0
 10
189.0574884774558
 20
86.12191109550599
 30
0
  0
VERTEX
  8
0
 10
188.5408414446558
 20
85.78567969570599
 30
0
  0
VERTEX
  8
0
 10
188.0062300884558
 20
85.428043104506
 30
0
  0
VERTEX
  8
0
 10
187.5823806748558
 20
85.14303980670599
 30
0
  0
SEQEND
  8
0
  0
POLYLINE
  8
0
 62
7
 66
1
  0
VERTEX
  8
0
 10
197.2514865110558
 20
93.77886169670597
 30
0
  0
VERTEX
  8
0
 10
196.8977655838558
 20
93.51158830130601
 30
0
  0
VERTEX
  8
0
 10
196.5433653778558
 20
93.245556377306
 30
0
  0
VERTEX
  8
0
 10
196.1882818952558
 20
92.98076539870601
 30
0
  0
VERTEX
  8
0
 10
195.8325271292558
 20
92.71721694230598
 30
0
  0
VERTEX
  8
0
 10
195.4761130732558
 20
92.45491258430599
 30
0
  0
VERTEX
  8
0
 10
195.1190357294558
 20
92.193851799306
 30
0
  0
SEQEND
  8
0
  0
POLYLINE
  8
0
 62
7
 66
1
  0
VERTEX
  8
0
 10
198.3899694394558
 20
92.20254905930597
 30
0
  0
VERTEX
  8
0
 10
197.7510750470558
 20
91.721030441506
 30
0
  0
VERTEX
  8
0
 10
197.3026462620558
 20
91.38641433070598
 30
0
  0
VERTEX
  8
0
 10
196.8525076552558
 20
91.053270542706
 30
0
  0
SEQEND
  8
0
  0
POLYLINE
  8
0
 62
7
 66
1
  0
VERTEX
  8
0
 10
255.3463390404558
 20
200.295962847506
 30
0
  0
VERTEX
  8
0
 10
255.0342726752558
 20
196.830225586906
 30
0
  0
VERTEX
  8
0
 10
254.6098085696558
 20
193.220554691906
 30
0
  0
VERTEX
  8
0
 10
254.0814401868558
 20
189.475915985506
 30
0
  0
VERTEX
  8
0
 10
253.4236871366558
 20
185.569411998306
 30
0
  0
VERTEX
  8
0
 10
252.6225325796558
 20
181.481483324906
 30
0
  0
VERTEX
  8
0
 10
251.6520793288558
 20
177.199081594706
 30
0
  0
VERTEX
  8
0
 10
250.4928167086558
 20
172.705273071506
 30
0
  0
VERTEX
  8
0
 10
249.1115683476558
 20
167.992154446706
 30
0
  0
VERTEX
  8
0
 10
247.4822143780558
 20
163.045857755906
 30
0
  0
VERTEX
  8
0
 10
245.5640746120558
 20
157.867343228706
 30
0
  0
VERTEX
  8
0
 10
243.3187451890558
 20
152.440274404506
 30
0
  0
VERTEX
  8
0
 10
240.7132772572558
 20
146.802673387506
 30
0
  0
VERTEX
  8
0
 10
237.7050469688558
 20
140.962922705706
 30
0
  0
VERTEX
  8
0
 10
234.2846754512558
 20
134.993604627506
 30
0
  0
VERTEX
  8
0
 10
230.3994012818558
 20
128.917715109906
 30
0
  0
VERTEX
  8
0
 10
226.1367482624558
 20
122.892395614706
 30
0
  0
VERTEX
  8
0
 10
221.5249512326558
 20
117.049713674906
 30
0
  0
VERTEX
  8
0
 10
216.6891156566558
 20
111.487887032306
 30
0
  0
VERTEX
  8
0
 10
211.7221079376558
 20
106.338838098106
 30
0
  0
VERTEX
  8
0
 10
206.7488800962558
 20
101.633520398906
 30
0
  0
VERTEX
  8
0
 10
201.9448280568558
 20
97.45622755630598
 30
0
  0
VERTEX
  8
0
 10
197.2514865110558
 20
93.77886169670597
 30
0
  0
SEQEND
  8
0
  0
POLYLINE
  8
0
 62
7
 66
1
  0
VERTEX
  8
0
 10
187.5823806748558
 20
85.14303980670599
 30
0
  0
VERTEX
  8
0
 10
187.2197148590558
 20
84.88887083590601
 30
0
  0
VERTEX
  8
0
 10
186.9233669010558
 20
84.66951895950598
 30
0
  0
VERTEX
  8
0
 10
186.6781875200558
 20
84.47685080690599
 30
0
  0
SEQEND
  8
0
  0
POLYLINE
  8
0
 62
7
 66
1
  0
VERTEX
  8
0
 10
257.2701901500558
 20
200.154181742306
 30
0
  0
VERTEX
  8
0
 10
256.4688567524558
 20
192.560817347706
 30
0
  0
VERTEX
  8
0
 10
255.2238272562558
 20
184.696601351306
 30
0
  0
VERTEX
  8
0
 10
253.5629661472558
 20
176.898612124506
 30
0
  0
VERTEX
  8
0
 10
251.4914469318558
 20
169.192073447306
 30
0
  0
VERTEX
  8
0
 10
249.0155885618558
 20
161.600682782706
 30
0
  0
VERTEX
  8
0
 10
246.1429839740558
 20
154.147839952706
 30
0
  0
VERTEX
  8
0
 10
242.8823782004558
 20
146.856524543506
 30
0
  0
VERTEX
  8
0
 10
239.2435633938558
 20
139.749201745106
 30
0
  0
VERTEX
  8
0
 10
235.2377081868558
 20
132.847812225506
 30
0
  0
VERTEX
  8
0
 10
230.8771007832558
 20
126.173732900106
 30
0
  0
VERTEX
  8
0
 10
226.1754510112558
 20
119.747709459306
 30
0
  0
VERTEX
  8
0
 10
221.1475303782558
 20
113.589542688106
 30
0
  0
VERTEX
  8
0
 10
215.8097453694558
 20
107.718220224906
 30
0
  0
VERTEX
  8
0
 10
210.1791238986558
 20
102.151169572506
 30
0
  0
VERTEX
  8
0
 10
204.2745955788558
 20
96.90519218530602
 30
0
  0
VERTEX
  8
0
 10
198.3899681738558
 20
92.20255075690602
 30
0
  0
SEQEND
  8
0
  0
POLYLINE
  8
0
 62
7
 66
1
  0
VERTEX
  8
0
 10
186.6781875200558
 20
84.47685080690599
 30
0
  0
VERTEX
  8
0
 10
186.4756117980558
 20
84.306142289506
 30
0
  0
VERTEX
  8
0
 10
186.4401627712558
 20
84.27470497430602
 30
0
  0
SEQEND
  8
0
  0
POLYLINE
  8
0
 62
7
 66
1
  0
VERTEX
  8
0
 10
258.6816855516558
 20
262.610633734506
 30
0
  0
VERTEX
  8
0
 10
258.5980172832558
 20
262.411097101306
 30
0
  0
VERTEX
  8
0
 10
258.4932312714558
 20
262.154230424106
 30
0
  0
VERTEX
  8
0
 10
258.3703628806558
 20
261.841645543306
 30
0
  0
VERTEX
  8
0
 10
258.2331257048558
 20
261.475879660506
 30
0
  0
VERTEX
  8
0
 10
258.0859569624558
 20
261.060025544706
 30
0
  0
VERTEX
  8
0
 10
257.9337026118558
 20
260.597750304306
 30
0
  0
VERTEX
  8
0
 10
257.7816176984558
 20
260.093252820106
 30
0
  0
VERTEX
  8
0
 10
257.6346832382558
 20
259.549635856306
 30
0
  0
VERTEX
  8
0
 10
257.4994604848558
 20
258.976928549506
 30
0
  0
VERTEX
  8
0
 10
257.3819286952558
 20
258.387709514906
 30
0
  0
VERTEX
  8
0
 10
257.2848240990558
 20
257.784727278906
 30
0
  0
VERTEX
  8
0
 10
257.2109926128558
 20
257.174435880906
 30
0
  0
VERTEX
  8
0
 10
257.1616722536558
 20
256.557917428706
 30
0
  0
VERTEX
  8
0
 10
257.1380684096558
 20
255.937187976906
 30
0
  0
VERTEX
  8
0
 10
257.1406597446558
 20
255.314313529506
 30
0
  0
VERTEX
  8
0
 10
257.1697047688558
 20
254.691334458906
 30
0
  0
VERTEX
  8
0
 10
257.2247366888558
 20
254.069853788706
 30
0
  0
VERTEX
  8
0
 10
257.3051103518558
 20
253.451741325906
 30
0
  0
VERTEX
  8
0
 10
257.4095472358558
 20
252.838626883506
 30
0
  0
VERTEX
  8
0
 10
257.5370730270558
 20
252.230239759506
 30
0
  0
VERTEX
  8
0
 10
257.6838896122558
 20
251.636175046706
 30
0
  0
VERTEX
  8
0
 10
257.8462909932558
 20
251.061526455106
 30
0
  0
VERTEX
  8
0
 10
258.0177074210558
 20
250.518047422506
 30
0
  0
VERTEX
  8
0
 10
258.1909767568558
 20
250.015902124906
 30
0
  0
VERTEX
  8
0
 10
258.3613847538558
 20
249.557096208906
 30
0
  0
VERTEX
  8
0
 10
258.5238931014558
 20
249.145134562906
 30
0
  0
VERTEX
  8
0
 10
258.6738079290558
 20
248.783387002906
 30
0
  0
VERTEX
  8
0
 10
258.8069013302558
 20
248.474647837706
 30
0
  0
VERTEX
  8
0
 10
258.9196606442558
 20
248.221212610906
 30
0
  0
VERTEX
  8
0
 10
259.0092480850558
 20
248.024525429306
 30
0
  0
VERTEX
  8
0
 10
259.0737671734558
 20
247.885371220506
 30
0
  0
VERTEX
  8
0
 10
259.1245360956558
 20
247.777166093506
 30
0
  0
SEQEND
  8
0
  0
POLYLINE
  8
0
 62
7
 66
1
  0
VERTEX
  8
0
 10
258.2196762220558
 20
262.319209067706
 30
0
  0
VERTEX
  8
0
 10
258.1344164934558
 20
262.128398783506
 30
0
  0
VERTEX
  8
0
 10
258.0270005090558
 20
261.882538601306
 30
0
  0
VERTEX
  8
0
 10
257.9010794650558
 20
261.582000112506
 30
0
  0
VERTEX
  8
0
 10
257.7584494344558
 20
261.226594666706
 30
0
  0
VERTEX
  8
0
 10
257.6054268926558
 20
260.820262477106
 30
0
  0
VERTEX
  8
0
 10
257.4466148606558
 20
260.367073161906
 30
0
  0
VERTEX
  8
0
 10
257.2889497740558
 20
259.874314279106
 30
0
  0
VERTEX
  8
0
 10
257.1394474588558
 20
259.351012102706
 30
0
  0
VERTEX
  8
0
 10
257.0024727650558
 20
258.803689813506
 30
0
  0
VERTEX
  8
0
 10
256.8841894154558
 20
258.241316834106
 30
0
  0
VERTEX
  8
0
 10
256.7862166180558
 20
257.667210743506
 30
0
  0
VERTEX
  8
0
 10
256.7120749314558
 20
257.086101167906
 30
0
  0
VERTEX
  8
0
 10
256.6622240266558
 20
256.500123208106
 30
0
  0
VERTEX
  8
0
 10
256.6383367988558
 20
255.912136079906
 30
0
  0
VERTEX
  8
0
 10
256.6402941344558
 20
255.322285784506
 30
0
  0
VERTEX
  8
0
 10
256.6687097364558
 20
254.731069866306
 30
0
  0
VERTEX
  8
0
 10
256.7230580500558
 20
254.139394403706
 30
0
  0
VERTEX
  8
0
 10
256.8037092952558
 20
253.547516899506
 30
0
  0
VERTEX
  8
0
 10
256.9085898514558
 20
252.959294368706
 30
0
  0
VERTEX
  8
0
 10
257.0371635194558
 20
252.377622806306
 30
0
  0
VERTEX
  8
0
 10
257.1851882548558
 20
251.808162899706
 30
0
  0
VERTEX
  8
0
 10
257.3505544434558
 20
251.255029122706
 30
0
  0
VERTEX
  8
0
 10
257.5263285970558
 20
250.727832403706
 30
0
  0
VERTEX
  8
0
 10
257.7072643206558
 20
250.233660698306
 30
0
  0
VERTEX
  8
0
 10
257.8861907210558
 20
249.781334887506
 30
0
  0
VERTEX
  8
0
 10
258.0555009804558
 20
249.378190124706
 30
0
  0
VERTEX
  8
0
 10
258.2112564762558
 20
249.026964801506
 30
0
  0
VERTEX
  8
0
 10
258.3474650562558
 20
248.730698541106
 30
0
  0
VERTEX
  8
0
 10
258.4626804896558
 20
248.488910206306
 30
0
  0
VERTEX
  8
0
 10
258.5536444700558
 20
248.301602426706
 30
0
  0
VERTEX
  8
0
 10
258.6593030192558
 20
248.089157638906
 30
0
  0
SEQEND
  8
0
  0
POLYLINE
  8
0
 62
7
 66
1
  0
VERTEX
  8
0
 10
189.3374190910558
 20
88.55050500050601
 30
0
  0
VERTEX
  8
0
 10
189.0794323506558
 20
88.30883893290599
 30
0
  0
VERTEX
  8
0
 10
188.8145848394558
 20
88.04939934010599
 30
0
  0
VERTEX
  8
0
 10
188.5441676258558
 20
87.76758115930602
 30
0
  0
VERTEX
  8
0
 10
188.2749935616558
 20
87.477123765106
 30
0
  0
VERTEX
  8
0
 10
188.0137279334558
 20
87.19178149110599
 30
0
  0
VERTEX
  8
0
 10
187.5748832936558
 20
86.69487674490597
 30
0
  0
SEQEND
  8
0
  0
POLYLINE
  8
0
 62
7
 66
1
  0
VERTEX
  8
0
 10
187.5748832936558
 20
86.69487674490597
 30
0
  0
VERTEX
  8
0
 10
187.4000384692558
 20
86.49019730970599
 30
0
  0
VERTEX
  8
0
 10
187.2383244424558
 20
86.29244601890599
 30
0
  0
VERTEX
  8
0
 10
187.0905198684558
 20
86.10311742450597
 30
0
  0
VERTEX
  8
0
 10
186.9572592380558
 20
85.92370653610601
 30
0
  0
VERTEX
  8
0
 10
186.8389338744558
 20
85.75372974490597
 30
0
  0
SEQEND
  8
0
  0
POLYLINE
  8
0
 62
7
 66
1
  0
VERTEX
  8
0
 10
258.7970384544558
 20
228.321426916306
 30
0
  0
VERTEX
  8
0
 10
258.7858043816558
 20
228.294200789306
 30
0
  0
VERTEX
  8
0
 10
258.6991488920558
 20
228.058215316106
 30
0
  0
VERTEX
  8
0
 10
258.6073516266558
 20
227.776883496906
 30
0
  0
VERTEX
  8
0
 10
258.5126044158558
 20
227.448460857906
 30
0
  0
VERTEX
  8
0
 10
258.4175912108558
 20
227.072440251506
 30
0
  0
SEQEND
  8
0
  0
POLYLINE
  8
0
 62
7
 66
1
  0
VERTEX
  8
0
 10
257.7362864358558
 20
210.789866653706
 30
0
  0
VERTEX
  8
0
 10
257.7156792928558
 20
209.224238617506
 30
0
  0
VERTEX
  8
0
 10
257.6689423518558
 20
207.340811920306
 30
0
  0
VERTEX
  8
0
 10
257.5982288884558
 20
205.457311539906
 30
0
  0
VERTEX
  8
0
 10
257.5035392862558
 20
203.574023224906
 30
0
  0
VERTEX
  8
0
 10
257.3848773574558
 20
201.691233327906
 30
0
  0
VERTEX
  8
0
 10
257.2701927970558
 20
200.154181535306
 30
0
  0
SEQEND
  8
0
  0
POLYLINE
  8
0
 62
7
 66
1
  0
VERTEX
  8
0
 10
255.8061474838558
 20
210.788170818306
 30
0
  0
VERTEX
  8
0
 10
255.7819465450558
 20
209.040687467306
 30
0
  0
VERTEX
  8
0
 10
255.7367783164558
 20
207.292532412906
 30
0
  0
VERTEX
  8
0
 10
255.6706486398558
 20
205.543532674906
 30
0
  0
VERTEX
  8
0
 10
255.5835399904558
 20
203.794207194306
 30
0
  0
VERTEX
  8
0
 10
255.4754348434558
 20
202.045074911906
 30
0
  0
VERTEX
  8
0
 10
255.3463390404558
 20
200.295962847506
 30
0
  0
SEQEND
  8
0
  0
POLYLINE
  8
0
 62
7
 66
1
  0
VERTEX
  8
0
 10
256.4944994904558
 20
226.223061902706
 30
0
  0
VERTEX
  8
0
 10
256.3778809422558
 20
225.862823747706
 30
0
  0
VERTEX
  8
0
 10
256.2672612182558
 20
225.495384348906
 30
0
  0
VERTEX
  8
0
 10
256.1596057612558
 20
225.124403131306
 30
0
  0
VERTEX
  8
0
 10
256.0638004792558
 20
224.754868866306
 30
0
  0
VERTEX
  8
0
 10
255.9877441024558
 20
224.391817639706
 30
0
  0
VERTEX
  8
0
 10
255.9312493520558
 20
224.036677841506
 30
0
  0
VERTEX
  8
0
 10
255.8971181962558
 20
223.690803287906
 30
0
  0
VERTEX
  8
0
 10
255.8842967592558
 20
223.356525620506
 30
0
  0
SEQEND
  8
0
  0
POLYLINE
  8
0
 62
7
 66
1
  0
VERTEX
  8
0
 10
258.4175912108558
 20
227.072440251506
 30
0
  0
VERTEX
  8
0
 10
258.2177236286558
 20
226.203566947106
 30
0
  0
VERTEX
  8
0
 10
258.0983008864558
 20
225.665189902706
 30
0
  0
VERTEX
  8
0
 10
257.9913353664558
 20
225.124560894906
 30
0
  0
VERTEX
  8
0
 10
257.9043833730558
 20
224.580893555506
 30
0
  0
VERTEX
  8
0
 10
257.8448926062558
 20
224.042232731706
 30
0
  0
VERTEX
  8
0
 10
257.8167153478558
 20
223.516219128706
 30
0
  0
VERTEX
  8
0
 10
257.8144654636558
 20
223.362462396106
 30
0
  0
SEQEND
  8
0
  0
POLYLINE
  8
0
 62
7
 66
1
  0
VERTEX
  8
0
 10
258.3888856278558
 20
226.947791589506
 30
0
  0
VERTEX
  8
0
 10
258.3239443164558
 20
226.776281814306
 30
0
  0
VERTEX
  8
0
 10
258.1942662040558
 20
226.603422272906
 30
0
  0
VERTEX
  8
0
 10
258.0083499400558
 20
226.455652159906
 30
0
  0
VERTEX
  8
0
 10
257.7721480176558
 20
226.337702687706
 30
0
  0
VERTEX
  8
0
 10
257.4932229256558
 20
226.253350303506
 30
0
  0
VERTEX
  8
0
 10
257.1805050214558
 20
226.205295780306
 30
0
  0
VERTEX
  8
0
 10
256.8440066070558
 20
226.195077743906
 30
0
  0
VERTEX
  8
0
 10
256.4945013648558
 20
226.223023409106
 30
0
  0
SEQEND
  8
0
  0
POLYLINE
  8
0
 62
7
 66
1
  0
VERTEX
  8
0
 10
226.4421175810558
 20
235.135823811906
 30
0
  0
VERTEX
  8
0
 10
226.4560047734558
 20
235.138890711106
 30
0
  0
VERTEX
  8
0
 10
226.5421175810558
 20
235.155126303106
 30
0
  0
SEQEND
  8
0
  0
POLYLINE
  8
0
 62
7
 66
1
  0
VERTEX
  8
0
 10
177.6414331732558
 20
86.22404914710597
 30
0
  0
VERTEX
  8
0
 10
177.6135562898558
 20
86.20525037750599
 30
0
  0
VERTEX
  8
0
 10
177.5873018904558
 20
86.18369484110599
 30
0
  0
VERTEX
  8
0
 10
177.5634175362558
 20
86.15999612130599
 30
0
  0
VERTEX
  8
0
 10
177.5425833364558
 20
86.134828892906
 30
0
  0
VERTEX
  8
0
 10
177.5253927900558
 20
86.10891094590602
 30
0
  0
SEQEND
  8
0
  0
POLYLINE
  8
0
 62
7
 66
1
  0
VERTEX
  8
0
 10
257.8613924776558
 20
228.312919522906
 30
0
  0
VERTEX
  8
0
 10
257.7869541480558
 20
228.304321900906
 30
0
  0
VERTEX
  8
0
 10
257.7031222148558
 20
228.276072554706
 30
0
  0
VERTEX
  8
0
 10
257.6098422944558
 20
228.224283042306
 30
0
  0
VERTEX
  8
0
 10
257.5075193110558
 20
228.145313822506
 30
0
  0
VERTEX
  8
0
 10
257.3961289816558
 20
228.035748847706
 30
0
  0
VERTEX
  8
0
 10
257.2770153636558
 20
227.892487090906
 30
0
  0
VERTEX
  8
0
 10
257.1507454262558
 20
227.712851221306
 30
0
  0
VERTEX
  8
0
 10
257.0197338774558
 20
227.494825315106
 30
0
  0
VERTEX
  8
0
 10
256.8855341862558
 20
227.237120378506
 30
0
  0
VERTEX
  8
0
 10
256.7513787426558
 20
226.939018046306
 30
0
  0
VERTEX
  8
0
 10
256.6214085300558
 20
226.600969936506
 30
0
  0
VERTEX
  8
0
 10
256.4944994904558
 20
226.223061902706
 30
0
  0
SEQEND
  8
0
  0
POLYLINE
  8
0
 62
7
 66
1
  0
VERTEX
  8
0
 10
225.7153518040558
 20
219.347847690906
 30
0
  0
VERTEX
  8
0
 10
225.7479808774558
 20
219.334344329906
 30
0
  0
VERTEX
  8
0
 10
225.8462231996558
 20
219.297270805506
 30
0
  0
VERTEX
  8
0
 10
226.2288179130558
 20
219.156434316706
 30
0
  0
SEQEND
  8
0
  0
POLYLINE
  8
0
 62
7
 66
1
  0
VERTEX
  8
0
 10
226.8696688210558
 20
223.810636614706
 30
0
  0
VERTEX
  8
0
 10
226.9047113632558
 20
223.806359298706
 30
0
  0
VERTEX
  8
0
 10
227.0085622218558
 20
223.790889183106
 30
0
  0
SEQEND
  8
0
  0
POLYLINE
  8
0
 62
7
 66
1
  0
VERTEX
  8
0
 10
257.8144654636558
 20
223.362462396106
 30
0
  0
VERTEX
  8
0
 10
257.8011189650558
 20
223.360586693506
 30
0
  0
VERTEX
  8
0
 10
257.7291537678558
 20
223.358039650106
 30
0
  0
VERTEX
  8
0
 10
257.5969974830558
 20
223.355993339506
 30
0
  0
SEQEND
  8
0
  0
POLYLINE
  8
0
 62
7
 66
1
  0
VERTEX
  8
0
 10
177.9421175810558
 20
108.655989666706
 30
0
  0
VERTEX
  8
0
 10
177.9313096744558
 20
108.648411342106
 30
0
  0
VERTEX
  8
0
 10
177.8878061184558
 20
108.609390928506
 30
0
  0
VERTEX
  8
0
 10
177.8490249848558
 20
108.565728013906
 30
0
  0
VERTEX
  8
0
 10
177.8160155398558
 20
108.518168920106
 30
0
  0
SEQEND
  8
0
  0
POLYLINE
  8
0
 62
7
 66
1
  0
VERTEX
  8
0
 10
256.8233186818558
 20
210.782865007706
 30
0
  0
VERTEX
  8
0
 10
256.1626515318558
 20
210.785739097906
 30
0
  0
VERTEX
  8
0
 10
255.8061474544558
 20
210.788166985906
 30
0
  0
SEQEND
  8
0
  0
POLYLINE
  8
0
 62
7
 66
1
  0
VERTEX
  8
0
 10
256.8347609424558
 20
212.673637777506
 30
0
  0
VERTEX
  8
0
 10
256.1754486242558
 20
212.675653768506
 30
0
  0
VERTEX
  8
0
 10
255.8198035002558
 20
212.677618288906
 30
0
  0
SEQEND
  8
0
  0
POLYLINE
  8
0
 62
7
 66
1
  0
VERTEX
  8
0
 10
257.7362865034558
 20
210.789866653306
 30
0
  0
VERTEX
  8
0
 10
257.7269431978558
 20
210.788309312906
 30
0
  0
VERTEX
  8
0
 10
257.6602686338558
 20
210.785850068106
 30
0
  0
VERTEX
  8
0
 10
257.5314970210558
 20
210.784028582506
 30
0
  0
VERTEX
  8
0
 10
257.3447846324558
 20
210.782903647106
 30
0
  0
SEQEND
  8
0
  0
POLYLINE
  8
0
 62
7
 66
1
  0
VERTEX
  8
0
 10
257.7499610964558
 20
212.681883405306
 30
0
  0
VERTEX
  8
0
 10
257.7399235866558
 20
212.680250128306
 30
0
  0
VERTEX
  8
0
 10
257.6722461552558
 20
212.677705374906
 30
0
  0
VERTEX
  8
0
 10
257.5428290276558
 20
212.675718050906
 30
0
  0
VERTEX
  8
0
 10
257.3558289000558
 20
212.674351986506
 30
0
  0
SEQEND
  8
0
  0
POLYLINE
  8
0
 62
7
 66
1
  0
VERTEX
  8
0
 10
257.7876912530558
 20
218.748735826506
 30
0
  0
VERTEX
  8
0
 10
257.7757564950558
 20
218.746947409906
 30
0
  0
VERTEX
  8
0
 10
257.7055332258558
 20
218.744383228906
 30
0
  0
VERTEX
  8
0
 10
257.5744865526558
 20
218.742328822706
 30
0
  0
SEQEND
  8
0
  0
POLYLINE
  8
0
 62
7
 66
1
  0
VERTEX
  8
0
 10
177.9421175810558
 20
131.661741418706
 30
0
  0
VERTEX
  8
0
 10
177.9313144512558
 20
131.654166603506
 30
0
  0
VERTEX
  8
0
 10
177.8878116264558
 20
131.615148022306
 30
0
  0
VERTEX
  8
0
 10
177.8490308460558
 20
131.571486902106
 30
0
  0
VERTEX
  8
0
 10
177.8160208550558
 20
131.523929049306
 30
0
  0
SEQEND
  8
0
  0
POLYLINE
  8
0
 62
7
 66
1
  0
VERTEX
  8
0
 10
258.3321067274558
 20
262.562919522906
 30
0
  0
VERTEX
  8
0
 10
258.3192594030558
 20
262.536080988106
 30
0
  0
VERTEX
  8
0
 10
258.2196762220558
 20
262.319209067706
 30
0
  0
SEQEND
  8
0
  0
POLYLINE
  8
0
 62
7
 66
1
  0
VERTEX
  8
0
 10
258.7898502000558
 20
262.861751322106
 30
0
  0
VERTEX
  8
0
 10
258.7781479778558
 20
262.834988719706
 30
0
  0
VERTEX
  8
0
 10
258.6816855516558
 20
262.610633734506
 30
0
  0
SEQEND
  8
0
  0
POLYLINE
  8
0
 62
7
 66
1
  0
VERTEX
  8
0
 10
230.0802871158558
 20
228.312919522906
 30
0
  0
VERTEX
  8
0
 10
230.0675907534558
 20
228.281827892306
 30
0
  0
VERTEX
  8
0
 10
230.0526300414558
 20
228.188965921306
 30
0
  0
VERTEX
  8
0
 10
230.0357370084558
 20
228.035536072706
 30
0
  0
VERTEX
  8
0
 10
230.0168623532558
 20
227.823455636906
 30
0
  0
VERTEX
  8
0
 10
229.9960472836558
 20
227.555329917706
 30
0
  0
VERTEX
  8
0
 10
229.9733000836558
 20
227.234514850706
 30
0
  0
VERTEX
  8
0
 10
229.9219888514558
 20
226.451442623906
 30
0
  0
SEQEND
  8
0
  0
POLYLINE
  8
0
 62
7
 66
1
  0
VERTEX
  8
0
 10
229.9219888514558
 20
226.451442623906
 30
0
  0
VERTEX
  8
0
 10
229.7623734568558
 20
223.913664430906
 30
0
  0
VERTEX
  8
0
 10
229.7262808206558
 20
223.356525620506
 30
0
  0
SEQEND
  8
0
  0
POLYLINE
  8
0
 62
7
 66
1
  0
VERTEX
  8
0
 10
257.2701927970558
 20
200.154181534506
 30
0
  0
VERTEX
  8
0
 10
257.2645212044558
 20
200.153744547706
 30
0
  0
VERTEX
  8
0
 10
257.2042123012558
 20
200.156423505906
 30
0
  0
VERTEX
  8
0
 10
257.0798488644558
 20
200.164316316306
 30
0
  0
SEQEND
  8
0
  0
POLYLINE
  8
0
 62
7
 66
1
  0
VERTEX
  8
0
 10
228.4334416434558
 20
218.358202649506
 30
0
  0
VERTEX
  8
0
 10
227.1575603888558
 20
215.122996955706
 30
0
  0
VERTEX
  8
0
 10
225.6994687312558
 20
211.985331721906
 30
0
  0
VERTEX
  8
0
 10
224.0565241130558
 20
208.941142818306
 30
0
  0
VERTEX
  8
0
 10
222.2366542076558
 20
206.002622633306
 30
0
  0
VERTEX
  8
0
 10
220.2447198550558
 20
203.177656678906
 30
0
  0
VERTEX
  8
0
 10
218.0872789972558
 20
200.475101454506
 30
0
  0
VERTEX
  8
0
 10
215.7688997258558
 20
197.902803606506
 30
0
  0
VERTEX
  8
0
 10
213.3004124324558
 20
195.471678206706
 30
0
  0
VERTEX
  8
0
 10
210.6902544800558
 20
193.192605542906
 30
0
  0
VERTEX
  8
0
 10
207.9501730456558
 20
191.073536612906
 30
0
  0
VERTEX
  8
0
 10
205.0920350604558
 20
189.124735552506
 30
0
  0
VERTEX
  8
0
 10
202.1239186260558
 20
187.350143236106
 30
0
  0
VERTEX
  8
0
 10
199.0545212694558
 20
185.755514028506
 30
0
  0
VERTEX
  8
0
 10
195.8938516458558
 20
184.345671595706
 30
0
  0
VERTEX
  8
0
 10
192.6564310652558
 20
183.128200448706
 30
0
  0
VERTEX
  8
0
 10
189.3374190910558
 20
182.100572417106
 30
0
  0
SEQEND
  8
0
  0
POLYLINE
  8
0
 62
7
 66
1
  0
VERTEX
  8
0
 10
229.7262808206558
 20
223.356525620506
 30
0
  0
VERTEX
  8
0
 10
229.6231128372558
 20
222.764364298506
 30
0
  0
VERTEX
  8
0
 10
229.5122669772558
 20
222.193047009106
 30
0
  0
VERTEX
  8
0
 10
229.3931946082558
 20
221.642666035506
 30
0
  0
VERTEX
  8
0
 10
229.2675416284558
 20
221.112944528706
 30
0
  0
VERTEX
  8
0
 10
229.1364495172558
 20
220.603698343706
 30
0
  0
VERTEX
  8
0
 10
229.0008828984558
 20
220.114741651106
 30
0
  0
VERTEX
  8
0
 10
228.8618885136558
 20
219.645882728306
 30
0
  0
VERTEX
  8
0
 10
228.7203614894558
 20
219.196955107906
 30
0
  0
VERTEX
  8
0
 10
228.5777013710558
 20
218.767699618106
 30
0
  0
VERTEX
  8
0
 10
228.4334416434558
 20
218.358202649506
 30
0
  0
SEQEND
  8
0
  0
POLYLINE
  8
0
 62
7
 66
1
  0
VERTEX
  8
0
 10
186.4421175810558
 20
182.074358409706
 30
0
  0
VERTEX
  8
0
 10
186.4775606386558
 20
182.078370738706
 30
0
  0
VERTEX
  8
0
 10
186.5830523400558
 20
182.082288261706
 30
0
  0
VERTEX
  8
0
 10
186.7561166350558
 20
182.086018703506
 30
0
  0
VERTEX
  8
0
 10
186.9926148998558
 20
182.089473052906
 30
0
  0
SEQEND
  8
0
  0
POLYLINE
  8
0
 62
7
 66
1
  0
VERTEX
  8
0
 10
177.6421175810558
 20
86.318558885306
 30
0
  0
VERTEX
  8
0
 10
177.5903538510558
 20
86.31421492570598
 30
0
  0
VERTEX
  8
0
 10
177.5421176994558
 20
86.301479083706
 30
0
  0
VERTEX
  8
0
 10
177.5006963452558
 20
86.28121928250602
 30
0
  0
VERTEX
  8
0
 10
177.4689125832558
 20
86.254816154906
 30
0
  0
VERTEX
  8
0
 10
177.4489324436558
 20
86.22406898790598
 30
0
  0
VERTEX
  8
0
 10
177.4421175810558
 20
86.19107315410599
 30
0
  0
SEQEND
  8
0
  0
POLYLINE
  8
0
 62
7
 66
1
  0
VERTEX
  8
0
 10
186.8389338744558
 20
85.75372974490597
 30
0
  0
VERTEX
  8
0
 10
186.7162402274558
 20
85.56184573930597
 30
0
  0
VERTEX
  8
0
 10
186.6163552256558
 20
85.38726886750601
 30
0
  0
VERTEX
  8
0
 10
186.5392738156558
 20
85.229614993506
 30
0
  0
VERTEX
  8
0
 10
186.4848486122558
 20
85.09011351470599
 30
0
  0
VERTEX
  8
0
 10
186.4526766792558
 20
84.96999308530599
 30
0
  0
VERTEX
  8
0
 10
186.4421175810558
 20
84.868867069906
 30
0
  0
SEQEND
  8
0
  0
POLYLINE
  8
0
 62
7
 66
1
  0
VERTEX
  8
0
 10
188.6415375424558
 20
184.965564317706
 30
0
  0
VERTEX
  8
0
 10
188.6369516934558
 20
184.938260210506
 30
0
  0
VERTEX
  8
0
 10
188.6458092996558
 20
184.863045495506
 30
0
  0
VERTEX
  8
0
 10
188.6679161162558
 20
184.741165487306
 30
0
  0
VERTEX
  8
0
 10
188.7029048844558
 20
184.574659412506
 30
0
  0
VERTEX
  8
0
 10
188.7502028720558
 20
184.366315667906
 30
0
  0
VERTEX
  8
0
 10
188.8090105450558
 20
184.119616622106
 30
0
  0
VERTEX
  8
0
 10
188.8783558224558
 20
183.838691672506
 30
0
  0
VERTEX
  8
0
 10
188.9570672900558
 20
183.528236442506
 30
0
  0
VERTEX
  8
0
 10
189.0438367940558
 20
183.193445967506
 30
0
  0
VERTEX
  8
0
 10
189.1372006022558
 20
182.839916862706
 30
0
  0
VERTEX
  8
0
 10
189.2355946140558
 20
182.473561983106
 30
0
  0
VERTEX
  8
0
 10
189.3374190586558
 20
182.100522073106
 30
0
  0
SEQEND
  8
0
  0
POLYLINE
  8
0
 62
7
 66
1
  0
VERTEX
  8
0
 10
177.6421175810558
 20
181.652638130506
 30
0
  0
VERTEX
  8
0
 10
177.5903537892558
 20
181.659226669906
 30
0
  0
VERTEX
  8
0
 10
177.5421176068558
 20
181.678543293306
 30
0
  0
VERTEX
  8
0
 10
177.5006962506558
 20
181.709271608506
 30
0
  0
VERTEX
  8
0
 10
177.4689125180558
 20
181.749317538106
 30
0
  0
VERTEX
  8
0
 10
177.4489324218558
 20
181.795952024306
 30
0
  0
VERTEX
  8
0
 10
177.4421175810558
 20
181.845997004906
 30
0
  0
SEQEND
  8
0
  0
POLYLINE
  8
0
 62
7
 66
1
  0
VERTEX
  8
0
 10
177.7681416202558
 20
108.415813864506
 30
0
  0
VERTEX
  8
0
 10
177.7535075040558
 20
108.362784335906
 30
0
  0
VERTEX
  8
0
 10
177.7448158188558
 20
108.309857015106
 30
0
  0
VERTEX
  8
0
 10
177.7421175810558
 20
108.256655456906
 30
0
  0
SEQEND
  8
0
  0
POLYLINE
  8
0
 62
7
 66
1
  0
VERTEX
  8
0
 10
177.7681446402558
 20
131.421574529506
 30
0
  0
VERTEX
  8
0
 10
177.7535092152558
 20
131.368543699506
 30
0
  0
VERTEX
  8
0
 10
177.7448165636558
 20
131.315613235306
 30
0
  0
VERTEX
  8
0
 10
177.7421175810558
 20
131.262406894706
 30
0
  0
SEQEND
  8
0
  0
POLYLINE
  8
0
 62
7
 66
1
  0
VERTEX
  8
0
 10
177.7591184334558
 20
182.940246803106
 30
0
  0
VERTEX
  8
0
 10
177.7764605420558
 20
182.944137507106
 30
0
  0
VERTEX
  8
0
 10
177.7939573810558
 20
182.946476499506
 30
0
  0
VERTEX
  8
0
 10
177.8115540094558
 20
182.947111768306
 30
0
  0
VERTEX
  8
0
 10
177.8291056226558
 20
182.945904681906
 30
0
  0
VERTEX
  8
0
 10
177.8465063584558
 20
182.942663123906
 30
0
  0
VERTEX
  8
0
 10
177.8635203602558
 20
182.937228717506
 30
0
  0
VERTEX
  8
0
 10
177.8800636636558
 20
182.929279554706
 30
0
  0
VERTEX
  8
0
 10
177.8958989326558
 20
182.918489780506
 30
0
  0
VERTEX
  8
0
 10
177.9105066200558
 20
182.904518831906
 30
0
  0
VERTEX
  8
0
 10
177.9233651684558
 20
182.886943968706
 30
0
  0
VERTEX
  8
0
 10
177.9334173140558
 20
182.866070926306
 30
0
  0
VERTEX
  8
0
 10
177.9398480708558
 20
182.842363191906
 30
0
  0
VERTEX
  8
0
 10
177.9400277230558
 20
182.840299063906
 30
0
  0
SEQEND
  8
0
  0
POLYLINE
  8
0
 62
7
 66
1
  0
VERTEX
  8
0
 10
186.5369340512558
 20
84.37187156490597
 30
0
  0
VERTEX
  8
0
 10
186.6967446616558
 20
84.59519692670597
 30
0
  0
VERTEX
  8
0
 10
186.8094325972558
 20
84.85304450450599
 30
0
  0
VERTEX
  8
0
 10
186.8716649272558
 20
85.13778804930598
 30
0
  0
VERTEX
  8
0
 10
186.8816010224558
 20
85.44100582230601
 30
0
  0
VERTEX
  8
0
 10
186.8389469948558
 20
85.75372967990597
 30
0
  0
SEQEND
  8
0
  0
POLYLINE
  8
0
 62
7
 66
1
  0
VERTEX
  8
0
 10
177.6701380526558
 20
86.23949154070601
 30
0
  0
VERTEX
  8
0
 10
177.6785184896558
 20
86.195649010306
 30
0
  0
VERTEX
  8
0
 10
177.6890096690558
 20
86.146796221106
 30
0
  0
VERTEX
  8
0
 10
177.7015181478558
 20
86.093529563706
 30
0
  0
VERTEX
  8
0
 10
177.7159716932558
 20
86.03629450510601
 30
0
  0
SEQEND
  8
0
  0
POLYLINE
  8
0
 62
7
 66
1
  0
VERTEX
  8
0
 10
187.7535166642558
 20
85.25856860350598
 30
0
  0
VERTEX
  8
0
 10
187.8550567866558
 20
85.34966060270597
 30
0
  0
VERTEX
  8
0
 10
187.9419958928558
 20
85.49021464590601
 30
0
  0
VERTEX
  8
0
 10
187.9963771478558
 20
85.66661461690597
 30
0
  0
VERTEX
  8
0
 10
188.0168385508558
 20
85.874442405906
 30
0
  0
VERTEX
  8
0
 10
188.0028676644558
 20
86.10849276050601
 30
0
  0
VERTEX
  8
0
 10
187.9548144496558
 20
86.362903656306
 30
0
  0
VERTEX
  8
0
 10
187.8738825000558
 20
86.63130311830599
 30
0
  0
VERTEX
  8
0
 10
187.7620988966558
 20
86.90696881330598
 30
0
  0
SEQEND
  8
0
  0
POLYLINE
  8
0
 62
7
 66
1
  0
VERTEX
  8
0
 10
190.2173297466558
 20
86.80782042070598
 30
0
  0
VERTEX
  8
0
 10
190.2183044756558
 20
86.80956380490602
 30
0
  0
VERTEX
  8
0
 10
190.2075105376558
 20
86.84825100630599
 30
0
  0
VERTEX
  8
0
 10
190.1701887072558
 20
86.935475690506
 30
0
  0
VERTEX
  8
0
 10
190.1073923728558
 20
87.06877598930601
 30
0
  0
VERTEX
  8
0
 10
190.0208939268558
 20
87.24438957510597
 30
0
  0
VERTEX
  8
0
 10
189.9131347404558
 20
87.45735985190601
 30
0
  0
VERTEX
  8
0
 10
189.7871562576558
 20
87.70167585090599
 30
0
  0
VERTEX
  8
0
 10
189.6465141518558
 20
87.97044188830597
 30
0
  0
VERTEX
  8
0
 10
189.4951779694558
 20
88.25607219070599
 30
0
  0
VERTEX
  8
0
 10
189.3374190910558
 20
88.55050500050601
 30
0
  0
SEQEND
  8
0
  0
POLYLINE
  8
0
 62
7
 66
1
  0
VERTEX
  8
0
 10
177.7448165678558
 20
129.808850401506
 30
0
  0
VERTEX
  8
0
 10
177.7535092328558
 20
129.755919889106
 30
0
  0
VERTEX
  8
0
 10
177.7681446858558
 20
129.702889024706
 30
0
  0
VERTEX
  8
0
 10
177.7888755988558
 20
129.650886543706
 30
0
  0
VERTEX
  8
0
 10
177.8160209408558
 20
129.600534509106
 30
0
  0
VERTEX
  8
0
 10
177.8490309328558
 20
129.552976688506
 30
0
  0
SEQEND
  8
0
  0
POLYLINE
  8
0
 62
7
 66
1
  0
VERTEX
  8
0
 10
177.9153226942558
 20
129.862488165306
 30
0
  0
VERTEX
  8
0
 10
177.9353027572558
 20
129.862696235706
 30
0
  0
VERTEX
  8
0
 10
177.9421175810558
 20
129.862919522906
 30
0
  0
SEQEND
  8
0
  0
POLYLINE
  8
0
 62
7
 66
1
  0
VERTEX
  8
0
 10
192.5152926332558
 20
88.12339215610598
 30
0
  0
VERTEX
  8
0
 10
192.5160108508558
 20
88.124436381306
 30
0
  0
VERTEX
  8
0
 10
192.5045061782558
 20
88.15981919450599
 30
0
  0
VERTEX
  8
0
 10
192.4637059162558
 20
88.24298040330598
 30
0
  0
VERTEX
  8
0
 10
192.3947747660558
 20
88.37154605410598
 30
0
  0
VERTEX
  8
0
 10
192.2996804642558
 20
88.54184605930601
 30
0
  0
VERTEX
  8
0
 10
192.1811376116558
 20
88.74901896550597
 30
0
  0
VERTEX
  8
0
 10
192.0425301812558
 20
88.98715073070599
 30
0
  0
VERTEX
  8
0
 10
191.8878149174558
 20
89.249443548106
 30
0
  0
VERTEX
  8
0
 10
191.7214083852558
 20
89.52840990030597
 30
0
  0
VERTEX
  8
0
 10
191.5480608934558
 20
89.81608630010601
 30
0
  0
SEQEND
  8
0
  0
POLYLINE
  8
0
 62
7
 66
1
  0
VERTEX
  8
0
 10
177.7448158798558
 20
106.803103204106
 30
0
  0
VERTEX
  8
0
 10
177.7535076990558
 20
106.750175431106
 30
0
  0
VERTEX
  8
0
 10
177.7681420620558
 20
106.697145574906
 30
0
  0
VERTEX
  8
0
 10
177.7888718980558
 20
106.645143054906
 30
0
  0
VERTEX
  8
0
 10
177.8160163422558
 20
106.594790556706
 30
0
  0
VERTEX
  8
0
 10
177.8490257996558
 20
106.547231767106
 30
0
  0
SEQEND
  8
0
  0
POLYLINE
  8
0
 62
7
 66
1
  0
VERTEX
  8
0
 10
196.2270851572558
 20
90.594917669106
 30
0
  0
VERTEX
  8
0
 10
196.2150225472558
 20
90.62537355050597
 30
0
  0
VERTEX
  8
0
 10
196.1688565582558
 20
90.70162046690598
 30
0
  0
VERTEX
  8
0
 10
196.0901806768558
 20
90.821702668706
 30
0
  0
VERTEX
  8
0
 10
195.9812793644558
 20
90.98213340550598
 30
0
  0
VERTEX
  8
0
 10
195.8453147192558
 20
91.17825435190599
 30
0
  0
VERTEX
  8
0
 10
195.6862346598558
 20
91.404370869106
 30
0
  0
VERTEX
  8
0
 10
195.5086582928558
 20
91.65391735570597
 30
0
  0
VERTEX
  8
0
 10
195.3177417898558
 20
91.919647889506
 30
0
  0
VERTEX
  8
0
 10
195.1190286716558
 20
92.19384662230601
 30
0
  0
SEQEND
  8
0
  0
POLYLINE
  8
0
 62
7
 66
1
  0
VERTEX
  8
0
 10
198.3899681738558
 20
92.20255075690602
 30
0
  0
VERTEX
  8
0
 10
198.3785603546558
 20
92.230259775506
 30
0
  0
VERTEX
  8
0
 10
198.3320604392558
 20
92.30396965230597
 30
0
  0
VERTEX
  8
0
 10
198.2517923086558
 20
92.42148707290602
 30
0
  0
VERTEX
  8
0
 10
198.1401122074558
 20
92.57936235030599
 30
0
  0
VERTEX
  8
0
 10
198.0002984696558
 20
92.77296110570597
 30
0
  0
VERTEX
  8
0
 10
197.8364552820558
 20
92.99660030950599
 30
0
  0
VERTEX
  8
0
 10
197.6533922094558
 20
93.24371510330599
 30
0
  0
VERTEX
  8
0
 10
197.4564830092558
 20
93.507051511106
 30
0
  0
VERTEX
  8
0
 10
197.2515078882558
 20
93.77887937630601
 30
0
  0
SEQEND
  8
0
  0
POLYLINE
  8
0
 62
7
 66
1
  0
VERTEX
  8
0
 10
177.8490309328558
 20
129.552976688506
 30
0
  0
VERTEX
  8
0
 10
177.8878116970558
 20
129.509315600306
 30
0
  0
VERTEX
  8
0
 10
177.9313144972558
 20
129.470297048306
 30
0
  0
VERTEX
  8
0
 10
177.9421175810558
 20
129.462722264306
 30
0
  0
SEQEND
  8
0
  0
POLYLINE
  8
0
 62
7
 66
1
  0
VERTEX
  8
0
 10
177.7938823694558
 20
108.256868907706
 30
0
  0
VERTEX
  8
0
 10
177.8421189528558
 20
108.257494706906
 30
0
  0
VERTEX
  8
0
 10
177.8835401212558
 20
108.258490195906
 30
0
  0
VERTEX
  8
0
 10
177.9153233582558
 20
108.259787527106
 30
0
  0
VERTEX
  8
0
 10
177.9353029654558
 20
108.261298288506
 30
0
  0
VERTEX
  8
0
 10
177.9421175810558
 20
108.262919522906
 30
0
  0
SEQEND
  8
0
  0
POLYLINE
  8
0
 62
7
 66
1
  0
VERTEX
  8
0
 10
177.7938813764558
 20
106.856530740906
 30
0
  0
VERTEX
  8
0
 10
177.8421175608558
 20
106.857191497506
 30
0
  0
VERTEX
  8
0
 10
177.8835389168558
 20
106.858242609306
 30
0
  0
VERTEX
  8
0
 10
177.9153226478558
 20
106.859612445306
 30
0
  0
VERTEX
  8
0
 10
177.9353027416558
 20
106.861207653306
 30
0
  0
VERTEX
  8
0
 10
177.9421175810558
 20
106.862919522906
 30
0
  0
SEQEND
  8
0
  0
POLYLINE
  8
0
 62
7
 66
1
  0
VERTEX
  8
0
 10
177.6439885886558
 20
86.296365619906
 30
0
  0
VERTEX
  8
0
 10
177.6492823306558
 20
86.27581346790601
 30
0
  0
VERTEX
  8
0
 10
177.6579988074558
 20
86.25688216670602
 30
0
  0
VERTEX
  8
0
 10
177.6701380188558
 20
86.23955277090602
 30
0
  0
SEQEND
  8
0
  0
POLYLINE
  8
0
 62
7
 66
1
  0
VERTEX
  8
0
 10
177.8490257996558
 20
106.547231767106
 30
0
  0
VERTEX
  8
0
 10
177.8878067794558
 20
106.503569154506
 30
0
  0
VERTEX
  8
0
 10
177.9313101040558
 20
106.464549016306
 30
0
  0
VERTEX
  8
0
 10
177.9421175810558
 20
106.456970985106
 30
0
  0
SEQEND
  8
0
  0
POLYLINE
  8
0
 62
7
 66
1
  0
VERTEX
  8
0
 10
177.4421175810558
 20
83.99586696850599
 30
0
  0
VERTEX
  8
0
 10
177.4489343520558
 20
84.04672742290597
 30
0
  0
VERTEX
  8
0
 10
177.4689182956558
 20
84.09411796970602
 30
0
  0
VERTEX
  8
0
 10
177.5007046930558
 20
84.13480924150599
 30
0
  0
VERTEX
  8
0
 10
177.5421259816558
 20
84.166030381106
 30
0
  0
VERTEX
  8
0
 10
177.5903593998558
 20
84.185655760506
 30
0
  0
VERTEX
  8
0
 10
177.6421175810558
 20
84.19234924950598
 30
0
  0
SEQEND
  8
0
  0
POLYLINE
  8
0
 62
7
 66
1
  0
VERTEX
  8
0
 10
177.4421175810558
 20
86.191064768106
 30
0
  0
VERTEX
  8
0
 10
177.4473541152558
 20
86.16779640230601
 30
0
  0
VERTEX
  8
0
 10
177.4632733420558
 20
86.14629275950597
 30
0
  0
VERTEX
  8
0
 10
177.4897392218558
 20
86.12666288290598
 30
0
  0
VERTEX
  8
0
 10
177.5261788992558
 20
86.10890677270601
 30
0
  0
SEQEND
  8
0
  0
POLYLINE
  8
0
 62
7
 66
1
  0
VERTEX
  8
0
 10
177.6421175732558
 20
84.192340457706
 30
0
  0
VERTEX
  8
0
 10
177.6408888800558
 20
84.19552171450602
 30
0
  0
VERTEX
  8
0
 10
177.6396781634558
 20
84.19725537190601
 30
0
  0
VERTEX
  8
0
 10
177.6388008760558
 20
84.19762099890602
 30
0
  0
SEQEND
  8
0
  0
POLYLINE
  8
0
 62
7
 66
1
  0
VERTEX
  8
0
 10
177.5261788992558
 20
86.10890677270601
 30
0
  0
VERTEX
  8
0
 10
177.5657114996558
 20
86.092435856706
 30
0
  0
VERTEX
  8
0
 10
177.6113751578558
 20
86.07484429350598
 30
0
  0
VERTEX
  8
0
 10
177.7159708582558
 20
86.03629922510601
 30
0
  0
SEQEND
  8
0
  0
POLYLINE
  8
0
 62
7
 66
1
  0
VERTEX
  8
0
 10
177.8447457070558
 20
83.38037642870597
 30
0
  0
VERTEX
  8
0
 10
177.8246020114558
 20
83.371665667706
 30
0
  0
VERTEX
  8
0
 10
177.8039454314558
 20
83.365569205106
 30
0
  0
VERTEX
  8
0
 10
177.7831552634558
 20
83.36199270350602
 30
0
  0
VERTEX
  8
0
 10
177.7624530280558
 20
83.36075663210602
 30
0
  0
VERTEX
  8
0
 10
177.7421175810558
 20
83.36173288590601
 30
0
  0
SEQEND
  8
0
  0
POLYLINE
  8
0
 62
7
 66
1
  0
VERTEX
  8
0
 10
177.4421175810558
 20
83.99764300150599
 30
0
  0
VERTEX
  8
0
 10
177.4496584190558
 20
84.05204551750597
 30
0
  0
VERTEX
  8
0
 10
177.4717120174558
 20
84.10234518390598
 30
0
  0
VERTEX
  8
0
 10
177.5066149156558
 20
84.14474914730602
 30
0
  0
VERTEX
  8
0
 10
177.5517351606558
 20
84.176060403306
 30
0
  0
VERTEX
  8
0
 10
177.6036706624558
 20
84.19391820050601
 30
0
  0
VERTEX
  8
0
 10
177.6388030440558
 20
84.19762103490598
 30
0
  0
SEQEND
  8
0
  0
POINT
  8
0
 62
7
  6
DASHED
 10
41.13776167305581
 20
321.525093968906
 30
0
  0
POINT
  8
0
 62
7
  6
DASHED
 10
-11.87558502534419
 20
321.525093968906
 30
0
  0
POINT
  8
0
 62
7
  6
DASHED
 10
19.12441497465581
 20
93.812919536506
 30
0
  0
POINT
  8
0
 62
7
  6
DASHED
 10
10.12441497465581
 20
93.81291952290599
 30
0
  0
POINT
  8
0
 62
7
  6
DASHED
 10
260.6921175810558
 20
229.312919522906
 30
0
  0
POINT
  8
0
 62
7
  6
DASHED
 10
177.4421175810558
 20
82.112919522906
 30
0
  0
POINT
  8
0
 62
7
  6
DASHED
 10
186.4421175810558
 20
82.79817500870598
 30
0
  0
POINT
  8
0
 62
7
  6
DASHED
 10
177.4421175810558
 20
77.81291952290599
 30
0
  0
LINE
  8
1
 62
2
  6
DASHDOT
 10
14.62441497465581
 20
99.76291952290599
 30
0
 11
14.62441497465581
 21
89.86291952290598
 31
0
  0
LINE
  8
1
 62
2
  6
DASHDOT
 10
19.57441497465581
 20
94.81291952290599
 30
0
 11
9.674414974655807
 21
94.81291952290599
 31
0
  0
LINE
  8
1
 62
2
  6
DASHDOT
 10
14.62441497465581
 20
179.762919522906
 30
0
 11
14.62441497465581
 21
169.862919522906
 31
0
  0
LINE
  8
1
 62
2
  6
DASHDOT
 10
19.57441497465581
 20
174.812919522906
 30
0
 11
9.674414974655807
 21
174.812919522906
 31
0
  0
LINE
  8
0
 62
7
 10
36.74577020665579
 20
321.138874750906
 30
0
 11
38.1715770102558
 21
320.753638037306
 31
0
  0
LINE
  8
0
 62
7
 10
35.67829826925581
 20
321.424967189506
 30
0
 11
36.74577020665579
 21
321.138874750906
 31
0
  0
LINE
  8
0
 62
7
 10
34.4833617768558
 20
321.741684169906
 30
0
 11
35.67829826925581
 21
321.424967189506
 31
0
  0
LINE
  8
0
 62
7
 10
39.61524910325581
 20
322.467258370106
 30
0
 11
26.38776167305581
 21
325.719489251906
 31
0
  0
LINE
  8
0
 62
7
 10
37.58616891665581
 20
322.947606610306
 30
0
 11
38.61727006585581
 21
322.695796061306
 31
0
  0
LINE
  8
0
 62
7
 10
38.61727006585581
 20
322.695796061306
 30
0
 11
38.9370091816558
 21
322.618520189106
 31
0
  0
LINE
  8
0
 62
7
 10
36.46225470405581
 20
323.220482696506
 30
0
 11
37.58616891665581
 21
322.947606610306
 31
0
  0
LINE
  8
0
 62
7
 10
35.2134849836558
 20
323.521006556106
 30
0
 11
36.46225470405581
 21
323.220482696506
 31
0
  0
LINE
  8
0
 62
7
 10
38.9370091816558
 20
322.618520189106
 30
0
 11
39.22219212085581
 21
322.551359989906
 31
0
  0
LINE
  8
0
 62
7
 10
39.22219212085581
 20
322.551359989906
 30
0
 11
39.37734749345582
 21
322.515693694906
 31
0
  0
LINE
  8
0
 62
7
 10
39.37734749345582
 20
322.515693694906
 30
0
 11
39.49586448265579
 21
322.489121971306
 31
0
  0
LINE
  8
0
 62
7
 10
38.1715770102558
 20
320.753638037306
 30
0
 11
39.4334878798558
 21
320.652380657906
 31
0
  0
LINE
  8
0
 62
7
 10
39.4334878798558
 20
320.652380657906
 30
0
 11
40.64217074505579
 21
320.559055274506
 31
0
  0
LINE
  8
0
 62
7
 10
40.64217074505579
 20
320.559055274506
 30
0
 11
41.03285485165581
 21
320.530618207706
 31
0
  0
LINE
  8
0
 62
7
 10
-10.3530724549442
 20
322.467258370306
 30
0
 11
-10.3405678437442
 21
322.467251170706
 31
0
  0
LINE
  8
0
 62
7
 10
-11.87558502534419
 20
320.525093968906
 30
0
 11
-11.86223832694419
 21
320.525093146706
 31
0
  0
LINE
  8
0
 62
7
 10
41.12441497465581
 20
313.416601242506
 30
0
 11
41.13776167305581
 21
313.416600299506
 31
0
  0
LINE
  8
0
 62
7
 10
2.874414974655807
 20
325.719489251906
 30
0
 11
26.38776167305581
 21
325.719489251906
 31
0
  0
LINE
  8
0
 62
7
 10
13.8573606844558
 20
322.467251170706
 30
0
 11
15.39146926465581
 21
322.467251170706
 31
0
  0
LINE
  8
0
 62
7
 10
15.4412116352558
 20
320.525093146706
 30
0
 11
13.8076183138558
 21
320.525093146706
 31
0
  0
LINE
  8
0
 62
7
 10
41.12441497465581
 20
320.525093146706
 30
0
 11
41.13776167305581
 21
320.525093968906
 31
0
  0
LINE
  8
0
 62
7
 10
-11.87558502534419
 20
313.416600299506
 30
0
 11
-11.86223832694419
 21
313.416601242506
 31
0
  0
LINE
  8
0
 62
7
 10
13.8076183138558
 20
313.416601242506
 30
0
 11
15.4412116352558
 21
313.416601242506
 31
0
  0
LINE
  8
0
 62
7
 10
39.6027444914558
 20
322.467251170706
 30
0
 11
39.6152491026558
 21
322.467258370306
 31
0
  0
LINE
  8
0
 62
7
 10
-11.5423864377442
 20
320.546975709306
 30
0
 11
-10.4569400485442
 21
320.629944556706
 31
0
  0
LINE
  8
0
 62
7
 10
-10.4569400485442
 20
320.629944556706
 30
0
 11
-8.90940036254419
 21
320.753638037306
 31
0
  0
LINE
  8
0
 62
7
 10
-10.11517084594419
 20
322.515693694906
 30
0
 11
-9.9600154733442
 21
322.551359989906
 31
0
  0
LINE
  8
0
 62
7
 10
-9.9600154733442
 20
322.551359989906
 30
0
 11
-9.674832533944198
 21
322.618520188906
 31
0
  0
LINE
  8
0
 62
7
 10
-9.674832533944198
 20
322.618520188906
 30
0
 11
-8.152953965744189
 21
322.989214772906
 31
0
  0
LINE
  8
0
 62
7
 10
-10.3530724557442
 20
322.467258370106
 30
0
 11
2.874414974655807
 21
325.719489251906
 31
0
  0
LINE
  8
0
 62
7
 10
28.9231824626558
 20
81.06506322010597
 30
0
 11
29.0306809000558
 21
81.099806230306
 31
0
  0
LINE
  8
0
 62
7
 10
-10.9686382421442
 20
313.343600106706
 30
0
 11
-10.17177640774419
 21
313.274080729906
 31
0
  0
LINE
  8
0
 62
7
 10
-11.5426059991442
 20
313.392111716306
 30
0
 11
-10.9686382421442
 21
313.343600106706
 31
0
  0
LINE
  8
0
 62
7
 10
-11.77074912674419
 20
313.410419438706
 30
0
 11
-11.5426059991442
 21
313.392111716306
 31
0
  0
LINE
  8
0
 62
7
 10
26.34761293505581
 20
308.726902501306
 30
0
 11
25.99836637005581
 21
308.747297414706
 31
0
  0
LINE
  8
0
 62
7
 10
39.65620163885579
 20
311.488380187506
 30
0
 11
39.6687340504558
 21
311.488371915906
 31
0
  0
LINE
  8
0
 62
7
 10
13.85561320685581
 20
311.488380187506
 30
0
 11
15.39321674245581
 21
311.488380187506
 31
0
  0
LINE
  8
0
 62
7
 10
0.5551306470558046
 20
308.696884731306
 30
0
 11
-0.269845263144191
 21
308.696877342306
 31
0
  0
LINE
  8
0
 62
7
 10
29.5320395358558
 20
308.696882195906
 30
0
 11
28.7070456840558
 21
308.696884832906
 31
0
  0
LINE
  8
0
 62
7
 10
19.2526007314558
 20
308.696884769306
 30
0
 11
9.996235556855808
 21
308.696883153706
 31
0
  0
LINE
  8
0
 62
7
 10
18.74586995185581
 20
306.868537308106
 30
0
 11
10.5029605172558
 21
306.868537791506
 31
0
  0
LINE
  8
0
 62
7
 10
1.931311572455797
 20
306.868535950106
 30
0
 11
1.196634115855801
 21
306.868536708106
 31
0
  0
LINE
  8
0
 62
7
 10
28.0655425756558
 20
306.868537577506
 30
0
 11
27.3308650934558
 21
306.868536504306
 31
0
  0
LINE
  8
0
 62
7
 10
-10.4065574027442
 20
311.488371915906
 30
0
 11
-10.3940249913442
 21
311.488380187506
 31
0
  0
LINE
  8
0
 62
7
 10
39.98627594125581
 20
313.322489769306
 30
0
 11
40.6424716764558
 21
313.378592652306
 31
0
  0
LINE
  8
0
 62
7
 10
39.13272543065581
 20
313.247361175906
 30
0
 11
39.98627594125581
 21
313.322489769306
 31
0
  0
LINE
  8
0
 62
7
 10
38.1715770102558
 20
313.160620568106
 30
0
 11
39.13272543065581
 21
313.247361175906
 31
0
  0
LINE
  8
0
 62
7
 10
-0.2698458985441903
 20
308.696877517106
 30
0
 11
-10.4065574037442
 21
311.488371916306
 31
0
  0
LINE
  8
0
 62
7
 10
-9.829149555544191
 20
311.345813958306
 30
0
 11
-9.517458297944202
 21
311.262164289306
 31
0
  0
LINE
  8
0
 62
7
 10
-10.01367260994419
 20
311.394249713706
 30
0
 11
-9.829149555544191
 21
311.345813958306
 31
0
  0
LINE
  8
0
 62
7
 10
-10.1687745369442
 20
311.434176297506
 30
0
 11
-10.01367260994419
 21
311.394249713706
 31
0
  0
LINE
  8
0
 62
7
 10
-10.28721160034419
 20
311.463910434906
 30
0
 11
-10.1687745369442
 21
311.434176297506
 31
0
  0
LINE
  8
0
 62
7
 10
21.6272541306558
 20
307.335802779906
 30
0
 11
21.3742527322558
 21
307.274809645306
 31
0
  0
LINE
  8
0
 62
7
 10
39.27584925745582
 20
311.394249713706
 30
0
 11
39.43095118445579
 21
311.434176297506
 31
0
  0
LINE
  8
0
 62
7
 10
39.0913262032558
 20
311.345813958306
 30
0
 11
39.27584925745582
 21
311.394249713706
 31
0
  0
LINE
  8
0
 62
7
 10
38.77963494545581
 20
311.262164289306
 30
0
 11
39.0913262032558
 21
311.345813958306
 31
0
  0
LINE
  8
0
 62
7
 10
29.53203908145581
 20
308.696882070706
 30
0
 11
39.66873405145581
 21
311.488371916306
 31
0
  0
LINE
  8
0
 62
7
 10
27.26151322985581
 20
290.787950668906
 30
0
 11
2.000663417855801
 21
290.787950668906
 31
0
  0
LINE
  8
0
 62
7
 10
2.500145807255805
 20
290.312919522906
 30
0
 11
26.7620308402558
 21
290.312919522906
 31
0
  0
LINE
  8
0
 62
7
 10
-0.3755850253441793
 20
283.312919522906
 30
0
 11
29.62441497465581
 21
283.312919522906
 31
0
  0
LINE
  8
0
 62
7
 10
29.7244149746558
 20
280.812919527706
 30
0
 11
-0.475585025344202
 21
280.812919527706
 31
0
  0
LINE
  8
0
 62
7
 10
31.6673876284558
 20
278.857663768506
 30
0
 11
-2.41855767934419
 21
278.857663768506
 31
0
  0
LINE
  8
DEFAULT_1
 62
2
  6
CENTER
 10
14.62441497465581
 20
255.312919522906
 30
0
 11
32.37441497465581
 21
255.312919522906
 31
0
  0
LINE
  8
DEFAULT_1
 62
2
  6
CENTER
 10
14.62441497465581
 20
255.312919522906
 30
0
 11
-3.125585025344194
 21
255.312919522906
 31
0
  0
LINE
  8
0
 62
7
 10
38.30533436125582
 20
312.669081347306
 30
0
 11
38.4282535884558
 21
312.210000377506
 31
0
  0
LINE
  8
0
 62
7
 10
38.17157686445582
 20
313.160620567706
 30
0
 11
38.30533436125582
 21
312.669081347306
 31
0
  0
LINE
  8
0
 62
7
 10
18.52086158405581
 20
133.709366132306
 30
0
 11
19.62441497465581
 21
134.812919522906
 31
0
  0
LINE
  8
0
 62
7
 10
29.61125592145581
 20
235.812919522906
 30
0
 11
30.25207808785581
 21
235.770146524506
 31
0
  0
LINE
  8
0
 62
7
 10
28.25310131165581
 20
235.812919522906
 30
0
 11
29.61125592145581
 21
235.812919522906
 31
0
  0
LINE
  8
0
 62
7
 10
-0.5474721783441936
 20
235.812919522906
 30
0
 11
0.9957286376558017
 21
235.812919522906
 31
0
  0
LINE
  8
0
 62
7
 10
32.61992278685581
 20
235.517314066506
 30
0
 11
-3.371092837544197
 21
235.517314066506
 31
0
  0
LINE
  8
0
 62
7
 10
10.72796836525581
 20
135.916472913506
 30
0
 11
9.624414974655807
 21
134.812919522906
 31
0
  0
LINE
  8
0
 62
7
 10
35.6230233362558
 20
230.812952972906
 30
0
 11
35.6244149740558
 21
230.812919522906
 31
0
  0
LINE
  8
0
 62
7
 10
-6.356254632344189
 20
230.813153172506
 30
0
 11
-0.5185571551441939
 21
230.812919522906
 31
0
  0
LINE
  8
0
 62
7
 10
-0.5185698443441993
 20
230.812919522906
 30
0
 11
35.4269605552558
 21
230.813453688706
 31
0
  0
LINE
  8
0
 62
7
 10
23.8864371064558
 20
230.312919522906
 30
0
 11
5.362392842855797
 21
230.312919522906
 31
0
  0
LINE
  8
0
 62
7
 10
23.51595622125581
 20
228.312919522906
 30
0
 11
5.732873728055807
 21
228.312919522906
 31
0
  0
LINE
  8
0
 62
7
 10
4.124414974655807
 20
226.312919522906
 30
0
 11
25.12441497465581
 21
226.312919522906
 31
0
  0
LINE
  8
0
 62
7
 10
-6.3741932683442
 20
230.812952972906
 30
0
 11
-6.356254632344189
 21
230.813153172506
 31
0
  0
LINE
  8
0
 62
7
 10
-6.375585024944201
 20
230.812919522906
 30
0
 11
-6.374193387144189
 21
230.812952972906
 31
0
  0
LINE
  8
0
 62
7
 10
24.4820255784558
 20
80.709421714906
 30
0
 11
24.32450589605581
 21
79.94810837030599
 31
0
  0
LINE
  8
0
 62
7
 10
-1.728712438544193
 20
218.753266212906
 30
0
 11
-2.374878221944201
 21
218.760489988306
 31
0
  0
LINE
  8
0
 62
7
 10
-1.674076062944195
 20
223.366849762906
 30
0
 11
-2.319921009344199
 21
223.374000244706
 31
0
  0
LINE
  8
0
 62
7
 10
-0.9690433273441954
 20
223.360587328106
 30
0
 11
-1.674076062944195
 21
223.366849762906
 31
0
  0
LINE
  8
0
 62
7
 10
-1.020910614944199
 20
218.746947407906
 30
0
 11
-1.728712438544193
 21
218.753266212906
 31
0
  0
LINE
  8
0
 62
7
 10
-0.2927794049441985
 20
223.355994209106
 30
0
 11
-0.9690433273441954
 21
223.360587328106
 31
0
  0
LINE
  8
0
 62
7
 10
-0.3405527501441981
 20
218.742328822906
 30
0
 11
-1.020910614944199
 21
218.746947407906
 31
0
  0
LINE
  8
0
 62
7
 10
0.2703481664558041
 20
223.353643421306
 30
0
 11
-0.2927794049441985
 21
223.355994209106
 31
0
  0
LINE
  8
0
 62
7
 10
0.2267350998558015
 20
218.739991727506
 30
0
 11
-0.3405527501441981
 21
218.742328822906
 31
0
  0
LINE
  8
0
 62
7
 10
0.650086211255811
 20
223.353828242106
 30
0
 11
0.2703481664558041
 21
223.353643421306
 31
0
  0
LINE
  8
0
 62
7
 10
0.6095572428558
 20
218.740230255506
 30
0
 11
0.2267350998558015
 21
218.739991727506
 31
0
  0
LINE
  8
0
 62
7
 10
-2.374878221544194
 20
218.760489988306
 30
0
 11
-5.272492192544192
 21
218.760723207306
 31
0
  0
LINE
  8
0
 62
7
 10
0.7990603760558059
 20
223.356525620506
 30
0
 11
1.712553204055809
 21
223.356525620506
 31
0
  0
LINE
  8
0
 62
7
 10
28.44976957325581
 20
223.356525620506
 30
0
 11
27.53627674525581
 21
223.356525620506
 31
0
  0
LINE
  8
0
 62
7
 10
4.809460398455798
 20
219.347847619306
 30
0
 11
4.712140478055801
 21
219.347847619306
 31
0
  0
LINE
  8
0
 62
7
 10
24.53668947105581
 20
219.347847619306
 30
0
 11
24.4393695508558
 21
219.347847619306
 31
0
  0
LINE
  8
0
 62
7
 10
31.62370816945581
 20
218.760489988306
 30
0
 11
34.52132214545581
 21
218.760723207306
 31
0
  0
LINE
  8
0
 62
7
 10
7.628522626655808
 20
218.312919522906
 30
0
 11
21.6203073224558
 21
218.312919522906
 31
0
  0
LINE
  8
0
 62
7
 10
29.54151842945581
 20
223.355993339506
 30
0
 11
30.57228682065581
 21
223.363554394306
 31
0
  0
LINE
  8
0
 62
7
 10
29.5893826988558
 20
218.742328822706
 30
0
 11
30.6258302678558
 21
218.749940042506
 31
0
  0
LINE
  8
0
 62
7
 10
30.57228682065581
 20
223.363554394306
 30
0
 11
31.56872969965581
 21
223.374000240906
 31
0
  0
LINE
  8
0
 62
7
 10
30.6258302678558
 20
218.749940042506
 30
0
 11
31.62370816945581
 21
218.760489988306
 31
0
  0
LINE
  8
0
 62
7
 10
30.20969643285581
 20
86.98865124850602
 30
0
 11
30.25475889545581
 21
87.63378030310599
 31
0
  0
LINE
  8
0
 62
7
 10
30.25475889545581
 20
87.63378030310599
 30
0
 11
30.29862622085581
 21
88.30810612210598
 31
0
  0
LINE
  8
0
 62
7
 10
30.29862611665581
 20
88.30810608590599
 30
0
 11
30.3463005156558
 21
89.09758599710597
 31
0
  0
LINE
  8
0
 62
7
 10
30.3463005156558
 20
89.09758599710597
 30
0
 11
30.3923915140558
 21
89.92272961190599
 31
0
  0
LINE
  8
0
 62
7
 10
27.3022472278558
 20
88.55050500050601
 30
0
 11
27.32463798125581
 21
88.95969324970599
 31
0
  0
LINE
  8
0
 62
7
 10
30.3923915140558
 20
89.92272961190599
 30
0
 11
30.45026546105581
 21
91.04854927690599
 31
0
  0
LINE
  8
0
 62
7
 10
30.45026546105581
 20
91.04854927690599
 30
0
 11
30.50425223065581
 21
92.12425667490601
 31
0
  0
LINE
  8
0
 62
7
 10
30.50425223065581
 20
92.12425667490601
 30
0
 11
30.6957571710558
 21
96.15518283130598
 31
0
  0
LINE
  8
0
 62
7
 10
34.02622701425581
 20
94.54187129930597
 30
0
 11
34.0320999312558
 21
95.28597587430602
 31
0
  0
LINE
  8
0
 62
7
 10
34.0207191756558
 20
93.828774549706
 30
0
 11
34.02622701425581
 21
94.54187129930597
 31
0
  0
LINE
  8
0
 62
7
 10
34.0155570028558
 20
93.14726274350602
 30
0
 11
34.0207191756558
 21
93.828774549706
 31
0
  0
LINE
  8
0
 62
7
 10
34.0320999504558
 20
95.28597587290597
 30
0
 11
34.13385409725581
 21
122.379516926706
 31
0
  0
LINE
  8
0
 62
7
 10
35.62437881245582
 20
222.745840089506
 30
0
 11
35.62408951485581
 21
222.697537478106
 31
0
  0
LINE
  8
0
 62
7
 10
34.0092436346558
 20
92.29540773030601
 30
0
 11
34.0155570022558
 21
93.14726274350602
 31
0
  0
LINE
  8
0
 62
7
 10
34.0035137808558
 20
91.501338868706
 30
0
 11
34.0092436346558
 21
92.29540773030601
 31
0
  0
LINE
  8
0
 62
7
 10
33.9963609116558
 20
90.44097086250599
 30
0
 11
33.99833099985581
 21
90.76552377150597
 31
0
  0
LINE
  8
0
 62
7
 10
33.99833097665581
 20
90.765523773106
 30
0
 11
34.0035137808558
 21
91.501338868706
 31
0
  0
LINE
  8
0
 62
7
 10
35.62412796285581
 20
208.847152463106
 30
0
 11
35.62326693165581
 21
208.696617126106
 31
0
  0
LINE
  8
0
 62
7
 10
34.3749908338558
 20
179.371047562706
 30
0
 11
34.47416267045581
 21
200.482760963306
 31
0
  0
LINE
  8
0
 62
7
 10
34.3125041724558
 20
165.676557498306
 30
0
 11
34.3749908338558
 21
179.371047562706
 31
0
  0
LINE
  8
0
 62
7
 10
34.47416294725581
 20
200.482760958106
 30
0
 11
34.49644349625579
 21
205.626346956506
 31
0
  0
LINE
  8
0
 62
7
 10
34.17780275365581
 20
133.754111555106
 30
0
 11
34.2277264134558
 21
146.050053108306
 31
0
  0
LINE
  8
0
 62
7
 10
34.49644349625579
 20
205.626346956506
 30
0
 11
34.51564801125581
 21
210.783891911706
 31
0
  0
LINE
  8
0
 62
7
 10
34.13385409725581
 20
122.379516926706
 30
0
 11
34.17780275365581
 21
133.754111555106
 31
0
  0
LINE
  8
0
 62
7
 10
33.9938098804558
 20
87.74874226350602
 30
0
 11
33.9963609116558
 21
90.44097086250599
 31
0
  0
LINE
  8
0
 62
7
 10
34.5156480186558
 20
210.783891911706
 30
0
 11
34.51892098125582
 21
212.688218239106
 31
0
  0
LINE
  8
0
 62
7
 10
34.5189209740558
 20
212.688218239106
 30
0
 11
34.52132214185581
 21
218.760723207306
 31
0
  0
LINE
  8
0
 62
7
 10
41.13776167305581
 20
313.416600299506
 30
0
 11
41.13776167305581
 21
320.525093968906
 31
0
  0
LINE
  8
0
 62
7
 10
41.12441497465581
 20
320.525093146706
 30
0
 11
41.12441497465581
 21
313.416601242506
 31
0
  0
LINE
  8
0
 62
7
 10
38.1715770102558
 20
320.753638037306
 30
0
 11
38.1715770102558
 21
313.160620568106
 31
0
  0
LINE
  8
0
 62
7
 10
35.62441497465581
 20
218.133972062106
 30
0
 11
35.62441497465581
 21
230.812919522906
 31
0
  0
LINE
  8
0
 62
7
 10
35.62441497465581
 20
133.312919522906
 30
0
 11
35.6230233362558
 21
230.812952972906
 31
0
  0
LINE
  8
0
 62
7
 10
34.52132214545581
 20
218.760723207306
 30
0
 11
34.52094091465581
 21
230.813169810506
 31
0
  0
LINE
  8
0
 62
7
 10
31.6673876284558
 20
278.857663768906
 30
0
 11
32.61992278685581
 21
235.517314066506
 31
0
  0
LINE
  8
0
 62
7
 10
-1.802293635744192
 20
212.686669708306
 30
0
 11
-2.448794299744193
 21
212.694158665306
 31
0
  0
LINE
  8
0
 62
7
 10
-1.09057957914419
 20
212.680250127306
 30
0
 11
-1.802293635744192
 21
212.686669708306
 31
0
  0
LINE
  8
0
 62
7
 10
-0.7605757723441968
 20
210.785850036906
 30
0
 11
-1.472930411944191
 21
210.791326888706
 31
0
  0
LINE
  8
0
 62
7
 10
-0.4043549375441984
 20
212.675718051506
 30
0
 11
-1.09057957914419
 21
212.680250127306
 31
0
  0
LINE
  8
0
 62
7
 10
31.72227156445581
 20
210.802685381706
 30
0
 11
33.54043311905581
 21
210.791779035306
 31
0
  0
LINE
  8
0
 62
7
 10
-0.1181466985441944
 20
210.782903681906
 30
0
 11
-0.7605757723441968
 21
210.785850036906
 31
0
  0
LINE
  8
0
 62
7
 10
0.1689259222558093
 20
212.673651060906
 30
0
 11
-0.4043549375441984
 21
212.675718051506
 31
0
  0
LINE
  8
0
 62
7
 10
31.6976242512558
 20
212.694158665306
 30
0
 11
34.5189209740558
 21
212.688218239106
 31
0
  0
LINE
  8
0
 62
7
 10
0.3720851020558058
 20
210.782865144906
 30
0
 11
-0.1181466985441944
 21
210.782903681906
 31
0
  0
LINE
  8
0
 62
7
 10
0.5562025022558004
 20
212.674312578706
 30
0
 11
0.1689259222558093
 21
212.673651060906
 31
0
  0
LINE
  8
0
 62
7
 10
-2.44879429874419
 20
212.694158665306
 30
0
 11
-5.270091032144194
 21
212.688218239106
 31
0
  0
LINE
  8
0
 62
7
 10
29.07990402825581
 20
212.673651057706
 30
0
 11
29.65318488885581
 21
212.675718050906
 31
0
  0
LINE
  8
0
 62
7
 10
29.6739660090558
 20
210.784028582506
 30
0
 11
30.36246904225581
 21
210.788309312906
 31
0
  0
LINE
  8
0
 62
7
 10
29.65318488885581
 20
212.675718050906
 30
0
 11
30.69781025485581
 21
212.683270577506
 31
0
  0
LINE
  8
0
 62
7
 10
-4.719969997744201
 20
210.788748123906
 30
0
 11
-5.266818062144196
 21
210.783891911706
 31
0
  0
LINE
  8
0
 62
7
 10
30.36246904225581
 20
210.788309312906
 30
0
 11
31.0756831224558
 21
210.794805556306
 31
0
  0
LINE
  8
0
 62
7
 10
30.69781025485581
 20
212.683270577506
 30
0
 11
31.69762425145581
 21
212.694158665306
 31
0
  0
LINE
  8
0
 62
7
 10
31.0756831224558
 20
210.794805556306
 30
0
 11
31.7222715654558
 21
210.802685381706
 31
0
  0
LINE
  8
0
 62
7
 10
0.7820255784558015
 20
81.75878780210599
 30
0
 11
0.6245058960558083
 21
81.08060431290602
 31
0
  0
LINE
  8
0
 62
7
 10
4.912740200455801
 20
84.868867069906
 30
0
 11
4.508088753655798
 21
83.05285867730601
 31
0
  0
LINE
  8
0
 62
7
 10
27.32463798125581
 20
88.95969324970599
 30
0
 11
27.34669357185581
 21
89.38161634190601
 31
0
  0
LINE
  8
0
 62
7
 10
27.34669357185581
 20
89.38161634190601
 30
0
 11
27.4040833030558
 21
90.57408345130597
 31
0
  0
LINE
  8
0
 62
7
 10
27.4040833030558
 20
90.57408345130597
 30
0
 11
27.4387481084558
 21
91.36692289430602
 31
0
  0
LINE
  8
0
 62
7
 10
27.4387481084558
 20
91.36692289430602
 30
0
 11
27.4723584120558
 21
92.193851799306
 31
0
  0
LINE
  8
0
 62
7
 10
27.4723584120558
 20
92.193851799306
 30
0
 11
27.66480535145581
 21
97.45622755630598
 31
0
  0
LINE
  8
0
 62
7
 10
29.0338267662558
 20
84.41600094770598
 30
0
 11
29.03729490065581
 21
85.17337496390599
 31
0
  0
LINE
  8
0
 62
7
 10
27.5347477908558
 20
218.358202649506
 30
0
 11
27.5392349470558
 21
220.114741651106
 31
0
  0
LINE
  8
0
 62
7
 10
29.03068089345581
 20
81.09980622810599
 30
0
 11
29.0338267662558
 21
84.41600094770598
 31
0
  0
LINE
  8
0
 62
7
 10
27.5392349470558
 20
220.114741651106
 30
0
 11
27.5396013014558
 21
221.642666035506
 31
0
  0
LINE
  8
0
 62
7
 10
24.53668947105581
 20
219.347847619306
 30
0
 11
24.53821842545581
 21
223.810635986306
 31
0
  0
LINE
  8
0
 62
7
 10
29.7676160218558
 20
227.387118854506
 30
0
 11
29.7673997936558
 21
230.812919522906
 31
0
  0
LINE
  8
0
 62
7
 10
29.62441497465581
 20
280.812919527706
 30
0
 11
29.62441497465581
 21
283.312919522906
 31
0
  0
LINE
  8
0
 62
7
 10
26.7336348536558
 20
283.312919522906
 30
0
 11
26.7336348536558
 21
290.312919522906
 31
0
  0
LINE
  8
0
 62
7
 10
25.12441497465581
 20
226.312919522906
 30
0
 11
25.12441497465581
 21
228.312919522906
 31
0
  0
LINE
  8
0
 62
7
 10
27.5396013014558
 20
221.642666035506
 30
0
 11
27.53627674525581
 21
223.356525620506
 31
0
  0
LINE
  8
0
 62
7
 10
28.5977601666558
 20
205.543532674906
 30
0
 11
28.57112771565581
 21
209.040687467306
 31
0
  0
LINE
  8
0
 62
7
 10
28.57112771565581
 20
209.040687467306
 30
0
 11
28.44976957325581
 21
223.356525620506
 31
0
  0
LINE
  8
0
 62
7
 10
27.3022472278558
 20
88.55050500050601
 30
0
 11
26.48584815765581
 21
182.100572417106
 31
0
  0
LINE
  8
0
 62
7
 10
31.63579469285581
 20
217.749432572106
 30
0
 11
31.5687509586558
 21
223.374000241706
 31
0
  0
LINE
  8
0
 62
7
 10
31.70559463625581
 20
212.063661514706
 30
0
 11
31.63579469285581
 21
217.749432572106
 31
0
  0
LINE
  8
0
 62
7
 10
31.7897413634558
 20
205.499318829306
 30
0
 11
31.74559378065581
 21
209.035588368306
 31
0
  0
LINE
  8
0
 62
7
 10
31.74559378065581
 20
209.035588368306
 30
0
 11
31.70559463625581
 21
212.063661514706
 31
0
  0
LINE
  8
0
 62
7
 10
-9.140143031144191
 20
321.712477461506
 30
0
 11
-9.029764588344193
 21
321.249481509906
 31
0
  0
LINE
  8
0
 62
7
 10
-9.029764588344193
 20
321.249481509906
 30
0
 11
-8.9094004013442
 21
320.753638037306
 31
0
  0
LINE
  8
0
 62
7
 10
10.62441864625581
 20
207.312923165506
 30
0
 11
9.624419527655803
 21
208.312924112506
 31
0
  0
LINE
  8
0
 62
7
 10
19.62441497465581
 20
208.312919559306
 30
0
 11
9.624414974655807
 21
208.312919559306
 31
0
  0
LINE
  8
0
 62
7
 10
18.6244149442558
 20
207.312919522906
 30
0
 11
10.62441500485581
 21
207.312919522906
 31
0
  0
LINE
  8
0
 62
7
 10
27.2615132302558
 20
290.787950669106
 30
0
 11
28.06554257465581
 21
306.868537554906
 31
0
  0
LINE
  8
0
 62
7
 10
24.4393695508558
 20
219.183405247306
 30
0
 11
24.4393695508558
 21
225.442433798506
 31
0
  0
LINE
  8
0
 62
7
 10
23.4877902772558
 20
182.074358409706
 30
0
 11
23.4877902772558
 21
184.965564309506
 31
0
  0
LINE
  8
0
 62
7
 10
22.54578170305581
 20
226.312919522906
 30
0
 11
22.54578170305581
 21
226.222959703306
 31
0
  0
LINE
  8
0
 62
7
 10
19.62441497465581
 20
174.812919522906
 30
0
 11
19.62441497465581
 21
94.81291952290599
 31
0
  0
LINE
  8
0
 62
7
 10
19.62441497465581
 20
218.312919522906
 30
0
 11
19.62441497465581
 21
208.312919559306
 31
0
  0
LINE
  8
0
 62
7
 10
19.5318922626558
 20
219.183405247306
 30
0
 11
19.5318922626558
 21
225.442433798506
 31
0
  0
LINE
  8
0
 62
7
 10
19.12441497465581
 20
134.312919522906
 30
0
 11
19.12441497465581
 21
94.81291952290599
 31
0
  0
LINE
  8
0
 62
7
 10
19.12441497465581
 20
174.812919522906
 30
0
 11
19.12441497465581
 21
135.312919522906
 31
0
  0
LINE
  8
0
 62
7
 10
18.3428500572558
 20
313.160620568106
 30
0
 11
18.3428500572558
 21
320.753638037306
 31
0
  0
LINE
  8
0
 62
7
 10
17.4635706364558
 20
283.312919522906
 30
0
 11
17.4635706364558
 21
290.312919522906
 31
0
  0
LINE
  8
0
 62
7
 10
24.33608974865581
 20
84.868867069906
 30
0
 11
23.4877902772558
 21
182.074358409706
 31
0
  0
LINE
  8
0
 62
7
 10
18.62441130305581
 20
207.312923165506
 30
0
 11
19.62441042145581
 21
208.312924112506
 31
0
  0
LINE
  8
0
 62
7
 10
38.45143879885579
 20
321.921926261506
 30
0
 11
38.34885645345581
 21
321.487075260506
 31
0
  0
LINE
  8
0
 62
7
 10
38.53346942265581
 20
322.279383706906
 30
0
 11
38.45143879885579
 21
321.921926261506
 31
0
  0
LINE
  8
0
 62
7
 10
15.4412116352558
 20
313.416601242506
 30
0
 11
15.44063477725581
 21
320.790253002106
 31
0
  0
LINE
  8
DEFAULT_1
 62
2
  6
CENTER
 10
14.62441497465581
 20
255.312919522906
 30
0
 11
14.62441497465581
 21
273.062919522906
 31
0
  0
LINE
  8
DEFAULT_1
 62
2
  6
CENTER
 10
14.62441497465581
 20
255.312919522906
 30
0
 11
14.62441497465581
 21
237.562919522906
 31
0
  0
LINE
  8
0
 62
7
 10
13.8076183138558
 20
320.525093146706
 30
0
 11
13.80817145385581
 21
313.156921076706
 31
0
  0
LINE
  8
0
 62
7
 10
10.90597989205581
 20
320.753638037306
 30
0
 11
10.90597989205581
 21
313.160620568106
 31
0
  0
LINE
  8
0
 62
7
 10
10.12441497465581
 20
135.312919522906
 30
0
 11
10.12441497465581
 21
174.812919522906
 31
0
  0
LINE
  8
0
 62
7
 10
10.12441497465581
 20
94.81291952290599
 30
0
 11
10.12441497465581
 21
134.312919522906
 31
0
  0
LINE
  8
0
 62
7
 10
9.716937686455808
 20
219.183405247306
 30
0
 11
9.716937686455808
 21
225.442433798506
 31
0
  0
LINE
  8
0
 62
7
 10
9.624414974655807
 20
94.81291952290599
 30
0
 11
9.624414974655807
 21
174.812919522906
 31
0
  0
LINE
  8
0
 62
7
 10
9.624414974655807
 20
218.312919522906
 30
0
 11
9.624414974655807
 21
208.312919559306
 31
0
  0
LINE
  8
0
 62
7
 10
2.000663417255808
 20
290.787950669106
 30
0
 11
1.196634113855808
 21
306.868536739506
 31
0
  0
LINE
  8
0
 62
7
 10
24.33608974065581
 20
84.86886706530601
 30
0
 11
24.74071265125581
 21
83.05298665630602
 31
0
  0
LINE
  8
0
 62
7
 10
28.62432405325581
 20
81.08060431290602
 30
0
 11
28.4668043708558
 21
81.75878780210599
 31
0
  0
LINE
  8
0
 62
7
 10
5.761039671855798
 20
184.965564309506
 30
0
 11
23.4877902772558
 21
184.965564309506
 31
0
  0
LINE
  8
0
 62
7
 10
5.761039671855798
 20
182.074358409706
 30
0
 11
4.912740200455801
 21
84.868867069906
 31
0
  0
LINE
  8
0
 62
7
 10
2.762981791655804
 20
182.100572444506
 30
0
 11
1.946582721255808
 21
88.55050500050601
 31
0
  0
LINE
  8
0
 62
7
 10
0.7990603760558059
 20
223.356525620506
 30
0
 11
0.6921071420558036
 21
210.788170819706
 31
0
  0
LINE
  8
0
 62
7
 10
0.6921071420558036
 20
210.788170819706
 30
0
 11
0.6640236848558061
 21
207.292532407306
 31
0
  0
LINE
  8
0
 62
7
 10
0.6640236848558061
 20
207.292532407306
 30
0
 11
0.6388456670558043
 21
203.794207182706
 31
0
  0
LINE
  8
0
 62
7
 10
0.6388456670558043
 20
203.794207182706
 30
0
 11
0.6166005072558107
 21
200.295962988106
 31
0
  0
LINE
  8
0
 62
7
 10
1.712553204055809
 20
223.356525620506
 30
0
 11
1.709872636055806
 21
222.192489988706
 31
0
  0
LINE
  8
0
 62
7
 10
1.709872636055806
 20
222.192489988706
 30
0
 11
1.709128319655804
 21
220.602834481306
 31
0
  0
LINE
  8
0
 62
7
 10
-0.5185698443441993
 20
230.812919522906
 30
0
 11
-0.5187860725442022
 21
227.387118854506
 31
0
  0
LINE
  8
0
 62
7
 10
6.867697455855804
 20
283.312919522906
 30
0
 11
6.867697455855804
 21
290.312919522906
 31
0
  0
LINE
  8
0
 62
7
 10
6.703048086655798
 20
226.312919522906
 30
0
 11
6.703048103855807
 21
226.222959676306
 31
0
  0
LINE
  8
0
 62
7
 10
5.761039671855798
 20
184.965564309506
 30
0
 11
5.761039671855798
 21
182.074358409706
 31
0
  0
LINE
  8
0
 62
7
 10
4.809460398455798
 20
219.183405247306
 30
0
 11
4.809460398455798
 21
225.442433798506
 31
0
  0
LINE
  8
0
 62
7
 10
4.124414974655807
 20
226.312919522906
 30
0
 11
4.124414974655807
 21
228.312919522906
 31
0
  0
LINE
  8
0
 62
7
 10
2.528541793855808
 20
283.312919522906
 30
0
 11
2.528541793855808
 21
290.312919522906
 31
0
  0
LINE
  8
0
 62
7
 10
-0.3755850253441935
 20
280.812919527706
 30
0
 11
-0.3755850253441793
 21
283.312919522906
 31
0
  0
LINE
  8
0
 62
7
 10
4.710611523855803
 20
223.810635986306
 30
0
 11
4.712140478055801
 21
219.347847619306
 31
0
  0
LINE
  8
0
 62
7
 10
1.709128319655804
 20
220.602834481306
 30
0
 11
1.711383427255811
 21
219.196406146506
 31
0
  0
LINE
  8
0
 62
7
 10
0.2150031830557992
 20
84.41600094770598
 30
0
 11
0.2181490558558039
 21
81.09980622830597
 31
0
  0
LINE
  8
0
 62
7
 10
1.711383427255811
 20
219.196406146506
 30
0
 11
1.730405398055808
 21
215.122996959906
 31
0
  0
LINE
  8
0
 62
7
 10
0.2115350484558007
 20
85.17337496390599
 30
0
 11
0.2150031830557992
 21
84.41600094770598
 31
0
  0
LINE
  8
0
 62
7
 10
2.762981352055803
 20
182.100522068306
 30
0
 11
5.761039671855798
 21
182.074358409706
 31
0
  0
LINE
  8
0
 62
7
 10
5.761039671855798
 20
182.074358409706
 30
0
 11
23.4877902772558
 21
182.074358409706
 31
0
  0
LINE
  8
0
 62
7
 10
9.624414974655807
 20
174.812919522906
 30
0
 11
10.12441497465581
 21
174.812919509306
 31
0
  0
LINE
  8
0
 62
7
 10
19.62441497465581
 20
174.812919522906
 30
0
 11
19.12441497465581
 21
174.812919522906
 31
0
  0
LINE
  8
0
 62
7
 10
26.48584859705581
 20
182.100522068306
 30
0
 11
23.4877902772558
 21
182.074358409706
 31
0
  0
LINE
  8
0
 62
7
 10
-2.41855767934419
 20
278.857663768906
 30
0
 11
-3.371092837544197
 21
235.517314066506
 31
0
  0
LINE
  8
0
 62
7
 10
-2.423786093744198
 20
214.716265187906
 30
0
 11
-2.519252189944197
 21
207.267717003906
 31
0
  0
LINE
  8
0
 62
7
 10
-2.319921009344199
 20
223.374000244706
 30
0
 11
-2.423786093744198
 21
214.716265187906
 31
0
  0
LINE
  8
0
 62
7
 10
-2.519252189944197
 20
207.267717003906
 30
0
 11
-2.561716998944192
 21
203.730740423506
 31
0
  0
LINE
  8
0
 62
7
 10
-2.561716998944192
 20
203.730740423506
 30
0
 11
-2.600701377744201
 21
200.194327587706
 31
0
  0
LINE
  8
0
 62
7
 10
-5.272110965344197
 20
230.813169810506
 30
0
 11
-5.272492196144199
 21
218.760723207306
 31
0
  0
LINE
  8
0
 62
7
 10
-6.374800811344201
 20
177.767104696706
 30
0
 11
-6.374193386944199
 21
230.812952972906
 31
0
  0
LINE
  8
0
 62
7
 10
-6.375585025344194
 20
133.312919522906
 30
0
 11
-6.375585025344194
 21
230.812919522906
 31
0
  0
LINE
  8
0
 62
7
 10
-6.375585025344194
 20
137.780537405306
 30
0
 11
-6.375520773744199
 21
135.140815797706
 31
0
  0
LINE
  8
0
 62
7
 10
-6.375585025344194
 20
139.748277907106
 30
0
 11
-6.37542730934419
 21
138.456730419306
 31
0
  0
LINE
  8
0
 62
7
 10
-8.90940036254419
 20
313.160620568106
 30
0
 11
-8.90940036254419
 21
320.753638037306
 31
0
  0
LINE
  8
0
 62
7
 10
-5.272492192544192
 20
218.760723207306
 30
0
 11
-5.270091024944193
 21
212.688218239106
 31
0
  0
LINE
  8
0
 62
7
 10
-4.747130674744199
 20
90.33540602730596
 30
0
 11
-4.744979931144201
 21
87.74874226350602
 31
0
  0
LINE
  8
0
 62
7
 10
-6.375585025344194
 20
218.133972062106
 30
0
 11
-6.3752724281442
 21
218.035702871306
 31
0
  0
LINE
  8
0
 62
7
 10
-6.375585025344194
 20
222.769991352706
 30
0
 11
-6.375440376544191
 21
222.721688802106
 31
0
  0
LINE
  8
0
 62
7
 10
-5.270091032144194
 20
212.688218239106
 30
0
 11
-5.266818069344197
 21
210.783891911706
 31
0
  0
LINE
  8
0
 62
7
 10
-6.375457464544198
 20
208.897330928706
 30
0
 11
-6.374436982344193
 21
208.696617126106
 31
0
  0
LINE
  8
0
 62
7
 10
-4.752026047344202
 20
91.12607348270598
 30
0
 11
-4.747130674744199
 21
90.33540602730596
 31
0
  0
LINE
  8
0
 62
7
 10
-4.95322855734419
 20
139.802817094706
 30
0
 11
-4.9062323441442
 21
127.933987678506
 31
0
  0
LINE
  8
0
 62
7
 10
-5.0057960701442
 20
152.448237027506
 30
0
 11
-4.95322855734419
 21
139.802817094706
 31
0
  0
LINE
  8
0
 62
7
 10
-5.063674213144196
 20
165.676555250706
 30
0
 11
-5.0057960701442
 21
152.448237027506
 31
0
  0
LINE
  8
0
 62
7
 10
-5.240498402944198
 20
203.909885190506
 30
0
 11
-5.126160878144191
 21
179.371046170906
 31
0
  0
LINE
  8
0
 62
7
 10
-5.126160878144191
 20
179.371046170906
 30
0
 11
-5.063674213144196
 21
165.676555250706
 31
0
  0
LINE
  8
0
 62
7
 10
-4.757478093944201
 20
91.89112301990599
 30
0
 11
-4.752026047344202
 21
91.12607348270598
 31
0
  0
LINE
  8
0
 62
7
 10
-4.766727052944191
 20
93.14726274350602
 30
0
 11
-4.757478093944201
 21
91.89112301990599
 31
0
  0
LINE
  8
0
 62
7
 10
-6.3752724281442
 20
218.035702871306
 30
0
 11
-6.374334641144202
 21
217.937433685506
 31
0
  0
LINE
  8
0
 62
7
 10
-6.375440376544191
 20
222.721688802106
 30
0
 11
-6.375006430744193
 21
222.673386154506
 31
0
  0
LINE
  8
0
 62
7
 10
-6.375006430744193
 20
222.673386154506
 30
0
 11
-6.374283191744198
 21
222.625083609106
 31
0
  0
LINE
  8
0
 62
7
 10
1.715834228055797
 20
93.77885700130599
 30
0
 11
1.793144876255809
 21
91.77612616530598
 31
0
  0
LINE
  8
0
 62
7
 10
1.793144876255809
 20
91.77612616530598
 30
0
 11
1.827284866455798
 21
90.96619487630602
 31
0
  0
LINE
  8
0
 62
7
 10
1.827284866455798
 20
90.96619487630602
 30
0
 11
1.862459872655805
 21
90.19072997250601
 31
0
  0
LINE
  8
0
 62
7
 10
1.862459872655805
 20
90.19072997250601
 30
0
 11
1.902136377655808
 21
89.381616337906
 31
0
  0
LINE
  8
0
 62
7
 10
-1.268995778944202
 20
92.39642374490597
 30
0
 11
-1.228368805744196
 21
91.58381694390602
 31
0
  0
LINE
  8
0
 62
7
 10
-1.228368805744196
 20
91.58381694390602
 30
0
 11
-1.143561564944193
 21
89.92272961350597
 31
0
  0
LINE
  8
0
 62
7
 10
1.902136377655808
 20
89.381616337906
 30
0
 11
1.946582721255808
 21
88.55050500050601
 31
0
  0
LINE
  8
0
 62
7
 10
-1.143561564944193
 20
89.92272961350597
 30
0
 11
-1.0974705663442
 21
89.09758599710597
 31
0
  0
LINE
  8
0
 62
7
 10
-1.0974705663442
 20
89.09758599710597
 30
0
 11
-1.049796167544201
 21
88.30810608710601
 31
0
  0
LINE
  8
0
 62
7
 10
-1.049796271544196
 20
88.30810612350598
 30
0
 11
-1.005928945944191
 21
87.63378029910598
 31
0
  0
LINE
  8
0
 62
7
 10
-1.005928945944191
 20
87.63378029910598
 30
0
 11
-0.9608664837441978
 21
86.98865124870599
 31
0
  0
LINE
  8
0
 62
7
 10
4.924324053255802
 20
79.94810837030599
 30
0
 11
4.766804370855809
 21
80.709421714906
 31
0
  0
LINE
  8
0
 62
7
 10
-11.86223832694419
 20
313.416601242506
 30
0
 11
-11.86223832694419
 21
320.525093146706
 31
0
  0
LINE
  8
0
 62
7
 10
-11.87558502534419
 20
313.416600299506
 30
0
 11
-11.87558502534419
 21
320.525093968906
 31
0
  0
LINE
  8
0
 62
7
 10
19.62441497465581
 20
134.812919522906
 30
0
 11
18.52086158405581
 21
135.916472913506
 31
0
  0
LINE
  8
0
 62
7
 10
9.624414974655807
 20
134.812919522906
 30
0
 11
10.72796836525581
 21
133.709366132306
 31
0
  0
LINE
  8
0
 62
7
 10
-9.106503215144201
 20
312.433512049906
 30
0
 11
-9.220893131344198
 21
312.002242095706
 31
0
  0
LINE
  8
0
 62
7
 10
-9.220893131344198
 20
312.002242095706
 30
0
 11
-9.312708130744198
 21
311.647464887506
 31
0
  0
LINE
  8
0
 62
7
 10
18.16730819345581
 20
136.062919522906
 30
0
 11
11.0815217558558
 21
136.062919522906
 31
0
  0
LINE
  8
0
 62
7
 10
11.0815217558558
 20
133.562919522906
 30
0
 11
18.16730819345581
 21
133.562919522906
 31
0
  0
LINE
  8
0
 62
7
 10
9.624414974655807
 20
94.81291952290599
 30
0
 11
10.12441497465581
 21
94.81291952290599
 31
0
  0
LINE
  8
0
 62
7
 10
19.62441497465581
 20
94.81291952290599
 30
0
 11
19.12441497465581
 21
94.812919536506
 31
0
  0
LINE
  8
0
 62
7
 10
37.5970877728558
 20
312.986116109506
 30
0
 11
38.1715770102558
 21
313.160620568106
 31
0
  0
LINE
  8
0
 62
7
 10
0.2181490412557992
 20
81.09980623370598
 30
0
 11
0.3256474866558108
 21
81.06506322010597
 31
0
  0
LINE
  8
0
 62
7
 10
0.3256474866558108
 20
81.06506322010597
 30
0
 11
0.3993571832558018
 21
81.04497417990598
 31
0
  0
LINE
  8
0
 62
7
 10
266.4196342928558
 20
322.467251170706
 30
0
 11
251.6921175810558
 21
325.719489251906
 31
0
  0
LINE
  8
0
 62
7
 10
231.1921175810558
 20
325.719489251906
 30
0
 11
251.6921175810558
 21
325.719489251906
 31
0
  0
LINE
  8
0
 62
7
 10
231.1921175810558
 20
325.719489251906
 30
0
 11
216.4646008692558
 21
322.4672511707061
 31
0
  0
LINE
  8
0
 62
7
 10
228.0478344010558
 20
308.696883660106
 30
0
 11
216.4111151674558
 21
311.488380187506
 31
0
  0
LINE
  8
0
 62
7
 10
234.3421175810558
 20
308.312919522906
 30
0
 11
248.5421175810558
 21
308.312919522906
 31
0
  0
LINE
  8
0
 62
7
 10
234.3421175810558
 20
305.312919522906
 30
0
 11
248.5421175810558
 21
305.312919522906
 31
0
  0
LINE
  8
0
 62
7
 10
246.4421175810558
 20
299.912919522906
 30
0
 11
245.4421175810558
 21
300.912919522906
 31
0
  0
LINE
  8
0
 62
7
 10
245.4421175810558
 20
300.912919522906
 30
0
 11
237.4421175810558
 21
300.912919522906
 31
0
  0
LINE
  8
0
 62
7
 10
266.4731199946558
 20
311.488380187506
 30
0
 11
256.3364007610558
 21
308.696883660106
 31
0
  0
LINE
  8
0
 62
7
 10
185.1913347132558
 20
81.94380647390597
 30
0
 11
177.4421175810558
 21
78.81291952290599
 31
0
  0
LINE
  8
0
 62
2
 10
253.6476904564558
 20
283.312919522906
 30
0
 11
256.4421175810558
 21
280.518492398106
 31
0
  0
LINE
  8
0
 62
2
 10
250.8192633316558
 20
283.312919522906
 30
0
 11
254.8192633316558
 21
279.312919522906
 31
0
  0
LINE
  8
0
 62
2
 10
247.9908362068558
 20
283.312919522906
 30
0
 11
251.9908362068558
 21
279.312919522906
 31
0
  0
LINE
  8
0
 62
7
 10
234.3421175810558
 20
290.312919522906
 30
0
 11
230.8177421910558
 21
290.312919522906
 31
0
  0
LINE
  8
0
 62
7
 10
252.0664929712558
 20
290.312919522906
 30
0
 11
248.5421175810558
 21
290.312919522906
 31
0
  0
LINE
  8
0
 62
7
 10
236.1921175810558
 20
283.312919522906
 30
0
 11
226.4421175810558
 21
283.312919522906
 31
0
  0
LINE
  8
0
 62
7
 10
256.4421175810558
 20
283.312919522906
 30
0
 11
246.6921175810558
 21
283.312919522906
 31
0
  0
LINE
  8
0
 62
2
 10
246.6921175810558
 20
281.783211023906
 30
0
 11
249.1624090820558
 21
279.312919522906
 31
0
  0
LINE
  8
0
 62
2
 10
233.8487005830558
 20
283.312919522906
 30
0
 11
236.1921175810558
 21
280.969502524906
 31
0
  0
LINE
  8
0
 62
7
 10
226.4421175810558
 20
280.812919527706
 30
0
 11
226.3421175810558
 21
280.812919527706
 31
0
  0
LINE
  8
0
 62
7
 10
256.5421175810558
 20
280.812919527706
 30
0
 11
256.4421175810558
 21
280.812919527706
 31
0
  0
LINE
  8
0
 62
7
 10
246.4421175810558
 20
280.312919522906
 30
0
 11
251.2772412950558
 21
280.312919522906
 31
0
  0
LINE
  8
0
 62
7
 10
231.6069938672558
 20
280.312919522906
 30
0
 11
236.4421175810558
 21
280.312919522906
 31
0
  0
LINE
  8
0
 62
7
 10
236.4421175810558
 20
279.312919522906
 30
0
 11
226.3421175810558
 21
279.312919522906
 31
0
  0
LINE
  8
0
 62
7
 10
256.5421175810558
 20
279.312919522906
 30
0
 11
246.4421175810558
 21
279.312919522906
 31
0
  0
LINE
  8
0
 62
7
 10
177.6414331732558
 20
86.22404914710597
 30
0
 11
177.6701380154558
 21
86.23955547390597
 31
0
  0
LINE
  8
0
 62
7
 10
187.7535166642558
 20
85.25856860350598
 30
0
 11
187.7512318134558
 21
85.25705180030599
 31
0
  0
LINE
  8
0
 62
7
 10
196.2270851572558
 20
90.594917669106
 30
0
 11
196.8525076552558
 21
91.053270542706
 31
0
  0
LINE
  8
0
 62
2
 10
231.0202734584558
 20
283.312919522906
 30
0
 11
235.0202734584558
 21
279.312919522906
 31
0
  0
LINE
  8
0
 62
2
 10
228.1918463336558
 20
283.312919522906
 30
0
 11
232.1918463336558
 21
279.312919522906
 31
0
  0
LINE
  8
0
 62
2
 10
226.4421175810558
 20
282.234221150706
 30
0
 11
229.3634192088558
 21
279.312919522906
 31
0
  0
LINE
  8
0
 62
2
 10
226.4421175810558
 20
279.405794025906
 30
0
 11
226.5349920842558
 21
279.312919522906
 31
0
  0
LINE
  8
0
 62
7
 10
224.1399197788558
 20
267.062919522906
 30
0
 11
222.4421175810558
 21
267.062919522906
 31
0
  0
LINE
  8
0
 62
2
 10
248.5421175810558
 20
303.974018053706
 30
0
 11
248.1833600136558
 21
305.312919522906
 31
0
  0
LINE
  8
0
 62
2
 10
248.5421175810558
 20
297.285399330106
 30
0
 11
246.4421175810558
 21
305.122706026106
 31
0
  0
LINE
  8
0
 62
2
 10
251.2772412950558
 20
287.077778664906
 30
0
 11
250.4103879146558
 21
290.312919522906
 31
0
  0
LINE
  8
0
 62
2
 10
248.5421175810558
 20
290.596780606706
 30
0
 11
246.4421175810558
 21
298.434087302506
 31
0
  0
LINE
  8
0
 62
2
 10
251.2772412950558
 20
280.389159941306
 30
0
 11
248.6181779292558
 21
290.312919522906
 31
0
  0
LINE
  8
0
 62
2
 10
249.5054598680558
 20
280.312919522906
 30
0
 11
246.4421175810558
 21
291.745468578906
 31
0
  0
LINE
  8
0
 62
7
 10
258.6727660680558
 20
248.062919522906
 30
0
 11
258.6593030192558
 21
248.089157638906
 31
0
  0
LINE
  8
0
 62
7
 10
232.2921175810558
 20
262.562919522906
 30
0
 11
221.9421175810558
 21
262.562919522906
 31
0
  0
LINE
  8
0
 62
7
 10
258.3321067274558
 20
262.562919522906
 30
0
 11
250.5921175810558
 21
262.562919522906
 31
0
  0
LINE
  8
0
 62
7
 10
236.6421175810558
 20
261.812919522906
 30
0
 11
246.2421175810558
 21
261.812919522906
 31
0
  0
LINE
  8
DEFAULT_1
 62
2
  6
CENTER
 10
264.6727660680558
 20
255.312919522906
 30
0
 11
215.9421175810558
 21
255.312919522906
 31
0
  0
LINE
  8
0
 62
7
 10
186.5369340512558
 20
84.37187156490597
 30
0
 11
186.4401627712558
 21
84.27470497430602
 31
0
  0
LINE
  8
0
 62
2
 10
247.7132498826558
 20
280.312919522906
 30
0
 11
246.4421175810558
 21
285.056849855506
 31
0
  0
LINE
  8
0
 62
2
 10
236.4421175810558
 20
302.311501760706
 30
0
 11
235.6378901156558
 21
305.312919522906
 31
0
  0
LINE
  8
0
 62
2
 10
236.4421175810558
 20
295.622883037106
 30
0
 11
234.3421175810558
 21
303.460189733106
 31
0
  0
LINE
  8
0
 62
2
 10
236.4421175810558
 20
288.934264313706
 30
0
 11
234.3421175810558
 21
296.771571009506
 31
0
  0
LINE
  8
0
 62
2
 10
255.3437719316558
 20
232.812919522906
 30
0
 11
259.6157162508558
 21
228.540975203706
 31
0
  0
LINE
  8
0
 62
2
 10
249.6869176822558
 20
232.812919522906
 30
0
 11
254.1869176822558
 21
228.312919522906
 31
0
  0
LINE
  8
0
 62
7
 10
236.6421175810558
 20
248.812919522906
 30
0
 11
246.2421175810558
 21
248.812919522906
 31
0
  0
LINE
  8
0
 62
7
 10
232.2921175810558
 20
248.062919522906
 30
0
 11
221.9421175810558
 21
248.062919522906
 31
0
  0
LINE
  8
0
 62
7
 10
258.6727660680558
 20
248.062919522906
 30
0
 11
250.5921175810558
 21
248.062919522906
 31
0
  0
LINE
  8
0
 62
7
 10
267.9421175810558
 20
320.525093146706
 30
0
 11
267.9421175810558
 21
313.416601242506
 31
0
  0
LINE
  8
0
 62
7
 10
260.6921175810558
 20
230.812919522906
 30
0
 11
260.6921175810558
 21
230.312919522906
 31
0
  0
LINE
  8
0
 62
7
 10
258.8319860128558
 20
263.073905880706
 30
0
 11
258.4850902204558
 21
278.857664434506
 31
0
  0
LINE
  8
0
 62
7
 10
259.4376253934558
 20
235.517314066106
 30
0
 11
259.1726453534558
 21
247.573905880706
 31
0
  0
LINE
  8
0
 62
2
 10
236.4421175810558
 20
282.245645590106
 30
0
 11
234.2804980456558
 21
290.312919522906
 31
0
  0
LINE
  8
0
 62
2
 10
235.1677799846558
 20
280.312919522906
 30
0
 11
232.4882880602558
 21
290.312919522906
 31
0
  0
LINE
  8
0
 62
2
 10
233.3755699990558
 20
280.312919522906
 30
0
 11
231.6069938672558
 21
286.913335504306
 31
0
  0
LINE
  8
0
 62
7
 10
233.0782391742558
 20
244.101316982506
 30
0
 11
232.2921175810558
 21
245.462919522906
 31
0
  0
LINE
  8
0
 62
2
 10
246.6921175810558
 20
230.150865374506
 30
0
 11
248.5300634326558
 21
228.312919522906
 31
0
  0
LINE
  8
0
 62
2
 10
246.9066295268558
 20
226.312919522906
 30
0
 11
249.9421175810558
 21
223.277431468706
 31
0
  0
LINE
  8
0
 62
2
 10
245.6921175810558
 20
224.699004343906
 30
0
 11
249.9421175810558
 21
220.449004343906
 31
0
  0
LINE
  8
0
 62
2
 10
245.6921175810558
 20
221.870577219106
 30
0
 11
249.1923794754558
 21
218.370315324906
 31
0
  0
LINE
  8
0
 62
2
 10
232.7163549336558
 20
232.812919522906
 30
0
 11
236.1921175810558
 21
229.337156875506
 31
0
  0
LINE
  8
0
 62
2
 10
245.6921175810558
 20
219.042150094506
 30
0
 11
246.4213481526558
 21
218.312919522906
 31
0
  0
LINE
  8
0
 62
7
 10
245.6921175810558
 20
218.812922016706
 30
0
 11
246.1921203682558
 21
218.312919522906
 31
0
  0
LINE
  8
0
 62
7
 10
257.0809926642558
 20
235.616191160306
 30
0
 11
257.0351821916558
 21
235.626954436906
 31
0
  0
LINE
  8
0
 62
7
 10
256.4421175810558
 20
235.135870183106
 30
0
 11
256.4173150520558
 21
235.141669882906
 31
0
  0
LINE
  8
0
 62
7
 10
256.4173150520558
 20
235.141669882906
 30
0
 11
256.3421175810558
 21
235.155142397306
 31
0
  0
LINE
  8
0
 62
7
 10
234.4871533544558
 20
244.312919522906
 30
0
 11
248.3970818078558
 21
244.312919522906
 31
0
  0
LINE
  8
0
 62
7
 10
222.4421175810558
 20
243.562919522906
 30
0
 11
223.6234362624558
 21
243.562919522906
 31
0
  0
LINE
  8
0
 62
7
 10
233.1421175810558
 20
242.312919522906
 30
0
 11
232.9421175810558
 21
242.312919522906
 31
0
  0
LINE
  8
0
 62
7
 10
249.9421175810558
 20
242.312919522906
 30
0
 11
249.7421175810558
 21
242.312919522906
 31
0
  0
LINE
  8
0
 62
7
 10
246.4421175810558
 20
237.312919522906
 30
0
 11
249.9421175810558
 21
237.312919522906
 31
0
  0
LINE
  8
0
 62
7
 10
232.9421175810558
 20
237.312919522906
 30
0
 11
236.4421175810558
 21
237.312919522906
 31
0
  0
LINE
  8
0
 62
7
 10
257.7362865034558
 20
210.789866653306
 30
0
 11
257.8144647528558
 21
223.362476718506
 31
0
  0
LINE
  8
0
 62
7
 10
255.8061474838558
 20
210.788170818306
 30
0
 11
255.8842967592558
 21
223.356525620506
 31
0
  0
LINE
  8
0
 62
7
 10
256.5421175810558
 20
279.312919522906
 30
0
 11
256.5421175810558
 21
280.812919527706
 31
0
  0
LINE
  8
0
 62
7
 10
256.4421175810558
 20
279.312919522906
 30
0
 11
256.4421175810558
 21
283.312919522906
 31
0
  0
LINE
  8
0
 62
7
 10
256.4421175810558
 20
235.135870183106
 30
0
 11
256.4421175810558
 21
233.312919522906
 31
0
  0
LINE
  8
0
 62
7
 10
256.3421175810558
 20
233.312919522906
 30
0
 11
256.3421175810558
 21
235.312919522906
 31
0
  0
LINE
  8
0
 62
7
 10
252.0379907618558
 20
283.312919522906
 30
0
 11
252.0379907618558
 21
290.312919522906
 31
0
  0
LINE
  8
0
 62
7
 10
251.9421175810558
 20
226.312919522906
 30
0
 11
251.9421175810558
 21
228.312919522906
 31
0
  0
LINE
  8
0
 62
7
 10
251.2772412950558
 20
290.312919522906
 30
0
 11
251.2772412950558
 21
280.312919522906
 31
0
  0
LINE
  8
0
 62
7
 10
250.5921175810558
 20
279.312919522906
 30
0
 11
250.5921175810558
 21
245.462919522906
 31
0
  0
LINE
  8
0
 62
7
 10
249.9421175810558
 20
218.544517256706
 30
0
 11
249.9421175810558
 21
226.081321788906
 31
0
  0
LINE
  8
0
 62
7
 10
249.9421175810558
 20
244.068218089706
 30
0
 11
249.9421175810558
 21
237.312919522906
 31
0
  0
LINE
  8
0
 62
7
 10
249.7421175810558
 20
242.312919522906
 30
0
 11
249.7421175810558
 21
237.312919522906
 31
0
  0
LINE
  8
0
 62
7
 10
249.7421175810558
 20
243.862919522906
 30
0
 11
249.7421175810558
 21
243.212919522906
 31
0
  0
LINE
  8
0
 62
7
 10
237.1921175810558
 20
225.812917029106
 30
0
 11
236.6921147940558
 21
226.312919522906
 31
0
  0
LINE
  8
0
 62
2
 10
235.5929210280558
 20
226.312919522906
 30
0
 11
237.1921175810558
 21
224.713722969706
 31
0
  0
LINE
  8
0
 62
2
 10
227.0595006842558
 20
232.812919522906
 30
0
 11
231.5595006842558
 21
228.312919522906
 31
0
  0
LINE
  8
0
 62
2
 10
224.7200502108558
 20
235.152369996306
 30
0
 11
226.4421175810558
 21
233.430302625906
 31
0
  0
LINE
  8
0
 62
2
 10
232.9840405538558
 20
226.093372872306
 30
0
 11
237.1921175810558
 21
221.885295844906
 31
0
  0
LINE
  8
0
 62
2
 10
232.9421175810558
 20
223.306868720106
 30
0
 11
237.1921175810558
 21
219.056868720106
 31
0
  0
LINE
  8
0
 62
2
 10
222.3198342814558
 20
231.895731676106
 30
0
 11
227.4577574510558
 21
226.757808506506
 31
0
  0
LINE
  8
0
 62
2
 10
232.9421175810558
 20
220.478441595506
 30
0
 11
235.1076396536558
 21
218.312919522906
 31
0
  0
LINE
  8
0
 62
7
 10
256.3421175810558
 20
235.312919522906
 30
0
 11
259.2376736792558
 21
235.312919522906
 31
0
  0
LINE
  8
0
 62
7
 10
223.6465614830558
 20
235.312919522906
 30
0
 11
226.5421175810558
 21
235.312919522906
 31
0
  0
LINE
  8
0
 62
7
 10
226.5421175810558
 20
233.312919522906
 30
0
 11
226.4421175810558
 21
233.312919522906
 31
0
  0
LINE
  8
0
 62
7
 10
256.4421175810558
 20
233.312919522906
 30
0
 11
256.3421175810558
 21
233.312919522906
 31
0
  0
LINE
  8
0
 62
7
 10
246.4421175810558
 20
232.812919522906
 30
0
 11
255.9421175810558
 21
232.812919522906
 31
0
  0
LINE
  8
0
 62
7
 10
226.9421175810558
 20
232.812919522906
 30
0
 11
236.4421175810558
 21
232.812919522906
 31
0
  0
LINE
  8
0
 62
7
 10
236.4421175810558
 20
232.312919522906
 30
0
 11
236.1921175810558
 21
232.312919522906
 31
0
  0
LINE
  8
0
 62
7
 10
246.6921175810558
 20
232.312919522906
 30
0
 11
246.4421175810558
 21
232.312919522906
 31
0
  0
LINE
  8
0
 62
7
 10
246.4421175810558
 20
228.812919522906
 30
0
 11
246.6921175810558
 21
228.812919522906
 31
0
  0
LINE
  8
0
 62
7
 10
236.1921175810558
 20
228.812919522906
 30
0
 11
236.4421175810558
 21
228.812919522906
 31
0
  0
LINE
  8
0
 62
7
 10
246.4421175810558
 20
228.312919522906
 30
0
 11
258.6921175810558
 21
228.312919522906
 31
0
  0
LINE
  8
0
 62
7
 10
230.0802871158558
 20
228.312919522906
 30
0
 11
236.4421175810558
 21
228.312919522906
 31
0
  0
LINE
  8
0
 62
7
 10
225.8460789928558
 20
235.626339564706
 30
0
 11
225.8032287440558
 21
235.616146485906
 31
0
  0
LINE
  8
0
 62
7
 10
253.3698984968558
 20
306.868537839106
 30
0
 11
252.5658691406558
 21
290.787950714306
 31
0
  0
LINE
  8
0
 62
7
 10
248.5421175810558
 20
290.312919522906
 30
0
 11
248.5421175810558
 21
308.312919522906
 31
0
  0
LINE
  8
0
 62
7
 10
246.9421175810558
 20
244.312919522906
 30
0
 11
246.9421175810558
 21
279.312919522906
 31
0
  0
LINE
  8
0
 62
7
 10
246.6921175810558
 20
279.312919522906
 30
0
 11
246.6921175810558
 21
283.312919522906
 31
0
  0
LINE
  8
0
 62
7
 10
246.6921175810558
 20
226.312919522906
 30
0
 11
246.6921175810558
 21
228.312919522906
 31
0
  0
LINE
  8
0
 62
7
 10
246.6921175810558
 20
232.312919522906
 30
0
 11
246.6921175810558
 21
228.812919522906
 31
0
  0
LINE
  8
0
 62
7
 10
246.6921175810558
 20
237.312919522906
 30
0
 11
246.6921175810558
 21
232.812919522906
 31
0
  0
LINE
  8
0
 62
7
 10
246.4421175810558
 20
246.193709030706
 30
0
 11
246.4421175810558
 21
305.312919522906
 31
0
  0
LINE
  8
0
 62
7
 10
246.4421175810558
 20
237.312919522906
 30
0
 11
246.4421175810558
 21
208.312928665706
 31
0
  0
LINE
  8
0
 62
7
 10
246.2421175810558
 20
248.812919522906
 30
0
 11
246.2421175810558
 21
261.812919522906
 31
0
  0
LINE
  8
0
 62
7
 10
245.6921175810558
 20
218.812922016706
 30
0
 11
245.6921175810558
 21
225.812917029106
 31
0
  0
LINE
  8
DEFAULT_1
 62
2
  6
CENTER
 10
241.4421175810558
 20
331.719489251906
 30
0
 11
241.4421175810558
 21
185.697933794906
 31
0
  0
LINE
  8
0
 62
2
 10
222.1380556470558
 20
226.420656061106
 30
0
 11
226.5125109890558
 21
222.046200719106
 31
0
  0
LINE
  8
0
 62
7
 10
237.4421248954558
 20
207.312919522906
 30
0
 11
236.4421175810558
 21
208.312928665706
 31
0
  0
LINE
  8
0
 62
2
 10
221.2204943428558
 20
221.681363115706
 30
0
 11
225.0988002690558
 21
217.803057189506
 31
0
  0
LINE
  8
0
 62
7
 10
227.1907758172558
 20
218.806770967906
 30
0
 11
226.2288179130558
 21
219.156434316706
 31
0
  0
LINE
  8
0
 62
7
 10
228.4334416450558
 20
218.358202649106
 30
0
 11
227.1907758172558
 21
218.806770967906
 31
0
  0
LINE
  8
0
 62
7
 10
229.7262827434558
 20
223.356525127706
 30
0
 11
228.4220685754558
 21
223.566946163106
 31
0
  0
LINE
  8
0
 62
7
 10
228.4220685754558
 20
223.566946163106
 30
0
 11
227.4113605206558
 21
223.728080232706
 31
0
  0
LINE
  8
0
 62
7
 10
227.4113605206558
 20
223.728080232706
 30
0
 11
227.0085622218558
 21
223.790889183106
 31
0
  0
LINE
  8
0
 62
7
 10
255.8575245922558
 20
218.743014370506
 30
0
 11
256.5509631190558
 21
218.740230245306
 31
0
  0
LINE
  8
0
 62
7
 10
255.8842989436558
 20
223.356525065706
 30
0
 11
256.5748196870558
 21
223.353827417106
 31
0
  0
LINE
  8
0
 62
7
 10
256.5748196870558
 20
223.353827417106
 30
0
 11
257.1704929502558
 21
223.353642480506
 31
0
  0
LINE
  8
0
 62
7
 10
256.5509631190558
 20
218.740230245306
 30
0
 11
257.1483448182558
 21
218.739991723106
 31
0
  0
LINE
  8
0
 62
7
 10
236.6921147940558
 20
226.312919522906
 30
0
 11
230.9421175810558
 21
226.312919522906
 31
0
  0
LINE
  8
0
 62
7
 10
251.9421175810558
 20
226.312919522906
 30
0
 11
246.1921203682558
 21
226.312919522906
 31
0
  0
LINE
  8
0
 62
7
 10
232.9421175810558
 20
223.356525620506
 30
0
 11
229.7262808206558
 21
223.356525620506
 31
0
  0
LINE
  8
0
 62
7
 10
255.8842967592558
 20
223.356525620506
 30
0
 11
249.9421175810558
 21
223.356525620506
 31
0
  0
LINE
  8
0
 62
7
 10
257.1483448182558
 20
218.739991723106
 30
0
 11
257.5744865526558
 21
218.742328822706
 31
0
  0
LINE
  8
0
 62
7
 10
257.1704929502558
 20
223.353642480506
 30
0
 11
257.5969974830558
 21
223.355993339506
 31
0
  0
LINE
  8
0
 62
7
 10
237.1921175810558
 20
218.812922016706
 30
0
 11
237.1921175810558
 21
225.812917029106
 31
0
  0
LINE
  8
0
 62
7
 10
236.6421175810558
 20
261.812919522906
 30
0
 11
236.6421175810558
 21
248.812919522906
 31
0
  0
LINE
  8
0
 62
7
 10
236.4421175810558
 20
246.193709030706
 30
0
 11
236.4421175810558
 21
305.312919522906
 31
0
  0
LINE
  8
0
 62
7
 10
236.4421175810558
 20
237.312919522906
 30
0
 11
236.4421175810558
 21
208.312928665706
 31
0
  0
LINE
  8
0
 62
7
 10
236.1921175810558
 20
279.312919522906
 30
0
 11
236.1921175810558
 21
283.312919522906
 31
0
  0
LINE
  8
0
 62
7
 10
236.1921175810558
 20
226.312919522906
 30
0
 11
236.1921175810558
 21
228.312919522906
 31
0
  0
LINE
  8
0
 62
7
 10
236.1921175810558
 20
232.312919522906
 30
0
 11
236.1921175810558
 21
228.812919522906
 31
0
  0
LINE
  8
0
 62
7
 10
236.1921175810558
 20
237.312919522906
 30
0
 11
236.1921175810558
 21
232.812919522906
 31
0
  0
LINE
  8
0
 62
7
 10
235.9421175810558
 20
244.312919522906
 30
0
 11
235.9421175810558
 21
279.312919522906
 31
0
  0
LINE
  8
0
 62
7
 10
234.3421175810558
 20
290.312919522906
 30
0
 11
234.3421175810558
 21
308.312919522906
 31
0
  0
LINE
  8
0
 62
7
 10
233.1421175810558
 20
243.212919522906
 30
0
 11
233.1421175810558
 21
243.862919522906
 31
0
  0
LINE
  8
0
 62
7
 10
233.1421175810558
 20
237.312919522906
 30
0
 11
233.1421175810558
 21
242.312919522906
 31
0
  0
LINE
  8
0
 62
7
 10
232.9421175810558
 20
218.544517256706
 30
0
 11
232.9421175810558
 21
226.081321788906
 31
0
  0
LINE
  8
0
 62
7
 10
232.9421175810558
 20
244.068218089706
 30
0
 11
232.9421175810558
 21
237.312919522906
 31
0
  0
LINE
  8
0
 62
7
 10
232.2921175810558
 20
245.462919522906
 30
0
 11
232.2921175810558
 21
279.312919522906
 31
0
  0
LINE
  8
0
 62
7
 10
231.6069938672558
 20
290.312919522906
 30
0
 11
231.6069938672558
 21
280.312919522906
 31
0
  0
LINE
  8
0
 62
7
 10
230.9421175810558
 20
226.312919522906
 30
0
 11
230.9421175810558
 21
228.312919522906
 31
0
  0
LINE
  8
0
 62
7
 10
229.5143366652558
 20
306.868537839106
 30
0
 11
230.3183660214558
 21
290.787950714306
 31
0
  0
LINE
  8
0
 62
2
 10
219.6296785448558
 20
217.615324664306
 30
0
 11
223.3702432294558
 21
213.874759979706
 31
0
  0
LINE
  8
0
 62
2
 10
217.7429747998558
 20
213.845174159706
 30
0
 11
221.3999001232558
 21
210.188248836306
 31
0
  0
LINE
  8
0
 62
2
 10
215.6011623928558
 20
210.330132317306
 30
0
 11
219.2033052136558
 21
206.727989496306
 31
0
  0
LINE
  8
0
 62
7
 10
256.8233186818558
 20
210.782865007706
 30
0
 11
257.3447846324558
 21
210.782903647106
 31
0
  0
LINE
  8
0
 62
7
 10
236.6921147940558
 20
218.312919522906
 30
0
 11
234.4462252332558
 21
218.312919522906
 31
0
  0
LINE
  8
0
 62
7
 10
248.4380099290558
 20
218.312919522906
 30
0
 11
246.1921203682558
 21
218.312919522906
 31
0
  0
LINE
  8
0
 62
7
 10
256.8347609424558
 20
212.673637777506
 30
0
 11
257.3558289000558
 21
212.674351986506
 31
0
  0
LINE
  8
0
 62
7
 10
245.4421102668558
 20
207.312919522906
 30
0
 11
246.4421175810558
 21
208.312928665706
 31
0
  0
LINE
  8
0
 62
2
 10
246.4421175810558
 20
211.092098670506
 30
0
 11
242.6629384334558
 21
207.312919522906
 31
0
  0
LINE
  8
0
 62
2
 10
246.4421175810558
 20
213.920525795306
 30
0
 11
239.8345113086558
 21
207.312919522906
 31
0
  0
LINE
  8
0
 62
2
 10
246.4421175810558
 20
216.748952920106
 30
0
 11
237.2241047390558
 21
207.530940077906
 31
0
  0
LINE
  8
0
 62
7
 10
250.5921175810558
 20
245.462919522906
 30
0
 11
249.8059959878558
 21
244.101316982506
 31
0
  0
LINE
  8
0
 62
7
 10
177.7888712170558
 20
108.467816257106
 30
0
 11
177.8160155398558
 21
108.518168920106
 31
0
  0
LINE
  8
0
 62
7
 10
223.6234362624558
 20
243.562919522906
 30
0
 11
223.4466097688558
 21
235.517314066106
 31
0
  0
LINE
  8
0
 62
7
 10
224.3991449418558
 20
278.857664434506
 30
0
 11
224.1399197788558
 21
267.062919522906
 31
0
  0
LINE
  8
0
 62
7
 10
226.5421175810558
 20
235.312919522906
 30
0
 11
226.5421175810558
 21
233.312919522906
 31
0
  0
LINE
  8
0
 62
7
 10
226.4421175810558
 20
279.312919522906
 30
0
 11
226.4421175810558
 21
283.312919522906
 31
0
  0
LINE
  8
0
 62
7
 10
226.4421175810558
 20
235.135823811906
 30
0
 11
226.4421175810558
 21
233.312919522906
 31
0
  0
LINE
  8
0
 62
7
 10
226.3421175810558
 20
279.312919522906
 30
0
 11
226.3421175810558
 21
280.812919527706
 31
0
  0
LINE
  8
0
 62
7
 10
222.1921175810558
 20
230.812919522906
 30
0
 11
222.1921175810558
 21
227.812919522906
 31
0
  0
LINE
  8
0
 62
7
 10
221.9421175810558
 20
262.562919522906
 30
0
 11
221.9421175810558
 21
248.062919522906
 31
0
  0
LINE
  8
0
 62
2
 10
213.2218526242558
 20
207.052587836306
 30
0
 11
216.7902011672558
 21
203.484239293306
 31
0
  0
LINE
  8
0
 62
2
 10
210.6121887838558
 20
204.005397427306
 30
0
 11
214.1682301446558
 21
200.449356066506
 31
0
  0
LINE
  8
0
 62
7
 10
255.3463339900558
 20
200.295888365506
 30
0
 11
256.0530857622558
 21
200.240402751706
 31
0
  0
LINE
  8
0
 62
7
 10
256.0530857622558
 20
200.240402751706
 30
0
 11
256.6574793574558
 21
200.194529880906
 31
0
  0
LINE
  8
0
 62
7
 10
256.6574793574558
 20
200.194529880906
 30
0
 11
257.0798488644558
 21
200.164316316306
 31
0
  0
LINE
  8
0
 62
7
 10
237.4421248954558
 20
207.312919522906
 30
0
 11
245.4421102668558
 21
207.312919522906
 31
0
  0
LINE
  8
0
 62
7
 10
177.7591184334558
 20
182.940246803106
 30
0
 11
177.7421175810558
 21
182.934892622906
 31
0
  0
LINE
  8
0
 62
2
 10
246.4421175810558
 20
219.577380044906
 30
0
 11
236.4421175810558
 21
209.577380044906
 31
0
  0
LINE
  8
0
 62
2
 10
246.4421175810558
 20
222.405807169506
 30
0
 11
236.4421175810558
 21
212.405807169506
 31
0
  0
LINE
  8
0
 62
2
 10
251.9421175810558
 20
228.059150292106
 30
0
 11
250.1958868118558
 21
226.312919522906
 31
0
  0
LINE
  8
0
 62
2
 10
250.4266560426558
 20
228.312919522906
 30
0
 11
248.4266560426558
 21
226.312919522906
 31
0
  0
LINE
  8
0
 62
2
 10
246.4421175810558
 20
225.234234294306
 30
0
 11
236.4421175810558
 21
215.234234294306
 31
0
  0
LINE
  8
0
 62
2
 10
248.6574252734558
 20
228.312919522906
 30
0
 11
246.6921175810558
 21
226.347611830506
 31
0
  0
LINE
  8
0
 62
7
 10
245.6921175810558
 20
225.812917029106
 30
0
 11
246.1921203682558
 21
226.312919522906
 31
0
  0
LINE
  8
0
 62
2
 10
246.8881945042558
 20
228.312919522906
 30
0
 11
246.6921175810558
 21
228.116842599706
 31
0
  0
LINE
  8
0
 62
2
 10
259.3195541072558
 20
240.889557581306
 30
0
 11
251.2429160488558
 21
232.812919522906
 31
0
  0
LINE
  8
0
 62
2
 10
236.6921147940558
 20
218.312919522906
 30
0
 11
236.4421175810558
 21
218.062661419106
 31
0
  0
LINE
  8
0
 62
2
 10
246.4421175810558
 20
228.062661419106
 30
0
 11
237.1921175810558
 21
218.812922016706
 31
0
  0
LINE
  8
0
 62
7
 10
237.1921175810558
 20
218.812922016706
 30
0
 11
236.6921147940558
 21
218.312919522906
 31
0
  0
LINE
  8
0
 62
2
 10
246.4421175810558
 20
230.891088543706
 30
0
 11
236.4421175810558
 21
220.891088543706
 31
0
  0
LINE
  8
0
 62
7
 10
177.7888755258558
 20
131.473576997306
 30
0
 11
177.8160208550558
 21
131.523929049306
 31
0
  0
LINE
  8
0
 62
7
 10
177.7681416202558
 20
108.415813864506
 30
0
 11
177.7888712170558
 21
108.467816257106
 31
0
  0
LINE
  8
0
 62
7
 10
221.4421175810558
 20
266.062919522906
 30
0
 11
221.4421175810558
 21
244.562919522906
 31
0
  0
LINE
  8
0
 62
7
 10
214.9421175810558
 20
320.525093146706
 30
0
 11
214.9421175810558
 21
313.416601242506
 31
0
  0
LINE
  8
0
 62
2
 10
207.7765270148558
 20
201.184204946906
 30
0
 11
211.3382992240558
 21
197.622432737506
 31
0
  0
LINE
  8
0
 62
2
 10
204.7142127624558
 20
198.589664949706
 30
0
 11
208.2926376830558
 21
195.011240029106
 31
0
  0
LINE
  8
0
 62
7
 10
182.6466451582558
 20
188.730618156506
 30
0
 11
177.4421175810558
 21
187.812919522906
 31
0
  0
LINE
  8
0
 62
2
 10
259.1979013276558
 20
246.424759051306
 30
0
 11
246.6921175810558
 21
233.918975304506
 31
0
  0
LINE
  8
0
 62
2
 10
246.4421175810558
 20
233.719515668506
 30
0
 11
236.4421175810558
 21
223.719515668506
 31
0
  0
LINE
  8
0
 62
2
 10
246.4421175810558
 20
236.547942793306
 30
0
 11
236.4421175810558
 21
226.547942793306
 31
0
  0
LINE
  8
0
 62
2
 10
249.9421175810558
 20
240.047942793306
 30
0
 11
247.2070943106558
 21
237.312919522906
 31
0
  0
LINE
  8
0
 62
2
 10
236.1921175810558
 20
226.462996445906
 30
0
 11
236.0420406580558
 21
226.312919522906
 31
0
  0
LINE
  8
0
 62
2
 10
236.1921175810558
 20
228.232227215106
 30
0
 11
234.2728098888558
 21
226.312919522906
 31
0
  0
LINE
  8
0
 62
2
 10
255.1792075498558
 20
248.062919522906
 30
0
 11
249.9297140906558
 21
242.813426063506
 31
0
  0
LINE
  8
0
 62
2
 10
249.9421175810558
 20
242.876369918106
 30
0
 11
236.4421175810558
 21
229.376369918106
 31
0
  0
LINE
  8
0
 62
2
 10
234.5035791196558
 20
228.312919522906
 30
0
 11
232.5035791196558
 21
226.312919522906
 31
0
  0
LINE
  8
0
 62
2
 10
232.7343483502558
 20
228.312919522906
 30
0
 11
230.9421175810558
 21
226.520688753706
 31
0
  0
LINE
  8
0
 62
2
 10
248.5462894474558
 20
244.308968909106
 30
0
 11
236.4421175810558
 21
232.204797042706
 31
0
  0
LINE
  8
0
 62
2
 10
230.9651175810558
 20
228.312919522906
 30
0
 11
230.9421175810558
 21
228.289919522906
 31
0
  0
LINE
  8
0
 62
2
 10
236.1921175810558
 20
234.732683803506
 30
0
 11
234.2723533004558
 21
232.812919522906
 31
0
  0
LINE
  8
0
 62
2
 10
245.7218129364558
 20
244.312919522906
 30
0
 11
236.4421175810558
 21
235.033224167506
 31
0
  0
LINE
  8
0
 62
7
 10
177.7681446402558
 20
131.421574529506
 30
0
 11
177.7888755258558
 21
131.473576997306
 31
0
  0
LINE
  8
0
 62
2
 10
201.4210468136558
 20
196.225976649106
 30
0
 11
205.0367520666558
 21
192.610271395906
 31
0
  0
LINE
  8
0
 62
2
 10
197.8884708524558
 20
194.101698360706
 30
0
 11
201.5645682176558
 21
190.425600995506
 31
0
  0
LINE
  8
0
 62
2
 10
194.1023716542558
 20
192.230943309506
 30
0
 11
197.8645679800558
 21
188.468746983706
 31
0
  0
LINE
  8
0
 62
7
 10
177.7421175810558
 20
183.312919522906
 30
0
 11
177.6421175810558
 21
183.312919522906
 31
0
  0
LINE
  8
0
 62
7
 10
177.8128951276558
 20
182.938672532306
 30
0
 11
177.8126837136558
 21
182.938672516706
 31
0
  0
LINE
  8
0
 62
7
 10
177.8473885038558
 20
182.934892262306
 30
0
 11
177.7421205910558
 21
182.934892262306
 31
0
  0
LINE
  8
0
 62
7
 10
177.6421175810558
 20
181.652638130506
 30
0
 11
177.9421175810558
 21
181.652638130506
 31
0
  0
LINE
  8
0
 62
7
 10
189.3374190910558
 20
182.100522068306
 30
0
 11
188.4409602940558
 21
182.099037206506
 31
0
  0
LINE
  8
0
 62
7
 10
188.4409602940558
 20
182.099037206506
 30
0
 11
187.6318492924558
 21
182.095234589506
 31
0
  0
LINE
  8
0
 62
7
 10
187.6318492924558
 20
182.095234589506
 30
0
 11
186.9926148998558
 21
182.089473052906
 31
0
  0
LINE
  8
0
 62
7
 10
177.8126837136558
 20
182.938672516706
 30
0
 11
177.7805382786558
 21
182.937871609106
 31
0
  0
LINE
  8
0
 62
7
 10
177.7805382786558
 20
182.937871609106
 30
0
 11
177.7421205910558
 21
182.934892262306
 31
0
  0
LINE
  8
0
 62
2
 10
242.8933858116558
 20
244.312919522906
 30
0
 11
235.8933858116558
 21
237.312919522906
 31
0
  0
LINE
  8
0
 62
2
 10
233.1421175810558
 20
237.339538053106
 30
0
 11
228.6154990508558
 21
232.812919522906
 31
0
  0
LINE
  8
0
 62
2
 10
258.8290251022558
 20
263.026445574306
 30
0
 11
258.3684237472558
 21
262.565844219106
 31
0
  0
LINE
  8
0
 62
2
 10
240.0649586868558
 20
244.312919522906
 30
0
 11
233.0649586868558
 21
237.312919522906
 31
0
  0
LINE
  8
0
 62
2
 10
243.4681930342558
 20
248.812919522906
 30
0
 11
239.7180997286558
 21
245.062826217306
 31
0
  0
LINE
  8
0
 62
2
 10
237.2365315622558
 20
244.312919522906
 30
0
 11
232.9421175810558
 21
240.018505541706
 31
0
  0
LINE
  8
0
 62
2
 10
232.9500292058558
 20
242.804303927306
 30
0
 11
225.4586448014558
 21
235.312919522906
 31
0
  0
LINE
  8
0
 62
2
 10
258.7112902094558
 20
268.565564930906
 30
0
 11
252.7086448014558
 21
262.562919522906
 31
0
  0
LINE
  8
0
 62
2
 10
234.4059545122558
 20
244.310769597706
 30
0
 11
232.9421175810558
 21
242.846932666506
 31
0
  0
LINE
  8
0
 62
2
 10
237.8113387848558
 20
248.812919522906
 30
0
 11
236.4421175810558
 21
247.443698319106
 31
0
  0
LINE
  8
0
 62
2
 10
190.0439674604558
 20
190.632493253706
 30
0
 11
193.9221961294558
 21
186.754264584706
 31
0
  0
LINE
  8
0
 62
2
 10
185.6430408336558
 20
189.376565630906
 30
0
 11
189.7163271764558
 21
185.303279288106
 31
0
  0
LINE
  8
0
 62
7
 10
177.9421175810558
 20
179.312919522906
 30
0
 11
185.9421175810558
 21
179.312919522906
 31
0
  0
LINE
  8
0
 62
7
 10
177.4421175810558
 20
176.818666269706
 30
0
 11
177.9421175810558
 21
176.818666269706
 31
0
  0
LINE
  8
0
 62
7
 10
186.4421175810558
 20
174.812919522906
 30
0
 11
177.9421175810558
 21
174.812919522906
 31
0
  0
LINE
  8
0
 62
2
 10
232.2921175810558
 20
247.803246552106
 30
0
 11
223.5239226828558
 21
239.035051653906
 31
0
  0
LINE
  8
0
 62
2
 10
258.5896374298558
 20
274.100766400906
 30
0
 11
250.5921175810558
 21
266.103246552106
 31
0
  0
LINE
  8
0
 62
2
 10
246.4421175810558
 20
263.100552568706
 30
0
 11
245.1544845352558
 21
261.812919522906
 31
0
  0
LINE
  8
0
 62
2
 10
226.8949363024558
 20
248.062919522906
 30
0
 11
222.3978960062558
 21
243.565879226706
 31
0
  0
LINE
  8
0
 62
2
 10
258.3526266008558
 20
279.520609821306
 30
0
 11
250.5921175810558
 21
271.760100801506
 31
0
  0
LINE
  8
0
 62
2
 10
246.4421175810558
 20
268.757406818106
 30
0
 11
239.4976302858558
 21
261.812919522906
 31
0
  0
LINE
  8
0
 62
7
 10
189.3374190910558
 20
88.55050500050601
 30
0
 11
189.3374190910558
 21
182.100572417106
 31
0
  0
LINE
  8
0
 62
7
 10
186.4421175810558
 20
83.79817500870598
 30
0
 11
186.4421175810558
 21
182.074358409706
 31
0
  0
LINE
  8
0
 62
7
 10
185.9421175810558
 20
136.062919522906
 30
0
 11
185.9421175810558
 21
179.312919522906
 31
0
  0
LINE
  8
0
 62
7
 10
185.9421175810558
 20
90.31291952290599
 30
0
 11
185.9421175810558
 21
133.562919522906
 31
0
  0
LINE
  8
0
 62
2
 10
180.9341016796558
 20
188.428650535706
 30
0
 11
186.5387184780558
 21
182.824033737106
 31
0
  0
LINE
  8
0
 62
2
 10
177.4421175810558
 20
186.263780384506
 30
0
 11
184.3929784428558
 21
179.312919522906
 31
0
  0
LINE
  8
0
 62
2
 10
252.4880820528558
 20
279.312919522906
 30
0
 11
250.5921175810558
 21
277.416955051106
 31
0
  0
LINE
  8
0
 62
2
 10
246.4421175810558
 20
274.414261067706
 30
0
 11
236.4421175810558
 21
264.414261067706
 31
0
  0
LINE
  8
0
 62
2
 10
232.2921175810558
 20
264.773809300506
 30
0
 11
230.0812278034558
 21
262.562919522906
 31
0
  0
LINE
  8
0
 62
2
 10
246.4421175810558
 20
280.071115317106
 30
0
 11
236.4421175810558
 21
270.071115317106
 31
0
  0
LINE
  8
0
 62
7
 10
177.9421175810558
 20
83.51291952290598
 30
0
 11
177.9421175810558
 21
183.112919522906
 31
0
  0
LINE
  8
0
 62
7
 10
177.7421175810558
 20
129.862056807106
 30
0
 11
177.7421175810558
 21
131.262406894706
 31
0
  0
LINE
  8
0
 62
7
 10
177.7421175810558
 20
106.856305369306
 30
0
 11
177.7421175810558
 21
108.256655456906
 31
0
  0
LINE
  8
0
 62
7
 10
177.7421175810558
 20
83.36173288590601
 30
0
 11
177.7421175810558
 21
83.33461632010597
 31
0
  0
LINE
  8
0
 62
7
 10
177.7421175810558
 20
154.262919522906
 30
0
 11
177.7421175810558
 21
152.862919522906
 31
0
  0
LINE
  8
0
 62
7
 10
177.7421175810558
 20
183.312919522906
 30
0
 11
177.7421175810558
 21
182.934892262306
 31
0
  0
LINE
  8
0
 62
7
 10
177.7159708582558
 20
86.03629842150599
 30
0
 11
177.7159708582558
 21
84.19762103490598
 31
0
  0
LINE
  8
0
 62
7
 10
177.6421175810558
 20
86.318558885306
 30
0
 11
177.6421175810558
 21
183.301310171906
 31
0
  0
LINE
  8
0
 62
7
 10
177.6421175810558
 20
83.368201504306
 30
0
 11
177.6421175810558
 21
84.19234924950598
 31
0
  0
LINE
  8
0
 62
7
 10
177.4421175810558
 20
83.33496525590601
 30
0
 11
177.4421175810558
 21
187.812919522906
 31
0
  0
LINE
  8
0
 62
7
 10
177.4421175810558
 20
78.81291952290599
 30
0
 11
177.4421175810558
 21
83.112919522906
 31
0
  0
LINE
  8
0
 62
2
 10
177.9421175810558
 20
180.106926135106
 30
0
 11
178.7361241934558
 21
179.312919522906
 31
0
  0
LINE
  8
0
 62
7
 10
177.7421175810558
 20
154.262919522906
 30
0
 11
177.9421175810558
 21
154.262919522906
 31
0
  0
LINE
  8
0
 62
2
 10
232.2921175810558
 20
270.430663550106
 30
0
 11
224.4243735538558
 21
262.562919522906
 31
0
  0
LINE
  8
0
 62
2
 10
246.4421175810558
 20
285.727969566706
 30
0
 11
236.4421175810558
 21
275.727969566706
 31
0
  0
LINE
  8
0
 62
2
 10
223.2675193044558
 20
267.062919522906
 30
0
 11
221.4421175810558
 21
265.237517799506
 31
0
  0
LINE
  8
0
 62
2
 10
232.2921175810558
 20
276.087517799506
 30
0
 11
224.1595242840558
 21
267.954924502306
 31
0
  0
LINE
  8
0
 62
2
 10
246.4421175810558
 20
291.384823816106
 30
0
 11
236.4421175810558
 21
281.384823816106
 31
0
  0
LINE
  8
0
 62
2
 10
229.8606650548558
 20
279.312919522906
 30
0
 11
224.2866446042558
 21
273.738899072106
 31
0
  0
LINE
  8
0
 62
2
 10
246.4421175810558
 20
297.041678065706
 30
0
 11
236.4421175810558
 21
287.041678065706
 31
0
  0
LINE
  8
0
 62
7
 10
177.7448165678558
 20
129.808850401506
 30
0
 11
177.7421175810558
 21
129.862056807106
 31
0
  0
LINE
  8
0
 62
7
 10
177.7448158798558
 20
106.803103204106
 30
0
 11
177.7421175810558
 21
106.856305369306
 31
0
  0
LINE
  8
0
 62
7
 10
177.6439885886558
 20
86.296365619906
 30
0
 11
177.6421175810558
 21
86.318558885306
 31
0
  0
LINE
  8
0
 62
7
 10
177.7421175810558
 20
152.862919522906
 30
0
 11
177.9421175810558
 21
152.862919522906
 31
0
  0
LINE
  8
0
 62
2
 10
225.4730167078558
 20
280.582125425306
 30
0
 11
224.6298505322558
 21
279.738959249706
 31
0
  0
LINE
  8
0
 62
2
 10
244.6565047888558
 20
300.912919522906
 30
0
 11
236.4421175810558
 21
292.698532315106
 31
0
  0
LINE
  8
0
 62
2
 10
238.9996505392558
 20
300.912919522906
 30
0
 11
236.4421175810558
 21
298.355386564706
 31
0
  0
LINE
  8
0
 62
7
 10
236.4421175810558
 20
299.912919522906
 30
0
 11
237.4421175810558
 21
300.912919522906
 31
0
  0
LINE
  8
0
 62
7
 10
177.9421175810558
 20
136.062919522906
 30
0
 11
186.4421175810558
 21
136.062919522906
 31
0
  0
LINE
  8
0
 62
2
 10
182.3881444468558
 20
136.062919522906
 30
0
 11
184.8881444468558
 21
133.562919522906
 31
0
  0
LINE
  8
0
 62
2
 10
177.9421175810558
 20
134.852092139106
 30
0
 11
179.2312901974558
 21
133.562919522906
 31
0
  0
LINE
  8
0
 62
7
 10
177.9421175810558
 20
133.562919522906
 30
0
 11
186.4421175810558
 21
133.562919522906
 31
0
  0
LINE
  8
0
 62
7
 10
177.4421175810558
 20
133.312919522906
 30
0
 11
177.9421175810558
 21
133.312919522906
 31
0
  0
LINE
  8
0
 62
7
 10
177.8421189606558
 20
131.262475575506
 30
0
 11
177.7421175810558
 21
131.262406894706
 31
0
  0
LINE
  8
0
 62
7
 10
177.7938814214558
 20
129.862086203506
 30
0
 11
177.7421175810558
 21
129.862056807106
 31
0
  0
LINE
  8
0
 62
7
 10
177.9153226942558
 20
129.862488165306
 30
0
 11
177.7938814214558
 21
129.862086203506
 31
0
  0
LINE
  8
0
 62
7
 10
177.9353029668558
 20
131.262786846706
 30
0
 11
177.8421189606558
 21
131.262475575506
 31
0
  0
LINE
  8
0
 62
7
 10
177.9421175810558
 20
131.262919522906
 30
0
 11
177.9353029668558
 21
131.262786846706
 31
0
  0
LINE
  8
0
 62
2
 10
248.5421175810558
 20
291.283380966106
 30
0
 11
252.6872868622558
 21
293.216305146306
 31
0
  0
LINE
  8
0
 62
2
 10
248.5421175810558
 20
294.785896209906
 30
0
 11
252.8665932208558
 21
296.802432318106
 31
0
  0
LINE
  8
0
 62
2
 10
248.5421175810558
 20
298.288411453506
 30
0
 11
253.0458995794558
 21
300.388559490106
 31
0
  0
LINE
  8
0
 62
2
 10
231.4386199412558
 20
290.312919522906
 30
0
 11
234.3421175810558
 21
291.666842707706
 31
0
  0
LINE
  8
0
 62
2
 10
248.5421175810558
 20
301.790926697306
 30
0
 11
253.2252059380558
 21
303.974686661906
 31
0
  0
LINE
  8
0
 62
2
 10
230.1959647994558
 20
293.235975157506
 30
0
 11
234.3421175810558
 21
295.169357951506
 31
0
  0
LINE
  8
0
 62
2
 10
258.7895843210558
 20
309.372452671306
 30
0
 11
267.9421175810558
 21
313.640349021906
 31
0
  0
LINE
  8
0
 62
2
 10
248.5421175810558
 20
305.293441940906
 30
0
 11
253.5688509256558
 21
307.637446195106
 31
0
  0
LINE
  8
0
 62
2
 10
230.0248291308558
 20
296.658688528306
 30
0
 11
234.3421175810558
 21
298.671873195106
 31
0
  0
LINE
  8
0
 62
7
 10
177.7938823694558
 20
108.256868907706
 30
0
 11
177.7421175810558
 21
108.256655456906
 31
0
  0
LINE
  8
0
 62
2
 10
247.5062399724558
 20
308.312919522906
 30
0
 11
267.9421175810559
 21
317.1428642655059
 31
0
  0
LINE
  8
0
 62
2
 10
229.8536934622558
 20
300.081401899106
 30
0
 11
234.3421175810558
 21
302.174388438906
 31
0
  0
LINE
  8
0
 62
2
 10
239.9950717932558
 20
308.312919522906
 30
0
 11
267.9355181830558
 21
320.642302159506
 31
0
  0
LINE
  8
0
 62
2
 10
229.6825577938558
 20
303.504115270106
 30
0
 11
234.3421175810558
 21
305.676903682506
 31
0
  0
LINE
  8
0
 62
2
 10
229.5078654888558
 20
306.925170154106
 30
0
 11
265.0566328920558
 21
322.802371145106
 31
0
  0
LINE
  8
0
 62
2
 10
182.8833104510558
 20
90.31291952290599
 30
0
 11
186.4421175810558
 21
86.75411239270602
 31
0
  0
LINE
  8
0
 62
7
 10
177.7938813764558
 20
106.856530740906
 30
0
 11
177.7421175810558
 21
106.856305369306
 31
0
  0
LINE
  8
0
 62
2
 10
225.1321825224558
 20
309.086732408306
 30
0
 11
260.1385910778558
 21
324.011565827706
 31
0
  0
LINE
  8
0
 62
2
 10
220.4098531028558
 20
310.387189279106
 30
0
 11
253.7205492638558
 21
325.220760510306
 31
0
  0
LINE
  8
0
 62
2
 10
215.8347604202558
 20
311.756303768306
 30
0
 11
247.2789083222558
 21
325.719489251906
 31
0
  0
LINE
  8
0
 62
2
 10
177.9421175810558
 20
89.59725814330596
 30
0
 11
185.4608532334558
 21
82.07852249090598
 31
0
  0
LINE
  8
0
 62
2
 10
177.9421175810558
 20
83.94040389370599
 30
0
 11
181.4502224636558
 21
80.43229901130599
 31
0
  0
LINE
  8
0
 62
7
 10
186.4421175810558
 20
94.81291952290599
 30
0
 11
177.9421175810558
 21
94.81291952290599
 31
0
  0
LINE
  8
0
 62
7
 10
177.9421175810558
 20
90.31291952290599
 30
0
 11
185.9421175810558
 21
90.31291952290599
 31
0
  0
LINE
  8
0
 62
7
 10
177.6421175810558
 20
89.230185073906
 30
0
 11
177.9421175810558
 21
89.230185073906
 31
0
  0
LINE
  8
0
 62
2
 10
214.9421175810558
 20
314.842572820106
 30
0
 11
239.7677401428558
 21
325.719489251906
 31
0
  0
LINE
  8
0
 62
2
 10
214.9421175810558
 20
318.345088063706
 30
0
 11
232.2565719634558
 21
325.719489251906
 31
0
  0
LINE
  8
0
 62
7
 10
177.9374949002558
 20
86.01409219250598
 30
0
 11
177.7159708582558
 21
86.03629842150599
 31
0
  0
LINE
  8
0
 62
7
 10
177.9565568380558
 20
86.21237430710602
 30
0
 11
177.6701380188558
 21
86.23955277090602
 31
0
  0
LINE
  8
0
 62
7
 10
177.7421184830558
 20
83.36173288590601
 30
0
 11
177.7616945552558
 21
83.36153773450599
 31
0
  0
LINE
  8
0
 62
7
 10
177.7421184830558
 20
83.36173288590601
 30
0
 11
177.7788037312558
 21
83.36173288590601
 31
0
  0
LINE
  8
0
 62
7
 10
177.7421175810558
 20
83.31291952290599
 30
0
 11
177.6421175810558
 21
83.31291952290599
 31
0
  0
LINE
  8
0
 62
7
 10
177.9421175810558
 20
84.20266717410601
 30
0
 11
177.6387816392558
 21
84.19761183070597
 31
0
  0
LINE
  8
0
 62
7
 10
177.6421175810558
 20
84.19234924950598
 30
0
 11
177.9421175810558
 21
84.19731582930598
 31
0
  0
ARC
  8
0
 62
7
 10
14.62441497465581
 20
94.81291952290599
 30
0
 40
4.999989978200009
 50
180
 51
0
  0
ARC
  8
0
 62
7
 10
14.62441497465581
 20
174.812919522906
 30
0
 40
4.999989978199992
 50
0
 51
180
  0
ARC
  8
0
 62
7
 10
30.62441497465581
 20
230.812919522906
 30
0
 40
4.999999999999996
 50
0
 51
67.08681211610016
  0
ARC
  8
0
 62
7
 10
-1.375585024944201
 20
230.812919522906
 30
0
 40
4.999999999999957
 50
112.9131878886002
 51
180
  0
ARC
  8
0
 62
7
 10
14.62441497465581
 20
94.81291952290599
 30
0
 40
4.5
 50
180
 51
0
  0
ARC
  8
0
 62
7
 10
14.62441497465581
 20
174.812919522906
 30
0
 40
4.5
 50
0
 51
180
  0
ARC
  8
0
 62
7
 10
18.16730819345581
 20
134.062919522906
 30
0
 40
0.5
 50
270
 51
315.0000000000072
  0
ARC
  8
0
 62
7
 10
11.0815217558558
 20
134.062919522906
 30
0
 40
0.4999999999999388
 50
224.9999999999937
 51
270
  0
ARC
  8
0
 62
7
 10
11.0815217558558
 20
135.562919522906
 30
0
 40
0.5
 50
90
 51
135.000000000004
  0
ARC
  8
0
 62
7
 10
18.16730819345581
 20
135.562919522906
 30
0
 40
0.4999999999999663
 50
44.9999999999951
 51
90
  0
ARC
  8
0
 62
7
 10
2.500039584455806
 20
290.812919522906
 30
0
 40
0.5000000000000046
 50
182.8624104263079
 51
270
  0
ARC
  8
0
 62
7
 10
26.7621370630558
 20
290.812919522906
 30
0
 40
0.5
 50
270
 51
357.1375895736922
  0
ARC
  8
0
 62
7
 10
39.13776167305581
 20
320.525093146706
 30
0
 40
2
 50
0
 51
76.1875947252006
  0
ARC
  8
0
 62
7
 10
-9.875585025344194
 20
320.525093146706
 30
0
 40
2.000000000000062
 50
103.8124052747997
 51
180
  0
ARC
  8
0
 62
7
 10
39.13776167305581
 20
313.416601242506
 30
0
 40
1.999999999999924
 50
285.3958442267003
 51
0
  0
ARC
  8
0
 62
7
 10
-9.875585025344194
 20
313.416601242506
 30
0
 40
1.999999999999996
 50
180
 51
254.6041557732995
  0
ARC
  8
0
 62
7
 10
-0.8008706189442023
 20
306.768662605106
 30
0
 40
2.000000000000017
 50
2.862373688301539
 51
74.60260046250043
  0
ARC
  8
0
 62
7
 10
30.0630472666558
 20
306.768662605106
 30
0
 40
2.000000000000042
 50
105.3969082063
 51
177.1376029259999
  0
ARC
  8
0
 62
7
 10
29.6678704722558
 20
278.813719007506
 30
0
 40
1.999999999999994
 50
1.259025996101167
 51
88.37990345440001
  0
ARC
  8
0
 62
7
 10
-0.4190405231441901
 20
278.813719007506
 30
0
 40
2.000000000000123
 50
91.62009654559989
 51
178.7409740038989
  0
ARC
  8
0
 62
7
 10
-3.171141123544189
 20
235.512919522906
 30
0
 40
0.1999999999999997
 50
178.7409546275035
 51
212.0395051793822
  0
ARC
  8
0
 62
7
 10
32.4199710726558
 20
235.512919522906
 30
0
 40
0.2000000000000067
 50
327.9604948759943
 51
1.259045372496496
  0
ARC
  8
0
 62
7
 10
21.6203073224558
 20
221.312919522906
 30
0
 40
5.000000000000015
 50
55.68013400410001
 51
90
  0
ARC
  8
0
 62
7
 10
7.628522626655808
 20
221.312919522906
 30
0
 40
5
 50
90
 51
124.3198659958998
  0
ARC
  8
0
 62
7
 10
21.6203073224558
 20
223.312919522906
 30
0
 40
5
 50
270
 51
304.3198659959002
  0
ARC
  8
0
 62
7
 10
7.628522626655808
 20
223.312919522906
 30
0
 40
4.999999999999976
 50
235.6801340041001
 51
270
  0
ARC
  8
0
 62
7
 10
178.2421175810558
 20
154.262919522906
 30
0
 40
0.499991999800032
 50
126.8865712024069
 51
180
  0
ARC
  8
0
 62
7
 10
178.2421175810558
 20
152.862919522906
 30
0
 40
0.4999917977999928
 50
180
 51
233.0938931504095
  0
ARC
  8
0
 62
7
 10
258.6921175810558
 20
230.312919522906
 30
0
 40
2
 50
270
 51
0
  0
ARC
  8
0
 62
7
 10
184.4421175810558
 20
83.79817500870598
 30
0
 40
1.999999999999997
 50
292.0000959305019
 51
0
  0
ARC
  8
0
 62
7
 10
255.6921175810558
 20
230.812919522906
 30
0
 40
5
 50
0
 51
73.87267449479941
  0
ARC
  8
0
 62
7
 10
227.1921175810558
 20
230.812919522906
 30
0
 40
5.000000000000028
 50
106.1276191113006
 51
180
  0
ARC
  8
0
 62
7
 10
177.6421175810558
 20
83.112919522906
 30
0
 40
0.1999999999999886
 50
90
 51
180
  0
ARC
  8
0
 62
7
 10
255.9421175810558
 20
233.312919522906
 30
0
 40
0.5
 50
270
 51
0
  0
ARC
  8
0
 62
7
 10
226.9421175810558
 20
233.312919522906
 30
0
 40
0.5
 50
180
 51
270
  0
ARC
  8
0
 62
7
 10
225.9421176250558
 20
235.135823811906
 30
0
 40
0.4999999986000034
 50
0
 51
101.0778702960964
  0
ARC
  8
0
 62
7
 10
185.9421175810558
 20
89.81291952290599
 30
0
 40
0.5
 50
0
 51
90
  0
ARC
  8
0
 62
7
 10
185.9421175810558
 20
179.812919522906
 30
0
 40
0.5
 50
270
 51
0
  0
ARC
  8
0
 62
7
 10
177.7421175810558
 20
183.112919522906
 30
0
 40
0.2000000000000171
 50
0
 51
90
  0
ARC
  8
0
 62
7
 10
177.7421175810558
 20
83.51291952290598
 30
0
 40
0.1999999999999886
 50
270
 51
0
  0
ARC
  8
0
 62
7
 10
247.1921175810558
 20
232.312919522906
 30
0
 40
0.5
 50
90
 51
180
  0
ARC
  8
0
 62
7
 10
235.6921175810558
 20
232.312919522906
 30
0
 40
0.5
 50
0
 51
90
  0
ARC
  8
0
 62
7
 10
235.6921175810558
 20
228.812919522906
 30
0
 40
0.5
 50
270
 51
0
  0
ARC
  8
0
 62
7
 10
247.1921175810558
 20
228.812919522906
 30
0
 40
0.5
 50
180
 51
270
  0
ARC
  8
0
 62
7
 10
230.0802871158558
 20
225.312919522906
 30
0
 40
3
 50
90
 51
174.8774839001985
  0
ARC
  8
0
 62
7
 10
189.4421175810558
 20
182.074358409706
 30
0
 40
3.000000000000056
 50
105.477504984099
 51
180
  0
ARC
  8
0
 62
7
 10
177.6421175810558
 20
183.512919522906
 30
0
 40
0.1999999999999886
 50
180
 51
270
  0
ARC
  8
0
 62
7
 10
256.9421058426558
 20
235.135870183106
 30
0
 40
0.4999996213999834
 50
79.26789633350509
 51
179.9999999991956
  0
ARC
  8
0
 62
7
 10
173.9642362748558
 20
237.971005807106
 30
0
 40
55.0000000000001
 50
285.4775049840999
 51
340.2082234195
  0
ARC
  8
0
 62
7
 10
202.1921175810558
 20
227.812919522906
 30
0
 40
24.99999999999997
 50
340.2082234194999
 51
354.8774839002
  0
ARC
  8
0
 62
7
 10
173.9642362748558
 20
237.971005807106
 30
0
 40
50
 50
280.0000000000001
 51
340.2082234195
  0
ARC
  8
0
 62
7
 10
202.1921175810558
 20
227.812919522906
 30
0
 40
20.00000000000012
 50
340.2082234195001
 51
0
  0
ARC
  8
0
 62
7
 10
232.6653226618558
 20
243.862919522906
 30
0
 40
0.476794919199989
 50
0
 51
29.99999999999881
  0
ARC
  8
0
 62
7
 10
232.6421175810558
 20
243.212919522906
 30
0
 40
0.5000000000000475
 50
311.8103148958145
 51
0
  0
ARC
  8
0
 62
7
 10
250.2189125004558
 20
243.862919522906
 30
0
 40
0.4767949192000344
 50
150.0000000000012
 51
180
  0
ARC
  8
0
 62
7
 10
250.2421175810558
 20
243.212919522906
 30
0
 40
0.5
 50
180
 51
228.1896851042025
  0
ARC
  8
0
 62
7
 10
256.4855730788558
 20
278.813719007506
 30
0
 40
2.000000000000052
 50
1.259045069400803
 51
88.37990345439604
  0
ARC
  8
0
 62
7
 10
226.3986620834558
 20
278.813719007506
 30
0
 40
2.000000000000121
 50
91.62009654559826
 51
178.7409549305992
  0
ARC
  8
0
 62
7
 10
258.3321020840558
 20
263.062912465306
 30
0
 40
0.4999995445998721
 50
270.000718295609
 51
1.259842413803689
  0
ARC
  8
0
 62
7
 10
258.6727610854558
 20
247.562926930306
 30
0
 40
0.4999995219999481
 50
1.258178646701961
 51
89.99924280990699
  0
ARC
  8
0
 62
7
 10
249.8421175810558
 20
242.765705927306
 30
0
 40
0.1000000000000227
 50
0
 51
48.18968510417514
  0
ARC
  8
0
 62
7
 10
233.0421175810558
 20
242.765705927306
 30
0
 40
0.1000000000001172
 50
131.8103148958249
 51
180
  0
ARC
  8
0
 62
7
 10
222.4421175810558
 20
266.062919522906
 30
0
 40
1
 50
90
 51
180
  0
ARC
  8
0
 62
7
 10
222.4421175810558
 20
244.562919522906
 30
0
 40
1
 50
180
 51
270
  0
ARC
  8
0
 62
7
 10
223.6465614830558
 20
235.512919522906
 30
0
 40
0.199999999999904
 50
178.7409547879189
 51
269.9999999898059
  0
ARC
  8
0
 62
7
 10
259.2376736792558
 20
235.512919522906
 30
0
 40
0.2000000000000171
 50
270.0000000101941
 51
1.259045212316957
  0
ARC
  8
0
 62
7
 10
227.0421175810558
 20
233.312919522906
 30
0
 40
0.5
 50
180
 51
269.9999999996091
  0
ARC
  8
0
 62
7
 10
255.8421175810558
 20
233.312919522906
 30
0
 40
0.5
 50
270.0000000003908
 51
0
  0
ARC
  8
0
 62
7
 10
221.9421175810558
 20
247.562919522906
 30
0
 40
0.5
 50
90
 51
180
  0
ARC
  8
0
 62
7
 10
221.9421175810558
 20
263.062919522906
 30
0
 40
0.5
 50
180
 51
270
  0
ARC
  8
0
 62
7
 10
216.9421175810558
 20
320.525093146706
 30
0
 40
1.999999999999958
 50
103.8132691128978
 51
180
  0
ARC
  8
0
 62
7
 10
265.9421175810558
 20
313.416601242506
 30
0
 40
2.000000000000009
 50
285.396736706702
 51
0
  0
ARC
  8
0
 62
7
 10
216.9421175810558
 20
313.416601242506
 30
0
 40
2
 50
180
 51
254.6032632932972
  0
ARC
  8
0
 62
7
 10
227.5168319874558
 20
306.768662605106
 30
0
 40
2.000000000000106
 50
2.862405226101054
 51
74.60326329329722
  0
ARC
  8
0
 62
7
 10
256.1174031746559
 20
305.7314516482587
 30
0
 40
2.973507517974204
 50
85.77636554232586
 51
157.5172236095216
  0
ARC
  8
0
 62
7
 10
265.9421175810558
 20
320.525093146706
 30
0
 40
2
 50
0
 51
76.18673088709748
  0
ARC
  8
0
 62
7
 10
230.8177421910558
 20
290.812919522906
 30
0
 40
0.4999999999998596
 50
182.8624052260938
 51
270
  0
ARC
  8
0
 62
7
 10
252.0664929712558
 20
290.812919522906
 30
0
 40
0.5
 50
270
 51
357.1375947739073
  0
ARC
  8
0
 62
7
 10
248.3970818078558
 20
239.312919522906
 30
0
 40
5.000000000000093
 50
72.00059278570005
 51
90
  0
ARC
  8
0
 62
7
 10
234.4871533544558
 20
239.312919522906
 30
0
 40
5
 50
90
 51
107.9994072143003
  0
ARC
  8
0
 62
7
 10
246.2421175810558
 20
262.012919522906
 30
0
 40
0.1999999999999886
 50
270
 51
0
  0
ARC
  8
0
 62
7
 10
246.2421175810558
 20
248.612919522906
 30
0
 40
0.2000000000000171
 50
0
 51
90
  0
ARC
  8
0
 62
7
 10
236.6421175810558
 20
262.012919522906
 30
0
 40
0.1999999999999886
 50
180
 51
270
  0
ARC
  8
0
 62
7
 10
236.6421175810558
 20
248.612919522906
 30
0
 40
0.1999999999999886
 50
90
 51
180
  0
ARC
  8
0
 62
7
 10
241.4421175810558
 20
255.312919522906
 30
0
 40
10.39999999999997
 50
241.2643462550995
 51
298.7356537449004
  0
ARC
  8
0
 62
7
 10
234.4462252332558
 20
221.312919522906
 30
0
 40
5
 50
90
 51
107.5069528179004
  0
ARC
  8
0
 62
7
 10
248.4380099290558
 20
221.312919522906
 30
0
 40
5.000000000000149
 50
72.4930471820996
 51
90
  0
ARC
  8
0
 62
7
 10
248.4380099290558
 20
223.312919522906
 30
0
 40
5
 50
270
 51
287.5069528179012
  0
ARC
  8
0
 62
7
 10
234.4462252332558
 20
223.312919522906
 30
0
 40
4.999999999999932
 50
252.4930471820989
 51
270
  0
CIRCLE
  8
0
 62
7
 10
14.62441497465581
 20
255.312919522906
 30
0
 40
7.25
  0
CIRCLE
  8
0
 62
7
 10
14.62441497465581
 20
255.312919522906
 30
0
 40
6.6999996632
  0
CIRCLE
  8
0
 62
7
 10
14.62441497465581
 20
255.312919522906
 30
0
 40
6.5
  0
DIMENSION
  8
1
  6
CONTINUOUS
 62
2
  2
*D0
  3
DMST_1
 10
-19.9952161639001
 20
94.81291952290599
 30
0
 11
-22.7952161639001
 21
86.81291952630599
 31
0
 12
0
 22
0
 32
0
 70
0
 13
14.62362145965581
 23
78.81291952970599
 33
0
 14
9.674414974655807
 24
94.81291952290599
 34
0
 50
90
 53
0
  0
DIMENSION
  8
1
  6
CONTINUOUS
 62
2
  2
*D1
  3
DMST_1
 10
-19.9952161639001
 20
174.812919522906
 30
0
 11
-22.7952161639001
 21
134.812919522906
 31
0
 12
0
 22
0
 32
0
 70
0
 13
9.674414974655807
 23
94.81291952290599
 33
0
 14
9.674414974655807
 24
174.812919522906
 34
0
 50
90
 53
0
  0
DIMENSION
  8
1
  6
CONTINUOUS
 62
2
  2
*D2
  3
DMST_1
 10
-19.8352161639001
 20
255.312919522906
 30
0
 11
-22.6352161639001
 21
217.129259685436
 31
0
 12
0
 22
0
 32
0
 70
0
  1
81
 13
9.674414974655807
 23
174.812919522906
 33
0
 14
-3.125585025344194
 24
255.312919522906
 34
0
 50
90
 53
0
  0
DIMENSION
  8
1
  6
CONTINUOUS
 62
2
  2
*D3
  3
DMST_1
 10
278.458489172501
 20
262.562919522906
 30
0
 11
275.498489172501
 21
272.534213326611
 31
0
 12
0
 22
0
 32
0
 70
0
  1
Ö<>
 13
250.5921175810558
 23
248.062919522906
 33
0
 14
258.3321067274558
 24
262.562919522906
 34
0
 50
90
 53
0
  0
DIMENSION
  8
1
  6
CONTINUOUS
 62
2
  2
*D4
  3
DMST_1
 10
241.4421175810558
 20
340.682774843379
 30
0
 11
209.4421175810558
 21
343.482774843379
 31
0
 12
0
 22
0
 32
0
 70
0
  1
64
 13
177.4421175810558
 23
187.812919522906
 33
0
 14
241.4421175810558
 24
331.719489251906
 34
0
 53
0
  0
DIMENSION
  8
1
  6
CONTINUOUS
 62
2
  2
*D5
  3
DMST_1
 10
156.148052028548
 20
255.312919522906
 30
0
 11
153.348052028548
 21
221.562919522906
 31
0
 12
0
 22
0
 32
0
 70
0
  1
68
 13
177.4421175810558
 23
187.812919522906
 33
0
 14
215.9421175810558
 24
255.312919522906
 34
0
 50
90
 53
0
  0
DIMENSION
  8
1
  6
CONTINUOUS
 62
2
  2
*D6
  3
DMST_1
 10
155.631470000652
 20
187.812919522906
 30
0
 11
152.831470000652
 21
133.312919522906
 31
0
 12
0
 22
0
 32
0
 70
0
 13
177.4421175810558
 23
78.81291952290599
 33
0
 14
177.4421175810558
 24
187.812919522906
 34
0
 50
90
 53
0
  0
DIMENSION
  8
1
  6
CONTINUOUS
 62
2
  2
*D7
  3
DMST_1
 10
35.62441497465581
 20
52.8393511666382
 30
0
 11
14.62441497465581
 21
55.6393511666382
 31
0
 12
0
 22
0
 32
0
 70
0
 13
-6.375585025344194
 23
133.312919522906
 33
0
 14
35.62441497465581
 24
133.312919522906
 34
0
 53
0
  0
DIMENSION
  8
1
  6
CONTINUOUS
 62
2
  2
*D8
  3
DMST_1
 10
-40.7863964540808
 20
325.719489251906
 30
0
 11
-43.5863964540808
 21
206.056475118494
 31
0
 12
0
 22
0
 32
0
 70
0
  1
247
 13
14.62362145965581
 23
78.81291952970599
 33
0
 14
2.874414974655807
 24
325.719489251906
 34
0
 50
90
 53
0
  0
DIMENSION
  8
0
  6
CONTINUOUS
 62
2
  2
*D9
  3
DMST_2
 10
-11.87558502534419
 20
339.210312004661
 30
0
 11
14.6310883238558
 21
339.210312004661
 31
0
 12
0
 22
0
 32
0
 70
0
  1
53
 13
41.13776167305581
 23
321.525093968906
 33
0
 14
-11.87558502534419
 24
321.525093968906
 34
0
 53
0
  0
DIMENSION
  8
0
  6
CONTINUOUS
 62
2
  2
*D10
  3
DMST_3
 10
19.12441497465581
 20
67.8358001645009
 30
0
 11
14.62441497465581
 21
67.8358001645009
 31
0
 12
0
 22
0
 32
0
 70
0
 13
10.12441497465581
 23
93.81291952290599
 33
0
 14
19.12441497465581
 24
93.812919536506
 34
0
 53
0
  0
DIMENSION
  8
0
  6
CONTINUOUS
 62
2
  2
*D11
  3
DMST_2
 10
260.6921175810558
 20
60.1666594154899
 30
0
 11
219.0671175810558
 21
60.1666594154899
 31
0
 12
0
 22
0
 32
0
 70
0
 13
177.4421175810558
 23
82.112919522906
 33
0
 14
260.6921175810558
 24
229.312919522906
 34
0
 53
0
  0
DIMENSION
  8
0
  6
CONTINUOUS
 62
2
  2
*D12
  3
DMST_3
 10
186.4421175810558
 20
69.8463745826158
 30
0
 11
181.9421175810558
 21
69.8463745826158
 31
0
 12
0
 22
0
 32
0
 70
0
 13
177.4421175810558
 23
77.81291952290599
 33
0
 14
186.4421175810558
 24
82.79817500870598
 34
0
 53
0
  0
ENDSEC
  0
EOF
