0
SECTION
2
HEADER
9
$EXTMAX
10
594.0000000000
20
420.0000000000
30
0.0000000000
9
$EXTMIN
10
0.0000000000
20
0.0000000000
30
0.0000000000
9
$LIMMIN
10
0.0000000000
20
0.0000000000
9
$LIMMAX
10
594.0000000000
20
420.0000000000
9
$VIEWCTR
10
297.0000000000
20
210.0000000000
9
$VIEWSIZE
40
420.0000000000
9
$CLAYER
8
0
9
$LTSCALE
40
32.6700000000
9
$CELTYPE
6
BYLAYER
9
$DIMSCALE
40
1
9
$DIMASZ
40
3.5000000000
9
$DIMEXO
40
3.7125000000
9
$DIMDLI
40
22.5720000000
9
$DIMEXE
40
10.6920000000
9
$DIMCEN
40
5.3460000000
9
$DIMLFAC
40
1.0000000000
9
$DIMBLK
1
_FILLED
9
$DIMTXT
40
3.5000000000
9
$PDMODE
70
3
9
$PDSIZE
40
0.3125000000
0
ENDSEC
0
SECTION
2
TABLES
0
TABLE
2
LTYPE
70
6
0
LTYPE
2
BYBLOCK
70
0
3

72
65
73
0
40
0.0
0
LTYPE
2
BYLAYER
70
0
3

72
65
73
0
40
0.0
0
LTYPE
2
CONTINUOUS
70
64
3
Solid line
72
65
73
0
40
0
0
LTYPE
2
CENTER
70
64
3
____ _ ____ _ ____ _ ____ _ ____ _ ____ _ ____
72
65
73
4
40
0.6
49
0.375
49
-0.075
49
0.075
49
-0.075
0
LTYPE
2
HIDDEN
70
64
3
- - - - - - - - - - - - - - - - - - - -
72
65
73
2
40
0.2
49
0.1
49
-0.1
0
LTYPE
2
PHANTOM
70
64
3
_____ _ _ _____ _ _ _____ _ _ _____
72
65
73
6
40
0.8
49
0.45
49
-0.05
49
0.1
49
-0.05
49
0.1
49
-0.05
0
LTYPE
2
DOT
70
64
3
. . . . . . . . . . . . . . . . . . . .
72
65
73
2
40
0.2
49
0.1
49
-0.1
0
LTYPE
2
DASHED
70
64
3
- - - - - - - - - - - - - - - - - - - -
72
65
73
2
40
0.2
49
0.1
49
-0.1
0
ENDTAB
0
TABLE
2
LAYER
70
36
0
LAYER
2
0
70
0
62
7
6
CONTINUOUS
0
LAYER
2
DEFAULT_1
70
0
62
7
6
CENTER
0
LAYER
2
DEFAULT_2
70
0
62
8
6
HIDDEN
0
LAYER
2
DEFAULT_3
70
0
62
7
6
PHANTOM
0
LAYER
2
_2D_DELETED_OBJS
70
0
62
7
6
CONTINUOUS
0
LAYER
2
ASSI
70
0
62
7
6
CONTINUOUS
0
LAYER
2
AXES
70
0
62
7
6
CONTINUOUS
0
LAYER
2
CURVE
70
0
62
7
6
CONTINUOUS
0
LAYER
2
DIMS
70
0
62
7
6
CONTINUOUS
0
LAYER
2
GEOM
70
0
62
7
6
CONTINUOUS
0
LAYER
2
NOGEOM
70
0
62
7
6
CONTINUOUS
0
LAYER
2
PIANI
70
0
62
7
6
CONTINUOUS
0
LAYER
2
PLANES
70
0
62
7
6
CONTINUOUS
0
LAYER
2
SURF_FILETTI
70
0
62
7
6
CONTINUOUS
0
ENDTAB
0
TABLE
2
STYLE
70
1
0
STYLE
2
STANDARD
70
0
40
0.0
41
0.7143000000
50
0.0
71
0
42
0.2
3
txt
4

0
ENDTAB
0
ENDSEC
0
SECTION
2
BLOCKS
0
BLOCK
8
0
62
2
6
CONTINUOUS
2
*D0
70
65
10
0.0000000000
20
0.0000000000
0
TEXT
8
0
62
5
6
CONTINUOUS
10
98.3741714850
20
108.8818568527
7
STANDARD
40
3.5000000000
1
38
41
0.7143000000
72
0
0
LINE
8
0
62
2
6
CONTINUOUS
10
82.4366369749
20
144.9300050305
11
82.4366369749
21
106.5068568527
0
LINE
8
0
62
2
6
CONTINUOUS
10
120.4366369749
20
145.4126605622
11
120.4366369749
21
106.5068568527
0
LINE
8
0
62
2
6
CONTINUOUS
10
82.4366369749
20
108.0068568527
11
101.4366369749
21
108.0068568527
0
LINE
8
0
62
2
6
CONTINUOUS
10
120.4366369749
20
108.0068568527
11
101.4366369749
21
108.0068568527
0
INSERT
8
0
62
2
6
CONTINUOUS
2
_FILLED
10
82.4366369749
20
108.0068568527
41
  3.500000
42
  3.500000
43
  3.500000
50
180.000000
0
INSERT
8
0
62
2
6
CONTINUOUS
2
_FILLED
10
120.4366369749
20
108.0068568527
41
  3.500000
42
  3.500000
43
  3.500000
0
ENDBLK
8
0
6
BYBLOCK
62
0
0
BLOCK
8
0
62
2
6
CONTINUOUS
2
*D1
70
65
10
0.0000000000
20
0.0000000000
0
TEXT
8
0
62
5
6
CONTINUOUS
10
245.5067741001
20
197.9721708620
7
STANDARD
40
3.5000000000
1
109
50
90.0000000000
41
0.7143000000
72
0
0
LINE
8
0
62
2
6
CONTINUOUS
10
277.4192495329
20
252.5340901692
11
244.8817741001
21
252.5340901692
0
LINE
8
0
62
2
6
CONTINUOUS
10
277.4192495329
20
143.5340901692
11
244.8817741001
21
143.5340901692
0
LINE
8
0
62
2
6
CONTINUOUS
10
246.3817741001
20
252.5340901692
11
246.3817741001
21
198.0340901692
0
LINE
8
0
62
2
6
CONTINUOUS
10
246.3817741001
20
143.5340901692
11
246.3817741001
21
198.0340901692
0
INSERT
8
0
62
2
6
CONTINUOUS
2
_FILLED
10
246.3817741001
20
252.5340901692
41
  3.500000
42
  3.500000
43
  3.500000
50
 90.000000
0
INSERT
8
0
62
2
6
CONTINUOUS
2
_FILLED
10
246.3817741001
20
143.5340901692
41
  3.500000
42
  3.500000
43
  3.500000
50
270.000000
0
ENDBLK
8
0
6
BYBLOCK
62
0
0
BLOCK
8
0
62
2
6
CONTINUOUS
2
*D2
70
65
10
0.0000000000
20
0.0000000000
0
TEXT
8
0
62
5
6
CONTINUOUS
10
245.5067741001
20
276.5723764685
7
STANDARD
40
3.5000000000
1
48
50
90.0000000000
41
0.7143000000
72
0
0
LINE
8
0
62
2
6
CONTINUOUS
10
275.7891787513
20
252.5340901692
11
244.8817741001
21
252.5340901692
0
LINE
8
0
62
2
6
CONTINUOUS
10
329.0942410359
20
300.5340901692
11
244.8817741001
21
300.5340901692
0
LINE
8
0
62
2
6
CONTINUOUS
10
246.3817741001
20
252.5340901692
11
246.3817741001
21
276.5340901692
0
LINE
8
0
62
2
6
CONTINUOUS
10
246.3817741001
20
300.5340901692
11
246.3817741001
21
276.5340901692
0
INSERT
8
0
62
2
6
CONTINUOUS
2
_FILLED
10
246.3817741001
20
252.5340901692
41
  3.500000
42
  3.500000
43
  3.500000
50
270.000000
0
INSERT
8
0
62
2
6
CONTINUOUS
2
_FILLED
10
246.3817741001
20
300.5340901692
41
  3.500000
42
  3.500000
43
  3.500000
50
 90.000000
0
ENDBLK
8
0
6
BYBLOCK
62
0
0
BLOCK
8
0
62
2
6
CONTINUOUS
2
*D3
70
65
10
0.0000000000
20
0.0000000000
0
TEXT
8
0
62
5
6
CONTINUOUS
10
153.4432825828
20
148.9596572677
7
STANDARD
40
3.5000000000
1
16
50
90.0000000000
41
0.7143000000
72
0
0
LINE
8
0
62
2
6
CONTINUOUS
10
101.9366369749
20
143.5340901692
11
155.8182825828
21
143.5340901692
0
LINE
8
0
62
2
6
CONTINUOUS
10
124.0634205445
20
159.5340901692
11
155.8182825828
21
159.5340901692
0
LINE
8
0
62
2
6
CONTINUOUS
10
154.3182825828
20
143.5340901692
11
154.3182825828
21
151.5340901692
0
LINE
8
0
62
2
6
CONTINUOUS
10
154.3182825828
20
159.5340901692
11
154.3182825828
21
151.5340901692
0
INSERT
8
0
62
2
6
CONTINUOUS
2
_FILLED
10
154.3182825828
20
143.5340901692
41
  3.500000
42
  3.500000
43
  3.500000
50
270.000000
0
INSERT
8
0
62
2
6
CONTINUOUS
2
_FILLED
10
154.3182825828
20
159.5340901692
41
  3.500000
42
  3.500000
43
  3.500000
50
 90.000000
0
ENDBLK
8
0
6
BYBLOCK
62
0
0
BLOCK
8
0
62
2
6
CONTINUOUS
2
*D4
70
65
10
0.0000000000
20
0.0000000000
0
TEXT
8
0
62
5
6
CONTINUOUS
10
307.4191995329
20
325.0937517732
7
STANDARD
40
3.5000000000
1
64
41
0.7143000000
72
0
0
LINE
8
0
62
2
6
CONTINUOUS
10
277.9192495329
20
245.7369050847
11
277.9192495329
21
325.7187517732
0
LINE
8
0
62
2
6
CONTINUOUS
10
341.9192495329
20
301.0340901692
11
341.9192495329
21
325.7187517732
0
LINE
8
0
62
2
6
CONTINUOUS
10
277.9192495329
20
324.2187517732
11
309.9192495329
21
324.2187517732
0
LINE
8
0
62
2
6
CONTINUOUS
10
341.9192495329
20
324.2187517732
11
309.9192495329
21
324.2187517732
0
INSERT
8
0
62
2
6
CONTINUOUS
2
_FILLED
10
277.9192495329
20
324.2187517732
41
  3.500000
42
  3.500000
43
  3.500000
50
180.000000
0
INSERT
8
0
62
2
6
CONTINUOUS
2
_FILLED
10
341.9192495329
20
324.2187517732
41
  3.500000
42
  3.500000
43
  3.500000
0
ENDBLK
8
0
6
BYBLOCK
62
0
0
BLOCK
8
0
62
2
6
CONTINUOUS
2
*D5
70
65
10
0.0000000000
20
0.0000000000
0
TEXT
8
0
62
5
6
CONTINUOUS
10
127.1750035646
20
255.0884743763
7
STANDARD
40
3.5000000000
1
%%c
41
1.3333333333
72
0
0
TEXT
8
0
62
5
6
CONTINUOUS
10
131.8416702312
20
255.0884743763
7
STANDARD
40
3.5000000000
1
10.5
41
0.7143000000
72
0
0
LINE
8
0
62
2
6
CONTINUOUS
10
106.6866369749
20
255.7134743763
11
106.6866369749
21
235.4734769604
0
LINE
8
0
62
2
6
CONTINUOUS
10
96.1866369749
20
255.7134743763
11
96.1866369749
21
239.3518609670
0
LINE
8
0
62
2
6
CONTINUOUS
10
106.6866369749
20
254.2134743763
11
141.8418702312
21
254.2134743763
0
LINE
8
0
62
2
6
CONTINUOUS
10
141.8418702312
20
254.2134743763
11
101.4366369749
21
254.2134743763
0
LINE
8
0
62
2
6
CONTINUOUS
10
96.1866369749
20
254.2134743763
11
88.1866369749
21
254.2134743763
0
LINE
8
0
62
2
6
CONTINUOUS
10
88.1866369749
20
254.2134743763
11
101.4366369749
21
254.2134743763
0
INSERT
8
0
62
2
6
CONTINUOUS
2
_FILLED
10
106.6866369749
20
254.2134743763
41
  3.500000
42
  3.500000
43
  3.500000
50
180.000000
0
INSERT
8
0
62
2
6
CONTINUOUS
2
_FILLED
10
96.1866369749
20
254.2134743763
41
  3.500000
42
  3.500000
43
  3.500000
0
ENDBLK
8
0
6
BYBLOCK
62
0
0
BLOCK
8
0
62
2
6
CONTINUOUS
2
*D6
70
65
10
0.0000000000
20
0.0000000000
0
TEXT
8
0
62
5
6
CONTINUOUS
10
313.1076419049
20
313.3636630387
7
STANDARD
40
3.5000000000
1
%%c
41
1.3333333333
72
0
0
TEXT
8
0
62
5
6
CONTINUOUS
10
317.7743085716
20
313.3636630387
7
STANDARD
40
3.5000000000
1
30
41
0.7143000000
72
0
0
LINE
8
0
62
2
6
CONTINUOUS
10
326.9192495329
20
300.3569944584
11
326.9192495329
21
313.9886630387
0
LINE
8
0
62
2
6
CONTINUOUS
10
356.9192495329
20
300.3570408295
11
356.9192495329
21
313.9886630387
0
LINE
8
0
62
2
6
CONTINUOUS
10
326.9192495329
20
312.4886630387
11
341.9192495329
21
312.4886630387
0
LINE
8
0
62
2
6
CONTINUOUS
10
341.9192495329
20
312.4886630387
11
313.1076419049
21
312.4886630387
0
LINE
8
0
62
2
6
CONTINUOUS
10
356.9192495329
20
312.4886630387
11
341.9192495329
21
312.4886630387
0
INSERT
8
0
62
2
6
CONTINUOUS
2
_FILLED
10
326.9192495329
20
312.4886630387
41
  3.500000
42
  3.500000
43
  3.500000
50
180.000000
0
INSERT
8
0
62
2
6
CONTINUOUS
2
_FILLED
10
356.9192495329
20
312.4886630387
41
  3.500000
42
  3.500000
43
  3.500000
0
ENDBLK
8
0
6
BYBLOCK
62
0
0
BLOCK
8
0
62
2
6
CONTINUOUS
2
*D7
70
65
10
0.0000000000
20
0.0000000000
0
TEXT
8
0
62
5
6
CONTINUOUS
10
153.3884712018
20
196.9908545687
7
STANDARD
40
3.5000000000
1
80
50
90.0000000000
41
0.7143000000
72
0
0
LINE
8
0
62
2
6
CONTINUOUS
10
110.1866369749
20
239.5340901692
11
155.7634712018
21
239.5340901692
0
LINE
8
0
62
2
6
CONTINUOUS
10
110.1866369749
20
159.5340901692
11
155.7634712018
21
159.5340901692
0
LINE
8
0
62
2
6
CONTINUOUS
10
154.2634712018
20
239.5340901692
11
154.2634712018
21
199.5340901692
0
LINE
8
0
62
2
6
CONTINUOUS
10
154.2634712018
20
159.5340901692
11
154.2634712018
21
199.5340901692
0
INSERT
8
0
62
2
6
CONTINUOUS
2
_FILLED
10
154.2634712018
20
239.5340901692
41
  3.500000
42
  3.500000
43
  3.500000
50
 90.000000
0
INSERT
8
0
62
2
6
CONTINUOUS
2
_FILLED
10
154.2634712018
20
159.5340901692
41
  3.500000
42
  3.500000
43
  3.500000
50
270.000000
0
ENDBLK
8
0
6
BYBLOCK
62
0
0
BLOCK
8
0
62
2
6
CONTINUOUS
2
*D8
70
65
10
0.0000000000
20
0.0000000000
0
TEXT
8
0
62
5
6
CONTINUOUS
10
385.2942495329
20
306.3335260089
7
STANDARD
40
3.5000000000
1
7.5
50
90.0000000000
41
0.7143000000
72
0
0
LINE
8
0
62
2
6
CONTINUOUS
10
361.6692495329
20
293.0340901692
11
387.6692495329
21
293.0340901692
0
LINE
8
0
62
2
6
CONTINUOUS
10
361.6692495329
20
300.5340901692
11
387.6692495329
21
300.5340901692
0
LINE
8
0
62
2
6
CONTINUOUS
10
386.1692495329
20
293.0340901692
11
386.1692495329
21
285.0340901692
0
LINE
8
0
62
2
6
CONTINUOUS
10
386.1692495329
20
285.0340901692
11
386.1692495329
21
296.7840901692
0
LINE
8
0
62
2
6
CONTINUOUS
10
386.1692495329
20
300.5340901692
11
386.1692495329
21
313.8336760089
0
LINE
8
0
62
2
6
CONTINUOUS
10
386.1692495329
20
313.8336760089
11
386.1692495329
21
296.7840901692
0
INSERT
8
0
62
2
6
CONTINUOUS
2
_FILLED
10
386.1692495329
20
293.0340901692
41
  3.500000
42
  3.500000
43
  3.500000
50
 90.000000
0
INSERT
8
0
62
2
6
CONTINUOUS
2
_FILLED
10
386.1692495329
20
300.5340901692
41
  3.500000
42
  3.500000
43
  3.500000
50
270.000000
0
ENDBLK
8
0
6
BYBLOCK
62
0
0
BLOCK
8
0
62
2
6
CONTINUOUS
2
*D9
70
65
10
0.0000000000
20
0.0000000000
0
TEXT
8
0
62
5
6
CONTINUOUS
10
370.2942495329
20
307.1150060742
7
STANDARD
40
3.5000000000
1
3
50
90.0000000000
41
0.7143000000
72
0
0
LINE
8
0
62
2
6
CONTINUOUS
10
356.9192495329
20
297.5340901692
11
372.6692495329
21
297.5340901692
0
LINE
8
0
62
2
6
CONTINUOUS
10
356.0645743799
20
300.5340901692
11
372.6692495329
21
300.5340901692
0
LINE
8
0
62
2
6
CONTINUOUS
10
371.1692495329
20
297.5340901692
11
371.1692495329
21
289.5340901692
0
LINE
8
0
62
2
6
CONTINUOUS
10
371.1692495329
20
289.5340901692
11
371.1692495329
21
299.0340901692
0
LINE
8
0
62
2
6
CONTINUOUS
10
371.1692495329
20
300.5340901692
11
371.1692495329
21
309.6150560742
0
LINE
8
0
62
2
6
CONTINUOUS
10
371.1692495329
20
309.6150560742
11
371.1692495329
21
299.0340901692
0
INSERT
8
0
62
2
6
CONTINUOUS
2
_FILLED
10
371.1692495329
20
297.5340901692
41
  3.500000
42
  3.500000
43
  3.500000
50
 90.000000
0
INSERT
8
0
62
2
6
CONTINUOUS
2
_FILLED
10
371.1692495329
20
300.5340901692
41
  3.500000
42
  3.500000
43
  3.500000
50
270.000000
0
ENDBLK
8
0
6
BYBLOCK
62
0
0
BLOCK
8
0
62
2
6
CONTINUOUS
2
*D10
70
65
10
0.0000000000
20
0.0000000000
0
TEXT
8
0
62
5
6
CONTINUOUS
10
98.9297657330
20
95.1877673689
7
STANDARD
40
3.5000000000
1
42
41
0.7143000000
72
0
0
LINE
8
0
62
2
6
CONTINUOUS
10
80.4367876413
20
202.6779010658
11
80.4352386337
21
92.8130633757
0
LINE
8
0
62
2
6
CONTINUOUS
10
122.4364722093
20
202.6779010658
11
122.4349231933
21
92.8124712133
0
LINE
8
0
62
2
6
CONTINUOUS
10
80.4352597825
20
94.3130633756
11
101.4351020623
21
94.3127672943
0
LINE
8
0
62
2
6
CONTINUOUS
10
122.4349443422
20
94.3124712131
11
101.4351020623
21
94.3127672943
0
INSERT
8
0
62
2
6
CONTINUOUS
2
_FILLED
10
80.4352597825
20
94.3130633756
41
  3.500000
42
  3.500000
43
  3.500000
50
179.999192
0
INSERT
8
0
62
2
6
CONTINUOUS
2
_FILLED
10
122.4349443422
20
94.3124712131
41
  3.500000
42
  3.500000
43
  3.500000
50
359.999192
0
ENDBLK
8
0
6
BYBLOCK
62
0
0
BLOCK
8
0
62
2
6
CONTINUOUS
2
*D11
70
65
10
0.0000000000
20
0.0000000000
0
TEXT
8
0
62
5
6
CONTINUOUS
10
280.3214035714
20
127.0695432491
7
STANDARD
40
3.5000000000
1
9
41
0.7143000000
72
0
0
LINE
8
0
62
2
6
CONTINUOUS
10
277.9192495329
20
143.0340901692
11
277.9192495329
21
124.6945432491
0
LINE
8
0
62
2
6
CONTINUOUS
10
286.9192495329
20
153.7840901692
11
286.9192495329
21
124.6945432491
0
LINE
8
0
62
2
6
CONTINUOUS
10
277.9192495329
20
126.1945432491
11
269.9192495329
21
126.1945432491
0
LINE
8
0
62
2
6
CONTINUOUS
10
269.9192495329
20
126.1945432491
11
282.4192495329
21
126.1945432491
0
LINE
8
0
62
2
6
CONTINUOUS
10
286.9192495329
20
126.1945432491
11
294.9192495329
21
126.1945432491
0
LINE
8
0
62
2
6
CONTINUOUS
10
294.9192495329
20
126.1945432491
11
282.4192495329
21
126.1945432491
0
INSERT
8
0
62
2
6
CONTINUOUS
2
_FILLED
10
277.9192495329
20
126.1945432491
41
  3.500000
42
  3.500000
43
  3.500000
0
INSERT
8
0
62
2
6
CONTINUOUS
2
_FILLED
10
286.9192495329
20
126.1945432491
41
  3.500000
42
  3.500000
43
  3.500000
50
180.000000
0
ENDBLK
8
0
6
BYBLOCK
62
0
0
BLOCK
8
0
62
2
6
CONTINUOUS
2
*D12
70
65
10
0.0000000000
20
0.0000000000
0
TEXT
8
0
62
5
6
CONTINUOUS
10
258.7007340791
20
265.9930217240
7
STANDARD
40
3.5000000000
1
2.5
41
0.7143000000
72
0
0
LINE
8
0
62
2
6
CONTINUOUS
10
277.9192495329
20
251.0765622289
11
277.9192495329
21
266.6180217240
0
LINE
8
0
62
2
6
CONTINUOUS
10
275.4192495329
20
251.0765622289
11
275.4192495329
21
266.6180217240
0
LINE
8
0
62
2
6
CONTINUOUS
10
277.9192495329
20
265.1180217240
11
285.9192495329
21
265.1180217240
0
LINE
8
0
62
2
6
CONTINUOUS
10
285.9192495329
20
265.1180217240
11
276.6692495329
21
265.1180217240
0
LINE
8
0
62
2
6
CONTINUOUS
10
275.4192495329
20
265.1180217240
11
258.7007340791
21
265.1180217240
0
LINE
8
0
62
2
6
CONTINUOUS
10
258.7007340791
20
265.1180217240
11
276.6692495329
21
265.1180217240
0
INSERT
8
0
62
2
6
CONTINUOUS
2
_FILLED
10
277.9192495329
20
265.1180217240
41
  3.500000
42
  3.500000
43
  3.500000
50
180.000000
0
INSERT
8
0
62
2
6
CONTINUOUS
2
_FILLED
10
275.4192495329
20
265.1180217240
41
  3.500000
42
  3.500000
43
  3.500000
0
ENDBLK
8
0
6
BYBLOCK
62
0
0
BLOCK
8
0
62
2
6
CONTINUOUS
2
*D13
70
65
10
0.0000000000
20
0.0000000000
0
TEXT
8
0
62
5
6
CONTINUOUS
10
50.0275974026
20
212.9892570965
7
STANDARD
40
3.5000000000
1
157
50
90.0000000000
41
0.7143000000
72
0
0
LINE
8
0
62
2
6
CONTINUOUS
10
100.9340905586
20
300.3373267890
11
49.4025974026
21
300.3373267890
0
LINE
8
0
62
2
6
CONTINUOUS
10
100.9366369749
20
143.5340901692
11
49.4025974026
21
143.5340901692
0
LINE
8
0
62
2
6
CONTINUOUS
10
50.9025974026
20
300.3373267890
11
50.9025974026
21
221.9357084791
0
LINE
8
0
62
2
6
CONTINUOUS
10
50.9025974026
20
143.5340901692
11
50.9025974026
21
221.9357084791
0
INSERT
8
0
62
2
6
CONTINUOUS
2
_FILLED
10
50.9025974026
20
300.3373267890
41
  3.500000
42
  3.500000
43
  3.500000
50
 90.000000
0
INSERT
8
0
62
2
6
CONTINUOUS
2
_FILLED
10
50.9025974026
20
143.5340901692
41
  3.500000
42
  3.500000
43
  3.500000
50
270.000000
0
ENDBLK
8
0
6
BYBLOCK
62
0
0
BLOCK
8
0
62
2
6
CONTINUOUS
2
*D14
70
65
10
0.0000000000
20
0.0000000000
0
TEXT
8
0
62
5
6
CONTINUOUS
10
361.6896587665
20
273.7181935518
7
STANDARD
40
3.5000000000
1
10.5
41
0.7143000000
72
0
0
LINE
8
0
62
2
6
CONTINUOUS
10
336.6692495329
20
293.0340901692
11
336.6692495329
21
271.3431935518
0
LINE
8
0
62
2
6
CONTINUOUS
10
347.1692495329
20
293.0340901692
11
347.1692495329
21
271.3431935518
0
LINE
8
0
62
2
6
CONTINUOUS
10
336.6692495329
20
272.8431935518
11
328.6692495329
21
272.8431935518
0
LINE
8
0
62
2
6
CONTINUOUS
10
328.6692495329
20
272.8431935518
11
341.9192495329
21
272.8431935518
0
LINE
8
0
62
2
6
CONTINUOUS
10
347.1692495329
20
272.8431935518
11
371.6898587665
21
272.8431935518
0
LINE
8
0
62
2
6
CONTINUOUS
10
371.6898587665
20
272.8431935518
11
341.9192495329
21
272.8431935518
0
INSERT
8
0
62
2
6
CONTINUOUS
2
_FILLED
10
336.6692495329
20
272.8431935518
41
  3.500000
42
  3.500000
43
  3.500000
50
  0.000000
0
INSERT
8
0
62
2
6
CONTINUOUS
2
_FILLED
10
347.1692495329
20
272.8431935518
41
  3.500000
42
  3.500000
43
  3.500000
50
180.000000
0
ENDBLK
8
0
6
BYBLOCK
62
0
0
BLOCK
8
0
2
_FILLED
70
64
10
0.0000000000
20
0.0000000000
0
SOLID
8
0
6
BYBLOCK
62
0
10
0.0000000000
20
0.0000000000
11
-1.0000000000
21
0.1857142857
12
-1.0000000000
22
-0.1857142857
13
-1.0000000000
23
-0.1857142857
0
ENDBLK
8
0
6
BYBLOCK
62
0
0
ENDSEC
0
SECTION
2
ENTITIES
0
TEXT
8
0
62
7
6
CONTINUOUS
10
85.0714477365
20
120.7146179683
7
STANDARD
40
3.5000000000
1
B
41
0.7143000000
72
0
0
LINE
8
0
62
7
6
CONTINUOUS
10
101.4366369749
20
125.9646179683
11
83.8214227365
21
125.9646179683
0
SOLID
8
0
62
7
6
CONTINUOUS
10
94.4366369749
20
124.9646179683
11
101.4366369749
21
125.9646179683
12
94.4366369749
22
126.9646179683
13
94.4366369749
23
126.9646179683
0
TEXT
8
0
62
7
6
CONTINUOUS
10
85.1333993220
20
323.2182619348
7
STANDARD
40
3.5000000000
1
B
41
0.7143000000
72
0
0
LINE
8
0
62
7
6
CONTINUOUS
10
101.4366369749
20
320.8783440085
11
83.8214227365
21
320.8783440085
0
SOLID
8
0
62
7
6
CONTINUOUS
10
94.4366369749
20
319.8783440085
11
101.4366369749
21
320.8783440085
12
94.4366369749
22
321.8783440085
13
94.4366369749
23
321.8783440085
0
DIMENSION
8
0
62
2
6
CONTINUOUS
2
*D0
10
120.4366369749
20
108.0068568527
11
100.8742214850
21
110.6318568527
70
128
13
82.4366369749
23
144.9300050305
14
120.4366369749
24
145.4126605622
0
DIMENSION
8
0
62
2
6
CONTINUOUS
2
*D1
10
246.3817741001
20
143.5340901692
11
243.7567741001
21
201.7222458620
70
128
13
277.4192495329
23
252.5340901692
14
277.4192495329
24
143.5340901692
50
270.000000
0
DIMENSION
8
0
62
2
6
CONTINUOUS
2
*D2
10
246.3817741001
20
300.5340901692
11
243.7567741001
21
279.0724264685
70
128
13
275.7891787513
23
252.5340901692
14
329.0942410359
24
300.5340901692
50
90.000000
0
DIMENSION
8
0
62
2
6
CONTINUOUS
2
*D3
10
154.3182825828
20
159.5340901692
11
151.6932825828
21
151.4597072677
70
128
13
101.9366369749
23
143.5340901692
14
124.0634205445
24
159.5340901692
50
90.000000
0
DIMENSION
8
0
62
2
6
CONTINUOUS
2
*D4
10
341.9192495329
20
324.2187517732
11
309.9192495329
21
326.8437517732
70
128
13
277.9192495329
23
245.7369050847
14
341.9192495329
24
301.0340901692
0
DIMENSION
8
0
62
2
6
CONTINUOUS
2
*D5
10
96.1866369749
20
254.2134743763
11
134.5084368979
21
256.8384743763
70
128
13
106.6866369749
23
235.4734769604
14
96.1866369749
24
239.3518609670
50
180.000000
0
DIMENSION
8
0
62
2
6
CONTINUOUS
2
*D6
10
356.9192495329
20
312.4886630387
11
317.9410252383
21
315.1136630387
70
128
13
326.9192495329
23
300.3569944584
14
356.9192495329
24
300.3570408295
0
DIMENSION
8
0
62
2
6
CONTINUOUS
2
*D7
10
154.2634712018
20
159.5340901692
11
151.6384712018
21
199.4909045687
70
128
13
110.1866369749
23
239.5340901692
14
110.1866369749
24
159.5340901692
50
270.000000
0
DIMENSION
8
0
62
2
6
CONTINUOUS
2
*D8
10
386.1692495329
20
300.5340901692
11
383.5442495329
21
310.0836010089
70
128
13
361.6692495329
23
293.0340901692
14
361.6692495329
24
300.5340901692
50
90.000000
0
DIMENSION
8
0
62
2
6
CONTINUOUS
2
*D9
10
371.1692495329
20
300.5340901692
11
368.5442495329
21
308.3650310742
70
128
13
356.9192495329
23
297.5340901692
14
356.0645743799
24
300.5340901692
50
90.000000
0
DIMENSION
8
0
62
2
6
CONTINUOUS
2
*D10
10
122.4349443422
20
94.3124712131
11
101.4298157330
21
96.9377673689
70
128
13
80.4367876413
23
202.6779010658
14
122.4364722093
24
202.6779010658
50
359.999192
0
DIMENSION
8
0
62
2
6
CONTINUOUS
2
*D11
10
286.9192495329
20
126.1945432491
11
281.5714285714
21
128.8195432491
70
128
13
277.9192495329
23
143.0340901692
14
286.9192495329
24
153.7840901692
0
DIMENSION
8
0
62
2
6
CONTINUOUS
2
*D12
10
275.4192495329
20
265.1180217240
11
262.4508090791
21
267.7430217240
70
128
13
277.9192495329
23
251.0765622289
14
275.4192495329
24
251.0765622289
50
180.000000
0
DIMENSION
8
0
62
2
6
CONTINUOUS
2
*D13
10
50.9025974026
20
143.5340901692
11
48.2775974026
21
216.7393320965
70
128
13
100.9340905586
23
300.3373267890
14
100.9366369749
24
143.5340901692
50
270.000000
0
DIMENSION
8
0
62
2
6
CONTINUOUS
2
*D14
10
347.1692495329
20
272.8431935518
11
366.6897587665
21
275.4681935518
70
128
13
336.6692495329
23
293.0340901692
14
347.1692495329
24
293.0340901692
0
TEXT
8
0
62
5
6
CONTINUOUS
10
637.0374305533
20
78.9170187569
7
STANDARD
40
6.0000000000
1
Raccordi non quotati R0.25
41
0.7143000000
72
0
0
TEXT
8
0
62
5
6
CONTINUOUS
10
288.3959034695
20
109.4445432491
7
STANDARD
40
3.5000000000
1
SEZIONE 
41
0.7143000000
72
0
0
TEXT
8
0
62
5
6
CONTINUOUS
10
308.3963034695
20
109.4445432491
7
STANDARD
40
3.5000000000
1
B-B
41
0.7143000000
72
0
0
LINE
8
0
62
2
6
CONTINUOUS
10
277.9182699765
20
143.5302404340
11
278.8321077471
21
143.5302404340
0
POLYLINE
8
0
62
7
6
CONTINUOUS
66
1
70
0
0
VERTEX
8
0
62
7
6
CONTINUOUS
10
87.0303705750
20
145.8209770753
0
VERTEX
8
0
62
7
6
CONTINUOUS
10
89.8668735478
20
144.9984391266
0
VERTEX
8
0
62
7
6
CONTINUOUS
10
92.7278514504
20
144.3583825079
0
VERTEX
8
0
62
7
6
CONTINUOUS
10
95.6174587604
20
143.9006357281
0
VERTEX
8
0
62
7
6
CONTINUOUS
10
98.5232320446
20
143.6257132599
0
VERTEX
8
0
62
7
6
CONTINUOUS
10
101.4366363789
20
143.5341295759
0
VERTEX
8
0
62
7
6
CONTINUOUS
10
104.3500407132
20
143.6257131849
0
VERTEX
8
0
62
7
6
CONTINUOUS
10
107.2558139523
20
143.9006355657
0
VERTEX
8
0
62
7
6
CONTINUOUS
10
110.1454213069
20
144.3583822804
0
VERTEX
8
0
62
7
6
CONTINUOUS
10
113.0063994787
20
144.9984388910
0
VERTEX
8
0
62
7
6
CONTINUOUS
10
115.8429029003
20
145.8209768767
0
SEQEND
0
POLYLINE
8
0
62
7
6
CONTINUOUS
66
1
70
0
0
VERTEX
8
0
62
7
6
CONTINUOUS
10
114.1336882652
20
148.6899942711
0
VERTEX
8
0
62
7
6
CONTINUOUS
10
114.5633506971
20
148.7964830078
0
VERTEX
8
0
62
7
6
CONTINUOUS
10
114.9919875865
20
148.9065144428
0
VERTEX
8
0
62
7
6
CONTINUOUS
10
115.4195649209
20
149.0200801929
0
VERTEX
8
0
62
7
6
CONTINUOUS
10
115.8460487665
20
149.1371715942
0
SEQEND
0
POLYLINE
8
0
62
7
6
CONTINUOUS
66
1
70
0
0
VERTEX
8
0
62
7
6
CONTINUOUS
10
111.5529648646
20
147.7740218328
0
VERTEX
8
0
62
7
6
CONTINUOUS
10
111.9882693149
20
147.8793882869
0
VERTEX
8
0
62
7
6
CONTINUOUS
10
112.4243078222
20
148.0043670098
0
VERTEX
8
0
62
7
6
CONTINUOUS
10
112.8636298421
20
148.1496163351
0
VERTEX
8
0
62
7
6
CONTINUOUS
10
113.2984100526
20
148.3132886071
0
VERTEX
8
0
62
7
6
CONTINUOUS
10
113.7208900290
20
148.4932790778
0
VERTEX
8
0
62
7
6
CONTINUOUS
10
114.1336882652
20
148.6899942711
0
SEQEND
0
POLYLINE
8
0
62
7
6
CONTINUOUS
66
1
70
0
0
VERTEX
8
0
62
7
6
CONTINUOUS
10
91.3203090852
20
147.7740218328
0
VERTEX
8
0
62
7
6
CONTINUOUS
10
94.6503073939
20
147.1608880115
0
VERTEX
8
0
62
7
6
CONTINUOUS
10
98.0254850021
20
146.7899137291
0
VERTEX
8
0
62
7
6
CONTINUOUS
10
101.4378413231
20
146.6652475873
0
VERTEX
8
0
62
7
6
CONTINUOUS
10
104.8499250196
20
146.7900705788
0
VERTEX
8
0
62
7
6
CONTINUOUS
10
108.2242923352
20
147.1610751293
0
VERTEX
8
0
62
7
6
CONTINUOUS
10
111.5529648646
20
147.7740218328
0
SEQEND
0
POLYLINE
8
0
62
7
6
CONTINUOUS
66
1
70
0
0
VERTEX
8
0
62
7
6
CONTINUOUS
10
91.7249622008
20
149.5900377162
0
VERTEX
8
0
62
7
6
CONTINUOUS
10
94.9281052587
20
148.9962763130
0
VERTEX
8
0
62
7
6
CONTINUOUS
10
98.1607185157
20
148.6400462414
0
VERTEX
8
0
62
7
6
CONTINUOUS
10
101.4376495834
20
148.5213725984
0
VERTEX
8
0
62
7
6
CONTINUOUS
10
104.7143556270
20
148.6401800927
0
VERTEX
8
0
62
7
6
CONTINUOUS
10
107.9462938117
20
148.9963934329
0
VERTEX
8
0
62
7
6
CONTINUOUS
10
111.1483117490
20
149.5900377162
0
SEQEND
0
POLYLINE
8
0
62
7
6
CONTINUOUS
66
1
70
0
0
VERTEX
8
0
62
7
6
CONTINUOUS
10
87.0272251833
20
149.1371715942
0
VERTEX
8
0
62
7
6
CONTINUOUS
10
87.4537263970
20
149.0200755023
0
VERTEX
8
0
62
7
6
CONTINUOUS
10
87.8813095798
20
148.9065083799
0
VERTEX
8
0
62
7
6
CONTINUOUS
10
88.3099407080
20
148.7964786044
0
VERTEX
8
0
62
7
6
CONTINUOUS
10
88.7395856846
20
148.6899942711
0
SEQEND
0
POLYLINE
8
0
62
7
6
CONTINUOUS
66
1
70
0
0
VERTEX
8
0
62
7
6
CONTINUOUS
10
87.0239636411
20
149.8680713940
0
VERTEX
8
0
62
7
6
CONTINUOUS
10
86.2354155419
20
150.1318353486
0
VERTEX
8
0
62
7
6
CONTINUOUS
10
85.4872977799
20
150.4799919818
0
VERTEX
8
0
62
7
6
CONTINUOUS
10
84.7903883947
20
150.9075254443
0
VERTEX
8
0
62
7
6
CONTINUOUS
10
84.1547276731
20
151.4082763146
0
VERTEX
8
0
62
7
6
CONTINUOUS
10
83.5894735001
20
151.9750303372
0
VERTEX
8
0
62
7
6
CONTINUOUS
10
83.1027694223
20
152.5996223575
0
VERTEX
8
0
62
7
6
CONTINUOUS
10
82.7016273247
20
153.2730539558
0
VERTEX
8
0
62
7
6
CONTINUOUS
10
82.3918264117
20
153.9856230869
0
VERTEX
8
0
62
7
6
CONTINUOUS
10
82.1778299465
20
154.7270638559
0
VERTEX
8
0
62
7
6
CONTINUOUS
10
82.0627209496
20
155.4866944179
0
SEQEND
0
POLYLINE
8
0
62
7
6
CONTINUOUS
66
1
70
0
0
VERTEX
8
0
62
7
6
CONTINUOUS
10
87.0272251833
20
149.1371715942
0
VERTEX
8
0
62
7
6
CONTINUOUS
10
86.2386212285
20
149.4059520016
0
VERTEX
8
0
62
7
6
CONTINUOUS
10
85.4904451748
20
149.7604048996
0
VERTEX
8
0
62
7
6
CONTINUOUS
10
84.7934767915
20
150.1954233076
0
VERTEX
8
0
62
7
6
CONTINUOUS
10
84.1577580444
20
150.7047394523
0
VERTEX
8
0
62
7
6
CONTINUOUS
10
83.5924484106
20
151.2810150734
0
VERTEX
8
0
62
7
6
CONTINUOUS
10
83.1056929081
20
151.9159471543
0
VERTEX
8
0
62
7
6
CONTINUOUS
10
82.7045047419
20
152.6003875522
0
VERTEX
8
0
62
7
6
CONTINUOUS
10
82.3946642571
20
153.3244748053
0
VERTEX
8
0
62
7
6
CONTINUOUS
10
82.1806356557
20
154.0777762174
0
VERTEX
8
0
62
7
6
CONTINUOUS
10
82.0655026756
20
154.8494381726
0
SEQEND
0
POLYLINE
8
0
62
7
6
CONTINUOUS
66
1
70
0
0
VERTEX
8
0
62
7
6
CONTINUOUS
10
87.0303705750
20
145.8209770753
0
VERTEX
8
0
62
7
6
CONTINUOUS
10
86.5128760723
20
146.0134126746
0
VERTEX
8
0
62
7
6
CONTINUOUS
10
86.0155387821
20
146.2456216035
0
VERTEX
8
0
62
7
6
CONTINUOUS
10
85.5369341445
20
146.5188767095
0
VERTEX
8
0
62
7
6
CONTINUOUS
10
85.0813358389
20
146.8293594501
0
VERTEX
8
0
62
7
6
CONTINUOUS
10
84.6520045146
20
147.1746385017
0
VERTEX
8
0
62
7
6
CONTINUOUS
10
84.2505547016
20
147.5518250545
0
VERTEX
8
0
62
7
6
CONTINUOUS
10
83.8792750043
20
147.9582488958
0
VERTEX
8
0
62
7
6
CONTINUOUS
10
83.5394038484
20
148.3908229111
0
VERTEX
8
0
62
7
6
CONTINUOUS
10
83.2327884382
20
148.8463696982
0
VERTEX
8
0
62
7
6
CONTINUOUS
10
82.9598910423
20
149.3224899069
0
VERTEX
8
0
62
7
6
CONTINUOUS
10
82.7216307795
20
149.8165540687
0
VERTEX
8
0
62
7
6
CONTINUOUS
10
82.5184843039
20
150.3260751371
0
VERTEX
8
0
62
7
6
CONTINUOUS
10
82.3511351120
20
150.8484281176
0
VERTEX
8
0
62
7
6
CONTINUOUS
10
82.2198817965
20
151.3813973850
0
VERTEX
8
0
62
7
6
CONTINUOUS
10
82.1253165853
20
151.9215059878
0
VERTEX
8
0
62
7
6
CONTINUOUS
10
82.0672420691
20
152.4699129099
0
SEQEND
0
POLYLINE
8
0
62
7
6
CONTINUOUS
66
1
70
0
0
VERTEX
8
0
62
7
6
CONTINUOUS
10
88.7395856846
20
148.6899942711
0
VERTEX
8
0
62
7
6
CONTINUOUS
10
89.1523840133
20
148.4932791156
0
VERTEX
8
0
62
7
6
CONTINUOUS
10
89.5748640606
20
148.3132887093
0
VERTEX
8
0
62
7
6
CONTINUOUS
10
90.0096443346
20
148.1496165658
0
VERTEX
8
0
62
7
6
CONTINUOUS
10
90.4489663677
20
148.0043673185
0
VERTEX
8
0
62
7
6
CONTINUOUS
10
90.8850047948
20
147.8793885067
0
VERTEX
8
0
62
7
6
CONTINUOUS
10
91.3203090852
20
147.7740218328
0
SEQEND
0
POLYLINE
8
0
62
7
6
CONTINUOUS
66
1
70
0
0
VERTEX
8
0
62
7
6
CONTINUOUS
10
85.6242097920
20
155.5040184466
0
VERTEX
8
0
62
7
6
CONTINUOUS
10
85.0388133245
20
155.7964653261
0
VERTEX
8
0
62
7
6
CONTINUOUS
10
84.4917152756
20
156.1343879745
0
VERTEX
8
0
62
7
6
CONTINUOUS
10
83.9882007392
20
156.5145258755
0
VERTEX
8
0
62
7
6
CONTINUOUS
10
83.5331422091
20
156.9332037385
0
VERTEX
8
0
62
7
6
CONTINUOUS
10
83.1309418397
20
157.3863718694
0
VERTEX
8
0
62
7
6
CONTINUOUS
10
82.7854831355
20
157.8696540484
0
VERTEX
8
0
62
7
6
CONTINUOUS
10
82.5001034468
20
158.3783814627
0
VERTEX
8
0
62
7
6
CONTINUOUS
10
82.2775597227
20
158.9076394826
0
VERTEX
8
0
62
7
6
CONTINUOUS
10
82.1200018769
20
159.4523151395
0
VERTEX
8
0
62
7
6
CONTINUOUS
10
82.0289520182
20
160.0071465207
0
SEQEND
0
POLYLINE
8
0
62
7
6
CONTINUOUS
66
1
70
0
0
VERTEX
8
0
62
7
6
CONTINUOUS
10
85.5432262223
20
157.1175943927
0
VERTEX
8
0
62
7
6
CONTINUOUS
10
84.9702375030
20
157.4081132615
0
VERTEX
8
0
62
7
6
CONTINUOUS
10
84.4349953317
20
157.7418812826
0
VERTEX
8
0
62
7
6
CONTINUOUS
10
83.9425215341
20
158.1157713064
0
VERTEX
8
0
62
7
6
CONTINUOUS
10
83.4974462420
20
158.5262717997
0
VERTEX
8
0
62
7
6
CONTINUOUS
10
83.1039523212
20
158.9695254191
0
VERTEX
8
0
62
7
6
CONTINUOUS
10
82.7657295532
20
159.4413751268
0
VERTEX
8
0
62
7
6
CONTINUOUS
10
82.4859514050
20
159.9373936643
0
VERTEX
8
0
62
7
6
CONTINUOUS
10
82.2672429711
20
160.4529270029
0
VERTEX
8
0
62
7
6
CONTINUOUS
10
82.1116563430
20
160.9831380109
0
VERTEX
8
0
62
7
6
CONTINUOUS
10
82.0206513544
20
161.5230518392
0
SEQEND
0
POLYLINE
8
0
62
7
6
CONTINUOUS
66
1
70
0
0
VERTEX
8
0
62
7
6
CONTINUOUS
10
85.7624257270
20
153.0292767672
0
VERTEX
8
0
62
7
6
CONTINUOUS
10
85.1569565956
20
153.3366992760
0
VERTEX
8
0
62
7
6
CONTINUOUS
10
84.5905583873
20
153.6949750841
0
VERTEX
8
0
62
7
6
CONTINUOUS
10
84.0689556134
20
154.1004831501
0
VERTEX
8
0
62
7
6
CONTINUOUS
10
83.5974200528
20
154.5491250545
0
VERTEX
8
0
62
7
6
CONTINUOUS
10
83.1807174593
20
155.0363664275
0
VERTEX
8
0
62
7
6
CONTINUOUS
10
82.8230593886
20
155.5572827872
0
VERTEX
8
0
62
7
6
CONTINUOUS
10
82.5280606434
20
156.1066093010
0
VERTEX
8
0
62
7
6
CONTINUOUS
10
82.2987027368
20
156.6787939988
0
VERTEX
8
0
62
7
6
CONTINUOUS
10
82.1373037587
20
157.2680538856
0
VERTEX
8
0
62
7
6
CONTINUOUS
10
82.0454949473
20
157.8684333900
0
SEQEND
0
POLYLINE
8
0
62
7
6
CONTINUOUS
66
1
70
0
0
VERTEX
8
0
62
7
6
CONTINUOUS
10
87.3897793346
20
149.5648169990
0
VERTEX
8
0
62
7
6
CONTINUOUS
10
87.7975763289
20
149.2544307915
0
VERTEX
8
0
62
7
6
CONTINUOUS
10
88.2474183482
20
148.9628905974
0
VERTEX
8
0
62
7
6
CONTINUOUS
10
88.7395856846
20
148.6899942711
0
SEQEND
0
POLYLINE
8
0
62
7
6
CONTINUOUS
66
1
70
0
0
VERTEX
8
0
62
7
6
CONTINUOUS
10
88.5245262505
20
290.9442208989
0
VERTEX
8
0
62
7
6
CONTINUOUS
10
88.4529050672
20
290.9162767780
0
VERTEX
8
0
62
7
6
CONTINUOUS
10
88.3315416782
20
290.9264946953
0
VERTEX
8
0
62
7
6
CONTINUOUS
10
88.1643215396
20
290.9745475232
0
VERTEX
8
0
62
7
6
CONTINUOUS
10
87.9565982141
20
291.0588968471
0
VERTEX
8
0
62
7
6
CONTINUOUS
10
87.7150219769
20
291.1768422174
0
VERTEX
8
0
62
7
6
CONTINUOUS
10
87.4473269052
20
291.3246076057
0
VERTEX
8
0
62
7
6
CONTINUOUS
10
87.1620832728
20
291.4974622938
0
VERTEX
8
0
62
7
6
CONTINUOUS
10
86.8684231711
20
291.6898723277
0
VERTEX
8
0
62
7
6
CONTINUOUS
10
86.5757481449
20
291.8956776880
0
VERTEX
8
0
62
7
6
CONTINUOUS
10
86.2934282032
20
292.1082895031
0
SEQEND
0
POLYLINE
8
0
62
7
6
CONTINUOUS
66
1
70
0
0
VERTEX
8
0
62
7
6
CONTINUOUS
10
92.4091258178
20
292.9101336268
0
VERTEX
8
0
62
7
6
CONTINUOUS
10
91.8735889555
20
292.7567018379
0
VERTEX
8
0
62
7
6
CONTINUOUS
10
91.3585965551
20
292.5446197505
0
VERTEX
8
0
62
7
6
CONTINUOUS
10
90.8704634895
20
292.2764912083
0
VERTEX
8
0
62
7
6
CONTINUOUS
10
90.4153133170
20
291.9556742816
0
VERTEX
8
0
62
7
6
CONTINUOUS
10
89.9988969324
20
291.5862523372
0
VERTEX
8
0
62
7
6
CONTINUOUS
10
89.6261659714
20
291.1726110743
0
VERTEX
8
0
62
7
6
CONTINUOUS
10
89.3015849886
20
290.7195140673
0
VERTEX
8
0
62
7
6
CONTINUOUS
10
89.0295336635
20
290.2328677625
0
VERTEX
8
0
62
7
6
CONTINUOUS
10
88.8135840733
20
289.7190780015
0
VERTEX
8
0
62
7
6
CONTINUOUS
10
88.6562747679
20
289.1842536076
0
VERTEX
8
0
62
7
6
CONTINUOUS
10
88.5595662024
20
288.6348261295
0
VERTEX
8
0
62
7
6
CONTINUOUS
10
88.5247752043
20
288.0776962669
0
SEQEND
0
LINE
8
DEFAULT_1
62
2
6
CENTER
10
101.4366369749
20
159.5340901692
11
93.1866369749
21
159.5340901692
0
LINE
8
DEFAULT_1
62
2
6
CENTER
10
101.4366369749
20
159.5340901692
11
109.6866369749
21
159.5340901692
0
POLYLINE
8
0
62
7
6
CONTINUOUS
66
1
70
0
0
VERTEX
8
0
62
7
6
CONTINUOUS
10
90.2415089312
20
150.4749003914
0
VERTEX
8
0
62
7
6
CONTINUOUS
10
90.4781285276
20
150.2830169984
0
VERTEX
8
0
62
7
6
CONTINUOUS
10
90.7219429218
20
150.1084402672
0
VERTEX
8
0
62
7
6
CONTINUOUS
10
90.9707851628
20
149.9507858493
0
VERTEX
8
0
62
7
6
CONTINUOUS
10
91.2223339481
20
149.8112837800
0
VERTEX
8
0
62
7
6
CONTINUOUS
10
91.4743531368
20
149.6911633517
0
VERTEX
8
0
62
7
6
CONTINUOUS
10
91.7249622008
20
149.5900377162
0
SEQEND
0
POLYLINE
8
0
62
7
6
CONTINUOUS
66
1
70
0
0
VERTEX
8
0
62
7
6
CONTINUOUS
10
86.2934282032
20
292.1082895031
0
VERTEX
8
0
62
7
6
CONTINUOUS
10
85.8358365487
20
291.6041328409
0
VERTEX
8
0
62
7
6
CONTINUOUS
10
85.4558958252
20
291.0888775794
0
VERTEX
8
0
62
7
6
CONTINUOUS
10
85.1451464201
20
290.5710268700
0
VERTEX
8
0
62
7
6
CONTINUOUS
10
84.9005395219
20
290.0553751870
0
VERTEX
8
0
62
7
6
CONTINUOUS
10
84.7192824873
20
289.5483865600
0
VERTEX
8
0
62
7
6
CONTINUOUS
10
84.5936556631
20
289.0512233342
0
VERTEX
8
0
62
7
6
CONTINUOUS
10
84.5193724846
20
288.5645764141
0
VERTEX
8
0
62
7
6
CONTINUOUS
10
84.4923243930
20
288.0951708876
0
SEQEND
0
POLYLINE
8
0
62
7
6
CONTINUOUS
66
1
70
0
0
VERTEX
8
0
62
7
6
CONTINUOUS
10
110.3281782215
20
293.0340901692
0
VERTEX
8
0
62
7
6
CONTINUOUS
10
110.3861341000
20
293.0587134030
0
VERTEX
8
0
62
7
6
CONTINUOUS
10
110.4426629429
20
293.1319768452
0
VERTEX
8
0
62
7
6
CONTINUOUS
10
110.4963728240
20
293.2520765792
0
VERTEX
8
0
62
7
6
CONTINUOUS
10
110.5459412225
20
293.4160554112
0
VERTEX
8
0
62
7
6
CONTINUOUS
10
110.5901475941
20
293.6198756894
0
VERTEX
8
0
62
7
6
CONTINUOUS
10
110.6279034217
20
293.8585187111
0
VERTEX
8
0
62
7
6
CONTINUOUS
10
110.6582790227
20
294.1261083085
0
VERTEX
8
0
62
7
6
CONTINUOUS
10
110.6805264397
20
294.4160555288
0
VERTEX
8
0
62
7
6
CONTINUOUS
10
110.6940978602
20
294.7212208771
0
VERTEX
8
0
62
7
6
CONTINUOUS
10
110.6986591069
20
295.0340901692
0
SEQEND
0
POLYLINE
8
0
62
7
6
CONTINUOUS
66
1
70
0
0
VERTEX
8
0
62
7
6
CONTINUOUS
10
89.2571870525
20
151.6281394300
0
VERTEX
8
0
62
7
6
CONTINUOUS
10
89.4650446525
20
151.3120212184
0
VERTEX
8
0
62
7
6
CONTINUOUS
10
89.7010436684
20
151.0144187656
0
VERTEX
8
0
62
7
6
CONTINUOUS
10
89.9612314083
20
150.7353665663
0
VERTEX
8
0
62
7
6
CONTINUOUS
10
90.2415089312
20
150.4749003914
0
SEQEND
0
POLYLINE
8
0
62
7
6
CONTINUOUS
66
1
70
0
0
VERTEX
8
0
62
7
6
CONTINUOUS
10
88.5245099816
20
290.9442325491
0
VERTEX
8
0
62
7
6
CONTINUOUS
10
88.2932611809
20
290.5838379714
0
VERTEX
8
0
62
7
6
CONTINUOUS
10
88.0994674957
20
290.2165170587
0
VERTEX
8
0
62
7
6
CONTINUOUS
10
87.9415748564
20
289.8461105654
0
VERTEX
8
0
62
7
6
CONTINUOUS
10
87.8177252003
20
289.4771901842
0
VERTEX
8
0
62
7
6
CONTINUOUS
10
87.7256274113
20
289.1143218767
0
VERTEX
8
0
62
7
6
CONTINUOUS
10
87.6623157379
20
288.7590572423
0
VERTEX
8
0
62
7
6
CONTINUOUS
10
87.6250079807
20
288.4127377492
0
VERTEX
8
0
62
7
6
CONTINUOUS
10
87.6112823764
20
288.0776962669
0
SEQEND
0
POLYLINE
8
0
62
7
6
CONTINUOUS
66
1
70
0
0
VERTEX
8
0
62
7
6
CONTINUOUS
10
88.5247753252
20
288.0776962658
0
VERTEX
8
0
62
7
6
CONTINUOUS
10
88.5764652780
20
288.1507225944
0
VERTEX
8
0
62
7
6
CONTINUOUS
10
88.6974369820
20
288.2214165455
0
VERTEX
8
0
62
7
6
CONTINUOUS
10
88.8848458736
20
288.2881158015
0
VERTEX
8
0
62
7
6
CONTINUOUS
10
89.1342851664
20
288.3492519755
0
VERTEX
8
0
62
7
6
CONTINUOUS
10
89.4398894728
20
288.4033874929
0
VERTEX
8
0
62
7
6
CONTINUOUS
10
89.7944727255
20
288.4492493956
0
VERTEX
8
0
62
7
6
CONTINUOUS
10
90.1896971517
20
288.4857592737
0
VERTEX
8
0
62
7
6
CONTINUOUS
10
90.6162693307
20
288.5120586235
0
VERTEX
8
0
62
7
6
CONTINUOUS
10
91.0641587215
20
288.5275290343
0
VERTEX
8
0
62
7
6
CONTINUOUS
10
91.5228335242
20
288.5318067306
0
SEQEND
0
POLYLINE
8
0
62
7
6
CONTINUOUS
66
1
70
0
0
VERTEX
8
0
62
7
6
CONTINUOUS
10
87.4288221988
20
265.0170730214
0
VERTEX
8
0
62
7
6
CONTINUOUS
10
87.3827326813
20
264.9885636780
0
VERTEX
8
0
62
7
6
CONTINUOUS
10
87.2717599703
20
264.9615812615
0
VERTEX
8
0
62
7
6
CONTINUOUS
10
87.0995915618
20
264.9370223673
0
VERTEX
8
0
62
7
6
CONTINUOUS
10
86.8719484149
20
264.9157030602
0
VERTEX
8
0
62
7
6
CONTINUOUS
10
86.5963948505
20
264.8983317572
0
VERTEX
8
0
62
7
6
CONTINUOUS
10
86.2820871980
20
264.8854856876
0
VERTEX
8
0
62
7
6
CONTINUOUS
10
85.9394695406
20
264.8775917124
0
VERTEX
8
0
62
7
6
CONTINUOUS
10
85.5799266706
20
264.8749121401
0
VERTEX
8
0
62
7
6
CONTINUOUS
10
85.2154057856
20
264.8775360107
0
VERTEX
8
0
62
7
6
CONTINUOUS
10
84.8580194972
20
264.8853761367
0
VERTEX
8
0
62
7
6
CONTINUOUS
10
84.5196433422
20
264.8981720006
0
VERTEX
8
0
62
7
6
CONTINUOUS
10
83.5627908707
20
264.9514817750
0
SEQEND
0
POLYLINE
8
0
62
7
6
CONTINUOUS
66
1
70
0
0
VERTEX
8
0
62
7
6
CONTINUOUS
10
88.5263092577
20
283.0793732514
0
VERTEX
8
0
62
7
6
CONTINUOUS
10
88.5779699509
20
283.2343371258
0
VERTEX
8
0
62
7
6
CONTINUOUS
10
88.6989184972
20
283.3850423030
0
VERTEX
8
0
62
7
6
CONTINUOUS
10
88.8863110989
20
283.5279447472
0
VERTEX
8
0
62
7
6
CONTINUOUS
10
89.1357413649
20
283.6596838495
0
VERTEX
8
0
62
7
6
CONTINUOUS
10
89.4413439574
20
283.7771615071
0
VERTEX
8
0
62
7
6
CONTINUOUS
10
89.7959324014
20
283.8776149448
0
VERTEX
8
0
62
7
6
CONTINUOUS
10
90.1911681725
20
283.9586817426
0
VERTEX
8
0
62
7
6
CONTINUOUS
10
90.6177566760
20
284.0184553737
0
VERTEX
8
0
62
7
6
CONTINUOUS
10
91.0656658532
20
284.0555300739
0
VERTEX
8
0
62
7
6
CONTINUOUS
10
91.5243624784
20
284.0690339227
0
SEQEND
0
POLYLINE
8
0
62
7
6
CONTINUOUS
66
1
70
0
0
VERTEX
8
0
62
7
6
CONTINUOUS
10
85.8513596849
20
151.7098291388
0
VERTEX
8
0
62
7
6
CONTINUOUS
10
85.8951413946
20
151.4563549223
0
VERTEX
8
0
62
7
6
CONTINUOUS
10
85.9944055913
20
151.1747311586
0
VERTEX
8
0
62
7
6
CONTINUOUS
10
86.1566200324
20
150.8657674675
0
VERTEX
8
0
62
7
6
CONTINUOUS
10
86.3819613417
20
150.5415274448
0
VERTEX
8
0
62
7
6
CONTINUOUS
10
86.6684691576
20
150.2156279088
0
VERTEX
8
0
62
7
6
CONTINUOUS
10
87.3897793346
20
149.5648169990
0
SEQEND
0
POLYLINE
8
0
62
7
6
CONTINUOUS
66
1
70
0
0
VERTEX
8
0
62
7
6
CONTINUOUS
10
88.7588047216
20
153.2716756470
0
VERTEX
8
0
62
7
6
CONTINUOUS
10
88.7768731252
20
153.0300097532
0
VERTEX
8
0
62
7
6
CONTINUOUS
10
88.8189735942
20
152.7705702175
0
VERTEX
8
0
62
7
6
CONTINUOUS
10
88.8876883925
20
152.4887519339
0
VERTEX
8
0
62
7
6
CONTINUOUS
10
88.9839579338
20
152.1982944086
0
VERTEX
8
0
62
7
6
CONTINUOUS
10
89.1070085520
20
151.9129521065
0
VERTEX
8
0
62
7
6
CONTINUOUS
10
89.2571870525
20
151.6281394300
0
SEQEND
0
LINE
8
0
62
7
6
CONTINUOUS
10
85.8062930544
20
152.3549509456
11
85.8513555166
21
151.7098218950
0
POLYLINE
8
0
62
7
6
CONTINUOUS
66
1
70
0
0
VERTEX
8
0
62
7
6
CONTINUOUS
10
82.0672420691
20
152.4699129099
0
VERTEX
8
0
62
7
6
CONTINUOUS
10
81.5691964340
20
160.0537388455
0
VERTEX
8
0
62
7
6
CONTINUOUS
10
81.1616259826
20
167.6425782842
0
VERTEX
8
0
62
7
6
CONTINUOUS
10
80.8444969049
20
175.2373050323
0
VERTEX
8
0
62
7
6
CONTINUOUS
10
80.6179106309
20
182.8352976709
0
VERTEX
8
0
62
7
6
CONTINUOUS
10
80.4819685909
20
190.4339347811
0
VERTEX
8
0
62
7
6
CONTINUOUS
10
80.4366369749
20
198.0340901692
0
SEQEND
0
LINE
8
0
62
7
6
CONTINUOUS
10
85.7624257286
20
153.0292767699
11
85.8062930544
21
152.3549509456
0
LINE
8
0
62
7
6
CONTINUOUS
10
85.7147514339
20
153.8187566436
11
85.7624258327
21
153.0292767336
0
LINE
8
0
62
7
6
CONTINUOUS
10
85.6462284040
20
155.0696281116
11
85.7147514339
21
153.8187566436
0
POLYLINE
8
0
62
7
6
CONTINUOUS
66
1
70
0
0
VERTEX
8
0
62
7
6
CONTINUOUS
10
80.4378873592
20
282.6586043320
0
VERTEX
8
0
62
7
6
CONTINUOUS
10
80.4778249686
20
281.7856349604
0
VERTEX
8
0
62
7
6
CONTINUOUS
10
80.5754481848
20
280.9116371769
0
VERTEX
8
0
62
7
6
CONTINUOUS
10
80.7308060189
20
280.0365386157
0
VERTEX
8
0
62
7
6
CONTINUOUS
10
80.9438183851
20
279.1608750925
0
VERTEX
8
0
62
7
6
CONTINUOUS
10
81.2142845462
20
278.2851823651
0
VERTEX
8
0
62
7
6
CONTINUOUS
10
81.5421309698
20
277.4093888855
0
SEQEND
0
POLYLINE
8
0
62
7
6
CONTINUOUS
66
1
70
0
0
VERTEX
8
0
62
7
6
CONTINUOUS
10
80.4377850179
20
273.4177877725
0
VERTEX
8
0
62
7
6
CONTINUOUS
10
80.4783732495
20
272.0519840527
0
VERTEX
8
0
62
7
6
CONTINUOUS
10
80.5793462817
20
270.6844995377
0
VERTEX
8
0
62
7
6
CONTINUOUS
10
80.7407752251
20
269.3152390256
0
VERTEX
8
0
62
7
6
CONTINUOUS
10
80.9626044585
20
267.9450051523
0
VERTEX
8
0
62
7
6
CONTINUOUS
10
81.2446590962
20
266.5746005635
0
VERTEX
8
0
62
7
6
CONTINUOUS
10
81.5868889997
20
265.2039316045
0
SEQEND
0
LINE
8
0
62
7
6
CONTINUOUS
10
80.4372155695
20
287.3945568010
11
80.4379388085
21
287.3462542556
0
LINE
8
0
62
7
6
CONTINUOUS
10
80.4367816237
20
287.4428594486
11
80.4372155695
21
287.3945568010
0
LINE
8
0
62
7
6
CONTINUOUS
10
80.4369495722
20
282.7568735176
11
80.4378873592
21
282.6586043320
0
POLYLINE
8
0
62
7
6
CONTINUOUS
66
1
70
0
0
VERTEX
8
0
62
7
6
CONTINUOUS
10
80.4367946909
20
203.1779010658
0
VERTEX
8
0
62
7
6
CONTINUOUS
10
80.4822125214
20
196.2346987566
0
VERTEX
8
0
62
7
6
CONTINUOUS
10
80.6150754103
20
189.2902655063
0
VERTEX
8
0
62
7
6
CONTINUOUS
10
80.8353943151
20
182.3452457924
0
VERTEX
8
0
62
7
6
CONTINUOUS
10
81.1431381557
20
175.4013881846
0
VERTEX
8
0
62
7
6
CONTINUOUS
10
81.5382341513
20
168.4604412088
0
VERTEX
8
0
62
7
6
CONTINUOUS
10
82.0206513666
20
161.5230518400
0
SEQEND
0
POLYLINE
8
0
62
7
6
CONTINUOUS
66
1
70
0
0
VERTEX
8
0
62
7
6
CONTINUOUS
10
80.4367427917
20
201.1697081399
0
VERTEX
8
0
62
7
6
CONTINUOUS
10
80.4823979540
20
193.9508296862
0
VERTEX
8
0
62
7
6
CONTINUOUS
10
80.6170667456
20
186.7311814744
0
VERTEX
8
0
62
7
6
CONTINUOUS
10
80.8407537170
20
179.5114983626
0
VERTEX
8
0
62
7
6
CONTINUOUS
10
81.1534268814
20
172.2934978563
0
VERTEX
8
0
62
7
6
CONTINUOUS
10
81.5550179221
20
165.0788972870
0
VERTEX
8
0
62
7
6
CONTINUOUS
10
82.0454949337
20
157.8684333890
0
SEQEND
0
POLYLINE
8
0
62
7
6
CONTINUOUS
66
1
70
0
0
VERTEX
8
0
62
7
6
CONTINUOUS
10
80.4367012266
20
199.8619864441
0
VERTEX
8
0
62
7
6
CONTINUOUS
10
80.4824686728
20
192.4628146755
0
VERTEX
8
0
62
7
6
CONTINUOUS
10
80.6183641141
20
185.0633029207
0
VERTEX
8
0
62
7
6
CONTINUOUS
10
80.8443878324
20
177.6642105362
0
VERTEX
8
0
62
7
6
CONTINUOUS
10
81.1605007983
20
170.2673693730
0
VERTEX
8
0
62
7
6
CONTINUOUS
10
81.5666248209
20
162.8746106355
0
VERTEX
8
0
62
7
6
CONTINUOUS
10
82.0627209514
20
155.4866944180
0
SEQEND
0
LINE
8
0
62
7
6
CONTINUOUS
10
82.0215245029
20
161.2646901459
11
82.0650913255
21
155.0565766736
0
LINE
8
0
62
7
6
CONTINUOUS
10
81.8832492113
20
198.4752782952
11
82.0215245029
21
161.2646901459
0
LINE
8
0
62
7
6
CONTINUOUS
10
80.4367645357
20
273.6185015752
11
80.4377850179
21
273.4177877725
0
LINE
8
0
62
7
6
CONTINUOUS
10
81.5421309682
20
277.4093888855
11
81.8832492113
21
198.4752782952
0
LINE
8
0
62
7
6
CONTINUOUS
10
80.4366369749
20
287.4911619991
11
80.4367816237
21
287.4428594486
0
LINE
8
0
62
7
6
CONTINUOUS
10
80.4366369749
20
282.8551427085
11
80.4369495722
21
282.7568735176
0
LINE
8
0
62
7
6
CONTINUOUS
10
82.0650913255
20
155.0565766736
11
82.0672420691
21
152.4699129099
0
LINE
8
0
62
7
6
CONTINUOUS
10
80.4366369749
20
198.0340901692
11
80.4366369749
21
295.5340901692
0
LINE
8
0
62
7
6
CONTINUOUS
10
81.5401110350
20
295.5343404570
11
81.5421309754
21
277.4093888855
0
POLYLINE
8
0
62
7
6
CONTINUOUS
66
1
70
0
0
VERTEX
8
0
62
7
6
CONTINUOUS
10
112.6317575049
20
150.4749003263
0
VERTEX
8
0
62
7
6
CONTINUOUS
10
112.7684647798
20
150.1621764686
0
VERTEX
8
0
62
7
6
CONTINUOUS
10
112.9305287842
20
149.8589586957
0
VERTEX
8
0
62
7
6
CONTINUOUS
10
113.1131562488
20
149.5742151509
0
VERTEX
8
0
62
7
6
CONTINUOUS
10
113.3109457070
20
149.3163675731
0
VERTEX
8
0
62
7
6
CONTINUOUS
10
113.5180472521
20
149.0930422113
0
VERTEX
8
0
62
7
6
CONTINUOUS
10
113.7283355563
20
148.9108442659
0
VERTEX
8
0
62
7
6
CONTINUOUS
10
113.9355910368
20
148.7751625298
0
VERTEX
8
0
62
7
6
CONTINUOUS
10
114.1336838099
20
148.6900100071
0
SEQEND
0
POLYLINE
8
0
62
7
6
CONTINUOUS
66
1
70
0
0
VERTEX
8
0
62
7
6
CONTINUOUS
10
80.4379388085
20
287.3462542556
0
VERTEX
8
0
62
7
6
CONTINUOUS
10
80.4781885343
20
286.7035177508
0
VERTEX
8
0
62
7
6
CONTINUOUS
10
80.5758588780
20
286.0600401999
0
VERTEX
8
0
62
7
6
CONTINUOUS
10
80.7309907626
20
285.4157548731
0
VERTEX
8
0
62
7
6
CONTINUOUS
10
80.9434810612
20
284.7710960135
0
VERTEX
8
0
62
7
6
CONTINUOUS
10
81.2130924437
20
284.1264977545
0
VERTEX
8
0
62
7
6
CONTINUOUS
10
81.5397298041
20
283.4818938537
0
SEQEND
0
LINE
8
0
62
7
6
CONTINUOUS
10
88.7143583779
20
154.1027869843
11
88.7588047216
21
153.2716756470
0
LINE
8
0
62
7
6
CONTINUOUS
10
88.6569686464
20
155.2952540991
11
88.7143583779
21
154.1027869843
0
LINE
8
0
62
7
6
CONTINUOUS
10
88.6053668765
20
156.4972968118
11
88.6569686464
21
155.2952540991
0
POLYLINE
8
0
62
7
6
CONTINUOUS
66
1
70
0
0
VERTEX
8
0
62
7
6
CONTINUOUS
10
88.5426273983
20
279.8441676062
0
VERTEX
8
0
62
7
6
CONTINUOUS
10
88.5661650302
20
276.7065023737
0
VERTEX
8
0
62
7
6
CONTINUOUS
10
88.5969738709
20
273.6623134675
0
VERTEX
8
0
62
7
6
CONTINUOUS
10
88.6348834709
20
270.7237932795
0
VERTEX
8
0
62
7
6
CONTINUOUS
10
88.6797928956
20
267.8988273262
0
VERTEX
8
0
62
7
6
CONTINUOUS
10
88.7315504172
20
265.1962721035
0
VERTEX
8
0
62
7
6
CONTINUOUS
10
88.7900649849
20
262.6239742557
0
VERTEX
8
0
62
7
6
CONTINUOUS
10
88.8550536331
20
260.1928488555
0
VERTEX
8
0
62
7
6
CONTINUOUS
10
88.9263166622
20
257.9137761913
0
VERTEX
8
0
62
7
6
CONTINUOUS
10
89.0035132235
20
255.7947072615
0
VERTEX
8
0
62
7
6
CONTINUOUS
10
89.0863184727
20
253.8459062033
0
VERTEX
8
0
62
7
6
CONTINUOUS
10
89.1744846968
20
252.0713138877
0
VERTEX
8
0
62
7
6
CONTINUOUS
10
89.2677583773
20
250.4766846722
0
VERTEX
8
0
62
7
6
CONTINUOUS
10
89.3658320869
20
249.0668422353
0
VERTEX
8
0
62
7
6
CONTINUOUS
10
89.4682649001
20
247.8493710996
0
VERTEX
8
0
62
7
6
CONTINUOUS
10
89.5752037920
20
246.8217430909
0
SEQEND
0
POLYLINE
8
0
62
7
6
CONTINUOUS
66
1
70
0
0
VERTEX
8
0
62
7
6
CONTINUOUS
10
87.3994045023
20
222.7445931020
0
VERTEX
8
0
62
7
6
CONTINUOUS
10
87.4300493418
20
217.3412876482
0
VERTEX
8
0
62
7
6
CONTINUOUS
10
87.4713254617
20
211.7278549229
0
VERTEX
8
0
62
7
6
CONTINUOUS
10
87.5247756089
20
205.9118852509
0
VERTEX
8
0
62
7
6
CONTINUOUS
10
87.5913768629
20
199.9644415788
0
VERTEX
8
0
62
7
6
CONTINUOUS
10
87.6731569195
20
193.9073955335
0
VERTEX
8
0
62
7
6
CONTINUOUS
10
87.7685066781
20
187.8959113988
0
VERTEX
8
0
62
7
6
CONTINUOUS
10
87.8775455847
20
182.0626291129
0
VERTEX
8
0
62
7
6
CONTINUOUS
10
87.9971156954
20
176.4969933391
0
VERTEX
8
0
62
7
6
CONTINUOUS
10
88.1252459151
20
171.3252323946
0
VERTEX
8
0
62
7
6
CONTINUOUS
10
88.2584951433
20
166.5696352564
0
VERTEX
8
0
62
7
6
CONTINUOUS
10
88.3922529812
20
162.3026126428
0
VERTEX
8
0
62
7
6
CONTINUOUS
10
88.6053668765
20
156.4972968118
0
SEQEND
0
LINE
8
0
62
7
6
CONTINUOUS
10
87.0237570487
20
149.8945456103
11
87.0272251833
21
149.1371715942
0
LINE
8
0
62
7
6
CONTINUOUS
10
87.3644033452
20
232.8269882737
11
87.3994045023
21
222.7445931020
0
LINE
8
0
62
7
6
CONTINUOUS
10
87.0272251833
20
149.1371715942
11
87.0303710561
21
145.8209768848
0
LINE
8
0
62
7
6
CONTINUOUS
10
88.5213503200
20
285.3240051277
11
88.5426273983
21
279.8441676062
0
LINE
8
0
62
7
6
CONTINUOUS
10
87.3562930781
20
241.9979605747
11
87.3644033452
21
232.8269882737
0
POLYLINE
8
0
62
7
6
CONTINUOUS
66
1
70
0
0
VERTEX
8
0
62
7
6
CONTINUOUS
10
84.0489460365
20
237.1389109525
0
VERTEX
8
0
62
7
6
CONTINUOUS
10
84.0484047789
20
232.3965582990
0
VERTEX
8
0
62
7
6
CONTINUOUS
10
84.0568659684
20
227.4226950457
0
VERTEX
8
0
62
7
6
CONTINUOUS
10
84.0761192484
20
222.2122054659
0
VERTEX
8
0
62
7
6
CONTINUOUS
10
84.1081039843
20
216.7544026498
0
VERTEX
8
0
62
7
6
CONTINUOUS
10
84.1547809253
20
211.0796690102
0
VERTEX
8
0
62
7
6
CONTINUOUS
10
84.2184349510
20
205.2002864714
0
VERTEX
8
0
62
7
6
CONTINUOUS
10
84.3006450929
20
199.1836911019
0
VERTEX
8
0
62
7
6
CONTINUOUS
10
84.4039726114
20
193.0495754431
0
VERTEX
8
0
62
7
6
CONTINUOUS
10
84.5272562026
20
186.9651677880
0
VERTEX
8
0
62
7
6
CONTINUOUS
10
84.6697343690
20
181.0468438848
0
VERTEX
8
0
62
7
6
CONTINUOUS
10
84.8282716630
20
175.4075759475
0
VERTEX
8
0
62
7
6
CONTINUOUS
10
84.9991061382
20
170.1521428045
0
VERTEX
8
0
62
7
6
CONTINUOUS
10
85.1783376918
20
165.3258953465
0
VERTEX
8
0
62
7
6
CONTINUOUS
10
85.3597794802
20
161.0005217324
0
VERTEX
8
0
62
7
6
CONTINUOUS
10
85.6462284040
20
155.0696281116
0
SEQEND
0
LINE
8
0
62
7
6
CONTINUOUS
10
86.2936521560
20
295.5340901692
11
86.2934359277
21
292.1082895010
0
LINE
8
0
62
7
6
CONTINUOUS
10
87.3675623901
20
250.3382063438
11
87.3562930781
21
241.9979605747
0
LINE
8
0
62
7
6
CONTINUOUS
10
88.5247752043
20
288.0776962669
11
88.5213503200
21
285.3240051277
0
LINE
8
0
62
7
6
CONTINUOUS
10
84.0717410239
20
245.9694885731
11
84.0489460365
21
237.1389109525
0
LINE
8
0
62
7
6
CONTINUOUS
10
87.4095320815
20
261.5621197649
11
87.3675623901
21
250.3382063438
0
LINE
8
0
62
7
6
CONTINUOUS
10
84.1163241078
20
254.0170246554
11
84.0717410239
21
245.9694885731
0
LINE
8
0
62
7
6
CONTINUOUS
10
87.6112823764
20
288.0776962669
11
87.5203411244
21
277.3987795799
0
LINE
8
0
62
7
6
CONTINUOUS
10
87.5203411244
20
277.3987795799
11
87.4095320815
21
261.5621197649
0
LINE
8
0
62
7
6
CONTINUOUS
10
84.1766693782
20
261.4254656016
11
84.1163241078
21
254.0170246554
0
LINE
8
0
62
7
6
CONTINUOUS
10
89.5752037920
20
246.8217430909
11
88.7588047216
21
153.2716756470
0
POLYLINE
8
0
62
7
6
CONTINUOUS
66
1
70
0
0
VERTEX
8
0
62
7
6
CONTINUOUS
10
84.4923009909
20
288.0951708910
0
VERTEX
8
0
62
7
6
CONTINUOUS
10
84.3430407943
20
275.8390983089
0
VERTEX
8
0
62
7
6
CONTINUOUS
10
84.1766693782
20
261.4254656016
0
SEQEND
0
POLYLINE
8
0
62
7
6
CONTINUOUS
66
1
70
0
0
VERTEX
8
0
62
7
6
CONTINUOUS
10
89.5752033535
20
246.8216927147
0
VERTEX
8
0
62
7
6
CONTINUOUS
10
89.6069449667
20
247.1921955816
0
VERTEX
8
0
62
7
6
CONTINUOUS
10
89.6872838576
20
247.5564101511
0
VERTEX
8
0
62
7
6
CONTINUOUS
10
89.8159454969
20
247.9089009166
0
VERTEX
8
0
62
7
6
CONTINUOUS
10
89.9915848148
20
248.2449170914
0
VERTEX
8
0
62
7
6
CONTINUOUS
10
90.2103143431
20
248.5561881902
0
VERTEX
8
0
62
7
6
CONTINUOUS
10
90.4690853280
20
248.8382041717
0
VERTEX
8
0
62
7
6
CONTINUOUS
10
90.7627245900
20
249.0855591394
0
VERTEX
8
0
62
7
6
CONTINUOUS
10
91.0867668707
20
249.2944006323
0
VERTEX
8
0
62
7
6
CONTINUOUS
10
91.4360038456
20
249.4615382950
0
VERTEX
8
0
62
7
6
CONTINUOUS
10
91.8043986547
20
249.5838639358
0
VERTEX
8
0
62
7
6
CONTINUOUS
10
92.1863401230
20
249.6601206461
0
VERTEX
8
0
62
7
6
CONTINUOUS
10
92.5732616736
20
249.6867349640
0
SEQEND
0
POLYLINE
8
0
62
7
6
CONTINUOUS
66
1
70
0
0
VERTEX
8
0
62
7
6
CONTINUOUS
10
113.6160903072
20
151.6281394597
0
VERTEX
8
0
62
7
6
CONTINUOUS
10
113.7242875570
20
151.3524737647
0
VERTEX
8
0
62
7
6
CONTINUOUS
10
113.8712742774
20
151.0840743027
0
VERTEX
8
0
62
7
6
CONTINUOUS
10
114.0533689879
20
150.8296634069
0
VERTEX
8
0
62
7
6
CONTINUOUS
10
114.2660108903
20
150.5956130524
0
VERTEX
8
0
62
7
6
CONTINUOUS
10
114.5038740996
20
150.3877852633
0
VERTEX
8
0
62
7
6
CONTINUOUS
10
114.7610010368
20
150.2113852923
0
VERTEX
8
0
62
7
6
CONTINUOUS
10
115.0309516434
20
150.0708312491
0
VERTEX
8
0
62
7
6
CONTINUOUS
10
115.3069646810
20
149.9696434455
0
VERTEX
8
0
62
7
6
CONTINUOUS
10
115.5821270736
20
149.9103562245
0
VERTEX
8
0
62
7
6
CONTINUOUS
10
115.8495470508
20
149.8944544820
0
SEQEND
0
POLYLINE
8
0
62
7
6
CONTINUOUS
66
1
70
0
0
VERTEX
8
0
62
7
6
CONTINUOUS
10
91.5243624784
20
284.0690182657
0
VERTEX
8
0
62
7
6
CONTINUOUS
10
91.5436346700
20
280.5762065868
0
VERTEX
8
0
62
7
6
CONTINUOUS
10
91.5722864775
20
277.1919623816
0
VERTEX
8
0
62
7
6
CONTINUOUS
10
91.6104042276
20
273.9331041196
0
VERTEX
8
0
62
7
6
CONTINUOUS
10
91.6577289401
20
270.8094995886
0
VERTEX
8
0
62
7
6
CONTINUOUS
10
91.7141304162
20
267.8313676684
0
VERTEX
8
0
62
7
6
CONTINUOUS
10
91.7793086376
20
265.0135719514
0
VERTEX
8
0
62
7
6
CONTINUOUS
10
91.8530834352
20
262.3680043837
0
VERTEX
8
0
62
7
6
CONTINUOUS
10
91.9349650627
20
259.9101982207
0
VERTEX
8
0
62
7
6
CONTINUOUS
10
92.0245492353
20
257.6539875022
0
VERTEX
8
0
62
7
6
CONTINUOUS
10
92.1213994003
20
255.6081161040
0
VERTEX
8
0
62
7
6
CONTINUOUS
10
92.2250638591
20
253.7822136302
0
VERTEX
8
0
62
7
6
CONTINUOUS
10
92.3351837642
20
252.1822448057
0
VERTEX
8
0
62
7
6
CONTINUOUS
10
92.4511860252
20
250.8142950467
0
VERTEX
8
0
62
7
6
CONTINUOUS
10
92.5732616722
20
249.6867349560
0
SEQEND
0
LINE
8
0
62
7
6
CONTINUOUS
10
91.5228335242
20
288.5318066327
11
91.5243624784
21
284.0690182657
0
LINE
8
0
62
7
6
CONTINUOUS
10
92.5732616722
20
249.6867349560
11
92.5732616722
21
246.7955290561
0
LINE
8
0
62
7
6
CONTINUOUS
10
93.5152702462
20
293.0340901692
11
93.5152702462
21
290.3019473121
0
LINE
8
0
62
7
6
CONTINUOUS
10
92.5732616722
20
246.7955290561
11
91.7249622008
21
149.5900377162
0
LINE
8
0
62
7
6
CONTINUOUS
10
111.1483117410
20
149.5900377116
11
111.5529346514
21
147.7741573026
0
LINE
8
0
62
7
6
CONTINUOUS
10
96.1866369749
20
239.5340901692
11
96.1866369749
21
159.5340901692
0
LINE
8
DEFAULT_1
62
2
6
CENTER
10
101.4366369749
20
315.8783440085
11
101.4366369749
21
247.7840901692
0
LINE
8
DEFAULT_1
62
2
6
CENTER
10
101.4366369749
20
231.2840901692
11
101.4366369749
21
167.7840901692
0
LINE
8
DEFAULT_1
62
2
6
CENTER
10
101.4366369749
20
151.2840901692
11
101.4366369749
21
138.2361369050
0
LINE
8
DEFAULT_1
62
2
6
CENTER
10
101.4366369749
20
239.5340901692
11
101.4366369749
21
231.2840901692
0
LINE
8
DEFAULT_1
62
2
6
CENTER
10
101.4366369749
20
159.5340901692
11
101.4366369749
21
151.2840901692
0
LINE
8
DEFAULT_1
62
7
6
CENTER
10
101.4366369749
20
125.9646179683
11
101.4366369749
21
130.9646179683
0
LINE
8
DEFAULT_1
62
2
6
CENTER
10
101.4366369749
20
159.5340901692
11
101.4366369749
21
167.7840901692
0
LINE
8
DEFAULT_1
62
2
6
CENTER
10
101.4366369749
20
239.5340901692
11
101.4366369749
21
247.7840901692
0
LINE
8
DEFAULT_1
62
9
6
CENTER
10
101.4366369749
20
130.9646179683
11
101.4366369749
21
138.2361369050
0
LINE
8
DEFAULT_1
62
7
6
CENTER
10
101.4366369749
20
315.8783440085
11
101.4366369749
21
320.8783440085
0
POLYLINE
8
0
62
7
6
CONTINUOUS
66
1
70
0
0
VERTEX
8
0
62
7
6
CONTINUOUS
10
88.7588261317
20
153.2716754600
0
VERTEX
8
0
62
7
6
CONTINUOUS
10
88.7225115693
20
152.9772392425
0
VERTEX
8
0
62
7
6
CONTINUOUS
10
88.6308075292
20
152.6916050048
0
VERTEX
8
0
62
7
6
CONTINUOUS
10
88.4863024196
20
152.4228349993
0
VERTEX
8
0
62
7
6
CONTINUOUS
10
88.2930749953
20
152.1785154737
0
VERTEX
8
0
62
7
6
CONTINUOUS
10
88.0565792322
20
151.9655425440
0
VERTEX
8
0
62
7
6
CONTINUOUS
10
87.7834903847
20
151.7899275460
0
VERTEX
8
0
62
7
6
CONTINUOUS
10
87.4815165726
20
151.6566273610
0
VERTEX
8
0
62
7
6
CONTINUOUS
10
87.1591812137
20
151.5694045047
0
VERTEX
8
0
62
7
6
CONTINUOUS
10
86.8255824444
20
151.5307209267
0
VERTEX
8
0
62
7
6
CONTINUOUS
10
86.4901363190
20
151.5416685204
0
VERTEX
8
0
62
7
6
CONTINUOUS
10
86.1623110345
20
151.6019383035
0
VERTEX
8
0
62
7
6
CONTINUOUS
10
85.8513596849
20
151.7098291388
0
SEQEND
0
POLYLINE
8
0
62
7
6
CONTINUOUS
66
1
70
0
0
VERTEX
8
0
62
7
6
CONTINUOUS
10
88.6926489505
20
154.5372585942
0
VERTEX
8
0
62
7
6
CONTINUOUS
10
88.6555198941
20
154.2495818714
0
VERTEX
8
0
62
7
6
CONTINUOUS
10
88.5623948709
20
153.9706152056
0
VERTEX
8
0
62
7
6
CONTINUOUS
10
88.4159322662
20
153.7083220936
0
VERTEX
8
0
62
7
6
CONTINUOUS
10
88.2203130615
20
153.4701900620
0
VERTEX
8
0
62
7
6
CONTINUOUS
10
87.9811214828
20
153.2630169256
0
VERTEX
8
0
62
7
6
CONTINUOUS
10
87.7051855910
20
153.0927167337
0
VERTEX
8
0
62
7
6
CONTINUOUS
10
87.4003823651
20
152.9641509454
0
VERTEX
8
0
62
7
6
CONTINUOUS
10
87.0754128430
20
152.8809896524
0
VERTEX
8
0
62
7
6
CONTINUOUS
10
86.7395537379
20
152.8456068111
0
VERTEX
8
0
62
7
6
CONTINUOUS
10
86.4023926215
20
152.8590124747
0
VERTEX
8
0
62
7
6
CONTINUOUS
10
86.0735542333
20
152.9208239596
0
VERTEX
8
0
62
7
6
CONTINUOUS
10
85.7624257286
20
153.0292767699
0
SEQEND
0
POLYLINE
8
0
62
7
6
CONTINUOUS
66
1
70
0
0
VERTEX
8
0
62
7
6
CONTINUOUS
10
88.5886937175
20
156.9150180179
0
VERTEX
8
0
62
7
6
CONTINUOUS
10
88.5503061738
20
156.6408191665
0
VERTEX
8
0
62
7
6
CONTINUOUS
10
88.4549981255
20
156.3750885182
0
VERTEX
8
0
62
7
6
CONTINUOUS
10
88.3055369717
20
156.1255419243
0
VERTEX
8
0
62
7
6
CONTINUOUS
10
88.1062625207
20
155.8994253101
0
VERTEX
8
0
62
7
6
CONTINUOUS
10
87.8629609777
20
155.7033042798
0
VERTEX
8
0
62
7
6
CONTINUOUS
10
87.5826969346
20
155.5428734746
0
VERTEX
8
0
62
7
6
CONTINUOUS
10
87.2736082397
20
155.4227912216
0
VERTEX
8
0
62
7
6
CONTINUOUS
10
86.9446697046
20
155.3465442726
0
VERTEX
8
0
62
7
6
CONTINUOUS
10
86.6054325079
20
155.3163465616
0
VERTEX
8
0
62
7
6
CONTINUOUS
10
86.2657468638
20
155.3330749203
0
VERTEX
8
0
62
7
6
CONTINUOUS
10
85.9354760080
20
155.3962436180
0
VERTEX
8
0
62
7
6
CONTINUOUS
10
85.6242098048
20
155.5040184654
0
SEQEND
0
POLYLINE
8
0
62
7
6
CONTINUOUS
66
1
70
0
0
VERTEX
8
0
62
7
6
CONTINUOUS
10
88.5280552727
20
158.5000530356
0
VERTEX
8
0
62
7
6
CONTINUOUS
10
88.4891512142
20
158.2282242873
0
VERTEX
8
0
62
7
6
CONTINUOUS
10
88.3927177625
20
157.9648870092
0
VERTEX
8
0
62
7
6
CONTINUOUS
10
88.2415856928
20
157.7177713892
0
VERTEX
8
0
62
7
6
CONTINUOUS
10
88.0401914426
20
157.4941314332
0
VERTEX
8
0
62
7
6
CONTINUOUS
10
87.7944468804
20
157.3005320260
0
VERTEX
8
0
62
7
6
CONTINUOUS
10
87.5115657652
20
157.1426562211
0
VERTEX
8
0
62
7
6
CONTINUOUS
10
87.1998519886
20
157.0251384160
0
VERTEX
8
0
62
7
6
CONTINUOUS
10
86.8684558163
20
156.9514283110
0
VERTEX
8
0
62
7
6
CONTINUOUS
10
86.5271052849
20
156.9236896446
0
VERTEX
8
0
62
7
6
CONTINUOUS
10
86.1858206384
20
156.9427366771
0
VERTEX
8
0
62
7
6
CONTINUOUS
10
85.8546201868
20
157.0080102885
0
VERTEX
8
0
62
7
6
CONTINUOUS
10
85.5432262213
20
157.1175943912
0
SEQEND
0
LINE
8
0
62
7
6
CONTINUOUS
10
106.6866369749
20
159.5340901692
11
106.6866369749
21
239.5340901692
0
POLYLINE
8
0
62
7
6
CONTINUOUS
66
1
70
0
0
VERTEX
8
0
62
7
6
CONTINUOUS
10
110.3000122776
20
249.6867349560
0
VERTEX
8
0
62
7
6
CONTINUOUS
10
110.4220879245
20
250.8142950467
0
VERTEX
8
0
62
7
6
CONTINUOUS
10
110.5380901854
20
252.1822448057
0
VERTEX
8
0
62
7
6
CONTINUOUS
10
110.6482100907
20
253.7822136302
0
VERTEX
8
0
62
7
6
CONTINUOUS
10
110.7518745496
20
255.6081161040
0
VERTEX
8
0
62
7
6
CONTINUOUS
10
110.8487247145
20
257.6539875022
0
VERTEX
8
0
62
7
6
CONTINUOUS
10
110.9383088870
20
259.9101982207
0
VERTEX
8
0
62
7
6
CONTINUOUS
10
111.0201905146
20
262.3680043837
0
VERTEX
8
0
62
7
6
CONTINUOUS
10
111.0939653122
20
265.0135719514
0
VERTEX
8
0
62
7
6
CONTINUOUS
10
111.1591435336
20
267.8313676684
0
VERTEX
8
0
62
7
6
CONTINUOUS
10
111.2155450096
20
270.8094995886
0
VERTEX
8
0
62
7
6
CONTINUOUS
10
111.2628697223
20
273.9331041196
0
VERTEX
8
0
62
7
6
CONTINUOUS
10
111.3009874726
20
277.1919623816
0
VERTEX
8
0
62
7
6
CONTINUOUS
10
111.3296392800
20
280.5762065868
0
VERTEX
8
0
62
7
6
CONTINUOUS
10
111.3489114714
20
284.0690182657
0
SEQEND
0
LINE
8
0
62
7
6
CONTINUOUS
10
91.7249622008
20
149.5900377162
11
91.3203107540
21
147.7740293236
0
POLYLINE
8
0
62
7
6
CONTINUOUS
66
1
70
0
0
VERTEX
8
0
62
7
6
CONTINUOUS
10
114.3452184905
20
158.5000500227
0
VERTEX
8
0
62
7
6
CONTINUOUS
10
114.3841226920
20
158.2282221576
0
VERTEX
8
0
62
7
6
CONTINUOUS
10
114.4805562372
20
157.9648857498
0
VERTEX
8
0
62
7
6
CONTINUOUS
10
114.6316883500
20
157.7177709559
0
VERTEX
8
0
62
7
6
CONTINUOUS
10
114.8330825954
20
157.4941317522
0
VERTEX
8
0
62
7
6
CONTINUOUS
10
115.0788271095
20
157.3005329967
0
VERTEX
8
0
62
7
6
CONTINUOUS
10
115.3617081402
20
157.1426577192
0
VERTEX
8
0
62
7
6
CONTINUOUS
10
115.6734218052
20
157.0251402987
0
VERTEX
8
0
62
7
6
CONTINUOUS
10
116.0048178490
20
156.9514304218
0
VERTEX
8
0
62
7
6
CONTINUOUS
10
116.3461682464
20
156.9236918187
0
VERTEX
8
0
62
7
6
CONTINUOUS
10
116.6874527651
20
156.9427387475
0
VERTEX
8
0
62
7
6
CONTINUOUS
10
117.0186531068
20
157.0080120919
0
VERTEX
8
0
62
7
6
CONTINUOUS
10
117.3300469910
20
157.1175957740
0
SEQEND
0
POLYLINE
8
0
62
7
6
CONTINUOUS
66
1
70
0
0
VERTEX
8
0
62
7
6
CONTINUOUS
10
114.2845802110
20
156.9150172686
0
VERTEX
8
0
62
7
6
CONTINUOUS
10
114.3229677542
20
156.6408185359
0
VERTEX
8
0
62
7
6
CONTINUOUS
10
114.4182758026
20
156.3750880021
0
VERTEX
8
0
62
7
6
CONTINUOUS
10
114.5677369569
20
156.1255415155
0
VERTEX
8
0
62
7
6
CONTINUOUS
10
114.7670114088
20
155.8994249983
0
VERTEX
8
0
62
7
6
CONTINUOUS
10
115.0103129530
20
155.7033040518
0
VERTEX
8
0
62
7
6
CONTINUOUS
10
115.2905769976
20
155.5428733152
0
VERTEX
8
0
62
7
6
CONTINUOUS
10
115.5996656941
20
155.4227911134
0
VERTEX
8
0
62
7
6
CONTINUOUS
10
115.9286042308
20
155.3465441968
0
VERTEX
8
0
62
7
6
CONTINUOUS
10
116.2678414291
20
155.3163464987
0
VERTEX
8
0
62
7
6
CONTINUOUS
10
116.6075270746
20
155.3330748503
0
VERTEX
8
0
62
7
6
CONTINUOUS
10
116.9377979314
20
155.3962435212
0
VERTEX
8
0
62
7
6
CONTINUOUS
10
117.2490641353
20
155.5040183229
0
SEQEND
0
POLYLINE
8
0
62
7
6
CONTINUOUS
66
1
70
0
0
VERTEX
8
0
62
7
6
CONTINUOUS
10
114.1806249199
20
154.5372569465
0
VERTEX
8
0
62
7
6
CONTINUOUS
10
114.2177539933
20
154.2495805468
0
VERTEX
8
0
62
7
6
CONTINUOUS
10
114.3108790289
20
153.9706141946
0
VERTEX
8
0
62
7
6
CONTINUOUS
10
114.4573416416
20
153.7083213771
0
VERTEX
8
0
62
7
6
CONTINUOUS
10
114.6529608498
20
153.4701896120
0
VERTEX
8
0
62
7
6
CONTINUOUS
10
114.8921524277
20
153.2630167057
0
VERTEX
8
0
62
7
6
CONTINUOUS
10
115.1680883150
20
153.0927167005
0
VERTEX
8
0
62
7
6
CONTINUOUS
10
115.4728915333
20
152.9641510498
0
VERTEX
8
0
62
7
6
CONTINUOUS
10
115.7978610455
20
152.8809898409
0
VERTEX
8
0
62
7
6
CONTINUOUS
10
116.1337201395
20
152.8456070276
0
VERTEX
8
0
62
7
6
CONTINUOUS
10
116.4708812443
20
152.8590126621
0
VERTEX
8
0
62
7
6
CONTINUOUS
10
116.7997196216
20
152.9208240614
0
VERTEX
8
0
62
7
6
CONTINUOUS
10
117.1108481170
20
153.0292767322
0
SEQEND
0
POLYLINE
8
0
62
7
6
CONTINUOUS
66
1
70
0
0
VERTEX
8
0
62
7
6
CONTINUOUS
10
114.1144692282
20
153.2716756470
0
VERTEX
8
0
62
7
6
CONTINUOUS
10
114.1507907090
20
152.9772428371
0
VERTEX
8
0
62
7
6
CONTINUOUS
10
114.2424993977
20
152.6916125347
0
VERTEX
8
0
62
7
6
CONTINUOUS
10
114.3870068674
20
152.4228464974
0
VERTEX
8
0
62
7
6
CONTINUOUS
10
114.5802344742
20
152.1785304983
0
VERTEX
8
0
62
7
6
CONTINUOUS
10
114.8167284756
20
151.9655602216
0
VERTEX
8
0
62
7
6
CONTINUOUS
10
115.0898139587
20
151.7899466357
0
VERTEX
8
0
62
7
6
CONTINUOUS
10
115.3917832363
20
151.6566463369
0
VERTEX
8
0
62
7
6
CONTINUOUS
10
115.7141133922
20
151.5694216527
0
VERTEX
8
0
62
7
6
CONTINUOUS
10
116.0477068353
20
151.5307344512
0
VERTEX
8
0
62
7
6
CONTINUOUS
10
116.3831480749
20
151.5416766573
0
VERTEX
8
0
62
7
6
CONTINUOUS
10
116.7109694669
20
151.6019394331
0
VERTEX
8
0
62
7
6
CONTINUOUS
10
117.0219184332
20
151.7098218949
0
SEQEND
0
LINE
8
0
62
7
6
CONTINUOUS
10
111.1483117490
20
149.5900377162
11
110.3000122776
21
246.7955290561
0
LINE
8
0
62
7
6
CONTINUOUS
10
114.1144692282
20
153.2716756470
11
113.2980701580
21
246.8217430635
0
LINE
8
0
62
7
6
CONTINUOUS
10
109.3580037036
20
293.0340901692
11
109.3580037036
21
290.3019473121
0
LINE
8
0
62
7
6
CONTINUOUS
10
110.3000122776
20
246.7955290561
11
110.3000122776
21
249.6867349560
0
LINE
8
0
62
7
6
CONTINUOUS
10
111.3489114714
20
284.0690182657
11
111.3504404256
21
288.5318066327
0
LINE
8
0
62
7
6
CONTINUOUS
10
114.3506946415
20
284.3670533748
11
114.3484987455
21
288.0776962669
0
POLYLINE
8
0
62
7
6
CONTINUOUS
66
1
70
0
0
VERTEX
8
0
62
7
6
CONTINUOUS
10
113.2980701580
20
246.8217430635
0
VERTEX
8
0
62
7
6
CONTINUOUS
10
113.4050090495
20
247.8493710950
0
VERTEX
8
0
62
7
6
CONTINUOUS
10
113.5074418625
20
249.0668422420
0
VERTEX
8
0
62
7
6
CONTINUOUS
10
113.6055155722
20
250.4766846749
0
VERTEX
8
0
62
7
6
CONTINUOUS
10
113.6987892529
20
252.0713138826
0
VERTEX
8
0
62
7
6
CONTINUOUS
10
113.7869554770
20
253.8459061989
0
VERTEX
8
0
62
7
6
CONTINUOUS
10
113.8697607261
20
255.7947072593
0
VERTEX
8
0
62
7
6
CONTINUOUS
10
113.9469572875
20
257.9137761893
0
VERTEX
8
0
62
7
6
CONTINUOUS
10
114.0182203166
20
260.1928488531
0
VERTEX
8
0
62
7
6
CONTINUOUS
10
114.0832089649
20
262.6239742530
0
VERTEX
8
0
62
7
6
CONTINUOUS
10
114.1417235326
20
265.1962721010
0
VERTEX
8
0
62
7
6
CONTINUOUS
10
114.1934810541
20
267.8988273254
0
VERTEX
8
0
62
7
6
CONTINUOUS
10
114.2383904788
20
270.7237932798
0
VERTEX
8
0
62
7
6
CONTINUOUS
10
114.2763000791
20
273.6623134648
0
VERTEX
8
0
62
7
6
CONTINUOUS
10
114.3071089199
20
276.7065023683
0
VERTEX
8
0
62
7
6
CONTINUOUS
10
114.3306465518
20
279.8441676022
0
VERTEX
8
0
62
7
6
CONTINUOUS
10
114.3506946415
20
284.3670533748
0
SEQEND
0
POLYLINE
8
0
62
7
6
CONTINUOUS
66
1
70
0
0
VERTEX
8
0
62
7
6
CONTINUOUS
10
113.2980705962
20
246.8216927196
0
VERTEX
8
0
62
7
6
CONTINUOUS
10
113.2661519862
20
247.1947326296
0
VERTEX
8
0
62
7
6
CONTINUOUS
10
113.1846172577
20
247.5610875092
0
VERTEX
8
0
62
7
6
CONTINUOUS
10
113.0548290506
20
247.9146166139
0
VERTEX
8
0
62
7
6
CONTINUOUS
10
112.8789587448
20
248.2494070890
0
VERTEX
8
0
62
7
6
CONTINUOUS
10
112.6599488905
20
248.5598623190
0
VERTEX
8
0
62
7
6
CONTINUOUS
10
112.4014628065
20
248.8407872685
0
VERTEX
8
0
62
7
6
CONTINUOUS
10
112.1078247574
20
249.0874863143
0
VERTEX
8
0
62
7
6
CONTINUOUS
10
111.7839460649
20
249.2958300588
0
VERTEX
8
0
62
7
6
CONTINUOUS
10
111.4352444579
20
249.4623361336
0
VERTEX
8
0
62
7
6
CONTINUOUS
10
111.0675521519
20
249.5842161419
0
VERTEX
8
0
62
7
6
CONTINUOUS
10
110.6870192144
20
249.6594308568
0
VERTEX
8
0
62
7
6
CONTINUOUS
10
110.3000122728
20
249.6867349640
0
SEQEND
0
POLYLINE
8
0
62
7
6
CONTINUOUS
66
1
70
0
0
VERTEX
8
0
62
7
6
CONTINUOUS
10
111.3504404256
20
288.5318066327
0
VERTEX
8
0
62
7
6
CONTINUOUS
10
111.3371657529
20
288.7310857361
0
VERTEX
8
0
62
7
6
CONTINUOUS
10
111.2995764848
20
288.9256840997
0
VERTEX
8
0
62
7
6
CONTINUOUS
10
111.2372173348
20
289.1168054148
0
VERTEX
8
0
62
7
6
CONTINUOUS
10
111.1514541622
20
289.3007228141
0
VERTEX
8
0
62
7
6
CONTINUOUS
10
111.0428810677
20
289.4747560711
0
VERTEX
8
0
62
7
6
CONTINUOUS
10
110.9133580406
20
289.6369277746
0
VERTEX
8
0
62
7
6
CONTINUOUS
10
110.7642241082
20
289.7848533067
0
VERTEX
8
0
62
7
6
CONTINUOUS
10
110.5976362569
20
289.9170639884
0
VERTEX
8
0
62
7
6
CONTINUOUS
10
110.4153406918
20
290.0316710294
0
VERTEX
8
0
62
7
6
CONTINUOUS
10
110.2199087842
20
290.1275630862
0
VERTEX
8
0
62
7
6
CONTINUOUS
10
110.0134628395
20
290.2031952115
0
VERTEX
8
0
62
7
6
CONTINUOUS
10
109.7990962595
20
290.2580040785
0
VERTEX
8
0
62
7
6
CONTINUOUS
10
109.5810849855
20
290.2907925402
0
VERTEX
8
0
62
7
6
CONTINUOUS
10
109.3580037036
20
290.3019473121
0
SEQEND
0
POLYLINE
8
0
62
7
6
CONTINUOUS
66
1
70
0
0
VERTEX
8
0
62
7
6
CONTINUOUS
10
114.3484987455
20
288.0776962669
0
VERTEX
8
0
62
7
6
CONTINUOUS
10
114.3137067271
20
288.6348350774
0
VERTEX
8
0
62
7
6
CONTINUOUS
10
114.2169969376
20
289.1842635161
0
VERTEX
8
0
62
7
6
CONTINUOUS
10
114.0596901869
20
289.7190773938
0
VERTEX
8
0
62
7
6
CONTINUOUS
10
113.8437452103
20
290.2328578692
0
VERTEX
8
0
62
7
6
CONTINUOUS
10
113.5716924898
20
290.7195086892
0
VERTEX
8
0
62
7
6
CONTINUOUS
10
113.2471063323
20
291.1726132703
0
VERTEX
8
0
62
7
6
CONTINUOUS
10
112.8743689520
20
291.5862604294
0
VERTEX
8
0
62
7
6
CONTINUOUS
10
112.4579465208
20
291.9556854970
0
VERTEX
8
0
62
7
6
CONTINUOUS
10
112.0027954868
20
292.2765005641
0
VERTEX
8
0
62
7
6
CONTINUOUS
10
111.5146637304
20
292.5446262833
0
VERTEX
8
0
62
7
6
CONTINUOUS
10
110.9996709506
20
292.7567067191
0
VERTEX
8
0
62
7
6
CONTINUOUS
10
110.4641351742
20
292.9101365677
0
SEQEND
0
POLYLINE
8
0
62
7
6
CONTINUOUS
66
1
70
0
0
VERTEX
8
0
62
7
6
CONTINUOUS
10
115.2619915734
20
288.0776962669
0
VERTEX
8
0
62
7
6
CONTINUOUS
10
115.2483208133
20
288.4119739343
0
VERTEX
8
0
62
7
6
CONTINUOUS
10
115.2111295072
20
288.7578484879
0
VERTEX
8
0
62
7
6
CONTINUOUS
10
115.1479330846
20
289.1129882862
0
VERTEX
8
0
62
7
6
CONTINUOUS
10
115.0558863522
20
289.4760395127
0
VERTEX
8
0
62
7
6
CONTINUOUS
10
114.9319032008
20
289.8455737778
0
VERTEX
8
0
62
7
6
CONTINUOUS
10
114.7737884282
20
290.2165549953
0
VERTEX
8
0
62
7
6
CONTINUOUS
10
114.5799214792
20
290.5839943941
0
VERTEX
8
0
62
7
6
CONTINUOUS
10
114.3487639682
20
290.9442325491
0
SEQEND
0
LINE
8
0
62
7
6
CONTINUOUS
10
118.6967071049
20
261.4146459418
11
118.3809729590
21
288.0951708880
0
LINE
8
0
62
7
6
CONTINUOUS
10
118.7571904466
20
253.9822419093
11
118.6967071049
21
261.4146459418
0
LINE
8
0
62
7
6
CONTINUOUS
10
115.4444514431
20
265.0171334939
11
115.2619915734
21
288.0776962669
0
LINE
8
0
62
7
6
CONTINUOUS
10
118.8017921692
20
245.9068766550
11
118.7571904466
21
253.9822419093
0
LINE
8
0
62
7
6
CONTINUOUS
10
115.4947036382
20
254.1970866569
11
115.4444514431
21
265.0171334939
0
LINE
8
0
62
7
6
CONTINUOUS
10
115.5135218789
20
246.2026540201
11
115.4947036382
21
254.1970866569
0
LINE
8
0
62
7
6
CONTINUOUS
10
116.5798380221
20
292.1082895010
11
116.5796217938
21
295.5340901692
0
LINE
8
0
62
7
6
CONTINUOUS
10
115.5157365567
20
237.4264437929
11
115.5135218789
21
246.2026540201
0
LINE
8
0
62
7
6
CONTINUOUS
10
120.8060318807
20
152.4699129099
11
120.8079118236
21
154.9523370995
0
LINE
8
0
62
7
6
CONTINUOUS
10
115.8429028937
20
145.8209768746
11
115.8493103135
21
149.8680713794
0
LINE
8
0
62
7
6
CONTINUOUS
10
115.8493103135
20
149.8680713794
11
115.8495169010
21
149.8945456102
0
POLYLINE
8
0
62
7
6
CONTINUOUS
66
1
70
0
0
VERTEX
8
0
62
7
6
CONTINUOUS
10
114.4770273523
20
162.1773982208
0
VERTEX
8
0
62
7
6
CONTINUOUS
10
114.6083402523
20
166.3546910812
0
VERTEX
8
0
62
7
6
CONTINUOUS
10
114.7409531233
20
171.0600087979
0
VERTEX
8
0
62
7
6
CONTINUOUS
10
114.8694763906
20
176.2090577497
0
VERTEX
8
0
62
7
6
CONTINUOUS
10
114.9898165948
20
181.7708844111
0
VERTEX
8
0
62
7
6
CONTINUOUS
10
115.0998819155
20
187.6135663686
0
VERTEX
8
0
62
7
6
CONTINUOUS
10
115.1961605404
20
193.6388858784
0
VERTEX
8
0
62
7
6
CONTINUOUS
10
115.2788189858
20
199.7147754057
0
VERTEX
8
0
62
7
6
CONTINUOUS
10
115.3461720894
20
205.6840934857
0
VERTEX
8
0
62
7
6
CONTINUOUS
10
115.4002630735
20
211.5238441638
0
VERTEX
8
0
62
7
6
CONTINUOUS
10
115.4420528842
20
217.1614451731
0
VERTEX
8
0
62
7
6
CONTINUOUS
10
115.4731031887
20
222.5885139869
0
VERTEX
8
0
62
7
6
CONTINUOUS
10
115.4948964441
20
227.7670285028
0
VERTEX
8
0
62
7
6
CONTINUOUS
10
115.5157365567
20
237.4264437929
0
SEQEND
0
LINE
8
0
62
7
6
CONTINUOUS
10
114.2679070733
20
156.4972968105
11
114.4770273523
21
162.1773982208
0
POLYLINE
8
0
62
7
6
CONTINUOUS
66
1
70
0
0
VERTEX
8
0
62
7
6
CONTINUOUS
10
117.5079791722
20
160.8763534960
0
VERTEX
8
0
62
7
6
CONTINUOUS
10
117.6862606258
20
165.1074551927
0
VERTEX
8
0
62
7
6
CONTINUOUS
10
117.8647201103
20
169.8819106537
0
VERTEX
8
0
62
7
6
CONTINUOUS
10
118.0361179272
20
175.1154362259
0
VERTEX
8
0
62
7
6
CONTINUOUS
10
118.1957777297
20
180.7504770416
0
VERTEX
8
0
62
7
6
CONTINUOUS
10
118.3396630919
20
186.6791587176
0
VERTEX
8
0
62
7
6
CONTINUOUS
10
118.4642457571
20
192.7776297271
0
VERTEX
8
0
62
7
6
CONTINUOUS
10
118.5687770286
20
198.9311255951
0
VERTEX
8
0
62
7
6
CONTINUOUS
10
118.6520153169
20
204.9699359496
0
VERTEX
8
0
62
7
6
CONTINUOUS
10
118.7165300208
20
210.8734825279
0
VERTEX
8
0
62
7
6
CONTINUOUS
10
118.7638904280
20
216.5727059150
0
VERTEX
8
0
62
7
6
CONTINUOUS
10
118.7964032624
20
222.0545483929
0
VERTEX
8
0
62
7
6
CONTINUOUS
10
118.8160436771
20
227.2872621660
0
VERTEX
8
0
62
7
6
CONTINUOUS
10
118.8247793185
20
232.2817733285
0
VERTEX
8
0
62
7
6
CONTINUOUS
10
118.8244219273
20
237.0430786349
0
VERTEX
8
0
62
7
6
CONTINUOUS
10
118.8017921692
20
245.9068766550
0
SEQEND
0
LINE
8
0
62
7
6
CONTINUOUS
10
114.2163053034
20
155.2952540977
11
114.2679070733
21
156.4972968105
0
POLYLINE
8
0
62
7
6
CONTINUOUS
66
1
70
0
0
VERTEX
8
0
62
7
6
CONTINUOUS
10
122.4353865906
20
282.6586043320
0
VERTEX
8
0
62
7
6
CONTINUOUS
10
122.3954489812
20
281.7856349606
0
VERTEX
8
0
62
7
6
CONTINUOUS
10
122.2978257650
20
280.9116371771
0
VERTEX
8
0
62
7
6
CONTINUOUS
10
122.1424679310
20
280.0365386161
0
VERTEX
8
0
62
7
6
CONTINUOUS
10
121.9294555648
20
279.1608750931
0
VERTEX
8
0
62
7
6
CONTINUOUS
10
121.6589894037
20
278.2851823655
0
VERTEX
8
0
62
7
6
CONTINUOUS
10
121.3311429800
20
277.4093888855
0
SEQEND
0
LINE
8
0
62
7
6
CONTINUOUS
10
114.1589155721
20
154.1027869884
11
114.2163053034
21
155.2952540977
0
POLYLINE
8
0
62
7
6
CONTINUOUS
66
1
70
0
0
VERTEX
8
0
62
7
6
CONTINUOUS
10
117.2046135144
20
154.6439002583
0
VERTEX
8
0
62
7
6
CONTINUOUS
10
117.2270455458
20
155.0696281107
0
VERTEX
8
0
62
7
6
CONTINUOUS
10
117.5079791722
20
160.8763534960
0
SEQEND
0
LINE
8
0
62
7
6
CONTINUOUS
10
114.1144692282
20
153.2716756470
11
114.1589155721
21
154.1027869884
0
POLYLINE
8
0
62
7
6
CONTINUOUS
66
1
70
0
0
VERTEX
8
0
62
7
6
CONTINUOUS
10
122.4353351413
20
287.3462542556
0
VERTEX
8
0
62
7
6
CONTINUOUS
10
122.3950854155
20
286.7035177508
0
VERTEX
8
0
62
7
6
CONTINUOUS
10
122.2974150718
20
286.0600401999
0
VERTEX
8
0
62
7
6
CONTINUOUS
10
122.1422831872
20
285.4157548731
0
VERTEX
8
0
62
7
6
CONTINUOUS
10
121.9297928886
20
284.7710960135
0
VERTEX
8
0
62
7
6
CONTINUOUS
10
121.6601815061
20
284.1264977545
0
VERTEX
8
0
62
7
6
CONTINUOUS
10
121.3335441457
20
283.4818938537
0
SEQEND
0
POLYLINE
8
0
62
7
6
CONTINUOUS
66
1
70
0
0
VERTEX
8
0
62
7
6
CONTINUOUS
10
89.2572079888
20
151.6281392475
0
VERTEX
8
0
62
7
6
CONTINUOUS
10
89.1490117490
20
151.3524821228
0
VERTEX
8
0
62
7
6
CONTINUOUS
10
89.0020258376
20
151.0840915926
0
VERTEX
8
0
62
7
6
CONTINUOUS
10
88.8199317412
20
150.8296899275
0
VERTEX
8
0
62
7
6
CONTINUOUS
10
88.6072902867
20
150.5956490244
0
VERTEX
8
0
62
7
6
CONTINUOUS
10
88.3694274077
20
150.3878308129
0
VERTEX
8
0
62
7
6
CONTINUOUS
10
88.1123007480
20
150.2114404336
0
VERTEX
8
0
62
7
6
CONTINUOUS
10
87.8423504440
20
150.0708958672
0
VERTEX
8
0
62
7
6
CONTINUOUS
10
87.5663378192
20
149.9697172803
0
VERTEX
8
0
62
7
6
CONTINUOUS
10
87.2911760374
20
149.9104388570
0
VERTEX
8
0
62
7
6
CONTINUOUS
10
87.0237569544
20
149.8945453236
0
SEQEND
0
LINE
8
DEFAULT_1
62
2
6
CENTER
10
101.4366369749
20
239.5340901692
11
93.1866369749
21
239.5340901692
0
LINE
8
DEFAULT_1
62
2
6
CENTER
10
101.4366369749
20
239.5340901692
11
109.6866369749
21
239.5340901692
0
POLYLINE
8
0
62
7
6
CONTINUOUS
66
1
70
0
0
VERTEX
8
0
62
7
6
CONTINUOUS
10
118.3809517000
20
288.0951708874
0
VERTEX
8
0
62
7
6
CONTINUOUS
10
118.3540301059
20
288.5634784727
0
VERTEX
8
0
62
7
6
CONTINUOUS
10
118.2799743186
20
289.0494947320
0
VERTEX
8
0
62
7
6
CONTINUOUS
10
118.1545731007
20
289.5464716015
0
VERTEX
8
0
62
7
6
CONTINUOUS
10
117.9734141483
20
290.0537165391
0
VERTEX
8
0
62
7
6
CONTINUOUS
10
117.7285215329
20
290.5702521939
0
VERTEX
8
0
62
7
6
CONTINUOUS
10
117.4173439133
20
291.0889276808
0
VERTEX
8
0
62
7
6
CONTINUOUS
10
117.0372698790
20
291.6043554093
0
VERTEX
8
0
62
7
6
CONTINUOUS
10
116.5798454810
20
292.1082895031
0
SEQEND
0
LINE
8
0
62
7
6
CONTINUOUS
10
122.4366369749
20
198.0340901692
11
122.4352453365
21
295.5341236193
0
LINE
8
0
62
7
6
CONTINUOUS
10
121.3086654965
20
270.3475176029
11
121.3331629148
21
295.5343404570
0
LINE
8
0
62
7
6
CONTINUOUS
10
120.9900247528
20
198.4752819295
11
121.1247261720
21
230.3977279910
0
LINE
8
0
62
7
6
CONTINUOUS
10
121.1247261720
20
230.3977279910
11
121.3086654965
21
270.3475176029
0
LINE
8
0
62
7
6
CONTINUOUS
10
120.8079118236
20
154.9523370995
11
120.8097688832
21
155.3772121776
0
POLYLINE
8
0
62
7
6
CONTINUOUS
66
1
70
0
0
VERTEX
8
0
62
7
6
CONTINUOUS
10
122.4365311581
20
201.1697081399
0
VERTEX
8
0
62
7
6
CONTINUOUS
10
122.3908759958
20
193.9508296862
0
VERTEX
8
0
62
7
6
CONTINUOUS
10
122.2562072042
20
186.7311814744
0
VERTEX
8
0
62
7
6
CONTINUOUS
10
122.0325202328
20
179.5114983626
0
VERTEX
8
0
62
7
6
CONTINUOUS
10
121.7198470684
20
172.2934978562
0
VERTEX
8
0
62
7
6
CONTINUOUS
10
121.3182560277
20
165.0788972870
0
VERTEX
8
0
62
7
6
CONTINUOUS
10
120.8277790161
20
157.8684333890
0
SEQEND
0
POLYLINE
8
0
62
7
6
CONTINUOUS
66
1
70
0
0
VERTEX
8
0
62
7
6
CONTINUOUS
10
122.4365727232
20
199.8619864441
0
VERTEX
8
0
62
7
6
CONTINUOUS
10
122.3908052770
20
192.4628146755
0
VERTEX
8
0
62
7
6
CONTINUOUS
10
122.2549098357
20
185.0633029206
0
VERTEX
8
0
62
7
6
CONTINUOUS
10
122.0288861174
20
177.6642105361
0
VERTEX
8
0
62
7
6
CONTINUOUS
10
121.7127731515
20
170.2673693729
0
VERTEX
8
0
62
7
6
CONTINUOUS
10
121.3066491289
20
162.8746106354
0
VERTEX
8
0
62
7
6
CONTINUOUS
10
120.8105529984
20
155.4866944180
0
SEQEND
0
POLYLINE
8
0
62
7
6
CONTINUOUS
66
1
70
0
0
VERTEX
8
0
62
7
6
CONTINUOUS
10
122.4364792589
20
203.1779010658
0
VERTEX
8
0
62
7
6
CONTINUOUS
10
122.3910614364
20
196.2346993807
0
VERTEX
8
0
62
7
6
CONTINUOUS
10
122.2581985712
20
189.2902667545
0
VERTEX
8
0
62
7
6
CONTINUOUS
10
122.0378797148
20
182.3452478988
0
VERTEX
8
0
62
7
6
CONTINUOUS
10
121.7301359204
20
175.4013906804
0
VERTEX
8
0
62
7
6
CONTINUOUS
10
121.3350399070
20
168.4604429238
0
VERTEX
8
0
62
7
6
CONTINUOUS
10
120.8526225832
20
161.5230518400
0
SEQEND
0
LINE
8
0
62
7
6
CONTINUOUS
10
122.4363499632
20
273.5683231095
11
122.4354889319
21
273.4177877725
0
LINE
8
0
62
7
6
CONTINUOUS
10
122.4366008127
20
287.4670107360
11
122.4363115152
21
287.4187081245
0
POLYLINE
8
0
62
7
6
CONTINUOUS
66
1
70
0
0
VERTEX
8
0
62
7
6
CONTINUOUS
10
120.8097688832
20
155.3772121776
0
VERTEX
8
0
62
7
6
CONTINUOUS
10
120.8413386676
20
159.6312586171
0
VERTEX
8
0
62
7
6
CONTINUOUS
10
120.9900247528
20
198.4752819295
0
SEQEND
0
POLYLINE
8
0
62
7
6
CONTINUOUS
66
1
70
0
0
VERTEX
8
0
62
7
6
CONTINUOUS
10
122.4364980428
20
282.7896299593
0
VERTEX
8
0
62
7
6
CONTINUOUS
10
122.4357686509
20
282.6913606870
0
VERTEX
8
0
62
7
6
CONTINUOUS
10
122.4353865906
20
282.6586043320
0
SEQEND
0
POLYLINE
8
0
62
7
6
CONTINUOUS
66
1
70
0
0
VERTEX
8
0
62
7
6
CONTINUOUS
10
122.4363115152
20
287.4187081245
0
VERTEX
8
0
62
7
6
CONTINUOUS
10
122.4357329222
20
287.3704055155
0
VERTEX
8
0
62
7
6
CONTINUOUS
10
122.4353351413
20
287.3462542556
0
SEQEND
0
POLYLINE
8
0
62
7
6
CONTINUOUS
66
1
70
0
0
VERTEX
8
0
62
7
6
CONTINUOUS
10
122.4354889319
20
273.4177877725
0
VERTEX
8
0
62
7
6
CONTINUOUS
10
122.3949007003
20
272.0519840525
0
VERTEX
8
0
62
7
6
CONTINUOUS
10
122.2939276680
20
270.6844995372
0
VERTEX
8
0
62
7
6
CONTINUOUS
10
122.1324987246
20
269.3152390249
0
VERTEX
8
0
62
7
6
CONTINUOUS
10
121.9106694911
20
267.9450051514
0
VERTEX
8
0
62
7
6
CONTINUOUS
10
121.6286148534
20
266.5746005629
0
VERTEX
8
0
62
7
6
CONTINUOUS
10
121.2863849501
20
265.2039316045
0
SEQEND
0
LINE
8
0
62
7
6
CONTINUOUS
10
117.1585225159
20
153.8187566436
11
117.2046135144
21
154.6439002583
0
LINE
8
0
62
7
6
CONTINUOUS
10
117.0963609221
20
152.8012869996
11
117.1585225159
21
153.8187566436
0
POLYLINE
8
0
62
7
6
CONTINUOUS
66
1
70
0
0
VERTEX
8
0
62
7
6
CONTINUOUS
10
120.8060318807
20
152.4699129099
0
VERTEX
8
0
62
7
6
CONTINUOUS
10
121.3040775158
20
160.0537388455
0
VERTEX
8
0
62
7
6
CONTINUOUS
10
121.7116479672
20
167.6425782842
0
VERTEX
8
0
62
7
6
CONTINUOUS
10
122.0287770449
20
175.2373050323
0
VERTEX
8
0
62
7
6
CONTINUOUS
10
122.2553633189
20
182.8352976709
0
VERTEX
8
0
62
7
6
CONTINUOUS
10
122.3913053589
20
190.4339347811
0
VERTEX
8
0
62
7
6
CONTINUOUS
10
122.4366369749
20
198.0340901692
0
SEQEND
0
LINE
8
0
62
7
6
CONTINUOUS
10
117.0520906068
20
152.1366385901
11
117.0963609221
21
152.8012869996
0
LINE
8
0
62
7
6
CONTINUOUS
10
117.0219184332
20
151.7098218949
11
117.0520906068
21
152.1366385901
0
POLYLINE
8
0
62
7
6
CONTINUOUS
66
1
70
0
0
VERTEX
8
0
62
7
6
CONTINUOUS
10
90.2415210288
20
150.4749002863
0
VERTEX
8
0
62
7
6
CONTINUOUS
10
90.1048123884
20
150.1621710311
0
VERTEX
8
0
62
7
6
CONTINUOUS
10
89.9427470484
20
149.8589482509
0
VERTEX
8
0
62
7
6
CONTINUOUS
10
89.7601182573
20
149.5742002995
0
VERTEX
8
0
62
7
6
CONTINUOUS
10
89.5623274652
20
149.3163491052
0
VERTEX
8
0
62
7
6
CONTINUOUS
10
89.3552245680
20
149.0930210789
0
VERTEX
8
0
62
7
6
CONTINUOUS
10
89.1449348882
20
148.9108215496
0
VERTEX
8
0
62
7
6
CONTINUOUS
10
88.9376780088
20
148.7751394012
0
VERTEX
8
0
62
7
6
CONTINUOUS
10
88.7395838201
20
148.6899876876
0
SEQEND
0
LINE
8
0
62
7
6
CONTINUOUS
10
113.2980705974
20
246.8216927147
11
110.3000122776
21
246.7955290561
0
LINE
8
0
62
7
6
CONTINUOUS
10
92.5732616722
20
246.7955290561
11
110.3000122776
21
246.7955290561
0
LINE
8
0
62
7
6
CONTINUOUS
10
92.5732616722
20
249.6867349560
11
110.3000122776
21
249.6867349560
0
LINE
8
0
62
7
6
CONTINUOUS
10
89.5752033524
20
246.8216927147
11
92.5732616722
21
246.7955290561
0
POLYLINE
8
0
62
7
6
CONTINUOUS
66
1
70
0
0
VERTEX
8
0
62
7
6
CONTINUOUS
10
120.8060318807
20
152.4699129099
0
VERTEX
8
0
62
7
6
CONTINUOUS
10
120.7479515855
20
151.9214027404
0
VERTEX
8
0
62
7
6
CONTINUOUS
10
120.6533331195
20
151.3811167295
0
VERTEX
8
0
62
7
6
CONTINUOUS
10
120.5219774275
20
150.8478731342
0
VERTEX
8
0
62
7
6
CONTINUOUS
10
120.3544816751
20
150.3252171833
0
VERTEX
8
0
62
7
6
CONTINUOUS
10
120.1511354653
20
149.8154118791
0
VERTEX
8
0
62
7
6
CONTINUOUS
10
119.9126624311
20
149.3211221573
0
VERTEX
8
0
62
7
6
CONTINUOUS
10
119.6395635962
20
148.8448929571
0
VERTEX
8
0
62
7
6
CONTINUOUS
10
119.3327963919
20
148.3893472696
0
VERTEX
8
0
62
7
6
CONTINUOUS
10
118.9928733976
20
147.9569170199
0
VERTEX
8
0
62
7
6
CONTINUOUS
10
118.6216301925
20
147.5507203450
0
VERTEX
8
0
62
7
6
CONTINUOUS
10
118.2203262081
20
147.1738108682
0
VERTEX
8
0
62
7
6
CONTINUOUS
10
117.7912024663
20
146.8288140560
0
VERTEX
8
0
62
7
6
CONTINUOUS
10
117.3358495607
20
146.5185640824
0
VERTEX
8
0
62
7
6
CONTINUOUS
10
116.8574782075
20
146.2454884484
0
VERTEX
8
0
62
7
6
CONTINUOUS
10
116.3602969350
20
146.0133809081
0
VERTEX
8
0
62
7
6
CONTINUOUS
10
115.8429029003
20
145.8209768767
0
SEQEND
0
POLYLINE
8
0
62
7
6
CONTINUOUS
66
1
70
0
0
VERTEX
8
0
62
7
6
CONTINUOUS
10
114.3469697453
20
283.0793732954
0
VERTEX
8
0
62
7
6
CONTINUOUS
10
114.2953017105
20
283.2343367602
0
VERTEX
8
0
62
7
6
CONTINUOUS
10
114.1743465010
20
283.3850408499
0
VERTEX
8
0
62
7
6
CONTINUOUS
10
113.9869484940
20
283.5279416142
0
VERTEX
8
0
62
7
6
CONTINUOUS
10
113.7375145320
20
283.6596786056
0
VERTEX
8
0
62
7
6
CONTINUOUS
10
113.4319102924
20
283.7771539032
0
VERTEX
8
0
62
7
6
CONTINUOUS
10
113.0773223502
20
283.8776049632
0
VERTEX
8
0
62
7
6
CONTINUOUS
10
112.6820891787
20
283.9586695834
0
VERTEX
8
0
62
7
6
CONTINUOUS
10
112.2555050627
20
284.0184414519
0
VERTEX
8
0
62
7
6
CONTINUOUS
10
111.8076015341
20
284.0555149763
0
VERTEX
8
0
62
7
6
CONTINUOUS
10
111.3489114714
20
284.0690183372
0
SEQEND
0
POLYLINE
8
0
62
7
6
CONTINUOUS
66
1
70
0
0
VERTEX
8
0
62
7
6
CONTINUOUS
10
118.3536311422
20
264.8981734753
0
VERTEX
8
0
62
7
6
CONTINUOUS
10
119.3104839644
20
264.9514816957
0
VERTEX
8
0
62
7
6
CONTINUOUS
10
119.8849742966
20
264.9932143159
0
VERTEX
8
0
62
7
6
CONTINUOUS
10
120.3765446931
20
265.0400656137
0
VERTEX
8
0
62
7
6
CONTINUOUS
10
120.7777683893
20
265.0913277423
0
VERTEX
8
0
62
7
6
CONTINUOUS
10
121.0825835753
20
265.1462262169
0
VERTEX
8
0
62
7
6
CONTINUOUS
10
121.2863849474
20
265.2039316045
0
SEQEND
0
POLYLINE
8
0
62
7
6
CONTINUOUS
66
1
70
0
0
VERTEX
8
0
62
7
6
CONTINUOUS
10
83.5627908707
20
264.9514817750
0
VERTEX
8
0
62
7
6
CONTINUOUS
10
82.9883007120
20
264.9932143570
0
VERTEX
8
0
62
7
6
CONTINUOUS
10
82.4967302189
20
265.0400656333
0
VERTEX
8
0
62
7
6
CONTINUOUS
10
82.0955063180
20
265.0913277525
0
VERTEX
8
0
62
7
6
CONTINUOUS
10
81.7906909133
20
265.1462262207
0
VERTEX
8
0
62
7
6
CONTINUOUS
10
81.5868892793
20
265.2039316097
0
SEQEND
0
POLYLINE
8
0
62
7
6
CONTINUOUS
66
1
70
0
0
VERTEX
8
0
62
7
6
CONTINUOUS
10
115.4444519167
20
265.0170590119
0
VERTEX
8
0
62
7
6
CONTINUOUS
10
115.4905413848
20
264.9885527941
0
VERTEX
8
0
62
7
6
CONTINUOUS
10
115.6015140727
20
264.9615733982
0
VERTEX
8
0
62
7
6
CONTINUOUS
10
115.7736824840
20
264.9370173190
0
VERTEX
8
0
62
7
6
CONTINUOUS
10
116.0013256573
20
264.9157005273
0
VERTEX
8
0
62
7
6
CONTINUOUS
10
116.2768792680
20
264.8983313559
0
VERTEX
8
0
62
7
6
CONTINUOUS
10
116.5911869816
20
264.8854869627
0
VERTEX
8
0
62
7
6
CONTINUOUS
10
116.9338047091
20
264.8775941524
0
VERTEX
8
0
62
7
6
CONTINUOUS
10
117.2933476514
20
264.8749151942
0
VERTEX
8
0
62
7
6
CONTINUOUS
10
117.6578686041
20
264.8775391069
0
VERTEX
8
0
62
7
6
CONTINUOUS
10
118.0152549488
20
264.8853787009
0
VERTEX
8
0
62
7
6
CONTINUOUS
10
118.3536311422
20
264.8981734753
0
SEQEND
0
POLYLINE
8
0
62
7
6
CONTINUOUS
66
1
70
0
0
VERTEX
8
0
62
7
6
CONTINUOUS
10
113.6160868973
20
151.6281394300
0
VERTEX
8
0
62
7
6
CONTINUOUS
10
113.7662653425
20
151.9129521375
0
VERTEX
8
0
62
7
6
CONTINUOUS
10
113.8893159649
20
152.1982944116
0
VERTEX
8
0
62
7
6
CONTINUOUS
10
113.9855855591
20
152.4887518057
0
VERTEX
8
0
62
7
6
CONTINUOUS
10
114.0543003860
20
152.7705699864
0
VERTEX
8
0
62
7
6
CONTINUOUS
10
114.0964008403
20
153.0300095794
0
VERTEX
8
0
62
7
6
CONTINUOUS
10
114.1144692282
20
153.2716756470
0
SEQEND
0
LINE
8
0
62
7
6
CONTINUOUS
10
117.5339823742
20
275.5124975880
11
118.5344935657
21
275.5238560280
0
POLYLINE
8
0
62
7
6
CONTINUOUS
66
1
70
0
0
VERTEX
8
0
62
7
6
CONTINUOUS
10
84.3387803938
20
275.5238560292
0
VERTEX
8
0
62
7
6
CONTINUOUS
10
83.6529699272
20
275.5199746774
0
VERTEX
8
0
62
7
6
CONTINUOUS
10
81.5454039382
20
275.5050625582
0
SEQEND
0
LINE
8
0
62
7
6
CONTINUOUS
10
116.4861880093
20
275.5051992290
11
117.5339823742
21
275.5124975880
0
LINE
8
0
62
7
6
CONTINUOUS
10
87.1843071023
20
275.5040357914
11
86.6940753018
21
275.5040743284
0
LINE
8
0
62
7
6
CONTINUOUS
10
86.6940753018
20
275.5040743284
11
85.6985829162
21
275.5094799114
0
POLYLINE
8
0
62
7
6
CONTINUOUS
66
1
70
0
0
VERTEX
8
0
62
7
6
CONTINUOUS
10
118.5344935647
20
275.5238560280
0
VERTEX
8
0
62
7
6
CONTINUOUS
10
121.1078405370
20
275.5072755985
0
VERTEX
8
0
62
7
6
CONTINUOUS
10
121.3278700189
20
275.5050625581
0
SEQEND
0
POLYLINE
8
0
62
7
6
CONTINUOUS
66
1
70
0
0
VERTEX
8
0
62
7
6
CONTINUOUS
10
85.6985829162
20
275.5094799114
0
VERTEX
8
0
62
7
6
CONTINUOUS
10
84.6482380022
20
275.5198034990
0
VERTEX
8
0
62
7
6
CONTINUOUS
10
84.3387804048
20
275.5238560293
0
SEQEND
0
POLYLINE
8
0
62
7
6
CONTINUOUS
66
1
70
0
0
VERTEX
8
0
62
7
6
CONTINUOUS
10
114.3487639682
20
290.9442325491
0
VERTEX
8
0
62
7
6
CONTINUOUS
10
114.0539639132
20
291.3221405829
0
VERTEX
8
0
62
7
6
CONTINUOUS
10
113.7341003978
20
291.6601886927
0
VERTEX
8
0
62
7
6
CONTINUOUS
10
113.3944792011
20
291.9582910250
0
VERTEX
8
0
62
7
6
CONTINUOUS
10
113.0411979623
20
292.2159959615
0
VERTEX
8
0
62
7
6
CONTINUOUS
10
112.6798036671
20
292.4340218677
0
VERTEX
8
0
62
7
6
CONTINUOUS
10
112.3158723148
20
292.6136577373
0
VERTEX
8
0
62
7
6
CONTINUOUS
10
111.9545408852
20
292.7569194942
0
VERTEX
8
0
62
7
6
CONTINUOUS
10
111.6003337988
20
292.8664844688
0
VERTEX
8
0
62
7
6
CONTINUOUS
10
111.2572527019
20
292.9454536886
0
VERTEX
8
0
62
7
6
CONTINUOUS
10
110.9289181077
20
292.9972432011
0
VERTEX
8
0
62
7
6
CONTINUOUS
10
110.6188482867
20
293.0254925473
0
VERTEX
8
0
62
7
6
CONTINUOUS
10
110.3281782215
20
293.0340901692
0
SEQEND
0
POLYLINE
8
0
62
7
6
CONTINUOUS
66
1
70
0
0
VERTEX
8
0
62
7
6
CONTINUOUS
10
114.3484436295
20
288.0776957740
0
VERTEX
8
0
62
7
6
CONTINUOUS
10
114.2967554269
20
288.1507227021
0
VERTEX
8
0
62
7
6
CONTINUOUS
10
114.1757867359
20
288.2214171572
0
VERTEX
8
0
62
7
6
CONTINUOUS
10
113.9883820221
20
288.2881168095
0
VERTEX
8
0
62
7
6
CONTINUOUS
10
113.7389479315
20
288.3492532637
0
VERTEX
8
0
62
7
6
CONTINUOUS
10
113.4333496733
20
288.4033889398
0
VERTEX
8
0
62
7
6
CONTINUOUS
10
113.0787731041
20
288.4492508791
0
VERTEX
8
0
62
7
6
CONTINUOUS
10
112.6835557597
20
288.4857606745
0
VERTEX
8
0
62
7
6
CONTINUOUS
10
112.2569908055
20
288.5120598295
0
VERTEX
8
0
62
7
6
CONTINUOUS
10
111.8091085168
20
288.5275299451
0
VERTEX
8
0
62
7
6
CONTINUOUS
10
111.3504404257
20
288.5318072611
0
SEQEND
0
POLYLINE
8
0
62
7
6
CONTINUOUS
66
1
70
0
0
VERTEX
8
0
62
7
6
CONTINUOUS
10
87.5043291143
20
275.5093379633
0
VERTEX
8
0
62
7
6
CONTINUOUS
10
87.4595608358
20
275.5069100079
0
VERTEX
8
0
62
7
6
CONTINUOUS
10
87.3517266688
20
275.5051233956
0
VERTEX
8
0
62
7
6
CONTINUOUS
10
87.1843071023
20
275.5040357914
0
SEQEND
0
POLYLINE
8
0
62
7
6
CONTINUOUS
66
1
70
0
0
VERTEX
8
0
62
7
6
CONTINUOUS
10
87.5203412039
20
277.3987889459
0
VERTEX
8
0
62
7
6
CONTINUOUS
10
87.4757647919
20
277.3968244234
0
VERTEX
8
0
62
7
6
CONTINUOUS
10
87.3684245025
20
277.3954832252
0
SEQEND
0
LINE
8
0
62
7
6
CONTINUOUS
10
117.1516315311
20
277.4014207748
11
118.5098462518
21
277.4153293117
0
LINE
8
0
62
7
6
CONTINUOUS
10
116.1596235407
20
277.3955226329
11
117.1516315311
21
277.4014207748
0
LINE
8
0
62
7
6
CONTINUOUS
10
84.3634277015
20
277.4153293117
11
81.5421309682
21
277.4093888855
0
LINE
8
0
62
7
6
CONTINUOUS
10
87.3684245025
20
277.3954832252
11
86.9811479226
21
277.3948217073
0
LINE
8
0
62
7
6
CONTINUOUS
10
118.5098462515
20
277.4153293117
11
121.3311429744
21
277.4093888855
0
LINE
8
0
62
7
6
CONTINUOUS
10
86.9811479226
20
277.3948217073
11
86.0736192093
21
277.3988760209
0
POLYLINE
8
0
62
7
6
CONTINUOUS
66
1
70
0
0
VERTEX
8
0
62
7
6
CONTINUOUS
10
86.0736192093
20
277.3988760209
0
VERTEX
8
0
62
7
6
CONTINUOUS
10
84.6730503497
20
277.4115089950
0
VERTEX
8
0
62
7
6
CONTINUOUS
10
84.3634277006
20
277.4153293117
0
SEQEND
0
POLYLINE
8
0
62
7
6
CONTINUOUS
66
1
70
0
0
VERTEX
8
0
62
7
6
CONTINUOUS
10
115.3529327459
20
277.3987889354
0
VERTEX
8
0
62
7
6
CONTINUOUS
10
115.3975091582
20
277.3968244149
0
VERTEX
8
0
62
7
6
CONTINUOUS
10
115.5048494478
20
277.3954832186
0
VERTEX
8
0
62
7
6
CONTINUOUS
10
115.6715059959
20
277.3948084239
0
VERTEX
8
0
62
7
6
CONTINUOUS
10
116.1596235407
20
277.3955226329
0
SEQEND
0
POLYLINE
8
0
62
7
6
CONTINUOUS
66
1
70
0
0
VERTEX
8
0
62
7
6
CONTINUOUS
10
115.3689448398
20
275.5093376322
0
VERTEX
8
0
62
7
6
CONTINUOUS
10
115.4137131142
20
275.5069097442
0
VERTEX
8
0
62
7
6
CONTINUOUS
10
115.5215472788
20
275.5051231971
0
VERTEX
8
0
62
7
6
CONTINUOUS
10
115.6889668442
20
275.5040356541
0
VERTEX
8
0
62
7
6
CONTINUOUS
10
115.9105681243
20
275.5036822170
0
VERTEX
8
0
62
7
6
CONTINUOUS
10
116.4861880093
20
275.5051992290
0
SEQEND
0
POLYLINE
8
0
62
7
6
CONTINUOUS
66
1
70
0
0
VERTEX
8
0
62
7
6
CONTINUOUS
10
116.5798380221
20
292.1082895010
0
VERTEX
8
0
62
7
6
CONTINUOUS
10
116.1461761620
20
292.6355480528
0
VERTEX
8
0
62
7
6
CONTINUOUS
10
115.6830734014
20
293.1078617219
0
VERTEX
8
0
62
7
6
CONTINUOUS
10
115.1858150802
20
293.5253720568
0
VERTEX
8
0
62
7
6
CONTINUOUS
10
114.6677316095
20
293.8876544116
0
VERTEX
8
0
62
7
6
CONTINUOUS
10
114.1384070765
20
294.1931317986
0
VERTEX
8
0
62
7
6
CONTINUOUS
10
113.6050465332
20
294.4454027922
0
VERTEX
8
0
62
7
6
CONTINUOUS
10
113.0764746795
20
294.6458933092
0
VERTEX
8
0
62
7
6
CONTINUOUS
10
112.5579644115
20
294.7995443349
0
VERTEX
8
0
62
7
6
CONTINUOUS
10
112.0564303311
20
294.9099748204
0
VERTEX
8
0
62
7
6
CONTINUOUS
10
111.5760870607
20
294.9825767860
0
VERTEX
8
0
62
7
6
CONTINUOUS
10
111.1242189116
20
295.0247733611
0
VERTEX
8
0
62
7
6
CONTINUOUS
10
110.6986591067
20
295.0340901692
0
SEQEND
0
POLYLINE
8
0
62
7
6
CONTINUOUS
66
1
70
0
0
VERTEX
8
0
62
7
6
CONTINUOUS
10
112.6317650186
20
150.4749003914
0
VERTEX
8
0
62
7
6
CONTINUOUS
10
112.8200864348
20
150.6448771825
0
VERTEX
8
0
62
7
6
CONTINUOUS
10
113.0004019746
20
150.8242880708
0
VERTEX
8
0
62
7
6
CONTINUOUS
10
113.1714746057
20
151.0136166652
0
VERTEX
8
0
62
7
6
CONTINUOUS
10
113.3319525812
20
151.2113679562
0
VERTEX
8
0
62
7
6
CONTINUOUS
10
113.4805365369
20
151.4160473913
0
VERTEX
8
0
62
7
6
CONTINUOUS
10
113.6160868973
20
151.6281394300
0
SEQEND
0
POLYLINE
8
0
62
7
6
CONTINUOUS
66
1
70
0
0
VERTEX
8
0
62
7
6
CONTINUOUS
10
87.5719558141
20
283.4641850334
0
VERTEX
8
0
62
7
6
CONTINUOUS
10
87.5278628668
20
283.4624894864
0
VERTEX
8
0
62
7
6
CONTINUOUS
10
87.4217792432
20
283.4614009019
0
SEQEND
0
LINE
8
0
62
7
6
CONTINUOUS
10
117.0819625633
20
283.4681180563
11
118.4359301697
21
283.4816606347
0
LINE
8
0
62
7
6
CONTINUOUS
10
117.0300311489
20
288.0817573399
11
118.3809517000
21
288.0951708874
0
LINE
8
0
62
7
6
CONTINUOUS
10
115.7905989401
20
288.0748131268
11
117.0300311489
21
288.0817573399
0
LINE
8
0
62
7
6
CONTINUOUS
10
115.8343168495
20
283.4611623695
11
117.0819625633
21
283.4681180563
0
LINE
8
0
62
7
6
CONTINUOUS
10
118.4359301697
20
283.4816606347
11
121.3335441457
21
283.4818938537
0
LINE
8
0
62
7
6
CONTINUOUS
10
111.3489114714
20
284.0690182657
11
91.5243624784
21
284.0690182657
0
LINE
8
0
62
7
6
CONTINUOUS
10
115.2619915734
20
288.0776962669
11
114.3484987455
21
288.0776962669
0
LINE
8
0
62
7
6
CONTINUOUS
10
87.6112823764
20
288.0776962669
11
88.5247752043
21
288.0776962669
0
LINE
8
0
62
7
6
CONTINUOUS
10
84.4373437787
20
283.4816606347
11
81.5397298077
21
283.4818938537
0
LINE
8
0
62
7
6
CONTINUOUS
10
87.4217792432
20
283.4614009019
11
87.0389571002
21
283.4611623740
0
LINE
8
0
62
7
6
CONTINUOUS
10
87.4623082115
20
288.0749988884
11
87.0825701667
21
288.0748140678
0
LINE
8
0
62
7
6
CONTINUOUS
10
87.0389571002
20
283.4611623740
11
85.7913113854
21
283.4681180543
0
LINE
8
0
62
7
6
CONTINUOUS
10
87.0825701667
20
288.0748140678
11
85.8431786729
21
288.0817579745
0
LINE
8
0
62
7
6
CONTINUOUS
10
85.8431786729
20
288.0817579745
11
84.4923009909
21
288.0951708910
0
LINE
8
0
62
7
6
CONTINUOUS
10
85.7913113854
20
283.4681180543
11
84.4373437784
21
283.4816606347
0
POLYLINE
8
0
62
7
6
CONTINUOUS
66
1
70
0
0
VERTEX
8
0
62
7
6
CONTINUOUS
10
115.3013181359
20
283.4641850169
0
VERTEX
8
0
62
7
6
CONTINUOUS
10
115.3454110832
20
283.4624894731
0
VERTEX
8
0
62
7
6
CONTINUOUS
10
115.4514947068
20
283.4614008918
0
VERTEX
8
0
62
7
6
CONTINUOUS
10
115.8343168495
20
283.4611623695
0
SEQEND
0
POLYLINE
8
0
62
7
6
CONTINUOUS
66
1
70
0
0
VERTEX
8
0
62
7
6
CONTINUOUS
10
92.5450957283
20
293.0340901692
0
VERTEX
8
0
62
7
6
CONTINUOUS
10
92.4871399544
20
293.0587133087
0
VERTEX
8
0
62
7
6
CONTINUOUS
10
92.4306111975
20
293.1319764930
0
VERTEX
8
0
62
7
6
CONTINUOUS
10
92.3769013817
20
293.2520758378
0
VERTEX
8
0
62
7
6
CONTINUOUS
10
92.3273330139
20
293.4160542248
0
VERTEX
8
0
62
7
6
CONTINUOUS
10
92.2831266338
20
293.6198740984
0
VERTEX
8
0
62
7
6
CONTINUOUS
10
92.2453707620
20
293.8585168535
0
VERTEX
8
0
62
7
6
CONTINUOUS
10
92.2149950910
20
294.1261064231
0
VERTEX
8
0
62
7
6
CONTINUOUS
10
92.1927475961
20
294.4160539215
0
VERTEX
8
0
62
7
6
CONTINUOUS
10
92.1791761121
20
294.7212199087
0
VERTEX
8
0
62
7
6
CONTINUOUS
10
92.1746148432
20
295.0340901692
0
SEQEND
0
POLYLINE
8
0
62
7
6
CONTINUOUS
66
1
70
0
0
VERTEX
8
0
62
7
6
CONTINUOUS
10
115.8495470508
20
149.8944544820
0
VERTEX
8
0
62
7
6
CONTINUOUS
10
116.2048048784
20
150.2156281698
0
VERTEX
8
0
62
7
6
CONTINUOUS
10
116.4913126792
20
150.5415274590
0
VERTEX
8
0
62
7
6
CONTINUOUS
10
116.7166546143
20
150.8657680468
0
VERTEX
8
0
62
7
6
CONTINUOUS
10
116.8788690386
20
151.1747333023
0
VERTEX
8
0
62
7
6
CONTINUOUS
10
116.9781327328
20
151.4563572979
0
VERTEX
8
0
62
7
6
CONTINUOUS
10
117.0219144689
20
151.7098287843
0
SEQEND
0
POLYLINE
8
0
62
7
6
CONTINUOUS
66
1
70
0
0
VERTEX
8
0
62
7
6
CONTINUOUS
10
117.3300473533
20
157.1175952597
0
VERTEX
8
0
62
7
6
CONTINUOUS
10
117.9030359245
20
157.4081139632
0
VERTEX
8
0
62
7
6
CONTINUOUS
10
118.4382780407
20
157.7418818351
0
VERTEX
8
0
62
7
6
CONTINUOUS
10
118.9307518790
20
158.1157717547
0
VERTEX
8
0
62
7
6
CONTINUOUS
10
119.3758272519
20
158.5262721699
0
VERTEX
8
0
62
7
6
CONTINUOUS
10
119.7693212528
20
158.9695257050
0
VERTEX
8
0
62
7
6
CONTINUOUS
10
120.1075441137
20
159.4413753345
0
VERTEX
8
0
62
7
6
CONTINUOUS
10
120.3873223669
20
159.9373938017
0
VERTEX
8
0
62
7
6
CONTINUOUS
10
120.6060309171
20
160.4529270790
0
VERTEX
8
0
62
7
6
CONTINUOUS
10
120.7616176722
20
160.9831380360
0
VERTEX
8
0
62
7
6
CONTINUOUS
10
120.8526227973
20
161.5230518249
0
SEQEND
0
LINE
8
0
62
7
6
CONTINUOUS
10
92.9586350417
20
293.0029976396
11
92.4091258178
21
292.9101336268
0
LINE
8
0
62
7
6
CONTINUOUS
10
93.5152702462
20
293.0340901692
11
92.9586350417
21
293.0029976396
0
POLYLINE
8
0
62
7
6
CONTINUOUS
66
1
70
0
0
VERTEX
8
0
62
7
6
CONTINUOUS
10
93.5152702462
20
290.3019473121
0
VERTEX
8
0
62
7
6
CONTINUOUS
10
93.2921438213
20
290.2907863587
0
VERTEX
8
0
62
7
6
CONTINUOUS
10
93.0740999944
20
290.2579885819
0
VERTEX
8
0
62
7
6
CONTINUOUS
10
92.8597161227
20
290.2031675345
0
VERTEX
8
0
62
7
6
CONTINUOUS
10
92.6532601343
20
290.1275195746
0
VERTEX
8
0
62
7
6
CONTINUOUS
10
92.4578148383
20
290.0316045097
0
VERTEX
8
0
62
7
6
CONTINUOUS
10
92.2755129489
20
289.9169757634
0
VERTEX
8
0
62
7
6
CONTINUOUS
10
92.1089352281
20
289.7847520749
0
VERTEX
8
0
62
7
6
CONTINUOUS
10
91.9598203424
20
289.6368218972
0
VERTEX
8
0
62
7
6
CONTINUOUS
10
91.8303232620
20
289.4746591327
0
VERTEX
8
0
62
7
6
CONTINUOUS
10
91.7217758384
20
289.3006390578
0
VERTEX
8
0
62
7
6
CONTINUOUS
10
91.6360283159
20
289.1167270132
0
VERTEX
8
0
62
7
6
CONTINUOUS
10
91.5736804861
20
288.9256167330
0
VERTEX
8
0
62
7
6
CONTINUOUS
10
91.5361009564
20
288.7310457060
0
VERTEX
8
0
62
7
6
CONTINUOUS
10
91.5228335242
20
288.5318066327
0
SEQEND
0
POLYLINE
8
0
62
7
6
CONTINUOUS
66
1
70
0
0
VERTEX
8
0
62
7
6
CONTINUOUS
10
87.6112823764
20
288.0776962669
0
VERTEX
8
0
62
7
6
CONTINUOUS
10
87.5675230311
20
288.0760475022
0
VERTEX
8
0
62
7
6
CONTINUOUS
10
87.4623082115
20
288.0749988884
0
SEQEND
0
POLYLINE
8
0
62
7
6
CONTINUOUS
66
1
70
0
0
VERTEX
8
0
62
7
6
CONTINUOUS
10
92.5450957283
20
293.0340901692
0
VERTEX
8
0
62
7
6
CONTINUOUS
10
92.1953194053
20
293.0216347414
0
VERTEX
8
0
62
7
6
CONTINUOUS
10
91.8161003565
20
292.9797242259
0
VERTEX
8
0
62
7
6
CONTINUOUS
10
91.4091697337
20
292.9009507880
0
VERTEX
8
0
62
7
6
CONTINUOUS
10
90.9829837310
20
292.7789923338
0
VERTEX
8
0
62
7
6
CONTINUOUS
10
90.5457709635
20
292.6084801423
0
VERTEX
8
0
62
7
6
CONTINUOUS
10
90.1064039574
20
292.3853205941
0
VERTEX
8
0
62
7
6
CONTINUOUS
10
89.6746416261
20
292.1070657196
0
VERTEX
8
0
62
7
6
CONTINUOUS
10
89.2603980222
20
291.7729815945
0
VERTEX
8
0
62
7
6
CONTINUOUS
10
88.8745654747
20
291.3852723169
0
VERTEX
8
0
62
7
6
CONTINUOUS
10
88.5245099816
20
290.9442325491
0
SEQEND
0
LINE
8
0
62
7
6
CONTINUOUS
10
109.3580037036
20
290.3019473121
11
93.5152702462
21
290.3019473121
0
LINE
8
0
62
7
6
CONTINUOUS
10
110.3281782215
20
293.0340901692
11
92.5450957283
21
293.0340901692
0
POLYLINE
8
0
62
7
6
CONTINUOUS
66
1
70
0
0
VERTEX
8
0
62
7
6
CONTINUOUS
10
115.2619289032
20
288.0776957121
0
VERTEX
8
0
62
7
6
CONTINUOUS
10
115.3056679508
20
288.0760467971
0
VERTEX
8
0
62
7
6
CONTINUOUS
10
115.4108689878
20
288.0749980634
0
VERTEX
8
0
62
7
6
CONTINUOUS
10
115.7905989401
20
288.0748131268
0
SEQEND
0
LINE
8
0
62
7
6
CONTINUOUS
10
109.9146308862
20
293.0029985387
11
109.3580037036
21
293.0340901692
0
LINE
8
0
62
7
6
CONTINUOUS
10
110.4641351742
20
292.9101365677
11
109.9146308862
21
293.0029985387
0
POLYLINE
8
0
62
7
6
CONTINUOUS
66
1
70
0
0
VERTEX
8
0
62
7
6
CONTINUOUS
10
114.3487102364
20
290.9441940556
0
VERTEX
8
0
62
7
6
CONTINUOUS
10
114.4203227429
20
290.9162483902
0
VERTEX
8
0
62
7
6
CONTINUOUS
10
114.5416805631
20
290.9264664266
0
VERTEX
8
0
62
7
6
CONTINUOUS
10
114.7088982298
20
290.9745209499
0
VERTEX
8
0
62
7
6
CONTINUOUS
10
114.9166219814
20
291.0588733341
0
VERTEX
8
0
62
7
6
CONTINUOUS
10
115.1582011719
20
291.1768228064
0
VERTEX
8
0
62
7
6
CONTINUOUS
10
115.4259012044
20
291.3245929194
0
VERTEX
8
0
62
7
6
CONTINUOUS
10
115.7111511691
20
291.4974524607
0
VERTEX
8
0
62
7
6
CONTINUOUS
10
116.0048182577
20
291.6898669336
0
VERTEX
8
0
62
7
6
CONTINUOUS
10
116.2975001686
20
291.8956757547
0
VERTEX
8
0
62
7
6
CONTINUOUS
10
116.5798261394
20
292.1082894977
0
SEQEND
0
POLYLINE
8
0
62
7
6
CONTINUOUS
66
1
70
0
0
VERTEX
8
0
62
7
6
CONTINUOUS
10
114.1336882652
20
148.6899942711
0
VERTEX
8
0
62
7
6
CONTINUOUS
10
114.4625172365
20
148.8677584229
0
VERTEX
8
0
62
7
6
CONTINUOUS
10
114.7753296890
20
149.0551683021
0
VERTEX
8
0
62
7
6
CONTINUOUS
10
115.0733415530
20
149.2528659138
0
VERTEX
8
0
62
7
6
CONTINUOUS
10
115.3531800148
20
149.4593284173
0
VERTEX
8
0
62
7
6
CONTINUOUS
10
115.6114938895
20
149.6729846632
0
VERTEX
8
0
62
7
6
CONTINUOUS
10
115.8495169010
20
149.8945456102
0
SEQEND
0
POLYLINE
8
0
62
7
6
CONTINUOUS
66
1
70
0
0
VERTEX
8
0
62
7
6
CONTINUOUS
10
117.1108481301
20
153.0292767108
0
VERTEX
8
0
62
7
6
CONTINUOUS
10
117.7163173265
20
153.3366992456
0
VERTEX
8
0
62
7
6
CONTINUOUS
10
118.2827155702
20
153.6949750749
0
VERTEX
8
0
62
7
6
CONTINUOUS
10
118.8043183492
20
154.1004831463
0
VERTEX
8
0
62
7
6
CONTINUOUS
10
119.2758539046
20
154.5491250477
0
VERTEX
8
0
62
7
6
CONTINUOUS
10
119.6925564976
20
155.0363664220
0
VERTEX
8
0
62
7
6
CONTINUOUS
10
120.0502145676
20
155.5572827829
0
VERTEX
8
0
62
7
6
CONTINUOUS
10
120.3452133118
20
156.1066092979
0
VERTEX
8
0
62
7
6
CONTINUOUS
10
120.5745712171
20
156.6787939968
0
VERTEX
8
0
62
7
6
CONTINUOUS
10
120.7359701936
20
157.2680538846
0
VERTEX
8
0
62
7
6
CONTINUOUS
10
120.8277790032
20
157.8684333899
0
SEQEND
0
POLYLINE
8
0
62
7
6
CONTINUOUS
66
1
70
0
0
VERTEX
8
0
62
7
6
CONTINUOUS
10
117.2490641345
20
155.5040183240
0
VERTEX
8
0
62
7
6
CONTINUOUS
10
117.8344606492
20
155.7964652268
0
VERTEX
8
0
62
7
6
CONTINUOUS
10
118.3815587248
20
156.1343878960
0
VERTEX
8
0
62
7
6
CONTINUOUS
10
118.8850732666
20
156.5145258085
0
VERTEX
8
0
62
7
6
CONTINUOUS
10
119.3401317939
20
156.9332036782
0
VERTEX
8
0
62
7
6
CONTINUOUS
10
119.7423321622
20
157.3863718189
0
VERTEX
8
0
62
7
6
CONTINUOUS
10
120.0877908636
20
157.8696540080
0
VERTEX
8
0
62
7
6
CONTINUOUS
10
120.3731705475
20
158.3783814326
0
VERTEX
8
0
62
7
6
CONTINUOUS
10
120.5957142649
20
158.9076394625
0
VERTEX
8
0
62
7
6
CONTINUOUS
10
120.7532721023
20
159.4523151291
0
VERTEX
8
0
62
7
6
CONTINUOUS
10
120.8443219507
20
160.0071465193
0
SEQEND
0
POLYLINE
8
0
62
7
6
CONTINUOUS
66
1
70
0
0
VERTEX
8
0
62
7
6
CONTINUOUS
10
111.1483117490
20
149.5900377162
0
VERTEX
8
0
62
7
6
CONTINUOUS
10
111.3989206085
20
149.6911637316
0
VERTEX
8
0
62
7
6
CONTINUOUS
10
111.6509398106
20
149.8112841611
0
VERTEX
8
0
62
7
6
CONTINUOUS
10
111.9024889419
20
149.9507856399
0
VERTEX
8
0
62
7
6
CONTINUOUS
10
112.1513314788
20
150.1084395138
0
VERTEX
8
0
62
7
6
CONTINUOUS
10
112.3951457706
20
150.2830163856
0
VERTEX
8
0
62
7
6
CONTINUOUS
10
112.6317650186
20
150.4749003914
0
SEQEND
0
LINE
8
0
62
7
6
CONTINUOUS
10
107.0301586051
20
300.4962448791
11
104.8212668917
21
300.4086029873
0
POLYLINE
8
0
62
7
6
CONTINUOUS
66
1
70
0
0
VERTEX
8
0
62
7
6
CONTINUOUS
10
104.8212668917
20
300.4086029873
0
VERTEX
8
0
62
7
6
CONTINUOUS
10
103.9827195323
20
300.3795907093
0
VERTEX
8
0
62
7
6
CONTINUOUS
10
103.1106433218
20
300.3560922631
0
VERTEX
8
0
62
7
6
CONTINUOUS
10
102.2175843374
20
300.3416868762
0
VERTEX
8
0
62
7
6
CONTINUOUS
10
101.3163710469
20
300.3374235150
0
VERTEX
8
0
62
7
6
CONTINUOUS
10
100.4204602108
20
300.3445205286
0
VERTEX
8
0
62
7
6
CONTINUOUS
10
99.5415097864
20
300.3612231649
0
VERTEX
8
0
62
7
6
CONTINUOUS
10
98.6918070205
20
300.3859434133
0
SEQEND
0
POLYLINE
8
0
62
7
6
CONTINUOUS
66
1
70
0
0
VERTEX
8
0
62
7
6
CONTINUOUS
10
106.6822258635
20
300.4889646138
0
VERTEX
8
0
62
7
6
CONTINUOUS
10
104.1089840863
20
300.3989418013
0
VERTEX
8
0
62
7
6
CONTINUOUS
10
102.7864734122
20
300.3682230579
0
VERTEX
8
0
62
7
6
CONTINUOUS
10
101.4532492068
20
300.3570396652
0
VERTEX
8
0
62
7
6
CONTINUOUS
10
100.1197919834
20
300.3676683101
0
VERTEX
8
0
62
7
6
CONTINUOUS
10
98.7966085840
20
300.3980034220
0
SEQEND
0
LINE
8
0
62
7
6
CONTINUOUS
10
80.4366369754
20
295.5340901692
11
80.4380286132
21
295.5341236193
0
LINE
8
0
62
7
6
CONTINUOUS
10
108.2461256361
20
300.5295054527
11
107.6590695009
21
300.5165542597
0
POLYLINE
8
0
62
7
6
CONTINUOUS
66
1
70
0
0
VERTEX
8
0
62
7
6
CONTINUOUS
10
92.1746148431
20
295.0340901692
0
VERTEX
8
0
62
7
6
CONTINUOUS
10
91.7523764421
20
295.0252539532
0
VERTEX
8
0
62
7
6
CONTINUOUS
10
91.3007343048
20
294.9829943389
0
VERTEX
8
0
62
7
6
CONTINUOUS
10
90.8169872755
20
294.9099174459
0
VERTEX
8
0
62
7
6
CONTINUOUS
10
90.3100952505
20
294.7982049156
0
VERTEX
8
0
62
7
6
CONTINUOUS
10
89.7853330570
20
294.6418889766
0
VERTEX
8
0
62
7
6
CONTINUOUS
10
89.2508826563
20
294.4380239877
0
VERTEX
8
0
62
7
6
CONTINUOUS
10
88.7134423956
20
294.1817127977
0
VERTEX
8
0
62
7
6
CONTINUOUS
10
88.1823425536
20
293.8728421653
0
VERTEX
8
0
62
7
6
CONTINUOUS
10
87.6659551338
20
293.5086835806
0
VERTEX
8
0
62
7
6
CONTINUOUS
10
87.1732424880
20
293.0921856989
0
VERTEX
8
0
62
7
6
CONTINUOUS
10
86.7172903484
20
292.6256425664
0
VERTEX
8
0
62
7
6
CONTINUOUS
10
86.2934359277
20
292.1082895010
0
SEQEND
0
LINE
8
0
62
7
6
CONTINUOUS
10
80.4380287320
20
295.5341236193
11
80.4559673679
21
295.5343238189
0
POLYLINE
8
0
62
7
6
CONTINUOUS
66
1
70
0
0
VERTEX
8
0
62
7
6
CONTINUOUS
10
108.7788204289
20
300.5340941866
0
VERTEX
8
0
62
7
6
CONTINUOUS
10
107.9152029764
20
300.5244043433
0
VERTEX
8
0
62
7
6
CONTINUOUS
10
106.6822258635
20
300.4889646138
0
SEQEND
0
LINE
8
0
62
7
6
CONTINUOUS
10
110.6986591067
20
295.0340901692
11
92.1746148431
21
295.0340901692
0
LINE
8
0
62
7
6
CONTINUOUS
10
108.7787317242
20
300.5340883637
11
117.4366369749
21
300.5340901692
0
LINE
8
0
62
7
6
CONTINUOUS
10
94.0936649644
20
300.5340886662
11
85.4366369749
21
300.5340901692
0
LINE
8
0
62
7
6
CONTINUOUS
10
80.4559673679
20
295.5343238189
11
122.2391825556
21
295.5346243351
0
POLYLINE
8
0
62
7
6
CONTINUOUS
66
1
70
0
0
VERTEX
8
0
62
7
6
CONTINUOUS
10
122.2391825556
20
295.5346243351
0
VERTEX
8
0
62
7
6
CONTINUOUS
10
122.4173068656
20
295.5343238173
0
VERTEX
8
0
62
7
6
CONTINUOUS
10
122.4352452181
20
295.5341236193
0
SEQEND
0
LINE
8
0
62
7
6
CONTINUOUS
10
95.1656098587
20
300.5178845629
11
94.6042340453
21
300.5298702623
0
LINE
8
0
62
7
6
CONTINUOUS
10
122.4352453366
20
295.5341236193
11
122.4366369744
21
295.5340901692
0
POLYLINE
8
0
62
7
6
CONTINUOUS
66
1
70
0
0
VERTEX
8
0
62
7
6
CONTINUOUS
10
96.2207789858
20
300.4879329915
0
VERTEX
8
0
62
7
6
CONTINUOUS
10
94.9859945240
20
300.5238249427
0
VERTEX
8
0
62
7
6
CONTINUOUS
10
94.0935758401
20
300.5340930277
0
SEQEND
0
LINE
8
0
62
7
6
CONTINUOUS
10
98.7966085840
20
300.3980034220
11
95.7656347830
21
300.4989967689
0
POLYLINE
8
0
62
7
6
CONTINUOUS
66
1
70
0
0
VERTEX
8
0
62
7
6
CONTINUOUS
10
98.6918070205
20
300.3859434133
0
VERTEX
8
0
62
7
6
CONTINUOUS
10
97.1215383242
20
300.4456822906
0
VERTEX
8
0
62
7
6
CONTINUOUS
10
96.4139691718
20
300.4745307648
0
SEQEND
0
POLYLINE
8
0
62
7
6
CONTINUOUS
66
1
70
0
0
VERTEX
8
0
62
7
6
CONTINUOUS
10
115.8460487616
20
149.1371716094
0
VERTEX
8
0
62
7
6
CONTINUOUS
10
116.6346527160
20
149.4059520156
0
VERTEX
8
0
62
7
6
CONTINUOUS
10
117.3828287694
20
149.7604049121
0
VERTEX
8
0
62
7
6
CONTINUOUS
10
118.0797971528
20
150.1954233186
0
VERTEX
8
0
62
7
6
CONTINUOUS
10
118.7155159001
20
150.7047394616
0
VERTEX
8
0
62
7
6
CONTINUOUS
10
119.2808255344
20
151.2810150810
0
VERTEX
8
0
62
7
6
CONTINUOUS
10
119.7675810377
20
151.9159471601
0
VERTEX
8
0
62
7
6
CONTINUOUS
10
120.1687692050
20
152.6003875564
0
VERTEX
8
0
62
7
6
CONTINUOUS
10
120.4786096911
20
153.3244748079
0
VERTEX
8
0
62
7
6
CONTINUOUS
10
120.6926382941
20
154.0777762185
0
VERTEX
8
0
62
7
6
CONTINUOUS
10
120.8077712760
20
154.8494381725
0
SEQEND
0
POLYLINE
8
0
62
7
6
CONTINUOUS
66
1
70
0
0
VERTEX
8
0
62
7
6
CONTINUOUS
10
115.8493102104
20
149.8680716921
0
VERTEX
8
0
62
7
6
CONTINUOUS
10
116.6378582938
20
150.1318356262
0
VERTEX
8
0
62
7
6
CONTINUOUS
10
117.3859760438
20
150.4799922348
0
VERTEX
8
0
62
7
6
CONTINUOUS
10
118.0828854214
20
150.9075256692
0
VERTEX
8
0
62
7
6
CONTINUOUS
10
118.7185461406
20
151.4082765087
0
VERTEX
8
0
62
7
6
CONTINUOUS
10
119.2838003169
20
151.9750304985
0
VERTEX
8
0
62
7
6
CONTINUOUS
10
119.7705044041
20
152.5996224850
0
VERTEX
8
0
62
7
6
CONTINUOUS
10
120.1716465173
20
153.2730540494
0
VERTEX
8
0
62
7
6
CONTINUOUS
10
120.4814474523
20
153.9856231476
0
VERTEX
8
0
62
7
6
CONTINUOUS
10
120.6954439457
20
154.7270638856
0
VERTEX
8
0
62
7
6
CONTINUOUS
10
120.8105529769
20
155.4866944195
0
SEQEND
0
POLYLINE
8
0
62
7
6
CONTINUOUS
66
1
70
0
0
VERTEX
8
0
62
7
6
CONTINUOUS
10
87.8079506379
20
300.5340901692
0
VERTEX
8
0
62
7
6
CONTINUOUS
10
87.6102952154
20
300.4913145590
0
VERTEX
8
0
62
7
6
CONTINUOUS
10
87.4160216853
20
300.3637195937
0
VERTEX
8
0
62
7
6
CONTINUOUS
10
87.2284541188
20
300.1534884017
0
VERTEX
8
0
62
7
6
CONTINUOUS
10
87.0508018530
20
299.8642180455
0
VERTEX
8
0
62
7
6
CONTINUOUS
10
86.8861045729
20
299.5008579734
0
VERTEX
8
0
62
7
6
CONTINUOUS
10
86.7371803049
20
299.0696253427
0
VERTEX
8
0
62
7
6
CONTINUOUS
10
86.6065771952
20
298.5778986361
0
VERTEX
8
0
62
7
6
CONTINUOUS
10
86.4965299122
20
298.0340914244
0
VERTEX
8
0
62
7
6
CONTINUOUS
10
86.4089214071
20
297.4475083985
0
VERTEX
8
0
62
7
6
CONTINUOUS
10
86.3452506961
20
296.8281861711
0
VERTEX
8
0
62
7
6
CONTINUOUS
10
86.3066072106
20
296.1867215484
0
VERTEX
8
0
62
7
6
CONTINUOUS
10
86.2936521558
20
295.5340901692
0
SEQEND
0
POLYLINE
8
0
62
7
6
CONTINUOUS
66
1
70
0
0
VERTEX
8
0
62
7
6
CONTINUOUS
10
86.4497960280
20
300.5340901692
0
VERTEX
8
0
62
7
6
CONTINUOUS
10
85.8089817496
20
300.4913141114
0
VERTEX
8
0
62
7
6
CONTINUOUS
10
85.1791316424
20
300.3637245321
0
VERTEX
8
0
62
7
6
CONTINUOUS
10
84.5710218598
20
300.1535043712
0
VERTEX
8
0
62
7
6
CONTINUOUS
10
83.9950565982
20
299.8642503014
0
VERTEX
8
0
62
7
6
CONTINUOUS
10
83.4610900913
20
299.5009111925
0
VERTEX
8
0
62
7
6
CONTINUOUS
10
82.9782580127
20
299.0697034411
0
VERTEX
8
0
62
7
6
CONTINUOUS
10
82.5548211734
20
298.5780046132
0
VERTEX
8
0
62
7
6
CONTINUOUS
10
82.1980241866
20
298.0342272217
0
VERTEX
8
0
62
7
6
CONTINUOUS
10
81.9139715192
20
297.4476747950
0
VERTEX
8
0
62
7
6
CONTINUOUS
10
81.7075230504
20
296.8283827035
0
VERTEX
8
0
62
7
6
CONTINUOUS
10
81.5822109233
20
296.1869464625
0
VERTEX
8
0
62
7
6
CONTINUOUS
10
81.5401791128
20
295.5343404535
0
SEQEND
0
POLYLINE
8
0
62
7
6
CONTINUOUS
66
1
70
0
0
VERTEX
8
0
62
7
6
CONTINUOUS
10
85.4379188959
20
300.5340901692
0
VERTEX
8
0
62
7
6
CONTINUOUS
10
84.7853050297
20
300.4913148241
0
VERTEX
8
0
62
7
6
CONTINUOUS
10
84.1438574745
20
300.3637207150
0
VERTEX
8
0
62
7
6
CONTINUOUS
10
83.5245514823
20
300.1534909940
0
VERTEX
8
0
62
7
6
CONTINUOUS
10
82.9379834596
20
299.8642227190
0
VERTEX
8
0
62
7
6
CONTINUOUS
10
82.3941896624
20
299.5008653083
0
VERTEX
8
0
62
7
6
CONTINUOUS
10
81.9024744738
20
299.0696358547
0
VERTEX
8
0
62
7
6
CONTINUOUS
10
81.4712512052
20
298.5779127508
0
VERTEX
8
0
62
7
6
CONTINUOUS
10
81.1078981432
20
298.0341094434
0
VERTEX
8
0
62
7
6
CONTINUOUS
10
80.8186323064
20
297.4475304784
0
VERTEX
8
0
62
7
6
CONTINUOUS
10
80.6084030711
20
296.8282122987
0
VERTEX
8
0
62
7
6
CONTINUOUS
10
80.4808074873
20
296.1867515197
0
VERTEX
8
0
62
7
6
CONTINUOUS
10
80.4380287320
20
295.5341236193
0
SEQEND
0
POLYLINE
8
0
62
7
6
CONTINUOUS
66
1
70
0
0
VERTEX
8
0
62
7
6
CONTINUOUS
10
117.4353550539
20
300.5340901692
0
VERTEX
8
0
62
7
6
CONTINUOUS
10
118.0879689304
20
300.4913148400
0
VERTEX
8
0
62
7
6
CONTINUOUS
10
118.7294164976
20
300.3637207436
0
VERTEX
8
0
62
7
6
CONTINUOUS
10
119.3487225030
20
300.1534910320
0
VERTEX
8
0
62
7
6
CONTINUOUS
10
119.9352905393
20
299.8642227632
0
VERTEX
8
0
62
7
6
CONTINUOUS
10
120.4790843502
20
299.5008653554
0
VERTEX
8
0
62
7
6
CONTINUOUS
10
120.9707995519
20
299.0696359016
0
VERTEX
8
0
62
7
6
CONTINUOUS
10
121.4020228326
20
298.5779127947
0
VERTEX
8
0
62
7
6
CONTINUOUS
10
121.7653759051
20
298.0341094817
0
VERTEX
8
0
62
7
6
CONTINUOUS
10
122.0546417506
20
297.4475305090
0
VERTEX
8
0
62
7
6
CONTINUOUS
10
122.2648709922
20
296.8282123200
0
VERTEX
8
0
62
7
6
CONTINUOUS
10
122.3924665800
20
296.1867515306
0
VERTEX
8
0
62
7
6
CONTINUOUS
10
122.4352453366
20
295.5341236193
0
SEQEND
0
LINE
8
0
62
7
6
CONTINUOUS
10
116.4234779218
20
300.5340901692
11
117.0643000882
21
300.4913171710
0
POLYLINE
8
0
62
7
6
CONTINUOUS
66
1
70
0
0
VERTEX
8
0
62
7
6
CONTINUOUS
10
117.0643000882
20
300.4913171710
0
VERTEX
8
0
62
7
6
CONTINUOUS
10
117.6941583043
20
300.3637300475
0
VERTEX
8
0
62
7
6
CONTINUOUS
10
118.3022762078
20
300.1535117107
0
VERTEX
8
0
62
7
6
CONTINUOUS
10
118.8782493958
20
299.8642588256
0
VERTEX
8
0
62
7
6
CONTINUOUS
10
119.4122234350
20
299.5009202739
0
VERTEX
8
0
62
7
6
CONTINUOUS
10
119.8950624637
20
299.0697124830
0
VERTEX
8
0
62
7
6
CONTINUOUS
10
120.3185054983
20
298.5780130677
0
VERTEX
8
0
62
7
6
CONTINUOUS
10
120.6753077728
20
298.0342346054
0
VERTEX
8
0
62
7
6
CONTINUOUS
10
120.9593646903
20
297.4476807036
0
VERTEX
8
0
62
7
6
CONTINUOUS
10
121.1658162675
20
296.8283868229
0
VERTEX
8
0
62
7
6
CONTINUOUS
10
121.2911302854
20
296.1869485784
0
VERTEX
8
0
62
7
6
CONTINUOUS
10
121.3331627230
20
295.5343404570
0
SEQEND
0
POLYLINE
8
0
62
7
6
CONTINUOUS
66
1
70
0
0
VERTEX
8
0
62
7
6
CONTINUOUS
10
115.0653233119
20
300.5340901692
0
VERTEX
8
0
62
7
6
CONTINUOUS
10
115.2629781783
20
300.4913148409
0
VERTEX
8
0
62
7
6
CONTINUOUS
10
115.4572512884
20
300.3637206079
0
VERTEX
8
0
62
7
6
CONTINUOUS
10
115.6448185863
20
300.1534904214
0
VERTEX
8
0
62
7
6
CONTINUOUS
10
115.8224707402
20
299.8642211598
0
VERTEX
8
0
62
7
6
CONTINUOUS
10
115.9871680570
20
299.5008620877
0
VERTEX
8
0
62
7
6
CONTINUOUS
10
116.1360924839
20
299.0696302086
0
VERTEX
8
0
62
7
6
CONTINUOUS
10
116.2666958407
20
298.5779038713
0
VERTEX
8
0
62
7
6
CONTINUOUS
10
116.3767434131
20
298.0340965662
0
VERTEX
8
0
62
7
6
CONTINUOUS
10
116.4643522018
20
297.4475129357
0
VERTEX
8
0
62
7
6
CONTINUOUS
10
116.5280231397
20
296.8281896082
0
VERTEX
8
0
62
7
6
CONTINUOUS
10
116.5666667490
20
296.1867234585
0
VERTEX
8
0
62
7
6
CONTINUOUS
10
116.5796217852
20
295.5340901692
0
SEQEND
0
LINE
8
0
62
7
6
CONTINUOUS
10
277.9192495329
20
154.2840901692
11
286.9192495329
21
154.2840901692
0
LINE
8
0
62
7
6
CONTINUOUS
10
286.9192495329
20
159.5340901692
11
277.9192495329
21
159.5340901692
0
LINE
8
DEFAULT_1
62
2
6
CENTER
10
289.9192495329
20
159.5340901692
11
286.9192495329
21
159.5340901692
0
LINE
8
DEFAULT_1
62
2
6
CENTER
10
277.9192495329
20
159.5340901692
11
274.9192495329
21
159.5340901692
0
POLYLINE
8
0
62
7
6
CONTINUOUS
66
1
70
0
0
VERTEX
8
0
62
7
6
CONTINUOUS
10
297.7286398401
20
158.5000500227
0
VERTEX
8
0
62
7
6
CONTINUOUS
10
298.1305241611
20
157.9648857498
0
VERTEX
8
0
62
7
6
CONTINUOUS
10
298.3135872338
20
157.7177709559
0
VERTEX
8
0
62
7
6
CONTINUOUS
10
298.4774304213
20
157.4941317522
0
VERTEX
8
0
62
7
6
CONTINUOUS
10
298.6172441593
20
157.3005329967
0
VERTEX
8
0
62
7
6
CONTINUOUS
10
298.7289242604
20
157.1426577192
0
VERTEX
8
0
62
7
6
CONTINUOUS
10
298.8091923911
20
157.0251402987
0
VERTEX
8
0
62
7
6
CONTINUOUS
10
298.8556923064
20
156.9514304218
0
VERTEX
8
0
62
7
6
CONTINUOUS
10
298.8671001256
20
156.9237214033
0
SEQEND
0
POLYLINE
8
0
62
7
6
CONTINUOUS
66
1
70
0
0
VERTEX
8
0
62
7
6
CONTINUOUS
10
295.5961606234
20
156.9150172686
0
VERTEX
8
0
62
7
6
CONTINUOUS
10
295.9857902446
20
156.3750880021
0
VERTEX
8
0
62
7
6
CONTINUOUS
10
296.1633666117
20
156.1255415155
0
VERTEX
8
0
62
7
6
CONTINUOUS
10
296.3224466710
20
155.8994249983
0
VERTEX
8
0
62
7
6
CONTINUOUS
10
296.4584113162
20
155.7033040518
0
VERTEX
8
0
62
7
6
CONTINUOUS
10
296.5673126286
20
155.5428733152
0
VERTEX
8
0
62
7
6
CONTINUOUS
10
296.6459885100
20
155.4227911134
0
VERTEX
8
0
62
7
6
CONTINUOUS
10
296.6921544991
20
155.3465441968
0
VERTEX
8
0
62
7
6
CONTINUOUS
10
296.7042171090
20
155.3160883155
0
SEQEND
0
POLYLINE
8
0
62
7
6
CONTINUOUS
66
1
70
0
0
VERTEX
8
0
62
7
6
CONTINUOUS
10
292.0251928453
20
154.5372569465
0
VERTEX
8
0
62
7
6
CONTINUOUS
10
292.1985403369
20
154.2495805468
0
VERTEX
8
0
62
7
6
CONTINUOUS
10
292.3649468691
20
153.9706141946
0
VERTEX
8
0
62
7
6
CONTINUOUS
10
292.5196621330
20
153.7083213771
0
VERTEX
8
0
62
7
6
CONTINUOUS
10
292.6582695634
20
153.4701896120
0
VERTEX
8
0
62
7
6
CONTINUOUS
10
292.7768124159
20
153.2630167057
0
VERTEX
8
0
62
7
6
CONTINUOUS
10
292.8719067178
20
153.0927167005
0
VERTEX
8
0
62
7
6
CONTINUOUS
10
292.9408378681
20
152.9641510498
0
VERTEX
8
0
62
7
6
CONTINUOUS
10
292.9816381301
20
152.8809898409
0
VERTEX
8
0
62
7
6
CONTINUOUS
10
292.9931428026
20
152.8456070276
0
VERTEX
8
0
62
7
6
CONTINUOUS
10
292.9924245851
20
152.8445628025
0
SEQEND
0
POLYLINE
8
0
62
7
6
CONTINUOUS
66
1
70
0
0
VERTEX
8
0
62
7
6
CONTINUOUS
10
289.8145510428
20
153.2716756470
0
VERTEX
8
0
62
7
6
CONTINUOUS
10
289.9723099212
20
152.9772428371
0
VERTEX
8
0
62
7
6
CONTINUOUS
10
290.1236461036
20
152.6916125347
0
VERTEX
8
0
62
7
6
CONTINUOUS
10
290.2642882094
20
152.4228464974
0
VERTEX
8
0
62
7
6
CONTINUOUS
10
290.3902666922
20
152.1785304983
0
VERTEX
8
0
62
7
6
CONTINUOUS
10
290.4980258787
20
151.9655602216
0
VERTEX
8
0
62
7
6
CONTINUOUS
10
290.5845243247
20
151.7899466357
0
VERTEX
8
0
62
7
6
CONTINUOUS
10
290.6473206590
20
151.6566463369
0
VERTEX
8
0
62
7
6
CONTINUOUS
10
290.6846424894
20
151.5694216527
0
VERTEX
8
0
62
7
6
CONTINUOUS
10
290.6954364274
20
151.5307344512
0
VERTEX
8
0
62
7
6
CONTINUOUS
10
290.6944616984
20
151.5289910671
0
SEQEND
0
LINE
8
0
62
2
6
CONTINUOUS
10
326.5483334152
20
300.3391585465
11
322.7898888479
21
296.5807139791
0
LINE
8
0
62
2
6
CONTINUOUS
10
278.9196653360
20
252.7104904673
11
275.4192495329
21
249.2100746641
0
POLYLINE
8
0
62
7
6
CONTINUOUS
66
1
70
0
0
VERTEX
8
0
62
7
6
CONTINUOUS
10
288.2392308484
20
151.6281394597
0
VERTEX
8
0
62
7
6
CONTINUOUS
10
288.3510144519
20
151.3524737647
0
VERTEX
8
0
62
7
6
CONTINUOUS
10
288.4319464014
20
151.0840743027
0
VERTEX
8
0
62
7
6
CONTINUOUS
10
288.4799996162
20
150.8296634069
0
VERTEX
8
0
62
7
6
CONTINUOUS
10
288.4939705026
20
150.5956130524
0
VERTEX
8
0
62
7
6
CONTINUOUS
10
288.4735090995
20
150.3877852633
0
VERTEX
8
0
62
7
6
CONTINUOUS
10
288.4191278445
20
150.2113852923
0
VERTEX
8
0
62
7
6
CONTINUOUS
10
288.3321887384
20
150.0708312491
0
VERTEX
8
0
62
7
6
CONTINUOUS
10
288.2306486159
20
149.9797392500
0
SEQEND
0
LINE
8
0
62
2
6
CONTINUOUS
10
327.2962108556
20
297.5515020809
11
322.6692495329
21
292.9245407582
0
LINE
8
0
62
2
6
CONTINUOUS
10
283.2164825330
20
253.4717737583
11
277.7787989439
21
248.0340901692
0
LINE
8
0
62
2
6
CONTINUOUS
10
330.8143328498
20
297.5340901692
11
322.3701705987
21
289.0899279181
0
LINE
8
0
62
2
6
CONTINUOUS
10
287.8278190066
20
254.5475763260
11
278.0643328498
21
244.7840901692
0
LINE
8
0
62
7
6
CONTINUOUS
10
275.4192495329
20
252.5340901692
11
275.4192495329
21
246.3739965160
0
LINE
8
0
62
7
6
CONTINUOUS
10
277.9192495329
20
143.5340901692
11
277.9192495329
21
248.0340901692
0
LINE
8
0
62
2
6
CONTINUOUS
10
334.3498667558
20
297.5340901692
11
329.7301112208
21
292.9143346343
0
LINE
8
0
62
2
6
CONTINUOUS
10
327.6826503387
20
290.8668737522
11
320.7515824371
21
283.9358058506
0
LINE
8
0
62
2
6
CONTINUOUS
10
293.1757592449
20
256.3599826584
11
281.5998667558
21
244.7840901692
0
LINE
8
0
62
2
6
CONTINUOUS
10
336.6692495329
20
296.3179390404
11
333.3854006617
21
293.0340901692
0
LINE
8
0
62
2
6
CONTINUOUS
10
326.9481386101
20
286.5968281176
11
317.2151736660
21
276.8638631735
0
LINE
8
0
62
2
6
CONTINUOUS
10
300.2141620075
20
259.8628515150
11
290.4592877554
21
250.1079772630
0
LINE
8
0
62
2
6
CONTINUOUS
10
286.9192495329
20
246.5679390404
11
285.1354006617
21
244.7840901692
0
LINE
8
0
62
2
6
CONTINUOUS
10
325.0212181956
20
281.1343737972
11
295.9796800969
21
252.0928356985
0
POLYLINE
8
0
62
7
6
CONTINUOUS
66
1
70
0
0
VERTEX
8
0
62
7
6
CONTINUOUS
10
287.3160789466
20
150.4749003263
0
VERTEX
8
0
62
7
6
CONTINUOUS
10
287.3587329742
20
150.1621764686
0
VERTEX
8
0
62
7
6
CONTINUOUS
10
287.3487968789
20
149.8589586957
0
VERTEX
8
0
62
7
6
CONTINUOUS
10
287.2865645489
20
149.5742151509
0
VERTEX
8
0
62
7
6
CONTINUOUS
10
287.1738766135
20
149.3163675731
0
VERTEX
8
0
62
7
6
CONTINUOUS
10
287.0140660030
20
149.0930422113
0
SEQEND
0
LINE
8
0
62
7
6
CONTINUOUS
10
286.9192495329
20
148.5193456552
11
286.9192495329
21
246.7955290561
0
LINE
8
0
62
2
6
CONTINUOUS
10
321.2581896459
20
273.8358113415
11
303.3341564737
21
255.9117781694
0
LINE
8
0
62
2
6
CONTINUOUS
10
348.4920023795
20
297.5340901692
11
347.1692495329
21
296.2113373226
0
LINE
8
0
62
2
6
CONTINUOUS
10
352.0275362854
20
297.5340901692
11
347.5452413141
21
293.0517951979
0
POLYLINE
8
0
62
7
6
CONTINUOUS
66
1
70
0
0
VERTEX
8
0
62
7
6
CONTINUOUS
10
289.8145510428
20
246.8217430635
0
VERTEX
8
0
62
7
6
CONTINUOUS
10
293.1335630170
20
247.8493710950
0
VERTEX
8
0
62
7
6
CONTINUOUS
10
296.3709835976
20
249.0668422420
0
VERTEX
8
0
62
7
6
CONTINUOUS
10
299.5316532212
20
250.4766846749
0
VERTEX
8
0
62
7
6
CONTINUOUS
10
302.6010505778
20
252.0713138826
0
VERTEX
8
0
62
7
6
CONTINUOUS
10
305.5691670122
20
253.8459061989
0
VERTEX
8
0
62
7
6
CONTINUOUS
10
308.4273049974
20
255.7947072593
0
VERTEX
8
0
62
7
6
CONTINUOUS
10
311.1673864317
20
257.9137761893
0
VERTEX
8
0
62
7
6
CONTINUOUS
10
313.7775443841
20
260.1928488531
0
VERTEX
8
0
62
7
6
CONTINUOUS
10
316.2460316776
20
262.6239742530
0
VERTEX
8
0
62
7
6
CONTINUOUS
10
318.5644109490
20
265.1962721010
0
VERTEX
8
0
62
7
6
CONTINUOUS
10
320.7218518067
20
267.8988273254
0
VERTEX
8
0
62
7
6
CONTINUOUS
10
322.7137861594
20
270.7237932798
0
VERTEX
8
0
62
7
6
CONTINUOUS
10
324.5336560648
20
273.6623134648
0
VERTEX
8
0
62
7
6
CONTINUOUS
10
326.1766006829
20
276.7065023683
0
VERTEX
8
0
62
7
6
CONTINUOUS
10
327.6346923405
20
279.8441676022
0
VERTEX
8
0
62
7
6
CONTINUOUS
10
328.9105735953
20
283.0793732958
0
SEQEND
0
LINE
8
0
62
7
6
CONTINUOUS
10
289.8145510428
20
153.2716756470
11
289.8145510428
21
246.8217430635
0
POLYLINE
8
0
62
7
6
CONTINUOUS
66
1
70
0
0
VERTEX
8
0
62
7
6
CONTINUOUS
10
286.9192495329
20
149.5900377162
0
VERTEX
8
0
62
7
6
CONTINUOUS
10
286.9298086310
20
149.6911637316
0
VERTEX
8
0
62
7
6
CONTINUOUS
10
286.9619805641
20
149.8112841611
0
VERTEX
8
0
62
7
6
CONTINUOUS
10
287.0164057674
20
149.9507856399
0
VERTEX
8
0
62
7
6
CONTINUOUS
10
287.0934871773
20
150.1084395138
0
VERTEX
8
0
62
7
6
CONTINUOUS
10
287.1933721793
20
150.2830163856
0
VERTEX
8
0
62
7
6
CONTINUOUS
10
287.3160658261
20
150.4749003914
0
SEQEND
0
LINE
8
0
62
2
6
CONTINUOUS
10
358.1515325914
20
300.1225525692
11
356.9192495329
21
298.8902695107
0
LINE
8
0
62
2
6
CONTINUOUS
10
355.5630701914
20
297.5340901692
11
351.0630701914
21
293.0340901692
0
LINE
8
0
62
2
6
CONTINUOUS
10
360.1365559490
20
298.5720420210
11
354.5986040973
21
293.0340901692
0
LINE
8
0
62
2
6
CONTINUOUS
10
361.1361725690
20
296.0361247350
11
358.1341380032
21
293.0340901692
0
POLYLINE
8
0
62
7
6
CONTINUOUS
66
1
70
0
0
VERTEX
8
0
62
7
6
CONTINUOUS
10
289.8145510105
20
246.8216927196
0
VERTEX
8
0
62
7
6
CONTINUOUS
10
289.6143325541
20
247.5610875092
0
VERTEX
8
0
62
7
6
CONTINUOUS
10
289.5209687458
20
247.9146166139
0
VERTEX
8
0
62
7
6
CONTINUOUS
10
289.4341992417
20
248.2494070890
0
VERTEX
8
0
62
7
6
CONTINUOUS
10
289.3554877741
20
248.5598623190
0
VERTEX
8
0
62
7
6
CONTINUOUS
10
289.2861424968
20
248.8407872685
0
VERTEX
8
0
62
7
6
CONTINUOUS
10
289.2273348238
20
249.0874863143
0
VERTEX
8
0
62
7
6
CONTINUOUS
10
289.1800368363
20
249.2958300588
0
VERTEX
8
0
62
7
6
CONTINUOUS
10
289.1450480680
20
249.4623361336
0
VERTEX
8
0
62
7
6
CONTINUOUS
10
289.1229412513
20
249.5842161419
0
VERTEX
8
0
62
7
6
CONTINUOUS
10
289.1140836451
20
249.6594308568
0
VERTEX
8
0
62
7
6
CONTINUOUS
10
289.1186694942
20
249.6867349640
0
SEQEND
0
POLYLINE
8
0
62
7
6
CONTINUOUS
66
1
70
0
0
VERTEX
8
0
62
7
6
CONTINUOUS
10
328.9105735953
20
283.0793732958
0
VERTEX
8
0
62
7
6
CONTINUOUS
10
329.0548333228
20
283.4888702645
0
VERTEX
8
0
62
7
6
CONTINUOUS
10
329.1974934411
20
283.9181257544
0
VERTEX
8
0
62
7
6
CONTINUOUS
10
329.3390204654
20
284.3670533748
0
VERTEX
8
0
62
7
6
CONTINUOUS
10
329.4780148502
20
284.8359122975
0
VERTEX
8
0
62
7
6
CONTINUOUS
10
329.6135814689
20
285.3248689902
0
VERTEX
8
0
62
7
6
CONTINUOUS
10
329.7446735801
20
285.8341151751
0
VERTEX
8
0
62
7
6
CONTINUOUS
10
329.8703265600
20
286.3638366820
0
VERTEX
8
0
62
7
6
CONTINUOUS
10
329.9893989291
20
286.9142176556
0
VERTEX
8
0
62
7
6
CONTINUOUS
10
330.1002447890
20
287.4855349449
0
VERTEX
8
0
62
7
6
CONTINUOUS
10
330.2034127725
20
288.0776962669
0
SEQEND
0
LINE
8
0
62
7
6
CONTINUOUS
10
322.6692495329
20
295.5340901692
11
322.6692495329
21
292.5340901692
0
LINE
8
0
62
7
6
CONTINUOUS
10
286.9192495329
20
239.5340901692
11
277.9192495329
21
239.5340901692
0
LINE
8
DEFAULT_1
62
2
6
CENTER
10
289.9192495329
20
239.5340901692
11
286.9192495329
21
239.5340901692
0
LINE
8
DEFAULT_1
62
2
6
CENTER
10
277.9192495329
20
239.5340901692
11
274.9192495329
21
239.5340901692
0
LINE
8
0
62
7
6
CONTINUOUS
10
326.9192495329
20
299.8569944584
11
326.9192495329
21
298.0340901692
0
POLYLINE
8
0
62
7
6
CONTINUOUS
66
1
70
0
0
VERTEX
8
0
62
7
6
CONTINUOUS
10
330.2034127725
20
288.0776962669
0
VERTEX
8
0
62
7
6
CONTINUOUS
10
330.4504320355
20
291.9556854970
0
VERTEX
8
0
62
7
6
CONTINUOUS
10
330.4731792353
20
292.2765005641
0
VERTEX
8
0
62
7
6
CONTINUOUS
10
330.4939943051
20
292.5446262833
0
VERTEX
8
0
62
7
6
CONTINUOUS
10
330.5128689602
20
292.7567067191
0
VERTEX
8
0
62
7
6
CONTINUOUS
10
330.5297619933
20
292.9101365677
0
VERTEX
8
0
62
7
6
CONTINUOUS
10
330.5447227053
20
293.0029985387
0
VERTEX
8
0
62
7
6
CONTINUOUS
10
330.5574190676
20
293.0340901692
0
SEQEND
0
LINE
8
0
62
7
6
CONTINUOUS
10
277.9192495329
20
244.7840901692
11
286.9192495329
21
244.7840901692
0
LINE
8
0
62
7
6
CONTINUOUS
10
277.9192495329
20
246.3739965160
11
275.4192495329
21
246.3739965160
0
LINE
8
0
62
7
6
CONTINUOUS
10
336.6692495329
20
297.0340901692
11
336.6692495329
21
293.5340901692
0
POLYLINE
8
0
62
7
6
CONTINUOUS
66
1
70
0
0
VERTEX
8
0
62
7
6
CONTINUOUS
10
356.9716314423
20
290.9442325491
0
VERTEX
8
0
62
7
6
CONTINUOUS
10
357.0985404818
20
291.3221405829
0
VERTEX
8
0
62
7
6
CONTINUOUS
10
357.2285106943
20
291.6601886927
0
VERTEX
8
0
62
7
6
CONTINUOUS
10
357.3626661380
20
291.9582910250
0
VERTEX
8
0
62
7
6
CONTINUOUS
10
357.4968658292
20
292.2159959615
0
VERTEX
8
0
62
7
6
CONTINUOUS
10
357.6278773781
20
292.4340218677
0
VERTEX
8
0
62
7
6
CONTINUOUS
10
357.7541473154
20
292.6136577373
0
VERTEX
8
0
62
7
6
CONTINUOUS
10
357.8732609334
20
292.7569194942
0
VERTEX
8
0
62
7
6
CONTINUOUS
10
357.9846512627
20
292.8664844688
0
VERTEX
8
0
62
7
6
CONTINUOUS
10
358.0869742463
20
292.9454536886
0
VERTEX
8
0
62
7
6
CONTINUOUS
10
358.1802541666
20
292.9972432011
0
VERTEX
8
0
62
7
6
CONTINUOUS
10
358.2640860998
20
293.0254925473
0
VERTEX
8
0
62
7
6
CONTINUOUS
10
358.3385244294
20
293.0340901692
0
SEQEND
0
POLYLINE
8
0
62
7
6
CONTINUOUS
66
1
70
0
0
VERTEX
8
0
62
7
6
CONTINUOUS
10
287.3160658261
20
150.4749003914
0
VERTEX
8
0
62
7
6
CONTINUOUS
10
287.4343911899
20
150.6448771825
0
VERTEX
8
0
62
7
6
CONTINUOUS
10
287.5676518202
20
150.8242880708
0
VERTEX
8
0
62
7
6
CONTINUOUS
10
287.7154563943
20
151.0136166652
0
VERTEX
8
0
62
7
6
CONTINUOUS
10
287.8771704210
20
151.2113679562
0
VERTEX
8
0
62
7
6
CONTINUOUS
10
288.0520152455
20
151.4160473913
0
SEQEND
0
POLYLINE
8
0
62
7
6
CONTINUOUS
66
1
70
0
0
VERTEX
8
0
62
7
6
CONTINUOUS
10
287.2332485867
20
246.8071893499
0
VERTEX
8
0
62
7
6
CONTINUOUS
10
287.0601842919
20
246.8034589082
0
VERTEX
8
0
62
7
6
CONTINUOUS
10
286.9546925903
20
246.7995413852
0
VERTEX
8
0
62
7
6
CONTINUOUS
10
286.9192495329
20
246.7955290561
0
SEQEND
0
LINE
8
0
62
7
6
CONTINUOUS
10
287.7639586848
20
246.8137395635
11
287.2332485867
21
246.8071893499
0
LINE
8
0
62
7
6
CONTINUOUS
10
288.9180922458
20
246.8202078530
11
287.7639586848
21
246.8137395635
0
LINE
8
0
62
7
6
CONTINUOUS
10
289.8145510428
20
246.8216927147
11
288.9180922458
21
246.8202078530
0
LINE
8
0
62
7
6
CONTINUOUS
10
275.4192495329
20
248.0340901692
11
277.9192495329
21
248.0340901692
0
LINE
8
0
62
7
6
CONTINUOUS
10
275.4192495329
20
252.5340901692
11
277.9192495329
21
252.5340901692
0
LINE
8
DEFAULT_1
62
2
6
CENTER
10
341.9192495329
20
290.5340901692
11
341.9192495329
21
306.2705713449
0
POLYLINE
8
0
62
7
6
CONTINUOUS
66
1
70
0
0
VERTEX
8
0
62
7
6
CONTINUOUS
10
358.8947231627
20
291.7936108978
0
VERTEX
8
0
62
7
6
CONTINUOUS
10
358.9897363676
20
292.1696315044
0
VERTEX
8
0
62
7
6
CONTINUOUS
10
359.0844835784
20
292.4980541433
0
VERTEX
8
0
62
7
6
CONTINUOUS
10
359.1762808439
20
292.7793859625
0
VERTEX
8
0
62
7
6
CONTINUOUS
10
359.2629363335
20
293.0153714357
0
VERTEX
8
0
62
7
6
CONTINUOUS
10
359.2741704062
20
293.0425975628
0
SEQEND
0
POLYLINE
8
0
62
7
6
CONTINUOUS
66
1
70
0
0
VERTEX
8
0
62
7
6
CONTINUOUS
10
288.0520152455
20
151.4160473913
0
VERTEX
8
0
62
7
6
CONTINUOUS
10
288.4908598852
20
151.9129521375
0
VERTEX
8
0
62
7
6
CONTINUOUS
10
288.7521255134
20
152.1982944116
0
VERTEX
8
0
62
7
6
CONTINUOUS
10
289.0212995776
20
152.4887518057
0
VERTEX
8
0
62
7
6
CONTINUOUS
10
289.2917167912
20
152.7705699864
0
VERTEX
8
0
62
7
6
CONTINUOUS
10
289.5565643024
20
153.0300095794
0
VERTEX
8
0
62
7
6
CONTINUOUS
10
289.8145510428
20
153.2716756470
0
SEQEND
0
LINE
8
0
62
2
6
CONTINUOUS
10
279.4882144041
20
154.2840901692
11
277.9192495329
21
152.7151252980
0
LINE
8
0
62
2
6
CONTINUOUS
10
283.0237483100
20
154.2840901692
11
277.9192495329
21
149.1795913921
0
LINE
8
0
62
2
6
CONTINUOUS
10
286.5592822160
20
154.2840901692
11
277.9192495329
21
145.6440574862
0
LINE
8
0
62
7
6
CONTINUOUS
10
283.1237771099
20
253.4517888029
11
277.9192495329
21
252.5340901692
0
LINE
8
0
62
7
6
CONTINUOUS
10
347.1692495329
20
297.0340901692
11
347.1692495329
21
293.5340901692
0
LINE
8
0
62
7
6
CONTINUOUS
10
287.0140660030
20
149.0930422113
11
286.9172947230
21
148.9958756207
0
LINE
8
0
62
2
6
CONTINUOUS
10
286.9192495329
20
151.1085235802
11
280.3112450381
21
144.5005190854
0
LINE
8
0
62
7
6
CONTINUOUS
10
356.9192495329
20
299.8570408295
11
356.9192495329
21
298.0340901692
0
LINE
8
0
62
7
6
CONTINUOUS
10
356.2832794356
20
275.5093414648
11
356.3614287111
21
288.0776962669
0
LINE
8
0
62
7
6
CONTINUOUS
10
358.2134184553
20
275.5110372998
11
358.2461521430
21
280.3788427262
0
POLYLINE
8
0
62
7
6
CONTINUOUS
66
1
70
0
0
VERTEX
8
0
62
7
6
CONTINUOUS
10
358.2915974155
20
288.0836330425
0
VERTEX
8
0
62
7
6
CONTINUOUS
10
358.2938472996
20
288.2373897751
0
VERTEX
8
0
62
7
6
CONTINUOUS
10
358.3220245581
20
288.7634033780
0
VERTEX
8
0
62
7
6
CONTINUOUS
10
358.3815153248
20
289.3020642018
0
VERTEX
8
0
62
7
6
CONTINUOUS
10
358.4684673181
20
289.8457315413
0
VERTEX
8
0
62
7
6
CONTINUOUS
10
358.5754328382
20
290.3863605490
0
VERTEX
8
0
62
7
6
CONTINUOUS
10
358.6948555804
20
290.9247375935
0
VERTEX
8
0
62
7
6
CONTINUOUS
10
358.8947231627
20
291.7936108978
0
SEQEND
0
POLYLINE
8
0
62
7
6
CONTINUOUS
66
1
70
0
0
VERTEX
8
0
62
7
6
CONTINUOUS
10
356.3614287111
20
288.0776962669
0
VERTEX
8
0
62
7
6
CONTINUOUS
10
356.3742501480
20
288.4119739343
0
VERTEX
8
0
62
7
6
CONTINUOUS
10
356.4083813038
20
288.7578484879
0
VERTEX
8
0
62
7
6
CONTINUOUS
10
356.4648760541
20
289.1129882862
0
VERTEX
8
0
62
7
6
CONTINUOUS
10
356.5409324310
20
289.4760395127
0
VERTEX
8
0
62
7
6
CONTINUOUS
10
356.6367377131
20
289.8455737778
0
VERTEX
8
0
62
7
6
CONTINUOUS
10
356.7443931700
20
290.2165549953
0
VERTEX
8
0
62
7
6
CONTINUOUS
10
356.8550128940
20
290.5839943941
0
VERTEX
8
0
62
7
6
CONTINUOUS
10
356.9716314423
20
290.9442325491
0
SEQEND
0
POLYLINE
8
0
62
7
6
CONTINUOUS
66
1
70
0
0
VERTEX
8
0
62
7
6
CONTINUOUS
10
355.8234709922
20
265.0171334939
0
VERTEX
8
0
62
7
6
CONTINUOUS
10
355.9525667952
20
266.7662455584
0
VERTEX
8
0
62
7
6
CONTINUOUS
10
356.0606719422
20
268.5153778407
0
VERTEX
8
0
62
7
6
CONTINUOUS
10
356.1477805916
20
270.2647033213
0
VERTEX
8
0
62
7
6
CONTINUOUS
10
356.2139102683
20
272.0137030593
0
VERTEX
8
0
62
7
6
CONTINUOUS
10
356.2590784968
20
273.7618581136
0
VERTEX
8
0
62
7
6
CONTINUOUS
10
356.2832794356
20
275.5093414648
0
SEQEND
0
POLYLINE
8
0
62
7
6
CONTINUOUS
66
1
70
0
0
VERTEX
8
0
62
7
6
CONTINUOUS
10
357.7473247489
20
264.8753521816
0
VERTEX
8
0
62
7
6
CONTINUOUS
10
357.8620093092
20
266.4124039744
0
VERTEX
8
0
62
7
6
CONTINUOUS
10
357.9806712381
20
268.2951938714
0
VERTEX
8
0
62
7
6
CONTINUOUS
10
358.0753608403
20
270.1784821863
0
VERTEX
8
0
62
7
6
CONTINUOUS
10
358.1460743037
20
272.0619825667
0
VERTEX
8
0
62
7
6
CONTINUOUS
10
358.1928112447
20
273.9454092638
0
VERTEX
8
0
62
7
6
CONTINUOUS
10
358.2134183877
20
275.5110373002
0
SEQEND
0
POLYLINE
8
0
62
7
6
CONTINUOUS
66
1
70
0
0
VERTEX
8
0
62
7
6
CONTINUOUS
10
286.9172947230
20
148.9958756207
0
VERTEX
8
0
62
7
6
CONTINUOUS
10
286.9527437498
20
149.0273129359
0
VERTEX
8
0
62
7
6
CONTINUOUS
10
287.1553194718
20
149.1980214534
0
SEQEND
0
POLYLINE
8
0
62
7
6
CONTINUOUS
66
1
70
0
0
VERTEX
8
0
62
7
6
CONTINUOUS
10
298.8671001256
20
156.9237214033
0
VERTEX
8
0
62
7
6
CONTINUOUS
10
304.7517275305
20
161.6263628318
0
VERTEX
8
0
62
7
6
CONTINUOUS
10
310.6562558503
20
166.8723402189
0
VERTEX
8
0
62
7
6
CONTINUOUS
10
316.2868773212
20
172.4393908713
0
VERTEX
8
0
62
7
6
CONTINUOUS
10
321.6246623300
20
178.3107133345
0
VERTEX
8
0
62
7
6
CONTINUOUS
10
326.6525829629
20
184.4688801056
0
VERTEX
8
0
62
7
6
CONTINUOUS
10
331.3542327350
20
190.8949035465
0
VERTEX
8
0
62
7
6
CONTINUOUS
10
335.7148401386
20
197.5689828718
0
VERTEX
8
0
62
7
6
CONTINUOUS
10
339.7206953456
20
204.4703723915
0
VERTEX
8
0
62
7
6
CONTINUOUS
10
343.3595101522
20
211.5776951899
0
VERTEX
8
0
62
7
6
CONTINUOUS
10
346.6201159258
20
218.8690105991
0
VERTEX
8
0
62
7
6
CONTINUOUS
10
349.4927205136
20
226.3218534291
0
VERTEX
8
0
62
7
6
CONTINUOUS
10
351.9685788836
20
233.9132440937
0
VERTEX
8
0
62
7
6
CONTINUOUS
10
354.0400980989
20
241.6197827708
0
VERTEX
8
0
62
7
6
CONTINUOUS
10
355.7009592080
20
249.4177719977
0
VERTEX
8
0
62
7
6
CONTINUOUS
10
356.9459887042
20
257.2819879940
0
VERTEX
8
0
62
7
6
CONTINUOUS
10
357.7473221018
20
264.8753523888
0
SEQEND
0
POLYLINE
8
0
62
7
6
CONTINUOUS
66
1
70
0
0
VERTEX
8
0
62
7
6
CONTINUOUS
10
287.1553194718
20
149.1980214534
0
VERTEX
8
0
62
7
6
CONTINUOUS
10
287.4004988529
20
149.3906896060
0
VERTEX
8
0
62
7
6
CONTINUOUS
10
287.6968468109
20
149.6100414823
0
VERTEX
8
0
62
7
6
CONTINUOUS
10
288.0595126265
20
149.8642104532
0
SEQEND
0
POLYLINE
8
0
62
7
6
CONTINUOUS
66
1
70
0
0
VERTEX
8
0
62
7
6
CONTINUOUS
10
297.7286184629
20
158.5000323431
0
VERTEX
8
0
62
7
6
CONTINUOUS
10
302.4219600303
20
162.1773982208
0
VERTEX
8
0
62
7
6
CONTINUOUS
10
307.2260120879
20
166.3546910812
0
VERTEX
8
0
62
7
6
CONTINUOUS
10
312.1992399434
20
171.0600087979
0
VERTEX
8
0
62
7
6
CONTINUOUS
10
317.1662476735
20
176.2090577497
0
VERTEX
8
0
62
7
6
CONTINUOUS
10
322.0020832588
20
181.7708844111
0
VERTEX
8
0
62
7
6
CONTINUOUS
10
326.6138802944
20
187.6135663686
0
VERTEX
8
0
62
7
6
CONTINUOUS
10
330.8765333155
20
193.6388858784
0
VERTEX
8
0
62
7
6
CONTINUOUS
10
334.7618074827
20
199.7147754057
0
VERTEX
8
0
62
7
6
CONTINUOUS
10
338.1821789933
20
205.6840934857
0
VERTEX
8
0
62
7
6
CONTINUOUS
10
341.1904092723
20
211.5238441638
0
VERTEX
8
0
62
7
6
CONTINUOUS
10
343.7958771943
20
217.1614451731
0
VERTEX
8
0
62
7
6
CONTINUOUS
10
346.0412066075
20
222.5885139869
0
VERTEX
8
0
62
7
6
CONTINUOUS
10
347.9593463650
20
227.7670285028
0
VERTEX
8
0
62
7
6
CONTINUOUS
10
349.5887003267
20
232.7133251811
0
VERTEX
8
0
62
7
6
CONTINUOUS
10
350.9699486811
20
237.4264437929
0
VERTEX
8
0
62
7
6
CONTINUOUS
10
352.1292112956
20
241.9202523028
0
VERTEX
8
0
62
7
6
CONTINUOUS
10
353.0996645416
20
246.2026540201
0
VERTEX
8
0
62
7
6
CONTINUOUS
10
353.9008190951
20
250.2905826811
0
VERTEX
8
0
62
7
6
CONTINUOUS
10
354.5585721424
20
254.1970866569
0
VERTEX
8
0
62
7
6
CONTINUOUS
10
355.0869405233
20
257.9417253531
0
VERTEX
8
0
62
7
6
CONTINUOUS
10
355.5114046277
20
261.5513962399
0
VERTEX
8
0
62
7
6
CONTINUOUS
10
355.8234709922
20
265.0171334939
0
SEQEND
0
LINE
8
0
62
7
6
CONTINUOUS
10
298.2282069987
20
156.4422010878
11
298.8671013913
21
156.9237197057
0
LINE
8
0
62
7
6
CONTINUOUS
10
297.0204973295
20
157.9667270236
11
297.7286184629
21
158.5000323431
0
LINE
8
0
62
7
6
CONTINUOUS
10
296.3096590810
20
157.4383875886
11
297.0204973295
21
157.9667270236
0
LINE
8
0
62
7
6
CONTINUOUS
10
297.3296396073
20
155.7744411893
11
298.2282069987
21
156.4422010878
0
LINE
8
0
62
7
6
CONTINUOUS
10
295.5961676812
20
156.9150224457
11
296.3096590810
21
157.4383875886
0
POLYLINE
8
0
62
7
6
CONTINUOUS
66
1
70
0
0
VERTEX
8
0
62
7
6
CONTINUOUS
10
357.5569808161
20
264.8854869627
0
VERTEX
8
0
62
7
6
CONTINUOUS
10
357.6813442529
20
264.8775941524
0
VERTEX
8
0
62
7
6
CONTINUOUS
10
357.7416531563
20
264.8749151942
0
VERTEX
8
0
62
7
6
CONTINUOUS
10
357.7473247488
20
264.8753521808
0
SEQEND
0
LINE
8
0
62
7
6
CONTINUOUS
10
357.1346113093
20
264.9157005273
11
357.5569808161
21
264.8854869627
0
LINE
8
0
62
7
6
CONTINUOUS
10
355.8234659419
20
265.0170590119
11
357.1346113093
21
264.9157005273
0
LINE
8
0
62
7
6
CONTINUOUS
10
361.1692495329
20
295.5340901692
11
361.1692495329
21
295.0340901692
0
LINE
8
0
62
7
6
CONTINUOUS
10
358.2461521430
20
280.3788427262
11
358.2915967047
21
288.0836473650
0
LINE
8
0
62
7
6
CONTINUOUS
10
296.7042171090
20
155.3160883155
11
297.3296396073
21
155.7744411893
0
POLYLINE
8
0
62
7
6
CONTINUOUS
66
1
70
0
0
VERTEX
8
0
62
7
6
CONTINUOUS
10
288.0595126265
20
149.8642104532
0
VERTEX
8
0
62
7
6
CONTINUOUS
10
288.4833620401
20
150.1492137509
0
VERTEX
8
0
62
7
6
CONTINUOUS
10
289.0179733965
20
150.5068503421
0
VERTEX
8
0
62
7
6
CONTINUOUS
10
289.5346204292
20
150.8430817418
0
VERTEX
8
0
62
7
6
CONTINUOUS
10
290.0355516053
20
151.1530872580
0
VERTEX
8
0
62
7
6
CONTINUOUS
10
290.5213948652
20
151.4341786796
0
VERTEX
8
0
62
7
6
CONTINUOUS
10
290.6944651092
20
151.5289847333
0
SEQEND
0
LINE
8
0
62
7
6
CONTINUOUS
10
288.2306486159
20
149.9797392500
11
288.2283637652
21
149.9782224468
0
POLYLINE
8
0
62
7
6
CONTINUOUS
66
1
70
0
0
VERTEX
8
0
62
7
6
CONTINUOUS
10
292.0251944723
20
154.5372579648
0
VERTEX
8
0
62
7
6
CONTINUOUS
10
292.6333069978
20
154.9119006175
0
VERTEX
8
0
62
7
6
CONTINUOUS
10
293.2363263500
20
155.2952540977
0
VERTEX
8
0
62
7
6
CONTINUOUS
10
293.8343340508
20
155.6873655210
0
VERTEX
8
0
62
7
6
CONTINUOUS
10
294.4270855351
20
156.0880935408
0
VERTEX
8
0
62
7
6
CONTINUOUS
10
295.0143362380
20
156.4972968105
0
VERTEX
8
0
62
7
6
CONTINUOUS
10
295.5961676812
20
156.9150224457
0
SEQEND
0
POLYLINE
8
0
62
7
6
CONTINUOUS
66
1
70
0
0
VERTEX
8
0
62
7
6
CONTINUOUS
10
292.9924245851
20
152.8445628025
0
VERTEX
8
0
62
7
6
CONTINUOUS
10
293.4240516814
20
153.1091491939
0
VERTEX
8
0
62
7
6
CONTINUOUS
10
294.1462601324
20
153.5647952891
0
VERTEX
8
0
62
7
6
CONTINUOUS
10
294.8612586311
20
154.0322665620
0
VERTEX
8
0
62
7
6
CONTINUOUS
10
295.5688651566
20
154.5114541090
0
VERTEX
8
0
62
7
6
CONTINUOUS
10
296.2688997718
20
155.0022470755
0
VERTEX
8
0
62
7
6
CONTINUOUS
10
296.7042170092
20
155.3160884494
0
SEQEND
0
POLYLINE
8
0
62
7
6
CONTINUOUS
66
1
70
0
0
VERTEX
8
0
62
7
6
CONTINUOUS
10
289.8145510428
20
153.2716756470
0
VERTEX
8
0
62
7
6
CONTINUOUS
10
290.1870614647
20
153.4746779162
0
VERTEX
8
0
62
7
6
CONTINUOUS
10
290.5579681222
20
153.6808638961
0
VERTEX
8
0
62
7
6
CONTINUOUS
10
290.9272936799
20
153.8902452718
0
VERTEX
8
0
62
7
6
CONTINUOUS
10
291.2949701439
20
154.1027869884
0
VERTEX
8
0
62
7
6
CONTINUOUS
10
291.6609295198
20
154.3184539911
0
VERTEX
8
0
62
7
6
CONTINUOUS
10
292.0251944723
20
154.5372579648
0
SEQEND
0
POLYLINE
8
0
62
7
6
CONTINUOUS
66
1
70
0
0
VERTEX
8
0
62
7
6
CONTINUOUS
10
357.8329608518
20
277.3955226329
0
VERTEX
8
0
62
7
6
CONTINUOUS
10
358.0199609795
20
277.3968886973
0
VERTEX
8
0
62
7
6
CONTINUOUS
10
358.1493781070
20
277.3988760213
0
VERTEX
8
0
62
7
6
CONTINUOUS
10
358.2170555384
20
277.4014207748
0
VERTEX
8
0
62
7
6
CONTINUOUS
10
358.2270930483
20
277.4030540516
0
SEQEND
0
POLYLINE
8
0
62
7
6
CONTINUOUS
66
1
70
0
0
VERTEX
8
0
62
7
6
CONTINUOUS
10
357.8219165841
20
275.5040742936
0
VERTEX
8
0
62
7
6
CONTINUOUS
10
358.0086289728
20
275.5051992290
0
VERTEX
8
0
62
7
6
CONTINUOUS
10
358.1374005856
20
275.5070207145
0
VERTEX
8
0
62
7
6
CONTINUOUS
10
358.2040751496
20
275.5094799593
0
VERTEX
8
0
62
7
6
CONTINUOUS
10
358.2134184553
20
275.5110372997
0
SEQEND
0
LINE
8
0
62
7
6
CONTINUOUS
10
357.3118928942
20
277.3948084239
11
357.8329608518
21
277.3955226329
0
LINE
8
0
62
7
6
CONTINUOUS
10
357.3004506337
20
275.5040356541
11
357.8219165841
21
275.5040742936
0
LINE
8
0
62
7
6
CONTINUOUS
10
356.2969354521
20
277.3987889354
11
357.3118928942
21
277.3948084239
0
LINE
8
0
62
7
6
CONTINUOUS
10
356.2832794063
20
275.5093376322
11
357.3004506337
21
275.5040356541
0
POLYLINE
8
0
62
7
6
CONTINUOUS
66
1
70
0
0
VERTEX
8
0
62
7
6
CONTINUOUS
10
290.6944136583
20
151.5289639242
0
VERTEX
8
0
62
7
6
CONTINUOUS
10
290.8743782211
20
151.6265136930
0
VERTEX
8
0
62
7
6
CONTINUOUS
10
291.3579419190
20
151.8931509655
0
VERTEX
8
0
62
7
6
CONTINUOUS
10
291.8387777284
20
152.1649081850
0
VERTEX
8
0
62
7
6
CONTINUOUS
10
292.3168353343
20
152.4417579572
0
VERTEX
8
0
62
7
6
CONTINUOUS
10
292.7920643257
20
152.7236726085
0
VERTEX
8
0
62
7
6
CONTINUOUS
10
292.9924245874
20
152.8445627908
0
SEQEND
0
POLYLINE
8
0
62
7
6
CONTINUOUS
66
1
70
0
0
VERTEX
8
0
62
7
6
CONTINUOUS
10
358.0516185045
20
283.4634994691
0
VERTEX
8
0
62
7
6
CONTINUOUS
10
358.1826651776
20
283.4655538753
0
VERTEX
8
0
62
7
6
CONTINUOUS
10
358.2528884468
20
283.4681180563
0
VERTEX
8
0
62
7
6
CONTINUOUS
10
358.2648232049
20
283.4699064728
0
SEQEND
0
POLYLINE
8
0
62
7
6
CONTINUOUS
66
1
70
0
0
VERTEX
8
0
62
7
6
CONTINUOUS
10
358.0741294349
20
288.0771639860
0
VERTEX
8
0
62
7
6
CONTINUOUS
10
358.2062857196
20
288.0792102965
0
VERTEX
8
0
62
7
6
CONTINUOUS
10
358.2782509169
20
288.0817573399
0
VERTEX
8
0
62
7
6
CONTINUOUS
10
358.2915974155
20
288.0836330425
0
SEQEND
0
LINE
8
0
62
7
6
CONTINUOUS
10
357.6254767699
20
283.4611623695
11
358.0516185045
21
283.4634994691
0
POLYLINE
8
0
62
7
6
CONTINUOUS
66
1
70
0
0
VERTEX
8
0
62
7
6
CONTINUOUS
10
357.3666856258
20
288.0745824846
0
VERTEX
8
0
62
7
6
CONTINUOUS
10
357.6476249021
20
288.0748131268
0
VERTEX
8
0
62
7
6
CONTINUOUS
10
358.0741294349
20
288.0771639860
0
SEQEND
0
LINE
8
0
62
7
6
CONTINUOUS
10
356.3614287111
20
288.0776962669
11
330.2034127725
21
288.0776962669
0
POLYLINE
8
0
62
7
6
CONTINUOUS
66
1
70
0
0
VERTEX
8
0
62
7
6
CONTINUOUS
10
356.3346565440
20
283.4641850169
0
VERTEX
8
0
62
7
6
CONTINUOUS
10
356.6880871862
20
283.4624894731
0
VERTEX
8
0
62
7
6
CONTINUOUS
10
357.6254767699
20
283.4611623695
0
SEQEND
0
LINE
8
0
62
7
6
CONTINUOUS
10
328.9105735969
20
283.0793732954
11
326.7059498647
21
283.8776049632
0
POLYLINE
8
0
62
7
6
CONTINUOUS
66
1
70
0
0
VERTEX
8
0
62
7
6
CONTINUOUS
10
326.7059498647
20
283.8776049632
0
VERTEX
8
0
62
7
6
CONTINUOUS
10
326.3233551514
20
284.0184414519
0
VERTEX
8
0
62
7
6
CONTINUOUS
10
326.2251128293
20
284.0555149763
0
VERTEX
8
0
62
7
6
CONTINUOUS
10
326.1924837559
20
284.0690183372
0
SEQEND
0
LINE
8
0
62
7
6
CONTINUOUS
10
285.6684666649
20
146.6649771203
11
277.9192495329
21
143.5340901692
0
LINE
8
0
62
7
6
CONTINUOUS
10
326.3232109445
20
300.3475102111
11
326.2803606958
21
300.3373171324
0
POLYLINE
8
0
62
7
6
CONTINUOUS
66
1
70
0
0
VERTEX
8
0
62
7
6
CONTINUOUS
10
355.5645747342
20
300.5340901692
0
VERTEX
8
0
62
7
6
CONTINUOUS
10
355.4506499306
20
300.5170530797
0
VERTEX
8
0
62
7
6
CONTINUOUS
10
355.3444889572
20
300.4671028987
0
VERTEX
8
0
62
7
6
CONTINUOUS
10
355.2533265263
20
300.3876437445
0
VERTEX
8
0
62
7
6
CONTINUOUS
10
355.1833750428
20
300.2840905233
0
VERTEX
8
0
62
7
6
CONTINUOUS
10
355.1394015588
20
300.1634999813
0
VERTEX
8
0
62
7
6
CONTINUOUS
10
355.1244029582
20
300.0340901692
0
SEQEND
0
LINE
8
0
62
7
6
CONTINUOUS
10
330.5574190676
20
293.0340901692
11
359.1692495329
21
293.0340901692
0
LINE
8
0
62
7
6
CONTINUOUS
10
336.6692495329
20
293.5340901692
11
347.1692495329
21
293.5340901692
0
LINE
8
0
62
7
6
CONTINUOUS
10
356.3614308955
20
288.0776957121
11
357.3666856258
21
288.0745824846
0
POLYLINE
8
0
62
7
6
CONTINUOUS
66
1
70
0
0
VERTEX
8
0
62
7
6
CONTINUOUS
10
356.9716333166
20
290.9441940556
0
VERTEX
8
0
62
7
6
CONTINUOUS
10
357.3211385588
20
290.9162483902
0
VERTEX
8
0
62
7
6
CONTINUOUS
10
357.6576369732
20
290.9264664266
0
VERTEX
8
0
62
7
6
CONTINUOUS
10
357.9703548775
20
290.9745209499
0
VERTEX
8
0
62
7
6
CONTINUOUS
10
358.2492799695
20
291.0588733341
0
VERTEX
8
0
62
7
6
CONTINUOUS
10
358.4854818919
20
291.1768228064
0
VERTEX
8
0
62
7
6
CONTINUOUS
10
358.6713981558
20
291.3245929194
0
VERTEX
8
0
62
7
6
CONTINUOUS
10
358.8010762682
20
291.4974524607
0
VERTEX
8
0
62
7
6
CONTINUOUS
10
358.8660175797
20
291.6689622359
0
SEQEND
0
POLYLINE
8
0
62
7
6
CONTINUOUS
66
1
70
0
0
VERTEX
8
0
62
7
6
CONTINUOUS
10
327.4856941736
20
288.5120598295
0
VERTEX
8
0
62
7
6
CONTINUOUS
10
327.3818433150
20
288.5275299451
0
VERTEX
8
0
62
7
6
CONTINUOUS
10
327.3468007728
20
288.5318072611
0
SEQEND
0
LINE
8
0
62
7
6
CONTINUOUS
10
328.1779684885
20
288.4033889398
11
327.4856941736
21
288.5120598295
0
LINE
8
0
62
7
6
CONTINUOUS
10
330.2034146952
20
288.0776957740
11
328.1779684885
21
288.4033889398
0
POLYLINE
8
0
62
7
6
CONTINUOUS
66
1
70
0
0
VERTEX
8
0
62
7
6
CONTINUOUS
10
327.0413037438
20
299.8804856801
0
VERTEX
8
0
62
7
6
CONTINUOUS
10
326.9331367252
20
299.8600613575
0
VERTEX
8
0
62
7
6
CONTINUOUS
10
326.9192495329
20
299.8569944584
0
SEQEND
0
POLYLINE
8
0
62
7
6
CONTINUOUS
66
1
70
0
0
VERTEX
8
0
62
7
6
CONTINUOUS
10
328.2737062984
20
300.5340901883
0
VERTEX
8
0
62
7
6
CONTINUOUS
10
327.8140912085
20
300.5237149717
0
VERTEX
8
0
62
7
6
CONTINUOUS
10
327.2916056779
20
300.4868992635
0
VERTEX
8
0
62
7
6
CONTINUOUS
10
326.8756547385
20
300.4385279316
0
VERTEX
8
0
62
7
6
CONTINUOUS
10
326.5723584363
20
300.3924655472
0
VERTEX
8
0
62
7
6
CONTINUOUS
10
326.3871337938
20
300.3597799886
0
VERTEX
8
0
62
7
6
CONTINUOUS
10
326.3231781528
20
300.3476779344
0
SEQEND
0
POLYLINE
8
0
62
7
6
CONTINUOUS
66
1
70
0
0
VERTEX
8
0
62
7
6
CONTINUOUS
10
328.7140961104
20
300.0340901692
0
VERTEX
8
0
62
7
6
CONTINUOUS
10
328.5331868315
20
300.0321666618
0
VERTEX
8
0
62
7
6
CONTINUOUS
10
328.3541160269
20
300.0269468995
0
VERTEX
8
0
62
7
6
CONTINUOUS
10
328.1788894832
20
300.0183079586
0
VERTEX
8
0
62
7
6
CONTINUOUS
10
328.0070714815
20
300.0066186107
0
VERTEX
8
0
62
7
6
CONTINUOUS
10
327.8393133784
20
299.9920208384
0
VERTEX
8
0
62
7
6
CONTINUOUS
10
327.6769942559
20
299.9750720848
0
VERTEX
8
0
62
7
6
CONTINUOUS
10
327.5213435322
20
299.9559781150
0
VERTEX
8
0
62
7
6
CONTINUOUS
10
327.3764901989
20
299.9359359448
0
VERTEX
8
0
62
7
6
CONTINUOUS
10
327.2455502492
20
299.9157417002
0
VERTEX
8
0
62
7
6
CONTINUOUS
10
327.1327388445
20
299.8968038150
0
VERTEX
8
0
62
7
6
CONTINUOUS
10
327.0413037438
20
299.8804856801
0
SEQEND
0
LINE
8
0
62
7
6
CONTINUOUS
10
347.1692495329
20
297.0340901692
11
336.6692495329
21
297.0340901692
0
LINE
8
0
62
7
6
CONTINUOUS
10
327.4192495329
20
297.5340901692
11
356.4192495329
21
297.5340901692
0
LINE
8
0
62
7
6
CONTINUOUS
10
356.9192495329
20
298.0340901692
11
326.9192495329
21
298.0340901692
0
LINE
8
0
62
7
6
CONTINUOUS
10
328.7140961104
20
300.0340901692
11
355.1244029554
21
300.0340901692
0
LINE
8
0
62
7
6
CONTINUOUS
10
355.5742175000
20
300.5340854802
11
328.2739243433
21
300.5340901692
0
POLYLINE
8
0
62
7
6
CONTINUOUS
66
1
70
0
0
VERTEX
8
0
62
7
6
CONTINUOUS
10
328.2739243316
20
300.5340901692
0
VERTEX
8
0
62
7
6
CONTINUOUS
10
328.3878653950
20
300.5170481433
0
VERTEX
8
0
62
7
6
CONTINUOUS
10
328.4940327899
20
300.4670880675
0
VERTEX
8
0
62
7
6
CONTINUOUS
10
328.5851918945
20
300.3876218448
0
VERTEX
8
0
62
7
6
CONTINUOUS
10
328.6551352699
20
300.2840685289
0
VERTEX
8
0
62
7
6
CONTINUOUS
10
328.6991010445
20
300.1634851641
0
VERTEX
8
0
62
7
6
CONTINUOUS
10
328.7140961069
20
300.0340901692
0
SEQEND
0
POLYLINE
8
0
62
7
6
CONTINUOUS
66
1
70
0
0
VERTEX
8
0
62
7
6
CONTINUOUS
10
357.4509837390
20
300.3598738041
0
VERTEX
8
0
62
7
6
CONTINUOUS
10
357.2679005929
20
300.3921645913
0
VERTEX
8
0
62
7
6
CONTINUOUS
10
356.9648717262
20
300.4382560283
0
VERTEX
8
0
62
7
6
CONTINUOUS
10
356.5466947734
20
300.4869273631
0
VERTEX
8
0
62
7
6
CONTINUOUS
10
356.0189212374
20
300.5239702045
0
VERTEX
8
0
62
7
6
CONTINUOUS
10
355.5741119237
20
300.5340915195
0
SEQEND
0
POLYLINE
8
0
62
7
6
CONTINUOUS
66
1
70
0
0
VERTEX
8
0
62
7
6
CONTINUOUS
10
356.8944470038
20
299.8628405293
0
VERTEX
8
0
62
7
6
CONTINUOUS
10
356.7035802390
20
299.8973812715
0
VERTEX
8
0
62
7
6
CONTINUOUS
10
356.5448385642
20
299.9234007503
0
VERTEX
8
0
62
7
6
CONTINUOUS
10
356.3533440875
20
299.9511109439
0
VERTEX
8
0
62
7
6
CONTINUOUS
10
356.1357533394
20
299.9779693230
0
VERTEX
8
0
62
7
6
CONTINUOUS
10
355.9013663289
20
300.0007955790
0
VERTEX
8
0
62
7
6
CONTINUOUS
10
355.6529604774
20
300.0187218084
0
VERTEX
8
0
62
7
6
CONTINUOUS
10
355.3922790858
20
300.0295790044
0
VERTEX
8
0
62
7
6
CONTINUOUS
10
355.1244029554
20
300.0340901692
0
SEQEND
0
LINE
8
0
62
7
6
CONTINUOUS
10
356.9192495329
20
299.8570408295
11
356.8944470038
21
299.8628405293
0
LINE
8
0
62
7
6
CONTINUOUS
10
357.5581246160
20
300.3373618066
11
357.5123141434
21
300.3481250834
0
ARC
8
DEFAULT_1
62
2
6
CENTER
10
237.5106582640
20
269.9123990350
40
122.6917296960
50
338.3736111558
51
353.9169151366
0
ARC
8
0
62
7
6
CONTINUOUS
10
101.4366369749
20
159.5340901692
40
5.2500000000
50
180.0000000000
51
360.0000000000
0
ARC
8
0
62
7
6
CONTINUOUS
10
101.4366369749
20
239.5340901692
40
5.2500000000
50
0.0000000000
51
180.0000000000
0
ARC
8
0
62
7
6
CONTINUOUS
10
85.4366369754
20
295.5340901692
40
5.0000000000
50
90.0000000053
51
180.0000000000
0
ARC
8
0
62
7
6
CONTINUOUS
10
117.4366369749
20
295.5340901692
40
5.0000000000
50
0.0000000000
51
90.0000000000
0
ARC
8
0
62
7
6
CONTINUOUS
10
357.4192377943
20
299.8570408294
40
0.4999996213
50
79.2678963334
51
179.9999999992
0
ARC
8
0
62
7
6
CONTINUOUS
10
359.1692495329
20
295.0340901692
40
2.0000000000
50
270.0000000000
51
360.0000000000
0
ARC
8
0
62
7
6
CONTINUOUS
10
356.1692495329
20
295.5340901692
40
5.0000000000
50
0.0000000000
51
73.8726744948
0
ARC
8
0
62
7
6
CONTINUOUS
10
356.4192495329
20
298.0340901692
40
0.5000000000
50
270.0000000000
51
360.0000000000
0
ARC
8
0
62
7
6
CONTINUOUS
10
347.6692495329
20
297.0340901692
40
0.5000000000
50
90.0000000000
51
180.0000000000
0
ARC
8
0
62
7
6
CONTINUOUS
10
347.6692495329
20
293.5340901692
40
0.5000000000
50
180.0000000000
51
270.0000000000
0
ARC
8
0
62
7
6
CONTINUOUS
10
289.9192495329
20
246.7955290561
40
3.0000000000
50
105.4775049841
51
180.0000000000
0
ARC
8
0
62
7
6
CONTINUOUS
10
274.4413682266
20
302.6921764535
40
55.0000000000
50
285.4775049841
51
340.2082234195
0
ARC
8
0
62
7
6
CONTINUOUS
10
302.6692495329
20
292.5340901692
40
25.0000000000
50
340.2082234195
51
354.8774839002
0
ARC
8
0
62
7
6
CONTINUOUS
10
330.5574190676
20
290.0340901692
40
3.0000000000
50
90.0000000000
51
174.8774839002
0
ARC
8
0
62
7
6
CONTINUOUS
10
336.1692495329
20
293.5340901692
40
0.5000000000
50
270.0000000000
51
360.0000000000
0
ARC
8
0
62
7
6
CONTINUOUS
10
336.1692495329
20
297.0340901692
40
0.5000000000
50
0.0000000000
51
90.0000000000
0
ARC
8
0
62
7
6
CONTINUOUS
10
327.4192495329
20
298.0340901692
40
0.5000000000
50
180.0000000000
51
270.0000000000
0
ARC
8
0
62
7
6
CONTINUOUS
10
327.6692495329
20
295.5340901692
40
5.0000000000
50
106.1276191113
51
180.0000000000
0
ARC
8
0
62
7
6
CONTINUOUS
10
302.6692495329
20
292.5340901692
40
20.0000000000
50
340.2082234195
51
360.0000000000
0
ARC
8
0
62
7
6
CONTINUOUS
10
274.4413682266
20
302.6921764535
40
50.0000000000
50
280.0000000000
51
340.2082234195
0
ARC
8
0
62
7
6
CONTINUOUS
10
326.4192495767
20
299.8569944584
40
0.4999999986
50
0.0000000000
51
101.0778702968
0
ARC
8
0
62
7
6
CONTINUOUS
10
284.9192495329
20
148.5193456552
40
2.0000000000
50
292.0000959305
51
360.0000000000
0
ENDSEC
0
EOF
