  0
SECTION
  2
HEADER
  9
$ACADVER
  1
AC1009
  9
$INSBASE
 10
0
 20
0
  9
$EXTMIN
 10
-220.9492552035483
 20
607.9300133544788
  9
$EXTMAX
 10
-74.2136546194786
 20
732.7864711067113
  9
$LIMMIN
 10
-220.9492552035483
 20
607.9300133544788
  9
$LIMMAX
 10
-74.2136546194786
 20
732.7864711067113
  9
$VIEWCTR
 10
10
 20
10
  9
$VIEWSIZE
 40
10
  9
$SNAPMODE
 70
0
  9
$SNAPUNIT
 10
1
 20
1
  9
$SNAPBASE
 10
0
 20
0
  9
$SNAPANG
 50
0
  9
$SNAPSTYLE
 70
0
  9
$SNAPISOPAIR
 70
0
  9
$GRIDMODE
 70
0
  9
$GRIDUNIT
 10
0
 20
0
  9
$ORTHOMODE
 70
0
  9
$REGENMODE
 70
1
  9
$FILLMODE
 70
1
  9
$QTEXTMODE
 70
0
  9
$DRAGMODE
 70
2
  9
$LTSCALE
 40
1
  9
$OSMODE
 70
0
  9
$ATTMODE
 70
1
  9
$TEXTSIZE
 40
3.5
  9
$TRACEWID
 40
0.5
  9
$TEXTSTYLE
  7
STANDARD
  9
$CLAYER
  8
0
  9
$CELTYPE
  6
BYLAYER
  9
$CECOLOR
 62
256
  9
$DIMSCALE
 40
1
  9
$DIMASZ
 40
0.18
  9
$DIMEXO
 40
0.0625
  9
$DIMDLI
 40
0.38
  9
$DIMRND
 40
0
  9
$DIMDLE
 40
0
  9
$DIMEXE
 40
0.18
  9
$DIMTP
 40
0
  9
$DIMTM
 40
0
  9
$DIMTXT
 40
0.18
  9
$DIMCEN
 40
0.09
  9
$DIMTSZ
 40
0
  9
$DIMTOL
 70
0
  9
$DIMLIM
 70
0
  9
$DIMTIH
 70
1
  9
$DIMTOH
 70
1
  9
$DIMSE1
 70
0
  9
$DIMSE2
 70
0
  9
$DIMTAD
 70
0
  9
$DIMZIN
 70
0
  9
$DIMBLK
  1

  9
$DIMASO
 70
1
  9
$DIMSHO
 70
1
  9
$DIMPOST
  1

  9
$DIMAPOST
  1

  9
$DIMALT
 70
0
  9
$DIMALTD
 70
2
  9
$DIMALTF
 40
25.4
  9
$DIMLFAC
 40
1
  9
$DIMTOFL
 70
0
  9
$DIMTVP
 40
0
  9
$DIMTIX
 70
0
  9
$DIMSOXD
 70
0
  9
$DIMSAH
 70
0
  9
$DIMBLK1
  1

  9
$DIMBLK2
  1

  9
$DIMSTYLE
  2
*UNNAMED
  9
$DIMCLRD
 70
0
  9
$DIMCLRE
 70
0
  9
$DIMCLRT
 70
0
  9
$DIMTFAC
 40
1
  9
$DIMGAP
 40
0.09
  9
$LUNITS
 70
2
  9
$LUPREC
 70
4
  9
$AXISMODE
 70
0
  9
$AXISUNIT
 10
0
 20
0
  9
$SKETCHINC
 40
0.1
  9
$FILLETRAD
 40
2
  9
$AUNITS
 70
0
  9
$AUPREC
 70
0
  9
$MENU
  1
ACAD
  9
$ELEVATION
 40
0
  9
$THICKNESS
 40
0
  9
$VIEWDIR
 10
0
 20
0
 30
1
  9
$LIMCHECK
 70
0
  9
$BLIPMODE
 70
1
  9
$CHAMFERA
 40
0
  9
$CHAMFERB
 40
0
  9
$FASTZOOM
 70
1
  9
$SKPOLY
 70
0
  9
$ANGBASE
 50
0
  9
$ANGDIR
 70
0
  9
$PDMODE
 70
0
  9
$PDSIZE
 40
0
  9
$PLINEWID
 40
0
  9
$COORDS
 70
2
  0
ENDSEC
  0
SECTION
  2
TABLES
  0
TABLE
  2
DIMSTYLE
 70
1
  0
DIMSTYLE
  2
DMST_1
 70
0
  3

  4

  5

  6

  7

 40
1
 41
3.2
 42
1
 43
7
 44
1
 45
0
 46
0
 47
0
 48
0
140
3.2
141
0
142
0
143
25.4
144
1
145
0
146
1
147
0.09
 71
0
 72
0
 73
0
 74
0
 75
0
 76
0
 77
1
 78
9
170
0
171
2
172
0
173
0
174
0
175
0
176
2
177
2
178
2
  0
ENDTAB
  0
TABLE
  2
LTYPE
 70
9
  0
LTYPE
  2
CONTINUOUS
 70
64
  3
Solid line
 72
65
 73
0
 40
0
  0
LTYPE
  2
BORDER
 70
64
  3
__ __ . __ __ .
 72
65
 73
6
 40
6.757560553213736
 49
1.930731586632496
 49
-0.9653657933162479
 49
1.930731586632496
 49
-0.9653657933162479
 49
0
 49
-0.9653657933162479
  0
LTYPE
  2
CENTER
 70
64
  3
____ _ ____ _
 72
65
 73
4
 40
7.722926346529984
 49
4.82682896658124
 49
-0.9653657933162479
 49
0.9653657933162479
 49
-0.9653657933162479
  0
LTYPE
  2
DASHDOT
 70
64
  3
__ . __ . __ .
 72
65
 73
4
 40
3.861463173264992
 49
1.930731586632496
 49
-0.9653657933162479
 49
0
 49
-0.9653657933162479
  0
LTYPE
  2
DASHED
 70
64
  3
__ __ __ __ __
 72
65
 73
2
 40
2.896097379948744
 49
1.930731586632496
 49
-0.9653657933162479
  0
LTYPE
  2
DIVIDE
 70
64
  3
__ . . __ . . 
 72
65
 73
6
 40
4.82682896658124
 49
1.930731586632496
 49
-0.9653657933162479
 49
0
 49
-0.9653657933162479
 49
0
 49
-0.9653657933162479
  0
LTYPE
  2
DOT
 70
64
  3
..............
 72
65
 73
4
 40
1.930731586632496
 49
0
 49
-0.9653657933162479
 49
0
 49
-0.9653657933162479
  0
LTYPE
  2
HIDDEN
 70
64
  3
_ _ _ _ _ _ _
 72
65
 73
2
 40
1.448048689974372
 49
0.9653657933162479
 49
-0.482682896658124
  0
LTYPE
  2
PHANTOM
 70
64
  3
_____ _ _ _____ _ _ 
 72
65
 73
6
 40
9.65365793316248
 49
4.82682896658124
 49
-0.9653657933162479
 49
0.9653657933162479
 49
-0.9653657933162479
 49
0.9653657933162479
 49
-0.9653657933162479
  0
ENDTAB
  0
TABLE
  2
LAYER
 70
3
  0
LAYER
  2
1
 70
0
 62
7
  6
CONTINUOUS
  0
LAYER
  2
0
 70
0
 62
7
  6
CONTINUOUS
  0
ENDTAB
  0
TABLE
  2
STYLE
 70
4
  0
STYLE
  2
STANDARD
 70
0
 40
0
 41
1
 50
0
 71
0
 42
3.5
  3
txt
  4

  0
STYLE
  2
SIMPLEX
 70
0
 40
0
 41
1
 50
0
 71
0
 42
3.5
  3
simplex
  4

  0
STYLE
  2
COMPLEX
 70
0
 40
0
 41
1
 50
0
 71
0
 42
3.5
  3
complex
  4

  0
STYLE
  2
ITALIC
 70
0
 40
0
 41
1
 50
0
 71
0
 42
3.5
  3
italic
  4

  0
ENDTAB
  0
TABLE
  2
VIEW
 70
0
  0
ENDTAB
  0
ENDSEC
  0
SECTION
  2
BLOCKS
  0
BLOCK
  8
1
  2
*X0
 70
1
 10
0
 20
0
 30
0
  0
LINE
  8
1
 62
2
 10
-107.1395130733116
 20
678.8141940030027
 30
0
 11
-105.7980861337171
 21
680.1556209425972
 31
0
  0
LINE
  8
1
 62
2
 10
-101.5162342071936
 20
682.3161525255611
 30
0
 11
-101.2368770762778
 21
682.5955096564769
 31
0
  0
LINE
  8
1
 62
2
 10
-105.2584008985232
 20
678.5739858342314
 30
0
 11
-103.6000071817512
 21
680.2323795510034
 31
0
  0
LINE
  8
1
 62
2
 10
-103.1734731049707
 20
678.5375932842243
 30
0
 11
-99.11555673271813
 21
682.5955096564769
 31
0
  0
LINE
  8
1
 62
2
 10
-101.0885453114182
 20
678.5012007342172
 30
0
 11
-96.99423638915849
 21
682.5955096564769
 31
0
  0
LINE
  8
1
 62
2
 10
-99.00361751786571
 20
678.46480818421
 30
0
 11
-94.87291604559884
 21
682.5955096564769
 31
0
  0
LINE
  8
1
 62
2
 10
-96.9186897243132
 20
678.4284156342029
 30
0
 11
-92.7515957020392
 21
682.5955096564769
 31
0
  0
LINE
  8
1
 62
2
 10
-94.83376193076069
 20
678.3920230841958
 30
0
 11
-92.51667520719354
 21
680.709109807763
 31
0
  0
ENDBLK
  8
0
  0
BLOCK
  8
1
  2
*X1
 70
1
 10
0
 20
0
 30
0
  0
LINE
  8
1
 62
2
 10
-210.0211791249826
 20
645.9360992887999
 30
0
 11
-208.1610159639205
 21
647.7962624498621
 31
0
  0
LINE
  8
1
 62
2
 10
-210.0257834098426
 20
643.8101746603804
 30
0
 11
-206.0350913355007
 21
647.8008667347223
 31
0
  0
LINE
  8
1
 62
2
 10
-210.0257834098426
 20
641.6888543168208
 30
0
 11
-203.913770991941
 21
647.8008667347223
 31
0
  0
LINE
  8
1
 62
2
 10
-210.0257834098426
 20
639.5675339732611
 30
0
 11
-201.7924506483814
 21
647.8008667347223
 31
0
  0
LINE
  8
1
 62
2
 10
-210.0257834098426
 20
637.4462136297015
 30
0
 11
-200.0262734098426
 21
647.4457236297014
 31
0
  0
LINE
  8
1
 62
2
 10
-210.0257834098426
 20
635.3248932861418
 30
0
 11
-199.0759347254832
 21
646.2747419705013
 31
0
  0
LINE
  8
1
 62
2
 10
-209.9922220457664
 20
633.2371343066583
 30
0
 11
-199.0759347254832
 21
644.1534216269416
 31
0
  0
LINE
  8
1
 62
2
 10
-209.156216911982
 20
631.951819096883
 30
0
 11
-199.0759347254832
 21
642.032101283382
 31
0
  0
LINE
  8
1
 62
2
 10
-201.3853491305832
 20
637.6013665347223
 30
0
 11
-199.0759347254832
 21
639.9107809398223
 31
0
  0
LINE
  8
1
 62
2
 10
-207.3850551305832
 20
631.6016605347222
 30
0
 11
-202.6471685329916
 21
636.3395471323139
 31
0
  0
LINE
  8
1
 62
2
 10
-199.2640287870235
 20
637.6013665347223
 30
0
 11
-199.0759347254832
 21
637.7894605962626
 31
0
  0
LINE
  8
1
 62
2
 10
-205.2637347870236
 20
631.6016605347222
 30
0
 11
-202.6471685329916
 21
634.2182267887542
 31
0
  0
LINE
  8
1
 62
2
 10
-203.1424144434639
 20
631.6016605347222
 30
0
 11
-202.6471685329916
 21
632.0969064451946
 31
0
  0
ENDBLK
  8
0
  0
BLOCK
  8
1
  2
*X2
 70
1
 10
0
 20
0
 30
0
  0
LINE
  8
1
 62
2
 10
-150.9786768598428
 20
645.5816319342699
 30
0
 11
-148.7594420593904
 21
647.8008667347223
 31
0
  0
LINE
  8
1
 62
2
 10
-150.9786768598428
 20
643.4603115907103
 30
0
 11
-146.6381217158308
 21
647.8008667347223
 31
0
  0
LINE
  8
1
 62
2
 10
-150.9786768598428
 20
641.3389912471506
 30
0
 11
-144.5168013722711
 21
647.8008667347223
 31
0
  0
LINE
  8
1
 62
2
 10
-150.9786768598428
 20
639.2176709035909
 30
0
 11
-142.3954810287115
 21
647.8008667347223
 31
0
  0
LINE
  8
1
 62
2
 10
-150.4736608851518
 20
637.6013665347223
 30
0
 11
-140.7427648639435
 21
647.3322625559306
 31
0
  0
LINE
  8
1
 62
2
 10
-148.3523405415921
 20
637.6013665347223
 30
0
 11
-140.0328833983214
 21
645.920823677993
 31
0
  0
LINE
  8
1
 62
2
 10
-147.4078282866937
 20
636.4245584460612
 30
0
 11
-140.0292134098426
 21
643.8031733229122
 31
0
  0
LINE
  8
1
 62
2
 10
-147.4078282866937
 20
634.3032381025015
 30
0
 11
-140.0292134098426
 21
641.6818529793526
 31
0
  0
LINE
  8
1
 62
2
 10
-147.4078282866937
 20
632.1819177589418
 30
0
 11
-140.0292134098426
 21
639.5605326357929
 31
0
  0
LINE
  8
1
 62
2
 10
-145.7143908947106
 20
631.7540348073652
 30
0
 11
-140.0292134098426
 21
637.4392122922333
 31
0
  0
LINE
  8
1
 62
2
 10
-143.6772977904294
 20
631.6698075680868
 30
0
 11
-140.0292134098426
 21
635.3178919486736
 31
0
  0
LINE
  8
1
 62
2
 10
-141.5708552347402
 20
631.6549297802163
 30
0
 11
-140.0824826553366
 21
633.14330235962
 31
0
  0
ENDBLK
  8
0
  0
BLOCK
  8
1
  2
*X3
 70
1
 10
0
 20
0
 30
0
  0
LINE
  8
1
 62
2
 10
-107.5082332573732
 20
693.2947162238587
 30
0
 11
-105.7181317775441
 21
695.0848177036878
 31
0
  0
LINE
  8
1
 62
2
 10
-105.4584914741434
 20
693.2231376635289
 30
0
 11
-103.6349685495759
 21
695.0466605880964
 31
0
  0
LINE
  8
1
 62
2
 10
-103.4087496909136
 20
693.151559103199
 30
0
 11
-101.5518053216076
 21
695.008503472505
 31
0
  0
LINE
  8
1
 62
2
 10
-101.5194747911456
 20
692.9195136594074
 30
0
 11
-99.46712959625478
 21
694.9718588542983
 31
0
  0
LINE
  8
1
 62
2
 10
-101.5162342071936
 20
690.8014338997997
 30
0
 11
-97.38220180270223
 21
694.9354663042911
 31
0
  0
LINE
  8
1
 62
2
 10
-99.45123745695686
 20
690.7451103064768
 30
0
 11
-95.29727400914968
 21
694.899073754284
 31
0
  0
LINE
  8
1
 62
2
 10
-97.32991711339722
 20
690.7451103064768
 30
0
 11
-93.31035266985992
 21
694.7646747500141
 31
0
  0
LINE
  8
1
 62
2
 10
-95.20859676983757
 20
690.7451103064768
 30
0
 11
-92.51667520719354
 21
693.4370318691209
 31
0
  0
LINE
  8
1
 62
2
 10
-93.08727642627792
 20
690.7451103064768
 30
0
 11
-92.51667520719354
 21
691.3157115255613
 31
0
  0
ENDBLK
  8
0
  0
BLOCK
  8
1
  2
*D0
 70
1
 10
0
 20
0
 30
0
  0
LINE
  8
1
 62
2
 10
-210.0257834098426
 20
728.3864711067113
 30
0
 11
-140.0292134098426
 21
728.3864711067113
 31
0
  0
LINE
  8
1
 62
2
 10
-210.0257834098426
 20
704.7070665713491
 30
0
 11
-210.0257834098426
 21
729.3864711067113
 31
0
  0
LINE
  8
1
 62
2
 10
-210.0257834098426
 20
694.0949951564769
 30
0
 11
-210.0257834098426
 21
700.3349153066361
 31
0
  0
LINE
  8
1
 62
2
 10
-140.0292134098426
 20
694.0949951564769
 30
0
 11
-140.0292134098426
 21
729.3864711067113
 31
0
  0
SOLID
  8
1
 62
2
 10
-210.0257834098426
 20
728.3864711067113
 30
0
 11
-206.8257834098426
 21
728.8024711067113
 31
0
 12
-206.8257834098426
 22
727.9704711067112
 32
0
 13
-206.8257834098426
 23
727.9704711067112
 33
0
  0
SOLID
  8
1
 62
2
 10
-140.0292134098426
 20
728.3864711067113
 30
0
 11
-143.2292134098426
 21
727.9704711067112
 31
0
 12
-143.2292134098426
 22
728.8024711067113
 32
0
 13
-143.2292134098426
 23
728.8024711067113
 33
0
  0
TEXT
  8
1
 62
2
 10
-177.4274984098426
 20
729.5864711067112
 30
0
 40
3.2
  1
70
 41
0.9
  0
ENDBLK
  8
0
  0
BLOCK
  8
1
  2
*D1
 70
1
 10
0
 20
0
 30
0
  0
LINE
  8
1
 62
2
 10
-195.0265184098426
 20
718.7103909571663
 30
0
 11
-155.0284784098426
 21
718.7103909571663
 31
0
  0
LINE
  8
1
 62
2
 10
-195.0265184098426
 20
697.1498454614768
 30
0
 11
-195.0265184098426
 21
719.7103909571663
 31
0
  0
LINE
  8
1
 62
2
 10
-155.0284784098426
 20
698.2380541687231
 30
0
 11
-155.0284784098426
 21
719.7103909571663
 31
0
  0
SOLID
  8
1
 62
2
 10
-195.0265184098426
 20
718.7103909571663
 30
0
 11
-191.8265184098426
 21
719.1263909571663
 31
0
 12
-191.8265184098426
 22
718.2943909571662
 32
0
 13
-191.8265184098426
 23
718.2943909571662
 33
0
  0
SOLID
  8
1
 62
2
 10
-155.0284784098426
 20
718.7103909571663
 30
0
 11
-158.2284784098426
 21
718.2943909571662
 31
0
 12
-158.2284784098426
 22
719.1263909571663
 32
0
 13
-158.2284784098426
 23
719.1263909571663
 33
0
  0
TEXT
  8
1
 62
2
 10
-177.4274984098426
 20
719.9103909571662
 30
0
 40
3.2
  1
40
 41
0.9
  0
ENDBLK
  8
0
  0
BLOCK
  8
1
  2
*D2
 70
1
 10
0
 20
0
 30
0
  0
LINE
  8
1
 62
2
 10
-107.5159402071936
 20
660.4116471825951
 30
0
 11
-92.5166752071936
 21
660.4116471825951
 31
0
  0
LINE
  8
1
 62
2
 10
-107.5159402071936
 20
685.695308756477
 30
0
 11
-107.5159402071936
 21
659.4116471825951
 31
0
  0
LINE
  8
1
 62
2
 10
-92.5166752071936
 20
681.5955096564769
 30
0
 11
-92.5166752071936
 21
659.4116471825951
 31
0
  0
SOLID
  8
1
 62
2
 10
-107.5159402071936
 20
660.4116471825951
 30
0
 11
-104.3159402071936
 21
660.8276471825951
 31
0
 12
-104.3159402071936
 22
659.995647182595
 32
0
 13
-104.3159402071936
 23
659.995647182595
 33
0
  0
SOLID
  8
1
 62
2
 10
-92.5166752071936
 20
660.4116471825951
 30
0
 11
-95.7166752071936
 21
659.995647182595
 31
0
 12
-95.7166752071936
 22
660.8276471825951
 32
0
 13
-95.7166752071936
 23
660.8276471825951
 33
0
  0
TEXT
  8
1
 62
2
 10
-101.9363077071936
 20
661.611647182595
 30
0
 40
3.2
  1
15
 41
0.9
  0
ENDBLK
  8
0
  0
BLOCK
  8
1
  2
*D3
 70
1
 10
0
 20
0
 30
0
  0
LINE
  8
1
 62
2
 10
-98.91667520719358
 20
660.4632929807149
 30
0
 11
-92.51667520719357
 21
660.4632929807149
 31
0
  0
LINE
  8
1
 62
2
 10
-92.51667520719357
 20
660.4632929807149
 30
0
 11
-91.31673400719348
 21
660.4632929807149
 31
0
  0
LINE
  8
1
 62
2
 10
-91.31673400719348
 20
660.4632929807149
 30
0
 11
-79.80596226897634
 21
660.4632929807149
 31
0
  0
LINE
  8
1
 62
2
 10
-92.51667520719357
 20
678.3689833946218
 30
0
 11
-92.51667520719357
 21
659.4632929807149
 31
0
  0
LINE
  8
1
 62
2
 10
-91.31673400719348
 20
681.5955096564769
 30
0
 11
-91.31673400719348
 21
659.4632929807149
 31
0
  0
SOLID
  8
1
 62
2
 10
-92.51667520719357
 20
660.4632929807149
 30
0
 11
-95.71667520719358
 21
660.0472929807148
 31
0
 12
-95.71667520719358
 22
660.8792929807149
 32
0
 13
-95.71667520719358
 23
660.8792929807149
 33
0
  0
SOLID
  8
1
 62
2
 10
-91.31673400719348
 20
660.4632929807149
 30
0
 11
-88.11673400719347
 21
660.8792929807149
 31
0
 12
-88.11673400719347
 22
660.0472929807148
 32
0
 13
-88.11673400719347
 23
660.0472929807148
 33
0
  0
TEXT
  8
1
 62
2
 10
-84.76596226897634
 20
661.9832929807149
 30
0
 40
3.2
  1
1,2
 41
0.9
  0
ENDBLK
  8
0
  0
BLOCK
  8
1
  2
*D4
 70
1
 10
0
 20
0
 30
0
  0
LINE
  8
1
 62
2
 10
-75.2136546194786
 20
676.1955096564768
 30
0
 11
-75.2136546194786
 21
682.5955096564768
 31
0
  0
LINE
  8
1
 62
2
 10
-75.2136546194786
 20
682.5955096564768
 30
0
 11
-75.2136546194786
 21
690.7951078564769
 31
0
  0
LINE
  8
1
 62
2
 10
-75.2136546194786
 20
690.7951078564769
 30
0
 11
-75.2136546194786
 21
704.635328301127
 31
0
  0
LINE
  8
1
 62
2
 10
-90.31673400719345
 20
682.5955096564768
 30
0
 11
-74.2136546194786
 21
682.5955096564768
 31
0
  0
LINE
  8
1
 62
2
 10
-90.31673400719345
 20
690.7951078564769
 30
0
 11
-74.2136546194786
 21
690.7951078564769
 31
0
  0
SOLID
  8
1
 62
2
 10
-75.2136546194786
 20
682.5955096564768
 30
0
 11
-74.79765461947861
 21
679.3955096564768
 31
0
 12
-75.6296546194786
 22
679.3955096564768
 32
0
 13
-75.6296546194786
 23
679.3955096564768
 33
0
  0
SOLID
  8
1
 62
2
 10
-75.2136546194786
 20
690.7951078564769
 30
0
 11
-75.6296546194786
 21
693.9951078564769
 31
0
 12
-74.79765461947861
 22
693.9951078564769
 32
0
 13
-74.79765461947861
 23
693.9951078564769
 33
0
  0
TEXT
  8
1
 62
2
 10
-76.73365461947861
 20
698.7153283011269
 30
0
 40
3.2
  1
8,2
 50
90
 41
0.9
  0
ENDBLK
  8
0
  0
BLOCK
  8
1
  2
*D5
 70
1
 10
0
 20
0
 30
0
  0
LINE
  8
1
 62
2
 10
-195.0265184098426
 20
708.6015139518182
 30
0
 11
-175.0274984098426
 21
708.6015139518182
 31
0
  0
LINE
  8
1
 62
2
 10
-195.0265184098426
 20
697.1498454614768
 30
0
 11
-195.0265184098426
 21
709.6015139518182
 31
0
  0
LINE
  8
1
 62
2
 10
-175.0274984098426
 20
699.2186496606585
 30
0
 11
-175.0274984098426
 21
709.6015139518182
 31
0
  0
SOLID
  8
1
 62
2
 10
-195.0265184098426
 20
708.6015139518182
 30
0
 11
-191.8265184098426
 21
709.0175139518183
 31
0
 12
-191.8265184098426
 22
708.1855139518182
 32
0
 13
-191.8265184098426
 23
708.1855139518182
 33
0
  0
SOLID
  8
1
 62
2
 10
-175.0274984098426
 20
708.6015139518182
 30
0
 11
-178.2274984098426
 21
708.1855139518182
 31
0
 12
-178.2274984098426
 22
709.0175139518183
 32
0
 13
-178.2274984098426
 23
709.0175139518183
 33
0
  0
TEXT
  8
1
 62
2
 10
-185.8270084098426
 20
709.8015139518183
 30
0
 40
3.2
  1
=
 41
0.9
  0
ENDBLK
  8
0
  0
BLOCK
  8
1
  2
*D6
 70
1
 10
0
 20
0
 30
0
  0
LINE
  8
1
 62
2
 10
-175.0274984098426
 20
708.5869302364163
 30
0
 11
-155.0284784098426
 21
708.5869302364163
 31
0
  0
LINE
  8
1
 62
2
 10
-175.0274984098426
 20
699.2186496606586
 30
0
 11
-175.0274984098426
 21
709.5869302364163
 31
0
  0
LINE
  8
1
 62
2
 10
-155.0284784098426
 20
698.2380541687232
 30
0
 11
-155.0284784098426
 21
709.5869302364163
 31
0
  0
SOLID
  8
1
 62
2
 10
-175.0274984098426
 20
708.5869302364163
 30
0
 11
-171.8274984098426
 21
709.0029302364163
 31
0
 12
-171.8274984098426
 22
708.1709302364162
 32
0
 13
-171.8274984098426
 23
708.1709302364162
 33
0
  0
SOLID
  8
1
 62
2
 10
-155.0284784098426
 20
708.5869302364163
 30
0
 11
-158.2284784098426
 21
708.1709302364162
 31
0
 12
-158.2284784098426
 22
709.0029302364163
 32
0
 13
-158.2284784098426
 23
709.0029302364163
 33
0
  0
TEXT
  8
1
 62
2
 10
-165.8279884098426
 20
709.7869302364163
 30
0
 40
3.2
  1
=
 41
0.9
  0
ENDBLK
  8
0
  0
BLOCK
  8
0
  2
TOP__1
 70
0
 10
-364.0085921589998
 20
632.7720373554071
 30
0
  0
INSERT
  8
1
  2
*X0
 10
0
 20
0
 30
0
  0
INSERT
  8
1
  2
*X1
 10
0
 20
0
 30
0
  0
INSERT
  8
1
  2
*X2
 10
0
 20
0
 30
0
  0
INSERT
  8
1
  2
*X3
 10
0
 20
0
 30
0
  0
LINE
  8
1
 62
2
 10
-93.51662620719357
 20
678.3690323946216
 30
0
 11
-95.50262620719357
 21
678.3690323946216
 31
0
  0
LINE
  8
1
 62
7
 10
-93.51662620719357
 20
678.3690323946216
 30
0
 11
-106.5159892071916
 21
678.5959371198122
 31
0
  0
LINE
  8
1
 62
2
 10
-93.51662620719357
 20
695.1333007753616
 30
0
 11
-100.0163077071936
 21
695.1333007753616
 31
0
  0
LINE
  8
1
 62
7
 10
-106.5159892071936
 20
694.9063960501711
 30
0
 11
-93.51662620719357
 21
695.1333007753616
 31
0
  0
LINE
  8
1
 62
7
 10
-101.5162342071936
 20
692.8200872222853
 30
0
 11
-101.5162342071936
 21
690.7451103064768
 31
0
  0
LINE
  8
1
 62
7
 10
-101.5162342071936
 20
680.305146506721
 30
0
 11
-101.5162342071936
 21
680.5956076564769
 31
0
  0
LINE
  8
1
 62
7
  6
DASHED
 10
-101.5162342071936
 20
680.5956076564769
 30
0
 11
-101.5162342071936
 21
682.5955096564769
 31
0
  0
LINE
  8
1
 62
7
 10
-107.5159402071936
 20
680.0956321564769
 30
0
 11
-101.5162342071936
 21
680.305146506721
 31
0
  0
LINE
  8
1
 62
7
 10
-167.0281827299496
 20
647.8008667347223
 30
0
 11
-167.384329405258
 21
637.6021603347222
 31
0
  0
LINE
  8
1
 62
7
 10
-182.6706674144274
 20
637.6021603347222
 30
0
 11
-183.0268140897358
 21
647.8008667347223
 31
0
  0
LINE
  8
1
 62
2
  6
DASHDOT
 10
-175.0274984098426
 20
631.6016605347222
 30
0
 11
-175.0274984098426
 21
633.6015625347222
 31
0
  0
LINE
  8
1
 62
2
  6
DASHDOT
 10
-175.0274984098426
 20
625.337550717663
 30
0
 11
-175.0274984098426
 21
631.6016605347222
 31
0
  0
LINE
  8
1
 62
2
  6
DASHDOT
 10
-175.0274984098426
 20
652.3633166373829
 30
0
 11
-175.0274984098426
 21
642.3638066373829
 31
0
  0
LINE
  8
1
 62
2
  6
DASHDOT
 10
-175.0274984098426
 20
698.2186496606585
 30
0
 11
-175.0274984098426
 21
674.2198256606582
 31
0
  0
LINE
  8
1
 62
7
 10
-212.9496472035484
 20
686.6953087564768
 30
0
 11
-220.9492552035483
 21
686.6953087564768
 31
0
  0
LINE
  8
1
 62
7
 10
-130.0122804416659
 20
686.6953087564768
 30
0
 11
-122.0126724416659
 21
686.6953087564768
 31
0
  0
LINE
  8
1
 62
2
  6
DASHDOT
 10
-195.0265184098426
 20
691.150090461477
 30
0
 11
-195.0265184098426
 21
696.1498454614768
 31
0
  0
LINE
  8
1
 62
2
  6
DASHDOT
 10
-195.0265184098426
 20
682.2405270514771
 30
0
 11
-195.0265184098426
 21
676.2408210514768
 31
0
  0
LINE
  8
1
 62
2
  6
DASHDOT
 10
-155.0284784098426
 20
674.2391811687231
 30
0
 11
-155.0284784098426
 21
697.238054168723
 31
0
  0
LINE
  8
1
 62
2
  6
DASHDOT
 10
-175.0274984098426
 20
693.094995156477
 30
0
 11
-175.0274984098426
 21
680.2956223564768
 31
0
  0
LINE
  8
1
 62
7
 10
-166.6279100098427
 20
631.6016605347222
 30
0
 11
-165.6279590098428
 21
631.6016605347222
 31
0
  0
LINE
  8
1
 62
7
 10
-184.4270378098426
 20
631.6016605347222
 30
0
 11
-183.4270868098426
 21
631.6016605347222
 31
0
  0
LINE
  8
1
 62
7
 10
-166.6279100098427
 20
631.6016605347222
 30
0
 11
-183.4270868098426
 21
631.6016605347222
 31
0
  0
LINE
  8
1
 62
7
 10
-142.0291154098426
 20
631.6016605347222
 30
0
 11
-165.6279590098428
 21
631.6016605347222
 31
0
  0
LINE
  8
1
 62
2
  6
DASHDOT
 10
-155.0284784098426
 20
627.2293211658072
 30
0
 11
-155.0284784098426
 21
654.2279981658071
 31
0
  0
LINE
  8
1
 62
2
  6
DASHDOT
 10
-195.0265184098426
 20
626.2417759750049
 30
0
 11
-195.0265184098426
 21
654.2404039750049
 31
0
  0
LINE
  8
1
 62
2
  6
DASHDOT
 10
-112.2315529384621
 20
686.6953087564768
 30
0
 11
-88.23272893846206
 21
686.6953087564768
 31
0
  0
LINE
  8
1
 62
2
 10
-106.8898412613248
 20
645.2315547315202
 30
0
 11
-84.73584126132481
 21
645.2315547315202
 31
0
  0
LINE
  8
1
 62
2
 10
-173.9707419231336
 20
609.4300133544788
 30
0
 11
-153.8307419231337
 21
609.4300133544788
 31
0
  0
LINE
  8
1
 62
7
 10
-92.51667520719356
 20
682.6455072064769
 30
0
 11
-92.51667520719356
 21
682.5955096564769
 31
0
  0
LINE
  8
1
 62
7
 10
-101.5162342071936
 20
682.6455072064769
 30
0
 11
-101.5162342071936
 21
680.5956076564769
 31
0
  0
LINE
  8
1
 62
7
 10
-101.5162342071936
 20
682.6455072064769
 30
0
 11
-101.5162342071936
 21
682.5955096564769
 31
0
  0
LINE
  8
1
 62
7
 10
-92.51667520719356
 20
682.6455072064769
 30
0
 11
-101.5162342071936
 21
682.6455072064769
 31
0
  0
LINE
  8
1
 62
7
 10
-92.51667520719356
 20
690.7451103064768
 30
0
 11
-92.51667520719356
 21
682.6455072064769
 31
0
  0
LINE
  8
1
 62
7
 10
-101.5162342071936
 20
690.7451103064768
 30
0
 11
-101.5162342071936
 21
686.6953087564768
 31
0
  0
LINE
  8
1
 62
7
 10
-101.5162342071936
 20
690.7451103064768
 30
0
 11
-101.5162342071936
 21
686.6953087564768
 31
0
  0
LINE
  8
1
 62
7
 10
-101.5162342071936
 20
690.7451103064768
 30
0
 11
-92.51667520719356
 21
690.7451103064768
 31
0
  0
LINE
  8
1
 62
7
 10
-107.5159402071936
 20
686.6953087564768
 30
0
 11
-107.5159402071936
 21
693.2949853564769
 31
0
  0
LINE
  8
1
 62
7
 10
-101.5162342071936
 20
686.6953087564768
 30
0
 11
-101.5162342071936
 21
682.6455072064769
 31
0
  0
LINE
  8
1
 62
7
 10
-101.5162342071936
 20
686.6953087564768
 30
0
 11
-101.5162342071936
 21
682.6455072064769
 31
0
  0
LINE
  8
1
 62
7
 10
-107.5159402071936
 20
686.6953087564768
 30
0
 11
-101.5162342071936
 21
686.6953087564768
 31
0
  0
LINE
  8
1
 62
7
 10
-92.51667520719356
 20
690.7951078564769
 30
0
 11
-92.51667520719356
 21
690.7451103064768
 31
0
  0
LINE
  8
1
 62
7
 10
-198.8368434714171
 20
680.095632156477
 30
0
 11
-202.6471685329916
 21
686.6953087564768
 31
0
  0
LINE
  8
1
 62
7
 10
-191.2161933482681
 20
680.095632156477
 30
0
 11
-198.8368434714171
 21
680.095632156477
 31
0
  0
LINE
  8
1
 62
7
 10
-187.4058682866938
 20
686.6953087564768
 30
0
 11
-191.2161933482681
 21
680.095632156477
 31
0
  0
LINE
  8
1
 62
7
 10
-142.0291154098426
 20
678.295720356477
 30
0
 11
-208.0258814098426
 21
678.295720356477
 31
0
  0
LINE
  8
1
 62
7
 10
-191.2161933482681
 20
693.2949853564768
 30
0
 11
-187.4058682866938
 21
686.6953087564768
 31
0
  0
LINE
  8
1
 62
7
 10
-198.8368434714171
 20
693.2949853564768
 30
0
 11
-191.2161933482681
 21
693.2949853564768
 31
0
  0
LINE
  8
1
 62
7
 10
-202.6471685329916
 20
686.6953087564768
 30
0
 11
-198.8368434714171
 21
693.2949853564768
 31
0
  0
LINE
  8
1
 62
7
 10
-107.5159402071936
 20
680.0956321564769
 30
0
 11
-107.5159402071936
 21
686.6953087564768
 31
0
  0
LINE
  8
1
 62
7
 10
-101.5162342071936
 20
693.2949853564769
 30
0
 11
-101.5162342071936
 21
692.8200872222853
 31
0
  0
LINE
  8
1
 62
7
 10
-107.5159402071936
 20
693.2949853564769
 30
0
 11
-107.5159402071936
 21
693.9064450501711
 31
0
  0
LINE
  8
1
 62
7
 10
-107.5159402071936
 20
693.2949853564769
 30
0
 11
-101.5198890659821
 21
693.0855986367137
 31
0
  0
LINE
  8
1
 62
7
 10
-210.0257834098426
 20
680.2956223564768
 30
0
 11
-210.0257834098426
 21
693.094995156477
 31
0
  0
LINE
  8
1
 62
7
 10
-140.0292134098426
 20
693.094995156477
 30
0
 11
-140.0292134098426
 21
680.2956223564768
 31
0
  0
LINE
  8
1
 62
7
 10
-208.0258814098426
 20
695.0948971564769
 30
0
 11
-142.0291154098426
 21
695.0948971564769
 31
0
  0
LINE
  8
1
 62
7
 10
-101.5162342071936
 20
690.7951078564769
 30
0
 11
-101.5162342071936
 21
690.7451103064768
 31
0
  0
LINE
  8
1
 62
7
 10
-107.5159402071936
 20
679.5958881198121
 30
0
 11
-107.5159402071936
 21
680.0956321564769
 31
0
  0
LINE
  8
1
 62
7
 10
-92.51667520719356
 20
682.5955096564769
 30
0
 11
-92.51667520719356
 21
679.3689833946219
 31
0
  0
LINE
  8
1
 62
7
 10
-91.31673400719348
 20
682.5955096564769
 30
0
 11
-92.51667520719356
 21
682.5955096564769
 31
0
  0
LINE
  8
1
 62
7
 10
-91.31673400719348
 20
690.7951078564769
 30
0
 11
-91.31673400719348
 21
682.5955096564769
 31
0
  0
LINE
  8
1
 62
7
 10
-92.51667520719356
 20
690.7951078564769
 30
0
 11
-91.31673400719348
 21
690.7951078564769
 31
0
  0
LINE
  8
1
 62
7
 10
-92.51667520719356
 20
694.1333497753616
 30
0
 11
-92.51667520719356
 21
690.7951078564769
 31
0
  0
LINE
  8
1
 62
2
  6
DASHDOT
 10
-190.5717367048427
 20
686.6953087564768
 30
0
 11
-199.4813001148427
 21
686.6953087564768
 31
0
  0
LINE
  8
1
 62
2
  6
DASHDOT
 10
-195.0265184098426
 20
691.150090461477
 30
0
 11
-195.0265184098426
 21
682.2405270514771
 31
0
  0
LINE
  8
1
 62
7
 10
-158.8388034714172
 20
680.095632156477
 30
0
 11
-162.6491285329917
 21
686.6953087564768
 31
0
  0
LINE
  8
1
 62
7
 10
-151.2181533482682
 20
680.095632156477
 30
0
 11
-158.8388034714172
 21
680.095632156477
 31
0
  0
LINE
  8
1
 62
7
 10
-147.4078282866937
 20
686.6953087564768
 30
0
 11
-151.2181533482682
 21
680.095632156477
 31
0
  0
LINE
  8
1
 62
7
 10
-151.2181533482682
 20
693.2949853564768
 30
0
 11
-147.4078282866937
 21
686.6953087564768
 31
0
  0
LINE
  8
1
 62
7
 10
-158.8388034714172
 20
693.2949853564768
 30
0
 11
-151.2181533482682
 21
693.2949853564768
 31
0
  0
LINE
  8
1
 62
7
 10
-162.6491285329917
 20
686.6953087564768
 30
0
 11
-158.8388034714172
 21
693.2949853564768
 31
0
  0
LINE
  8
1
 62
2
  6
DASHDOT
 10
-150.5736967048427
 20
686.6953087564768
 30
0
 11
-159.4832601148426
 21
686.6953087564768
 31
0
  0
LINE
  8
1
 62
2
  6
DASHDOT
 10
-155.0284784098426
 20
691.150090461477
 30
0
 11
-155.0284784098426
 21
682.2405270514771
 31
0
  0
LINE
  8
1
 62
7
 10
-140.0292134098426
 20
645.8009647347221
 30
0
 11
-140.0292134098426
 21
633.6015625347222
 31
0
  0
LINE
  8
1
 62
7
 10
-184.4270378098426
 20
631.6016605347222
 30
0
 11
-208.0258814098426
 21
631.6016605347222
 31
0
  0
LINE
  8
1
 62
7
 10
-210.0257834098426
 20
633.6015625347222
 30
0
 11
-210.0257834098426
 21
645.8009647347221
 31
0
  0
LINE
  8
1
 62
7
 10
-208.0258814098426
 20
647.8008667347223
 30
0
 11
-200.0262734098426
 21
647.8008667347223
 31
0
  0
LINE
  8
1
 62
7
 10
-150.9786768598428
 20
637.6013665347223
 30
0
 11
-150.9786768598428
 21
646.6009255347223
 31
0
  0
LINE
  8
1
 62
7
 10
-159.0782799598427
 20
637.6013665347223
 30
0
 11
-159.0782799598427
 21
646.6009255347223
 31
0
  0
LINE
  8
1
 62
7
 10
-190.9771020942021
 20
637.6013665347223
 30
0
 11
-190.9771020942021
 21
646.6009255347223
 31
0
  0
LINE
  8
1
 62
7
 10
-199.0759347254832
 20
637.6013665347223
 30
0
 11
-199.0759347254832
 21
646.6009255347223
 31
0
  0
LINE
  8
1
 62
7
 10
-150.0287234098426
 20
646.6009255347223
 30
0
 11
-150.0287234098426
 21
647.8008667347223
 31
0
  0
LINE
  8
1
 62
7
 10
-160.0282334098426
 20
646.6009255347223
 30
0
 11
-160.0282334098426
 21
647.8008667347223
 31
0
  0
LINE
  8
1
 62
7
 10
-190.0267634098427
 20
646.6009255347223
 30
0
 11
-190.0267634098427
 21
647.8008667347223
 31
0
  0
LINE
  8
1
 62
7
 10
-200.0262734098426
 20
646.6009255347223
 30
0
 11
-200.0262734098426
 21
647.8008667347223
 31
0
  0
LINE
  8
1
 62
7
 10
-190.0267634098427
 20
647.8008667347223
 30
0
 11
-160.0282334098426
 21
647.8008667347223
 31
0
  0
LINE
  8
1
 62
7
 10
-150.0287234098426
 20
647.8008667347223
 30
0
 11
-142.0291154098426
 21
647.8008667347223
 31
0
  0
LINE
  8
1
 62
7
 10
-150.0287234098426
 20
646.6009255347223
 30
0
 11
-160.0282334098426
 21
646.6009255347223
 31
0
  0
LINE
  8
1
 62
7
 10
-190.0267634098427
 20
646.6009255347223
 30
0
 11
-200.0262734098426
 21
646.6009255347223
 31
0
  0
LINE
  8
1
 62
7
 10
-147.4078282866937
 20
631.6016605347222
 30
0
 11
-147.4078282866937
 21
637.6013665347223
 31
0
  0
LINE
  8
1
 62
7
 10
-162.6491285329917
 20
631.6016605347222
 30
0
 11
-162.6491285329917
 21
637.6013665347223
 31
0
  0
LINE
  8
1
 62
7
 10
-187.4058682866938
 20
631.6016605347222
 30
0
 11
-187.4058682866938
 21
637.6013665347223
 31
0
  0
LINE
  8
1
 62
7
 10
-202.6471685329916
 20
631.6016605347222
 30
0
 11
-202.6471685329916
 21
637.6013665347223
 31
0
  0
LINE
  8
1
 62
7
 10
-151.2181533482682
 20
631.6016605347222
 30
0
 11
-151.2181533482682
 21
637.6013665347223
 31
0
  0
LINE
  8
1
 62
7
 10
-158.8388034714172
 20
631.6016605347222
 30
0
 11
-158.8388034714172
 21
637.6013665347223
 31
0
  0
LINE
  8
1
 62
7
 10
-191.2161933482681
 20
631.6016605347222
 30
0
 11
-191.2161933482681
 21
637.6013665347223
 31
0
  0
LINE
  8
1
 62
7
 10
-198.8368434714171
 20
631.6016605347222
 30
0
 11
-198.8368434714171
 21
637.6013665347223
 31
0
  0
LINE
  8
1
 62
7
 10
-147.4078282866937
 20
637.6013665347223
 30
0
 11
-162.6491285329917
 21
637.6013665347223
 31
0
  0
LINE
  8
1
 62
7
 10
-187.4058682866938
 20
637.6013665347223
 30
0
 11
-202.6471685329916
 21
637.6013665347223
 31
0
  0
LINE
  8
1
 62
2
  6
DASHDOT
 10
-216.2406586045534
 20
686.6953087564768
 30
0
 11
-118.2312589384621
 21
686.6953087564768
 31
0
  0
LINE
  8
1
 62
7
 10
-169.384231405258
 20
635.6022583347223
 30
0
 11
-180.6707654144275
 21
635.6022583347223
 31
0
  0
LINE
  8
1
 62
2
 10
-173.9707419231336
 20
607.9300133544788
 30
0
 11
-153.8307419231337
 21
607.9300133544788
 31
0
  0
LINE
  8
1
 62
2
 10
-106.8898412613248
 20
643.7315547315202
 30
0
 11
-84.73584126132481
 21
643.7315547315202
 31
0
  0
ARC
  8
1
 62
7
 10
-200.4397449473171
 20
692.418585460691
 30
0
 40
1.199941200000097
 50
0
 51
7.658462006213293
  0
ARC
  8
1
 62
7
 10
-202.6896346973171
 20
688.5216621022627
 30
0
 40
1.199941200000097
 50
0
 51
7.658462006213293
  0
ARC
  8
1
 62
7
 10
-202.6896346973171
 20
684.8689554106911
 30
0
 40
1.19994119999997
 50
352.3415379937921
 51
0
  0
ARC
  8
1
 62
7
 10
-200.4397449473171
 20
680.9720320522627
 30
0
 40
1.199941200000068
 50
352.3415379937982
 51
0
  0
ARC
  8
1
 62
7
 10
-160.4417049473171
 20
692.418585460691
 30
0
 40
1.199941200000097
 50
0
 51
7.658462006213293
  0
ARC
  8
1
 62
7
 10
-162.6915946973171
 20
688.5216621022627
 30
0
 40
1.199941200000097
 50
0
 51
7.658462006213293
  0
ARC
  8
1
 62
7
 10
-162.6915946973171
 20
684.8689554106911
 30
0
 40
1.19994119999997
 50
352.3415379937921
 51
0
  0
ARC
  8
1
 62
7
 10
-160.4417049473171
 20
680.9720320522627
 30
0
 40
1.199941200000068
 50
352.3415379937982
 51
0
  0
CIRCLE
  8
1
 62
7
 10
-195.0265184098426
 20
686.6953087564768
 30
0
 40
4.049801549999899
  0
CIRCLE
  8
1
 62
7
 10
-155.0284784098426
 20
686.6953087564768
 30
0
 40
4.049801549999785
  0
ARC
  8
1
 62
7
 10
-106.5159892071936
 20
679.5958881198121
 30
0
 40
0.9999509999999958
 50
180
 51
270.0000000001148
  0
ARC
  8
1
 62
7
 10
-169.384231405258
 20
637.6021603347222
 30
0
 40
1.999901999999906
 50
270
 51
0
  0
ARC
  8
1
 62
7
 10
-180.6707654144275
 20
637.6021603347222
 30
0
 40
1.999901999999906
 50
180
 51
270
  0
ARC
  8
1
 62
7
 10
-142.0291154098426
 20
693.094995156477
 30
0
 40
1.999901999999992
 50
0
 51
90
  0
ARC
  8
1
 62
7
 10
-142.0291154098426
 20
680.2956223564768
 30
0
 40
1.999901999999793
 50
270
 51
0
  0
ARC
  8
1
 62
7
 10
-208.0258814098426
 20
680.2956223564768
 30
0
 40
1.999901999999992
 50
180
 51
270
  0
ARC
  8
1
 62
7
 10
-208.0258814098426
 20
693.0949951564768
 30
0
 40
1.999902000000134
 50
90
 51
180
  0
ARC
  8
1
 62
7
 10
-106.5159892071936
 20
693.9064450501711
 30
0
 40
0.99995100000001
 50
90
 51
180
  0
ARC
  8
1
 62
7
 10
-106.5159892071936
 20
679.5958881198121
 30
0
 40
0.9999509999998753
 50
260.4568406208169
 51
270
  0
ARC
  8
1
 62
7
 10
-93.51662620719357
 20
694.1333497753616
 30
0
 40
0.99995100000001
 50
0
 51
90
  0
ARC
  8
1
 62
7
 10
-93.51662620719357
 20
679.3689833946219
 30
0
 40
0.9999510000002374
 50
270
 51
0
  0
ARC
  8
1
 62
7
 10
-208.0258814098426
 20
633.6015625347222
 30
0
 40
1.999901999999992
 50
180
 51
270
  0
ARC
  8
1
 62
7
 10
-142.0291154098426
 20
633.6015625347222
 30
0
 40
1.99990200000002
 50
270
 51
0
  0
ARC
  8
1
 62
7
 10
-142.0291154098426
 20
645.8009647347221
 30
0
 40
1.999901999999992
 50
0
 51
90
  0
ARC
  8
1
 62
7
 10
-208.0258814098426
 20
645.8009647347221
 30
0
 40
1.999902000000134
 50
90
 51
180
  0
TEXT
  8
1
 62
2
 10
-173.9707419231336
 20
611.1869321780082
 30
0
 40
3.2224
  1
Sez. B-B
 41
0.9
  0
TEXT
  8
1
 62
2
 10
-106.7370142025003
 20
646.888958260932
 30
0
 40
3.2224
  1
Sez. A-A
 41
0.9
  0
DIMENSION
  8
1
  6
CONTINUOUS
 62
2
  2
*D0
  3
DMST_1
 10
-210.0257834098426
 20
728.3864711067113
 30
0
 11
-175.0274984098426
 21
731.1864711067112
 31
0
 12
0
 22
0
 32
0
 70
0
 13
-140.0292134098426
 23
693.094995156477
 33
0
 14
-210.0257834098426
 24
693.094995156477
 34
0
 53
0
  0
DIMENSION
  8
1
  6
CONTINUOUS
 62
2
  2
*D1
  3
DMST_1
 10
-155.0284784098426
 20
718.7103909571663
 30
0
 11
-175.0274984098426
 21
721.5103909571662
 31
0
 12
0
 22
0
 32
0
 70
0
 13
-195.0265184098426
 23
696.1498454614768
 33
0
 14
-155.0284784098426
 24
697.238054168723
 34
0
 53
0
  0
DIMENSION
  8
1
  6
CONTINUOUS
 62
2
  2
*D2
  3
DMST_1
 10
-107.5159402071936
 20
660.4116471825951
 30
0
 11
-100.0163077071936
 21
663.211647182595
 31
0
 12
0
 22
0
 32
0
 70
0
 13
-92.51667520719356
 23
682.5955096564769
 33
0
 14
-107.5159402071936
 24
686.6953087564768
 34
0
 53
0
  0
DIMENSION
  8
1
  6
CONTINUOUS
 62
2
  2
*D3
  3
DMST_1
 10
-91.31673400719348
 20
660.4632929807149
 30
0
 11
-82.28596226897633
 21
663.4232929807149
 31
0
 12
0
 22
0
 32
0
 70
0
 13
-92.51667520719356
 23
679.3689833946219
 33
0
 14
-91.31673400719348
 24
682.5955096564769
 34
0
 53
0
  0
DIMENSION
  8
1
  6
CONTINUOUS
 62
2
  2
*D4
  3
DMST_1
 10
-75.2136546194786
 20
690.7951078564769
 30
0
 11
-78.17365461947861
 21
701.6753283011269
 31
0
 12
0
 22
0
 32
0
 70
0
 13
-91.31673400719348
 23
682.5955096564769
 33
0
 14
-91.31673400719348
 24
690.7951078564769
 34
0
 50
90
 53
0
  0
DIMENSION
  8
1
  6
CONTINUOUS
 62
2
  2
*D5
  3
DMST_1
 10
-175.0274984098426
 20
708.6015139518182
 30
0
 11
-185.0270084098426
 21
710.6015139518182
 31
0
 12
0
 22
0
 32
0
 70
0
  1
=
 13
-195.0265184098426
 23
696.1498454614768
 33
0
 14
-175.0274984098426
 24
698.2186496606585
 34
0
 53
0
  0
DIMENSION
  8
1
  6
CONTINUOUS
 62
2
  2
*D6
  3
DMST_1
 10
-175.0274984098426
 20
708.5869302364163
 30
0
 11
-165.0279884098426
 21
710.5869302364163
 31
0
 12
0
 22
0
 32
0
 70
0
  1
=
 13
-155.0284784098426
 23
697.238054168723
 33
0
 14
-175.0274984098426
 24
698.2186496606585
 34
0
 53
0
  0
ENDBLK
  8
0
  0
BLOCK
  8
0
  2
TOP__2
 70
0
 10
-365.0085921589998
 20
632.7720373554071
 30
0
  0
INSERT
  8
0
  2
TOP__1
 10
-364.0085921589998
 20
632.7720373554071
 30
0
  0
ENDBLK
  8
0
  0
BLOCK
  8
0
  2
TOP__3
 70
0
 10
-22.5668161893538
 20
327.526771337416
 30
0
  0
INSERT
  8
0
  2
TOP__2
 10
-365.0085921589998
 20
632.7720373554071
 30
0
  0
ENDBLK
  8
0
  0
ENDSEC
  0
SECTION
  2
ENTITIES
  0
INSERT
  8
0
  2
TOP__3
 10
-22.5668161893538
 20
327.526771337416
 30
0
  0
ENDSEC
  0
EOF
