999
DXF file: 614-635152.dxf
999
Pro/ENGINEER 2005310 by Parametric Technology Corporation
0
SECTION
2
HEADER
9
$ACADVER
1
AC1015
9
$DWGCODEPAGE
3
ANSI_1252
9
$EXTMAX
10
210.0000000000
20
297.0000000000
30
0.0000000000
9
$EXTMIN
10
0.0000000000
20
0.0000000000
30
0.0000000000
9
$LIMMIN
10
0.0000000000
20
0.0000000000
9
$LIMMAX
10
210.0000000000
20
297.0000000000
9
$VIEWCTR
10
105.0000000000
20
148.5000000000
9
$VIEWSIZE
40
297.0000000000
9
$CLAYER
8
0
9
$LTSCALE
40
19.3600000000
9
$CELTYPE
6
BYLAYER
9
$DIMSCALE
40
1
9
$DIMASZ
40
3.5000000000
9
$DIMEXO
40
2.2000000000
9
$DIMDLI
40
13.3760000000
9
$DIMEXE
40
6.3360000000
9
$DIMCEN
40
3.1680000000
9
$DIMLFAC
40
1.0000000000
9
$DIMBLK
1
_FILLED
9
$DIMTXT
40
3.5000000000
9
$DIMTOL
70
1
9
$DIMLIM
70
0
9
$DIMTFAC
40
1.0000000000
9
$DIMTP
40
0.0010000000
9
$DIMTM
40
0.0010000000
9
$PDMODE
70
3
9
$PDSIZE
40
0.3125000000
9
$HANDSEED
5
2C0
9
$MEASUREMENT
70
1
9
$INSUNITS
70
4
0
ENDSEC
0
SECTION
2
CLASSES
0
CLASS
1
ACDBDICTIONARYWDFLT
2
AcDbDictionaryWithDefault
3
AutoCAD 2000
90
0
280
0
281
0
0
CLASS
1
ACDBPLACEHOLDER
2
AcDbPlaceHolder
3
AutoCAD 2000
90
0
280
0
281
0
0
CLASS
1
LAYOUT
2
AcDbLayout
3
AutoCAD 2000
90
0
280
0
281
0
0
ENDSEC
0
SECTION
2
TABLES
0
TABLE
2
VPORT
5
8
100
AcDbSymbolTable
70
2
0
VPORT
5
1F4
100
AcDbSymbolTableRecord
100
AcDbViewportTableRecord
2
*ACTIVE
70
0
10
0.0
20
0.0
11
1.0
21
1.0
12
105.0000000000
22
148.5000000000
13
0.0
23
0.0
14
1.0
24
1.0
15
0.0
25
0.0
16
0.0
26
0.0
36
1.0
17
0.0
27
0.0
37
0.0
40
297.0000000000
41
0.7070707071
42
50.0
43
0.0
44
0.0
50
0.0
51
0.0
71
0
72
100
73
1
74
1
75
0
76
0
77
0
78
0
0
ENDTAB
0
TABLE
2
LTYPE
5
5
100
AcDbSymbolTable
70
6
0
LTYPE
5
14
100
AcDbSymbolTableRecord
100
AcDbLinetypeTableRecord
2
BYBLOCK
70
0
3

72
65
73
0
40
0.0
0
LTYPE
5
15
100
AcDbSymbolTableRecord
100
AcDbLinetypeTableRecord
2
BYLAYER
70
0
3

72
65
73
0
40
0.0
0
LTYPE
5
16
100
AcDbSymbolTableRecord
100
AcDbLinetypeTableRecord
2
CONTINUOUS
70
64
3
Solid line
72
65
73
0
40
0
0
LTYPE
5
1F5
100
AcDbSymbolTableRecord
100
AcDbLinetypeTableRecord
2
CENTER
70
64
3
____ _ ____ _ ____ _ ____ _ ____ _ ____ _ ____
72
65
73
4
40
0.6
49
0.375
74
0
49
-0.075
74
0
49
0.075
74
0
49
-0.075
74
0
0
LTYPE
5
1F6
100
AcDbSymbolTableRecord
100
AcDbLinetypeTableRecord
2
HIDDEN
70
64
3
- - - - - - - - - - - - - - - - - - - -
72
65
73
2
40
0.2
49
0.1
74
0
49
-0.1
74
0
0
LTYPE
5
1F7
100
AcDbSymbolTableRecord
100
AcDbLinetypeTableRecord
2
PHANTOM
70
64
3
_____ _ _ _____ _ _ _____ _ _ _____
72
65
73
6
40
0.8
49
0.45
74
0
49
-0.05
74
0
49
0.1
74
0
49
-0.05
74
0
49
0.1
74
0
49
-0.05
74
0
0
LTYPE
5
1F8
100
AcDbSymbolTableRecord
100
AcDbLinetypeTableRecord
2
DOT
70
64
3
. . . . . . . . . . . . . . . . . . . .
72
65
73
2
40
0.2
49
0.1
74
0
49
-0.1
74
0
0
LTYPE
5
1F9
100
AcDbSymbolTableRecord
100
AcDbLinetypeTableRecord
2
DASHED
70
64
3
- - - - - - - - - - - - - - - - - - - -
72
65
73
2
40
0.2
49
0.1
74
0
49
-0.1
74
0
0
ENDTAB
0
TABLE
2
LAYER
5
2
100
AcDbSymbolTable
70
36
0
LAYER
5
10
100
AcDbSymbolTableRecord
100
AcDbLayerTableRecord
2
0
70
0
62
7
6
CONTINUOUS
370
-3
390
F
0
LAYER
5
1FA
100
AcDbSymbolTableRecord
100
AcDbLayerTableRecord
2
DEFAULT_1
70
0
62
7
6
CENTER
370
-3
390
F
0
LAYER
5
1FB
100
AcDbSymbolTableRecord
100
AcDbLayerTableRecord
2
DEFAULT_2
70
0
62
8
6
HIDDEN
370
-3
390
F
0
LAYER
5
1FC
100
AcDbSymbolTableRecord
100
AcDbLayerTableRecord
2
DEFAULT_3
70
0
62
7
6
PHANTOM
370
-3
390
F
0
LAYER
5
1FD
100
AcDbSymbolTableRecord
100
AcDbLayerTableRecord
2
ASSI
70
0
62
7
6
CONTINUOUS
370
-3
390
F
0
LAYER
5
1FE
100
AcDbSymbolTableRecord
100
AcDbLayerTableRecord
2
PIANI
70
0
62
7
6
CONTINUOUS
370
-3
390
F
0
ENDTAB
0
TABLE
2
STYLE
5
3
100
AcDbSymbolTable
70
1
0
STYLE
5
11
100
AcDbSymbolTableRecord
100
AcDbTextStyleTableRecord
2
STANDARD
70
0
40
0.0
41
0.7143000000
50
0.0
71
0
42
0.2
3
txt
4

0
ENDTAB
0
TABLE
2
VIEW
5
6
100
AcDbSymbolTable
70
0
0
ENDTAB
0
TABLE
2
UCS
5
7
100
AcDbSymbolTable
70
0
0
ENDTAB
0
TABLE
2
APPID
5
9
100
AcDbSymbolTable
70
1
0
APPID
5
1FF
100
AcDbSymbolTableRecord
100
AcDbRegAppTableRecord
2
ACAD
70
0
0
ENDTAB
0
TABLE
2
BLOCK_RECORD
5
1
100
AcDbSymbolTable
70
0
0
BLOCK_RECORD
5
1F
100
AcDbSymbolTableRecord
100
AcDbBlockTableRecord
2
*MODEL_SPACE
0
BLOCK_RECORD
5
1B
100
AcDbSymbolTableRecord
100
AcDbBlockTableRecord
2
*PAPER_SPACE
0
BLOCK_RECORD
5
200
100
AcDbSymbolTableRecord
100
AcDbBlockTableRecord
2
_FILLED
0
BLOCK_RECORD
5
201
100
AcDbSymbolTableRecord
100
AcDbBlockTableRecord
2
*D0
0
BLOCK_RECORD
5
202
100
AcDbSymbolTableRecord
100
AcDbBlockTableRecord
2
*D1
0
BLOCK_RECORD
5
203
100
AcDbSymbolTableRecord
100
AcDbBlockTableRecord
2
*D2
0
BLOCK_RECORD
5
204
100
AcDbSymbolTableRecord
100
AcDbBlockTableRecord
2
*D3
0
BLOCK_RECORD
5
205
100
AcDbSymbolTableRecord
100
AcDbBlockTableRecord
2
*D4
0
ENDTAB
0
TABLE
2
DIMSTYLE
5
A
100
AcDbSymbolTable
70
1
100
AcDbDimStyleTable
71
0
0
DIMSTYLE
105
206
100
AcDbSymbolTableRecord
100
AcDbDimStyleTableRecord
2
STANDARD
70
0
3

4

40
1.0
41
3.5000000000
42
0.0625
43
0.38
44
0.18
45
0.0
46
0.0
47
0.0010000000
48
0.0010000000
140
3.5000000000
141
0.09
142
0.0
143
25.4
144
1.0000000000
145
0.0
146
1.0000000000
147
0.09
71
1
72
0
73
0
74
0
75
0
76
0
77
1
78
8
170
0
171
2
172
0
173
0
174
0
175
0
176
0
177
0
178
0
270
2
271
3
272
3
273
2
274
2
275
0
280
0
281
0
282
0
283
1
284
8
285
0
286
0
287
3
288
0
340
11
341
200
342
200
343
200
344
200
0
DIMSTYLE
105
207
100
AcDbSymbolTableRecord
100
AcDbDimStyleTableRecord
2
DIMSTYLE_1
70
0
3

4

40
1.0
41
3.5000000000
42
0.0625
43
0.38
44
0.18
45
0.0
46
0.0
47
0.1500000000
48
0.1500000000
140
3.5000000000
141
0.09
142
0.0
143
25.4
144
1.0000000000
145
0.0
146
1.0000000000
147
0.09
71
0
72
0
73
0
74
0
75
0
76
0
77
1
78
8
170
0
171
2
172
0
173
0
174
0
175
0
176
0
177
0
178
0
270
2
271
2
272
2
273
2
274
2
275
0
280
0
281
0
282
0
283
1
284
8
285
0
286
0
287
3
288
0
340
11
341
200
342
200
343
200
344
200
0
DIMSTYLE
105
208
100
AcDbSymbolTableRecord
100
AcDbDimStyleTableRecord
2
DIMSTYLE_2
70
0
3

4

40
1.0
41
3.5000000000
42
0.0625
43
0.38
44
0.18
45
0.0
46
0.0
47
0.0500000000
48
0.0500000000
140
3.5000000000
141
0.09
142
0.0
143
25.4
144
1.0000000000
145
0.0
146
1.0000000000
147
0.09
71
0
72
0
73
0
74
0
75
0
76
0
77
1
78
8
170
0
171
2
172
0
173
0
174
0
175
0
176
0
177
0
178
0
270
2
271
2
272
2
273
2
274
2
275
0
280
0
281
0
282
0
283
1
284
8
285
0
286
0
287
3
288
0
340
11
341
200
342
200
343
200
344
200
0
DIMSTYLE
105
209
100
AcDbSymbolTableRecord
100
AcDbDimStyleTableRecord
2
DIMSTYLE_3
70
0
3

4

40
1.0
41
3.5000000000
42
0.0625
43
0.38
44
0.18
45
0.0
46
0.0
47
0.1000000000
48
0.1000000000
140
3.5000000000
141
0.09
142
0.0
143
25.4
144
1.0000000000
145
0.0
146
1.0000000000
147
0.09
71
0
72
0
73
0
74
0
75
0
76
0
77
1
78
8
170
0
171
2
172
0
173
0
174
0
175
0
176
0
177
0
178
0
270
2
271
2
272
2
273
2
274
2
275
0
280
0
281
0
282
0
283
1
284
8
285
0
286
0
287
3
288
0
340
11
341
200
342
200
343
200
344
200
0
ENDTAB
0
ENDSEC
0
SECTION
2
BLOCKS
0
BLOCK
5
20
100
AcDbEntity
8
0
100
AcDbBlockBegin
2
*MODEL_SPACE
70
0
10
0.0
20
0.0
30
0.0
3
*MODEL_SPACE
1

0
ENDBLK
5
21
100
AcDbEntity
8
0
100
AcDbBlockEnd
0
BLOCK
5
1C
100
AcDbEntity
8
0
100
AcDbBlockBegin
2
*PAPER_SPACE
70
0
10
0.0
20
0.0
30
0.0
3
*PAPER_SPACE
1

0
ENDBLK
5
1D
100
AcDbEntity
8
0
100
AcDbBlockEnd
0
BLOCK
5
20A
100
AcDbEntity
8
0
100
AcDbBlockBegin
62
2
6
CONTINUOUS
2
*D0
70
65
10
0.0000000000
20
0.0000000000
3
*D0
1

0
TEXT
5
20B
100
AcDbEntity
8
0
100
AcDbText
62
2
6
CONTINUOUS
10
94.5646046286
20
232.9914862098
7
STANDARD
40
3.5000000000
1
%%c
41
1.3333333333
72
0
100
AcDbText
0
TEXT
5
20C
100
AcDbEntity
8
0
100
AcDbText
62
2
6
CONTINUOUS
10
99.2312712952
20
232.9914862098
7
STANDARD
40
3.5000000000
1
60
41
0.7143000000
72
0
100
AcDbText
0
LINE
5
20D
100
AcDbEntity
8
0
100
AcDbLine
62
2
6
CONTINUOUS
10
69.4609137056
20
208.6783248731
11
69.4609137056
21
233.6164862098
0
LINE
5
20E
100
AcDbEntity
8
0
100
AcDbLine
62
2
6
CONTINUOUS
10
129.4609137056
20
208.6783248731
11
129.4609137056
21
233.6164862098
0
LINE
5
20F
100
AcDbEntity
8
0
100
AcDbLine
62
2
6
CONTINUOUS
10
69.4609137056
20
232.1164862098
11
99.4609137056
21
232.1164862098
0
LINE
5
210
100
AcDbEntity
8
0
100
AcDbLine
62
2
6
CONTINUOUS
10
129.4609137056
20
232.1164862098
11
99.4609137056
21
232.1164862098
0
INSERT
5
211
100
AcDbEntity
8
0
100
AcDbBlockReference
62
2
6
CONTINUOUS
2
_FILLED
10
69.4609137056
20
232.1164862098
41
  3.500000
42
  3.500000
43
  3.500000
50
180.000000
0
INSERT
5
212
100
AcDbEntity
8
0
100
AcDbBlockReference
62
2
6
CONTINUOUS
2
_FILLED
10
129.4609137056
20
232.1164862098
41
  3.500000
42
  3.500000
43
  3.500000
0
ENDBLK
5
213
100
AcDbEntity
8
0
6
BYBLOCK
62
0
100
AcDbBlockEnd
0
BLOCK
5
214
100
AcDbEntity
8
0
100
AcDbBlockBegin
62
2
6
CONTINUOUS
2
*D1
70
65
10
0.0000000000
20
0.0000000000
3
*D1
1

0
TEXT
5
215
100
AcDbEntity
8
0
100
AcDbText
62
2
6
CONTINUOUS
10
147.3506769716
20
154.9679375961
7
STANDARD
40
3.5000000000
1
3.5
50
90.0000000000
41
0.7143000000
72
0
100
AcDbText
0
LINE
5
216
100
AcDbEntity
8
0
100
AcDbLine
62
2
6
CONTINUOUS
10
125.4468120904
20
169.9883248731
11
149.7256769716
21
169.9883248731
0
LINE
5
217
100
AcDbEntity
8
0
100
AcDbLine
62
2
6
CONTINUOUS
10
111.5447021052
20
166.4883248731
11
149.7256769716
21
166.4883248731
0
LINE
5
218
100
AcDbEntity
8
0
100
AcDbLine
62
2
6
CONTINUOUS
10
148.2256769716
20
169.9883248731
11
148.2256769716
21
177.9883248731
0
LINE
5
219
100
AcDbEntity
8
0
100
AcDbLine
62
2
6
CONTINUOUS
10
148.2256769716
20
177.9883248731
11
148.2256769716
21
168.2383248731
0
LINE
5
21A
100
AcDbEntity
8
0
100
AcDbLine
62
2
6
CONTINUOUS
10
148.2256769716
20
166.4883248731
11
148.2256769716
21
154.9679375961
0
LINE
5
21B
100
AcDbEntity
8
0
100
AcDbLine
62
2
6
CONTINUOUS
10
148.2256769716
20
154.9679375961
11
148.2256769716
21
168.2383248731
0
INSERT
5
21C
100
AcDbEntity
8
0
100
AcDbBlockReference
62
2
6
CONTINUOUS
2
_FILLED
10
148.2256769716
20
169.9883248731
41
  3.500000
42
  3.500000
43
  3.500000
50
270.000000
0
INSERT
5
21D
100
AcDbEntity
8
0
100
AcDbBlockReference
62
2
6
CONTINUOUS
2
_FILLED
10
148.2256769716
20
166.4883248731
41
  3.500000
42
  3.500000
43
  3.500000
50
 90.000000
0
ENDBLK
5
21E
100
AcDbEntity
8
0
6
BYBLOCK
62
0
100
AcDbBlockEnd
0
BLOCK
5
21F
100
AcDbEntity
8
0
100
AcDbBlockBegin
62
2
6
CONTINUOUS
2
*D2
70
65
10
0.0000000000
20
0.0000000000
3
*D2
1

0
TEXT
5
220
100
AcDbEntity
8
0
100
AcDbText
62
2
6
CONTINUOUS
10
147.3506769716
20
181.1862889597
7
STANDARD
40
3.5000000000
1
39.5
50
90.0000000000
41
0.7143000000
72
0
100
AcDbText
0
LINE
5
221
100
AcDbEntity
8
0
100
AcDbLine
62
2
6
CONTINUOUS
10
111.4609137056
20
209.4883248731
11
149.7256769716
21
209.4883248731
0
LINE
5
222
100
AcDbEntity
8
0
100
AcDbLine
62
2
6
CONTINUOUS
10
125.4468120904
20
169.9883248731
11
149.7256769716
21
169.9883248731
0
LINE
5
223
100
AcDbEntity
8
0
100
AcDbLine
62
2
6
CONTINUOUS
10
148.2256769716
20
209.4883248731
11
148.2256769716
21
189.7383248731
0
LINE
5
224
100
AcDbEntity
8
0
100
AcDbLine
62
2
6
CONTINUOUS
10
148.2256769716
20
169.9883248731
11
148.2256769716
21
189.7383248731
0
INSERT
5
225
100
AcDbEntity
8
0
100
AcDbBlockReference
62
2
6
CONTINUOUS
2
_FILLED
10
148.2256769716
20
209.4883248731
41
  3.500000
42
  3.500000
43
  3.500000
50
 90.000000
0
INSERT
5
226
100
AcDbEntity
8
0
100
AcDbBlockReference
62
2
6
CONTINUOUS
2
_FILLED
10
148.2256769716
20
169.9883248731
41
  3.500000
42
  3.500000
43
  3.500000
50
270.000000
0
ENDBLK
5
227
100
AcDbEntity
8
0
6
BYBLOCK
62
0
100
AcDbBlockEnd
0
BLOCK
5
228
100
AcDbEntity
8
0
100
AcDbBlockBegin
62
2
6
CONTINUOUS
2
*D3
70
65
10
0.0000000000
20
0.0000000000
3
*D3
1

0
TEXT
5
229
100
AcDbEntity
8
0
100
AcDbText
62
2
6
CONTINUOUS
10
91.8207623268
20
221.6021420824
7
STANDARD
40
3.5000000000
1
%%c
41
1.3333333333
72
0
100
AcDbText
0
TEXT
5
22A
100
AcDbEntity
8
0
100
AcDbText
62
2
6
CONTINUOUS
10
96.4874289935
20
221.6021420824
7
STANDARD
40
3.5000000000
1
19.5
41
0.7143000000
72
0
100
AcDbText
0
LINE
5
22B
100
AcDbEntity
8
0
100
AcDbLine
62
2
6
CONTINUOUS
10
89.7109137056
20
209.4883248731
11
89.7109137056
21
222.2271420824
0
LINE
5
22C
100
AcDbEntity
8
0
100
AcDbLine
62
2
6
CONTINUOUS
10
109.2109137056
20
209.4883248731
11
109.2109137056
21
222.2271420824
0
LINE
5
22D
100
AcDbEntity
8
0
100
AcDbLine
62
2
6
CONTINUOUS
10
89.7109137056
20
220.7271420824
11
99.4609137056
21
220.7271420824
0
LINE
5
22E
100
AcDbEntity
8
0
100
AcDbLine
62
2
6
CONTINUOUS
10
109.2109137056
20
220.7271420824
11
99.4609137056
21
220.7271420824
0
INSERT
5
22F
100
AcDbEntity
8
0
100
AcDbBlockReference
62
2
6
CONTINUOUS
2
_FILLED
10
89.7109137056
20
220.7271420824
41
  3.500000
42
  3.500000
43
  3.500000
50
180.000000
0
INSERT
5
230
100
AcDbEntity
8
0
100
AcDbBlockReference
62
2
6
CONTINUOUS
2
_FILLED
10
109.2109137056
20
220.7271420824
41
  3.500000
42
  3.500000
43
  3.500000
0
ENDBLK
5
231
100
AcDbEntity
8
0
6
BYBLOCK
62
0
100
AcDbBlockEnd
0
BLOCK
5
232
100
AcDbEntity
8
0
100
AcDbBlockBegin
62
2
6
CONTINUOUS
2
*D4
70
65
10
0.0000000000
20
0.0000000000
3
*D4
1

0
TEXT
5
233
100
AcDbEntity
8
0
100
AcDbText
62
2
6
CONTINUOUS
10
95.2119463506
20
151.7698873082
7
STANDARD
40
3.5000000000
1
%%c
41
1.3333333333
72
0
100
AcDbText
0
TEXT
5
234
100
AcDbEntity
8
0
100
AcDbText
62
2
6
CONTINUOUS
10
99.8786130172
20
151.7698873082
7
STANDARD
40
3.5000000000
1
70
41
0.7143000000
72
0
100
AcDbText
0
LINE
5
235
100
AcDbEntity
8
0
100
AcDbLine
62
2
6
CONTINUOUS
10
64.4609137056
20
167.9883248731
11
64.4609137056
21
149.3948873082
0
LINE
5
236
100
AcDbEntity
8
0
100
AcDbLine
62
2
6
CONTINUOUS
10
134.4609137056
20
167.9883248731
11
134.4609137056
21
149.3948873082
0
LINE
5
237
100
AcDbEntity
8
0
100
AcDbLine
62
2
6
CONTINUOUS
10
64.4609137056
20
150.8948873082
11
99.4609137056
21
150.8948873082
0
LINE
5
238
100
AcDbEntity
8
0
100
AcDbLine
62
2
6
CONTINUOUS
10
134.4609137056
20
150.8948873082
11
99.4609137056
21
150.8948873082
0
INSERT
5
239
100
AcDbEntity
8
0
100
AcDbBlockReference
62
2
6
CONTINUOUS
2
_FILLED
10
64.4609137056
20
150.8948873082
41
  3.500000
42
  3.500000
43
  3.500000
50
180.000000
0
INSERT
5
23A
100
AcDbEntity
8
0
100
AcDbBlockReference
62
2
6
CONTINUOUS
2
_FILLED
10
134.4609137056
20
150.8948873082
41
  3.500000
42
  3.500000
43
  3.500000
0
ENDBLK
5
23B
100
AcDbEntity
8
0
6
BYBLOCK
62
0
100
AcDbBlockEnd
0
BLOCK
5
23C
100
AcDbEntity
8
0
100
AcDbBlockBegin
2
_FILLED
70
64
10
0.0000000000
20
0.0000000000
3
_FILLED
1

0
SOLID
5
23D
100
AcDbEntity
8
0
6
BYBLOCK
62
0
100
AcDbTrace
10
0.0000000000
20
0.0000000000
11
-1.0000000000
21
0.1857142857
12
-1.0000000000
22
-0.1857142857
13
-1.0000000000
23
-0.1857142857
0
ENDBLK
5
23E
100
AcDbEntity
8
0
6
BYBLOCK
62
0
100
AcDbBlockEnd
0
ENDSEC
0
SECTION
2
ENTITIES
0
DIMENSION
5
23F
100
AcDbEntity
8
0
100
AcDbDimension
62
2
6
CONTINUOUS
2
*D0
10
129.4609137056
20
232.1164862098
11
99.3979879619
21
234.7414862098
70
160
42
60.000000
1
%%c<>
3
DIMSTYLE_1
100
AcDbAlignedDimension
13
69.4609137056
23
208.6783248731
14
129.4609137056
24
208.6783248731
100
AcDbRotatedDimension
0
DIMENSION
5
240
100
AcDbEntity
8
0
100
AcDbDimension
62
2
6
CONTINUOUS
2
*D1
10
148.2256769716
20
166.4883248731
11
145.6006769716
21
158.7180125961
70
160
42
3.500000
3
DIMSTYLE_2
100
AcDbAlignedDimension
13
125.4468120904
23
169.9883248731
14
111.5447021052
24
166.4883248731
50
270.000000
100
AcDbRotatedDimension
0
DIMENSION
5
241
100
AcDbEntity
8
0
100
AcDbDimension
62
2
6
CONTINUOUS
2
*D2
10
148.2256769716
20
169.9883248731
11
145.6006769716
21
186.1863889597
70
160
42
39.500000
3
DIMSTYLE_1
100
AcDbAlignedDimension
13
111.4609137056
23
209.4883248731
14
125.4468120904
24
169.9883248731
50
270.000000
100
AcDbRotatedDimension
0
DIMENSION
5
242
100
AcDbEntity
8
0
100
AcDbDimension
62
2
6
CONTINUOUS
2
*D3
10
109.2109137056
20
220.7271420824
11
99.1541956602
21
223.3521420824
70
160
42
19.500000
1
%%c<>
3
DIMSTYLE_3
100
AcDbAlignedDimension
13
89.7109137056
23
209.4883248731
14
109.2109137056
24
209.4883248731
100
AcDbRotatedDimension
0
DIMENSION
5
243
100
AcDbEntity
8
0
100
AcDbDimension
62
2
6
CONTINUOUS
2
*D4
10
134.4609137056
20
150.8948873082
11
100.0453296839
21
153.5198873082
70
160
42
70.000000
1
%%c<>
3
DIMSTYLE_1
100
AcDbAlignedDimension
13
64.4609137056
23
167.9883248731
14
134.4609137056
24
167.9883248731
100
AcDbRotatedDimension
0
MTEXT
5
244
100
AcDbEntity
8
0
100
AcDbMText
62
2
6
CONTINUOUS
7
STANDARD
71
1
72
1
10
85.2166125727
20
141.9816114361
30
0.0000000000
11
1.0000000000
21
0.0000000000
31
0.0000000000
1
SEZIONE A-A
40
3.5000000000
41
27.5005500000
0
LINE
5
245
100
AcDbEntity
8
0
100
AcDbLine
62
2
6
CONTINUOUS
10
69.4609137056
20
207.8279961945
11
70.1212423841
21
208.4883248731
0
LINE
5
246
100
AcDbEntity
8
0
100
AcDbLine
62
7
6
CONTINUOUS
10
64.4609137056
20
168.9883248731
11
64.4609137056
21
168.4883248731
0
LINE
5
247
100
AcDbEntity
8
0
100
AcDbLine
62
2
6
CONTINUOUS
10
69.4609137056
20
204.9995690698
11
72.9496695089
21
208.4883248731
0
LINE
5
248
100
AcDbEntity
8
0
100
AcDbLine
62
7
6
CONTINUOUS
10
69.4609137056
20
208.1783248731
11
69.4609137056
21
203.5083248731
0
LINE
5
249
100
AcDbEntity
8
0
100
AcDbLine
62
7
6
CONTINUOUS
10
69.4609137056
20
199.6483248731
11
69.4609137056
21
192.2183248731
0
LINE
5
24A
100
AcDbEntity
8
0
100
AcDbLine
62
7
6
CONTINUOUS
10
69.4609137056
20
188.3483248731
11
69.4609137056
21
180.9183248731
0
LINE
5
24B
100
AcDbEntity
8
0
100
AcDbLine
62
7
6
CONTINUOUS
10
69.4609137056
20
177.0483248731
11
69.4609137056
21
171.9983248731
0
LINE
5
24C
100
AcDbEntity
8
0
100
AcDbLine
62
2
6
CONTINUOUS
10
69.9609137056
20
202.6711419450
11
75.7780966336
21
208.4883248731
0
LINE
5
24D
100
AcDbEntity
8
0
100
AcDbLine
62
7
6
CONTINUOUS
10
69.9609137056
20
203.5083248731
11
69.9609137056
21
199.6483248731
0
LINE
5
24E
100
AcDbEntity
8
0
100
AcDbLine
62
7
6
CONTINUOUS
10
69.9609137056
20
192.2183248731
11
69.9609137056
21
188.3483248731
0
LINE
5
24F
100
AcDbEntity
8
0
100
AcDbLine
62
7
6
CONTINUOUS
10
69.9609137056
20
180.9183248731
11
69.9609137056
21
177.0483248731
0
LINE
5
250
100
AcDbEntity
8
0
100
AcDbLine
62
7
6
CONTINUOUS
10
69.9609137056
20
171.9983248731
11
69.9609137056
21
169.9883248731
0
LINE
5
251
100
AcDbEntity
8
0
100
AcDbLine
62
2
6
CONTINUOUS
10
69.4609137056
20
199.3427148203
11
69.7665237584
21
199.6483248731
0
LINE
5
252
100
AcDbEntity
8
0
100
AcDbLine
62
2
6
CONTINUOUS
10
69.9609137056
20
199.8427148203
11
78.6065237584
21
208.4883248731
0
LINE
5
253
100
AcDbEntity
8
0
100
AcDbLine
62
2
6
CONTINUOUS
10
69.4609137056
20
196.5142876955
11
81.4349508831
21
208.4883248731
0
LINE
5
254
100
AcDbEntity
8
0
100
AcDbLine
62
2
6
CONTINUOUS
10
69.4609137056
20
193.6858605708
11
84.2633780079
21
208.4883248731
0
LINE
5
255
100
AcDbEntity
8
0
100
AcDbLine
62
7
6
CONTINUOUS
10
87.9609137056
20
209.4883248731
11
87.4609137056
21
208.9883248731
0
LINE
5
256
100
AcDbEntity
8
0
100
AcDbLine
62
2
6
CONTINUOUS
10
69.9609137056
20
191.3574334461
11
87.0918051326
21
208.4883248731
0
LINE
5
257
100
AcDbEntity
8
0
100
AcDbLine
62
2
6
CONTINUOUS
10
87.4609137056
20
208.8574334461
11
88.0918051326
21
209.4883248731
0
LINE
5
258
100
AcDbEntity
8
0
100
AcDbLine
62
2
6
CONTINUOUS
10
69.4609137056
20
188.0290063213
11
69.7802322574
21
188.3483248731
0
LINE
5
259
100
AcDbEntity
8
0
100
AcDbLine
62
2
6
CONTINUOUS
10
69.9609137056
20
188.5290063213
11
89.7109137056
21
208.2790063213
0
LINE
5
25A
100
AcDbEntity
8
0
100
AcDbLine
62
2
6
CONTINUOUS
10
69.4609137056
20
185.2005791966
11
89.7109137056
21
205.4505791966
0
LINE
5
25B
100
AcDbEntity
8
0
100
AcDbLine
62
7
6
CONTINUOUS
10
111.4909137056
20
166.4883248731
11
87.4309137056
21
166.4883248731
0
LINE
5
25C
100
AcDbEntity
8
0
100
AcDbLine
62
7
6
CONTINUOUS
10
109.2109137056
20
166.9883248731
11
89.7109137056
21
166.9883248731
0
LINE
5
25D
100
AcDbEntity
8
0
100
AcDbLine
62
7
6
CONTINUOUS
10
133.9609137056
20
167.9883248731
11
111.6632452513
21
167.9883248731
0
LINE
5
25E
100
AcDbEntity
8
0
100
AcDbLine
62
7
6
CONTINUOUS
10
87.2585821599
20
167.9883248731
11
64.9609137056
21
167.9883248731
0
LINE
5
25F
100
AcDbEntity
8
0
100
AcDbLine
62
7
6
CONTINUOUS
10
126.6788628980
20
168.9883248731
11
112.2612976911
21
168.9883248731
0
LINE
5
260
100
AcDbEntity
8
0
100
AcDbLine
62
7
6
CONTINUOUS
10
86.6605297201
20
168.9883248731
11
72.2429645132
21
168.9883248731
0
LINE
5
261
100
AcDbEntity
8
0
100
AcDbLine
62
2
6
CONTINUOUS
10
69.4609137056
20
182.3721520718
11
89.7109137056
21
202.6221520718
0
LINE
5
262
100
AcDbEntity
8
0
100
AcDbLine
62
7
6
CONTINUOUS
10
133.4609137056
20
169.9883248731
11
128.9609137056
21
169.9883248731
0
LINE
5
263
100
AcDbEntity
8
0
100
AcDbLine
62
7
6
CONTINUOUS
10
124.9468120904
20
169.9883248731
11
114.4909137056
21
169.9883248731
0
LINE
5
264
100
AcDbEntity
8
0
100
AcDbLine
62
7
6
CONTINUOUS
10
84.4309137056
20
169.9883248731
11
73.9750153207
21
169.9883248731
0
LINE
5
265
100
AcDbEntity
8
0
100
AcDbLine
62
7
6
CONTINUOUS
10
69.9609137056
20
169.9883248731
11
65.4609137056
21
169.9883248731
0
LINE
5
266
100
AcDbEntity
8
0
100
AcDbLine
62
2
6
CONTINUOUS
10
69.9609137056
20
180.0437249471
11
89.7109137056
21
199.7937249471
0
LINE
5
267
100
AcDbEntity
8
0
100
AcDbLine
62
7
6
CONTINUOUS
10
129.4609137056
20
171.9983248731
11
128.9609137056
21
171.9983248731
0
LINE
5
268
100
AcDbEntity
8
0
100
AcDbLine
62
7
6
CONTINUOUS
10
69.9609137056
20
171.9983248731
11
69.4609137056
21
171.9983248731
0
LINE
5
269
100
AcDbEntity
8
0
100
AcDbLine
62
7
6
CONTINUOUS
10
87.4309137056
20
166.9883248731
11
87.4309137056
21
166.4883248731
0
LINE
5
26A
100
AcDbEntity
8
0
100
AcDbLine
62
7
6
CONTINUOUS
10
87.4609137056
20
208.9883248731
11
87.4609137056
21
208.4883248731
0
LINE
5
26B
100
AcDbEntity
8
0
100
AcDbLine
62
2
6
CONTINUOUS
10
69.4609137056
20
176.7152978223
11
69.7939407564
21
177.0483248731
0
LINE
5
26C
100
AcDbEntity
8
0
100
AcDbLine
62
2
6
CONTINUOUS
10
69.9609137056
20
177.2152978223
11
89.7109137056
21
196.9652978223
0
LINE
5
26D
100
AcDbEntity
8
0
100
AcDbLine
62
2
6
CONTINUOUS
10
64.4609137056
20
168.8868706976
11
65.5623678811
21
169.9883248731
0
LINE
5
26E
100
AcDbEntity
8
0
100
AcDbLine
62
2
6
CONTINUOUS
10
69.4609137056
20
173.8868706976
11
89.7109137056
21
194.1368706976
0
LINE
5
26F
100
AcDbEntity
8
0
100
AcDbLine
62
7
6
CONTINUOUS
10
129.4609137056
20
177.0483248731
11
128.9609137056
21
177.0483248731
0
LINE
5
270
100
AcDbEntity
8
0
100
AcDbLine
62
7
6
CONTINUOUS
10
69.9609137056
20
177.0483248731
11
69.4609137056
21
177.0483248731
0
LINE
5
271
100
AcDbEntity
8
0
100
AcDbLine
62
7
6
CONTINUOUS
10
89.7109137056
20
208.9883248731
11
89.7109137056
21
166.9883248731
0
LINE
5
272
100
AcDbEntity
8
0
100
AcDbLine
62
2
6
CONTINUOUS
10
66.3907950058
20
167.9883248731
11
68.3907950058
21
169.9883248731
0
LINE
5
273
100
AcDbEntity
8
0
100
AcDbLine
62
2
6
CONTINUOUS
10
69.9609137056
20
171.5584435728
11
89.7109137056
21
191.3084435728
0
LINE
5
274
100
AcDbEntity
8
0
100
AcDbLine
62
7
6
CONTINUOUS
10
109.7109137056
20
209.4883248731
11
109.2109137056
21
208.9883248731
0
LINE
5
275
100
AcDbEntity
8
0
100
AcDbLine
62
7
6
CONTINUOUS
10
109.2109137056
20
166.9883248731
11
109.7109137056
21
166.4883248731
0
LINE
5
276
100
AcDbEntity
8
0
100
AcDbLine
62
2
6
CONTINUOUS
10
69.2192221306
20
167.9883248731
11
89.7109137056
21
188.4800164481
0
LINE
5
277
100
AcDbEntity
8
0
100
AcDbLine
62
2
6
CONTINUOUS
10
109.2109137056
20
207.9800164481
11
110.7192221306
21
209.4883248731
0
LINE
5
278
100
AcDbEntity
8
0
100
AcDbLine
62
2
6
CONTINUOUS
10
74.0476492553
20
169.9883248731
11
89.7109137056
21
185.6515893233
0
LINE
5
279
100
AcDbEntity
8
0
100
AcDbLine
62
2
6
CONTINUOUS
10
109.2109137056
20
205.1515893233
11
112.5476492553
21
208.4883248731
0
LINE
5
27A
100
AcDbEntity
8
0
100
AcDbLine
62
7
6
CONTINUOUS
10
129.4609137056
20
180.9183248731
11
128.9609137056
21
180.9183248731
0
LINE
5
27B
100
AcDbEntity
8
0
100
AcDbLine
62
7
6
CONTINUOUS
10
69.9609137056
20
180.9183248731
11
69.4609137056
21
180.9183248731
0
LINE
5
27C
100
AcDbEntity
8
0
100
AcDbLine
62
2
6
CONTINUOUS
10
76.8760763801
20
169.9883248731
11
89.7109137056
21
182.8231621986
0
LINE
5
27D
100
AcDbEntity
8
0
100
AcDbLine
62
2
6
CONTINUOUS
10
109.2109137056
20
202.3231621986
11
115.3760763801
21
208.4883248731
0
LINE
5
27E
100
AcDbEntity
8
DEFAULT_1
100
AcDbLine
62
2
6
CENTER
10
99.4609137056
20
212.4883248731
11
99.4609137056
21
163.4883248731
0
LINE
5
27F
100
AcDbEntity
8
0
100
AcDbLine
62
2
6
CONTINUOUS
10
79.7045035048
20
169.9883248731
11
89.7109137056
21
179.9947350738
0
LINE
5
280
100
AcDbEntity
8
0
100
AcDbLine
62
2
6
CONTINUOUS
10
109.2109137056
20
199.4947350738
11
118.2045035048
21
208.4883248731
0
LINE
5
281
100
AcDbEntity
8
0
100
AcDbLine
62
7
6
CONTINUOUS
10
129.4609137056
20
188.3483248731
11
128.9609137056
21
188.3483248731
0
LINE
5
282
100
AcDbEntity
8
0
100
AcDbLine
62
7
6
CONTINUOUS
10
69.9609137056
20
188.3483248731
11
69.4609137056
21
188.3483248731
0
LINE
5
283
100
AcDbEntity
8
0
100
AcDbLine
62
2
6
CONTINUOUS
10
82.5329306296
20
169.9883248731
11
89.7109137056
21
177.1663079491
0
LINE
5
284
100
AcDbEntity
8
0
100
AcDbLine
62
2
6
CONTINUOUS
10
109.2109137056
20
196.6663079491
11
121.0329306296
21
208.4883248731
0
LINE
5
285
100
AcDbEntity
8
0
100
AcDbLine
62
2
6
CONTINUOUS
10
85.2441038589
20
169.8710709777
11
89.7109137056
21
174.3378808244
0
LINE
5
286
100
AcDbEntity
8
0
100
AcDbLine
62
2
6
CONTINUOUS
10
109.2109137056
20
193.8378808244
11
123.8613577543
21
208.4883248731
0
LINE
5
287
100
AcDbEntity
8
0
100
AcDbLine
62
2
6
CONTINUOUS
10
86.8941405728
20
168.6926805669
11
89.7109137056
21
171.5094536996
0
LINE
5
288
100
AcDbEntity
8
0
100
AcDbLine
62
2
6
CONTINUOUS
10
109.2109137056
20
191.0094536996
11
126.6897848791
21
208.4883248731
0
LINE
5
289
100
AcDbEntity
8
0
100
AcDbLine
62
7
6
CONTINUOUS
10
129.4609137056
20
192.2183248731
11
128.9609137056
21
192.2183248731
0
LINE
5
28A
100
AcDbEntity
8
0
100
AcDbLine
62
7
6
CONTINUOUS
10
69.9609137056
20
192.2183248731
11
69.4609137056
21
192.2183248731
0
LINE
5
28B
100
AcDbEntity
8
0
100
AcDbLine
62
2
6
CONTINUOUS
10
87.5182120038
20
166.4883248731
11
89.7109137056
21
168.6810265749
0
LINE
5
28C
100
AcDbEntity
8
0
100
AcDbLine
62
2
6
CONTINUOUS
10
109.2109137056
20
188.1810265749
11
129.3958634113
21
208.3659762805
0
LINE
5
28D
100
AcDbEntity
8
0
100
AcDbLine
62
7
6
CONTINUOUS
10
89.7109137056
20
166.9883248731
11
89.2109137056
21
166.4883248731
0
LINE
5
28E
100
AcDbEntity
8
0
100
AcDbLine
62
7
6
CONTINUOUS
10
89.2109137056
20
209.4883248731
11
89.7109137056
21
208.9883248731
0
LINE
5
28F
100
AcDbEntity
8
0
100
AcDbLine
62
7
6
CONTINUOUS
10
109.2109137056
20
208.9883248731
11
109.2109137056
21
166.9883248731
0
LINE
5
290
100
AcDbEntity
8
0
100
AcDbLine
62
2
6
CONTINUOUS
10
109.2109137056
20
185.3525994501
11
129.4609137056
21
205.6025994501
0
LINE
5
291
100
AcDbEntity
8
0
100
AcDbLine
62
2
6
CONTINUOUS
10
109.2109137056
20
182.5241723254
11
128.9609137056
21
202.2741723254
0
LINE
5
292
100
AcDbEntity
8
0
100
AcDbLine
62
7
6
CONTINUOUS
10
111.4609137056
20
208.9883248731
11
111.4609137056
21
208.4883248731
0
LINE
5
293
100
AcDbEntity
8
0
100
AcDbLine
62
7
6
CONTINUOUS
10
111.4909137056
20
166.9883248731
11
111.4909137056
21
166.4883248731
0
LINE
5
294
100
AcDbEntity
8
0
100
AcDbLine
62
2
6
CONTINUOUS
10
109.2109137056
20
179.6957452006
11
129.1634933781
21
199.6483248731
0
LINE
5
295
100
AcDbEntity
8
0
100
AcDbLine
62
7
6
CONTINUOUS
10
129.4609137056
20
199.6483248731
11
128.9609137056
21
199.6483248731
0
LINE
5
296
100
AcDbEntity
8
0
100
AcDbLine
62
7
6
CONTINUOUS
10
69.9609137056
20
199.6483248731
11
69.4609137056
21
199.6483248731
0
LINE
5
297
100
AcDbEntity
8
0
100
AcDbLine
62
2
6
CONTINUOUS
10
109.2109137056
20
176.8673180759
11
129.4609137056
21
197.1173180759
0
LINE
5
298
100
AcDbEntity
8
0
100
AcDbLine
62
2
6
CONTINUOUS
10
109.2109137056
20
174.0388909511
11
129.4609137056
21
194.2888909511
0
LINE
5
299
100
AcDbEntity
8
0
100
AcDbLine
62
7
6
CONTINUOUS
10
129.4609137056
20
203.5083248731
11
128.9609137056
21
203.5083248731
0
LINE
5
29A
100
AcDbEntity
8
0
100
AcDbLine
62
7
6
CONTINUOUS
10
69.9609137056
20
203.5083248731
11
69.4609137056
21
203.5083248731
0
LINE
5
29B
100
AcDbEntity
8
0
100
AcDbLine
62
2
6
CONTINUOUS
10
109.2109137056
20
171.2104638264
11
128.9609137056
21
190.9604638264
0
LINE
5
29C
100
AcDbEntity
8
0
100
AcDbLine
62
2
6
CONTINUOUS
10
109.2109137056
20
168.3820367016
11
129.1772018770
21
188.3483248731
0
LINE
5
29D
100
AcDbEntity
8
0
100
AcDbLine
62
7
6
CONTINUOUS
10
129.1509137056
20
208.4883248731
11
111.4609137056
21
208.4883248731
0
LINE
5
29E
100
AcDbEntity
8
0
100
AcDbLine
62
7
6
CONTINUOUS
10
87.4609137056
20
208.4883248731
11
69.7709137056
21
208.4883248731
0
LINE
5
29F
100
AcDbEntity
8
0
100
AcDbLine
62
7
6
CONTINUOUS
10
109.2109137056
20
208.9883248731
11
89.7109137056
21
208.9883248731
0
LINE
5
2A0
100
AcDbEntity
8
0
100
AcDbLine
62
7
6
CONTINUOUS
10
110.9609137056
20
209.4883248731
11
87.9609137056
21
209.4883248731
0
LINE
5
2A1
100
AcDbEntity
8
0
100
AcDbLine
62
2
6
CONTINUOUS
10
110.1456290018
20
166.4883248731
11
111.6756701694
21
168.0183660407
0
LINE
5
2A2
100
AcDbEntity
8
0
100
AcDbLine
62
2
6
CONTINUOUS
10
113.4608725380
20
169.8035684093
11
129.4609137056
21
185.8036095769
0
LINE
5
2A3
100
AcDbEntity
8
0
100
AcDbLine
62
2
6
CONTINUOUS
10
116.4740561265
20
169.9883248731
11
129.4609137056
21
182.9751824521
0
LINE
5
2A4
100
AcDbEntity
8
0
100
AcDbLine
62
7
6
CONTINUOUS
10
110.9609137056
20
209.4883248731
11
111.4609137056
21
208.9883248731
0
LINE
5
2A5
100
AcDbEntity
8
0
100
AcDbLine
62
2
6
CONTINUOUS
10
119.3024832513
20
169.9883248731
11
128.9609137056
21
179.6467553274
0
LINE
5
2A6
100
AcDbEntity
8
0
100
AcDbLine
62
7
6
CONTINUOUS
10
128.9609137056
20
203.5083248731
11
128.9609137056
21
199.6483248731
0
LINE
5
2A7
100
AcDbEntity
8
0
100
AcDbLine
62
7
6
CONTINUOUS
10
128.9609137056
20
192.2183248731
11
128.9609137056
21
188.3483248731
0
LINE
5
2A8
100
AcDbEntity
8
0
100
AcDbLine
62
7
6
CONTINUOUS
10
128.9609137056
20
180.9183248731
11
128.9609137056
21
177.0483248731
0
LINE
5
2A9
100
AcDbEntity
8
0
100
AcDbLine
62
7
6
CONTINUOUS
10
128.9609137056
20
171.9983248731
11
128.9609137056
21
169.9883248731
0
LINE
5
2AA
100
AcDbEntity
8
0
100
AcDbLine
62
7
6
CONTINUOUS
10
129.4609137056
20
208.1783248731
11
129.4609137056
21
203.5083248731
0
LINE
5
2AB
100
AcDbEntity
8
0
100
AcDbLine
62
7
6
CONTINUOUS
10
129.4609137056
20
199.6483248731
11
129.4609137056
21
192.2183248731
0
LINE
5
2AC
100
AcDbEntity
8
0
100
AcDbLine
62
7
6
CONTINUOUS
10
129.4609137056
20
188.3483248731
11
129.4609137056
21
180.9183248731
0
LINE
5
2AD
100
AcDbEntity
8
0
100
AcDbLine
62
7
6
CONTINUOUS
10
129.4609137056
20
177.0483248731
11
129.4609137056
21
171.9983248731
0
LINE
5
2AE
100
AcDbEntity
8
0
100
AcDbLine
62
2
6
CONTINUOUS
10
122.1309103760
20
169.9883248731
11
129.1909103760
21
177.0483248731
0
LINE
5
2AF
100
AcDbEntity
8
0
100
AcDbLine
62
2
6
CONTINUOUS
10
124.9585517760
20
169.9875391483
11
129.4609137056
21
174.4899010779
0
LINE
5
2B0
100
AcDbEntity
8
0
100
AcDbLine
62
2
6
CONTINUOUS
10
126.7225608735
20
168.9231211210
11
128.9609137056
21
171.1614739532
0
LINE
5
2B1
100
AcDbEntity
8
0
100
AcDbLine
62
7
6
CONTINUOUS
10
134.4609137056
20
168.9883248731
11
134.4609137056
21
168.4883248731
0
LINE
5
2B2
100
AcDbEntity
8
0
100
AcDbLine
62
2
6
CONTINUOUS
10
128.6161917503
20
167.9883248731
11
130.6161917503
21
169.9883248731
0
LINE
5
2B3
100
AcDbEntity
8
0
100
AcDbLine
62
2
6
CONTINUOUS
10
131.4446188750
20
167.9883248731
11
133.4446188750
21
169.9883248731
0
ARC
5
2B4
100
AcDbEntity
8
0
100
AcDbCircle
62
7
6
CONTINUOUS
10
129.1509137056
20
208.1783248731
40
0.3100000000
100
AcDbArc
50
0.0000000000
51
90.0000000000
0
ARC
5
2B5
100
AcDbEntity
8
0
100
AcDbCircle
62
7
6
CONTINUOUS
10
69.7709137056
20
208.1783248731
40
0.3100000000
100
AcDbArc
50
90.0000000000
51
180.0000000000
0
ARC
5
2B6
100
AcDbEntity
8
0
100
AcDbCircle
62
7
6
CONTINUOUS
10
114.4909137056
20
166.9883248731
40
3.0000000000
100
AcDbArc
50
90.0000000000
51
180.0000000000
0
ARC
5
2B7
100
AcDbEntity
8
0
100
AcDbCircle
62
7
6
CONTINUOUS
10
133.4609137056
20
168.9883248731
40
1.0000000000
100
AcDbArc
50
0.0000000000
51
90.0000000000
0
ARC
5
2B8
100
AcDbEntity
8
0
100
AcDbCircle
62
7
6
CONTINUOUS
10
65.4609137056
20
168.9883248731
40
1.0000000000
100
AcDbArc
50
90.0000000000
51
180.0000000000
0
ARC
5
2B9
100
AcDbEntity
8
0
100
AcDbCircle
62
7
6
CONTINUOUS
10
133.9609137056
20
168.4883248731
40
0.5000000000
100
AcDbArc
50
270.0000000000
51
360.0000000000
0
ARC
5
2BA
100
AcDbEntity
8
0
100
AcDbCircle
62
7
6
CONTINUOUS
10
64.9609137056
20
168.4883248731
40
0.5000000000
100
AcDbArc
50
180.0000000000
51
270.0000000000
0
ARC
5
2BB
100
AcDbEntity
8
0
100
AcDbCircle
62
7
6
CONTINUOUS
10
128.4109137056
20
169.9883248731
40
2.0000000000
100
AcDbArc
50
210.0000000000
51
270.0000000000
0
ARC
5
2BC
100
AcDbEntity
8
0
100
AcDbCircle
62
7
6
CONTINUOUS
10
70.5109137056
20
169.9883248731
40
2.0000000000
100
AcDbArc
50
270.0000000000
51
330.0000000000
0
ARC
5
2BD
100
AcDbEntity
8
0
100
AcDbCircle
62
7
6
CONTINUOUS
10
124.9468120904
20
167.9883248731
40
2.0000000000
100
AcDbArc
50
30.0000000000
51
90.0000000000
0
ARC
5
2BE
100
AcDbEntity
8
0
100
AcDbCircle
62
7
6
CONTINUOUS
10
73.9750153207
20
167.9883248731
40
2.0000000000
100
AcDbArc
50
90.0000000000
51
150.0000000000
0
ARC
5
2BF
100
AcDbEntity
8
0
100
AcDbCircle
62
7
6
CONTINUOUS
10
84.4309137056
20
166.9883248731
40
3.0000000000
100
AcDbArc
50
0.0000000000
51
90.0000000000
0
ENDSEC
0
SECTION
2
OBJECTS
0
DICTIONARY
5
C
100
AcDbDictionary
280
0
281
1
3
ACAD_GROUP
350
D
3
ACAD_MLINESTYLE
350
17
3
ACAD_LAYOUT
350
1A
3
ACAD_PLOTSETTINGS
350
19
3
ACAD_PLOTSTYLENAME
350
E
0
DICTIONARY
5
D
102
{ACAD_REACTORS
330
C
102
}
100
AcDbDictionary
280
0
281
1
0
ACDBDICTIONARYWDFLT
5
E
102
{ACAD_REACTORS
330
C
102
}
100
AcDbDictionary
281
1
3
Normal
350
F
100
AcDbDictionaryWithDefault
340
F
0
DICTIONARY
5
17
102
{ACAD_REACTORS
330
C
102
}
100
AcDbDictionary
280
0
281
1
3
Standard
350
18
0
DICTIONARY
5
19
102
{ACAD_REACTORS
330
C
102
}
100
AcDbDictionary
281
1
0
DICTIONARY
5
1A
102
{ACAD_REACTORS
330
C
102
}
100
AcDbDictionary
281
1
3
Layout1
350
1E
3
Model
350
22
0
ACDBPLACEHOLDER
5
F
102
{ACAD_REACTORS
330
E
102
}
0
MLINESTYLE
5
18
102
{ACAD_REACTORS
330
17
102
}
100
AcDbMlineStyle
2
STANDARD
70
0
3

62
256
51
90.0
52
90.0
71
2
49
0.5
62
256
6
BYLAYER
49
-0.5
62
256
6
BYLAYER
0
LAYOUT
5
1E
102
{ACAD_REACTORS
330
1A
102
}
100
AcDbPlotSettings
1

2

4

6

40
0.0
41
0.0
42
0.0
43
0.0
44
0.0
45
0.0
46
0.0
47
0.0
48
0.0
49
0.0
140
0.0
141
0.0
142
1.0
143
1.0
70
0
72
0
73
0
74
0
7

75
0
147
1.0
148
0.0
149
0.0
100
AcDbLayout
1
Layout1
70
0
71
0
10
0.0
20
0.0
11
0.0
21
0.0
12
0.0
22
0.0
32
0.0
14
0.0
24
0.0
34
0.0
15
0.0
25
0.0
35
0.0
146
0.0
13
0.0
23
0.0
33
0.0
16
0.0
26
0.0
36
0.0
17
0.0
27
0.0
37
0.0
76
0
330
1B
331
0
345
0
346
0
0
LAYOUT
5
22
102
{ACAD_REACTORS
330
1A
102
}
100
AcDbPlotSettings
1

2

4

6

40
0.0
41
0.0
42
0.0
43
0.0
44
0.0
45
0.0
46
0.0
47
0.0
48
0.0
49
0.0
140
0.0
141
0.0
142
1.0
143
1.0
70
0
72
0
73
0
74
0
7

75
0
147
1.0
148
0.0
149
0.0
100
AcDbLayout
1
Model
70
0
71
0
10
0.0
20
0.0
11
0.0
21
0.0
12
0.0
22
0.0
32
0.0
14
0.0
24
0.0
34
0.0
15
0.0
25
0.0
35
0.0
146
0.0
13
0.0
23
0.0
33
0.0
16
0.0
26
0.0
36
0.0
17
0.0
27
0.0
37
0.0
76
0
330
1F
331
0
345
0
346
0
0
ENDSEC
0
EOF
