999
DXF file: 692952.dxf
999
Pro/ENGINEER 2005310 by Parametric Technology Corporation
0
SECTION
2
HEADER
9
$ACADVER
1
AC1015
9
$DWGCODEPAGE
3
ANSI_1252
9
$EXTMAX
10
297.0000000000
20
210.0000000000
30
0.0000000000
9
$EXTMIN
10
0.0000000000
20
0.0000000000
30
0.0000000000
9
$LIMMIN
10
0.0000000000
20
0.0000000000
9
$LIMMAX
10
297.0000000000
20
210.0000000000
9
$VIEWCTR
10
148.5000000000
20
105.0000000000
9
$VIEWSIZE
40
210.0000000000
9
$CLAYER
8
0
9
$LTSCALE
40
16.3350000000
9
$CELTYPE
6
BYLAYER
9
$DIMSCALE
40
1
9
$DIMASZ
40
3.5000000000
9
$DIMEXO
40
1.8562500000
9
$DIMDLI
40
11.2860000000
9
$DIMEXE
40
5.3460000000
9
$DIMCEN
40
2.6730000000
9
$DIMLFAC
40
1.0000000000
9
$DIMBLK
1
_FILLED
9
$DIMTXT
40
3.5000000000
9
$DIMTOL
70
1
9
$DIMLIM
70
0
9
$DIMTFAC
40
1.0000000000
9
$DIMTP
40
0.0010000000
9
$DIMTM
40
0.0010000000
9
$PDMODE
70
3
9
$PDSIZE
40
0.3125000000
9
$HANDSEED
5
2C1
9
$MEASUREMENT
70
1
9
$INSUNITS
70
4
0
ENDSEC
0
SECTION
2
CLASSES
0
CLASS
1
ACDBDICTIONARYWDFLT
2
AcDbDictionaryWithDefault
3
AutoCAD 2000
90
0
280
0
281
0
0
CLASS
1
ACDBPLACEHOLDER
2
AcDbPlaceHolder
3
AutoCAD 2000
90
0
280
0
281
0
0
CLASS
1
LAYOUT
2
AcDbLayout
3
AutoCAD 2000
90
0
280
0
281
0
0
ENDSEC
0
SECTION
2
TABLES
0
TABLE
2
VPORT
5
8
100
AcDbSymbolTable
70
2
0
VPORT
5
1F4
100
AcDbSymbolTableRecord
100
AcDbViewportTableRecord
2
*ACTIVE
70
0
10
0.0
20
0.0
11
1.0
21
1.0
12
148.5000000000
22
105.0000000000
13
0.0
23
0.0
14
1.0
24
1.0
15
0.0
25
0.0
16
0.0
26
0.0
36
1.0
17
0.0
27
0.0
37
0.0
40
210.0000000000
41
1.4142857143
42
50.0
43
0.0
44
0.0
50
0.0
51
0.0
71
0
72
100
73
1
74
1
75
0
76
0
77
0
78
0
0
ENDTAB
0
TABLE
2
LTYPE
5
5
100
AcDbSymbolTable
70
6
0
LTYPE
5
14
100
AcDbSymbolTableRecord
100
AcDbLinetypeTableRecord
2
BYBLOCK
70
0
3

72
65
73
0
40
0.0
0
LTYPE
5
15
100
AcDbSymbolTableRecord
100
AcDbLinetypeTableRecord
2
BYLAYER
70
0
3

72
65
73
0
40
0.0
0
LTYPE
5
16
100
AcDbSymbolTableRecord
100
AcDbLinetypeTableRecord
2
CONTINUOUS
70
64
3
Solid line
72
65
73
0
40
0
0
LTYPE
5
1F5
100
AcDbSymbolTableRecord
100
AcDbLinetypeTableRecord
2
CENTER
70
64
3
____ _ ____ _ ____ _ ____ _ ____ _ ____ _ ____
72
65
73
4
40
0.6
49
0.375
74
0
49
-0.075
74
0
49
0.075
74
0
49
-0.075
74
0
0
LTYPE
5
1F6
100
AcDbSymbolTableRecord
100
AcDbLinetypeTableRecord
2
HIDDEN
70
64
3
- - - - - - - - - - - - - - - - - - - -
72
65
73
2
40
0.2
49
0.1
74
0
49
-0.1
74
0
0
LTYPE
5
1F7
100
AcDbSymbolTableRecord
100
AcDbLinetypeTableRecord
2
PHANTOM
70
64
3
_____ _ _ _____ _ _ _____ _ _ _____
72
65
73
6
40
0.8
49
0.45
74
0
49
-0.05
74
0
49
0.1
74
0
49
-0.05
74
0
49
0.1
74
0
49
-0.05
74
0
0
LTYPE
5
1F8
100
AcDbSymbolTableRecord
100
AcDbLinetypeTableRecord
2
DOT
70
64
3
. . . . . . . . . . . . . . . . . . . .
72
65
73
2
40
0.2
49
0.1
74
0
49
-0.1
74
0
0
LTYPE
5
1F9
100
AcDbSymbolTableRecord
100
AcDbLinetypeTableRecord
2
DASHED
70
64
3
- - - - - - - - - - - - - - - - - - - -
72
65
73
2
40
0.2
49
0.1
74
0
49
-0.1
74
0
0
ENDTAB
0
TABLE
2
LAYER
5
2
100
AcDbSymbolTable
70
36
0
LAYER
5
10
100
AcDbSymbolTableRecord
100
AcDbLayerTableRecord
2
0
70
0
62
7
6
CONTINUOUS
370
-3
390
F
0
LAYER
5
1FA
100
AcDbSymbolTableRecord
100
AcDbLayerTableRecord
2
DEFAULT_1
70
0
62
7
6
CENTER
370
-3
390
F
0
LAYER
5
1FB
100
AcDbSymbolTableRecord
100
AcDbLayerTableRecord
2
DEFAULT_2
70
0
62
8
6
HIDDEN
370
-3
390
F
0
LAYER
5
1FC
100
AcDbSymbolTableRecord
100
AcDbLayerTableRecord
2
DEFAULT_3
70
0
62
7
6
PHANTOM
370
-3
390
F
0
LAYER
5
1FD
100
AcDbSymbolTableRecord
100
AcDbLayerTableRecord
2
_2D_DELETED_OBJS
70
0
62
7
6
CONTINUOUS
370
-3
390
F
0
LAYER
5
1FE
100
AcDbSymbolTableRecord
100
AcDbLayerTableRecord
2
ASSI
70
0
62
7
6
CONTINUOUS
370
-3
390
F
0
LAYER
5
1FF
100
AcDbSymbolTableRecord
100
AcDbLayerTableRecord
2
PIANI
70
0
62
7
6
CONTINUOUS
370
-3
390
F
0
LAYER
5
200
100
AcDbSymbolTableRecord
100
AcDbLayerTableRecord
2
SURF_FILETTI
70
0
62
7
6
CONTINUOUS
370
-3
390
F
0
ENDTAB
0
TABLE
2
STYLE
5
3
100
AcDbSymbolTable
70
1
0
STYLE
5
11
100
AcDbSymbolTableRecord
100
AcDbTextStyleTableRecord
2
STANDARD
70
0
40
0.0
41
0.7143000000
50
0.0
71
0
42
0.2
3
txt
4

0
ENDTAB
0
TABLE
2
VIEW
5
6
100
AcDbSymbolTable
70
0
0
ENDTAB
0
TABLE
2
UCS
5
7
100
AcDbSymbolTable
70
0
0
ENDTAB
0
TABLE
2
APPID
5
9
100
AcDbSymbolTable
70
1
0
APPID
5
201
100
AcDbSymbolTableRecord
100
AcDbRegAppTableRecord
2
ACAD
70
0
0
ENDTAB
0
TABLE
2
BLOCK_RECORD
5
1
100
AcDbSymbolTable
70
0
0
BLOCK_RECORD
5
1F
100
AcDbSymbolTableRecord
100
AcDbBlockTableRecord
2
*MODEL_SPACE
0
BLOCK_RECORD
5
1B
100
AcDbSymbolTableRecord
100
AcDbBlockTableRecord
2
*PAPER_SPACE
0
BLOCK_RECORD
5
202
100
AcDbSymbolTableRecord
100
AcDbBlockTableRecord
2
_FILLED
0
BLOCK_RECORD
5
203
100
AcDbSymbolTableRecord
100
AcDbBlockTableRecord
2
*D0
0
BLOCK_RECORD
5
204
100
AcDbSymbolTableRecord
100
AcDbBlockTableRecord
2
*D1
0
BLOCK_RECORD
5
205
100
AcDbSymbolTableRecord
100
AcDbBlockTableRecord
2
*D2
0
BLOCK_RECORD
5
206
100
AcDbSymbolTableRecord
100
AcDbBlockTableRecord
2
*D3
0
ENDTAB
0
TABLE
2
DIMSTYLE
5
A
100
AcDbSymbolTable
70
1
100
AcDbDimStyleTable
71
0
0
DIMSTYLE
105
207
100
AcDbSymbolTableRecord
100
AcDbDimStyleTableRecord
2
STANDARD
70
0
3

4

40
1.0
41
3.5000000000
42
0.0625
43
0.38
44
0.18
45
0.0
46
0.0
47
0.0010000000
48
0.0010000000
140
3.5000000000
141
0.09
142
0.0
143
25.4
144
1.0000000000
145
0.0
146
1.0000000000
147
0.09
71
1
72
0
73
0
74
0
75
0
76
0
77
1
78
8
170
0
171
2
172
0
173
0
174
0
175
0
176
0
177
0
178
0
270
2
271
3
272
3
273
2
274
2
275
0
280
0
281
0
282
0
283
1
284
8
285
0
286
0
287
3
288
0
340
11
341
202
342
202
343
202
344
202
0
DIMSTYLE
105
208
100
AcDbSymbolTableRecord
100
AcDbDimStyleTableRecord
2
DIMSTYLE_1
70
0
3

4

40
1.0
41
3.5000000000
42
0.0625
43
0.38
44
0.18
45
0.0
46
0.0
47
0.1500000000
48
0.1500000000
140
3.5000000000
141
0.09
142
0.0
143
25.4
144
1.0000000000
145
0.0
146
1.0000000000
147
0.09
71
0
72
0
73
0
74
0
75
0
76
0
77
1
78
8
170
0
171
2
172
0
173
0
174
0
175
0
176
0
177
0
178
0
270
2
271
3
272
3
273
2
274
2
275
0
280
0
281
0
282
0
283
1
284
8
285
0
286
0
287
3
288
0
340
11
341
202
342
202
343
202
344
202
0
DIMSTYLE
105
209
100
AcDbSymbolTableRecord
100
AcDbDimStyleTableRecord
2
DIMSTYLE_2
70
0
3

4

40
1.0
41
3.5000000000
42
0.0625
43
0.38
44
0.18
45
0.0
46
0.0
47
0.1000000000
48
0.1000000000
140
3.5000000000
141
0.09
142
0.0
143
25.4
144
1.0000000000
145
0.0
146
1.0000000000
147
0.09
71
0
72
0
73
0
74
0
75
0
76
0
77
1
78
8
170
0
171
2
172
0
173
0
174
0
175
0
176
0
177
0
178
0
270
2
271
3
272
3
273
2
274
2
275
0
280
0
281
0
282
0
283
1
284
8
285
0
286
0
287
3
288
0
340
11
341
202
342
202
343
202
344
202
0
ENDTAB
0
ENDSEC
0
SECTION
2
BLOCKS
0
BLOCK
5
20
100
AcDbEntity
8
0
100
AcDbBlockBegin
2
*MODEL_SPACE
70
0
10
0.0
20
0.0
30
0.0
3
*MODEL_SPACE
1

0
ENDBLK
5
21
100
AcDbEntity
8
0
100
AcDbBlockEnd
0
BLOCK
5
1C
100
AcDbEntity
8
0
100
AcDbBlockBegin
2
*PAPER_SPACE
70
0
10
0.0
20
0.0
30
0.0
3
*PAPER_SPACE
1

0
ENDBLK
5
1D
100
AcDbEntity
8
0
100
AcDbBlockEnd
0
BLOCK
5
20A
100
AcDbEntity
8
0
100
AcDbBlockBegin
62
2
6
CONTINUOUS
2
*D0
70
65
10
0.0000000000
20
0.0000000000
3
*D0
1

0
TEXT
5
20B
100
AcDbEntity
8
0
100
AcDbText
62
2
6
CONTINUOUS
10
172.0114512317
20
52.0769180154
7
STANDARD
40
3.5000000000
1
72
41
0.7143000000
72
0
100
AcDbText
0
LINE
5
20C
100
AcDbEntity
8
0
100
AcDbLine
62
2
6
CONTINUOUS
10
136.4858606505
20
91.6497979996
11
136.4858606505
21
49.7019180154
0
LINE
5
20D
100
AcDbEntity
8
0
100
AcDbLine
62
2
6
CONTINUOUS
10
207.7787538693
20
92.3569047806
11
207.7787538693
21
49.7019180154
0
LINE
5
20E
100
AcDbEntity
8
0
100
AcDbLine
62
2
6
CONTINUOUS
10
136.4858606505
20
51.2019180154
11
172.1323072599
21
51.2019180154
0
LINE
5
20F
100
AcDbEntity
8
0
100
AcDbLine
62
2
6
CONTINUOUS
10
207.7787538693
20
51.2019180154
11
172.1323072599
21
51.2019180154
0
INSERT
5
210
100
AcDbEntity
8
0
100
AcDbBlockReference
62
2
6
CONTINUOUS
2
_FILLED
10
136.4858606505
20
51.2019180154
41
  3.500000
42
  3.500000
43
  3.500000
50
180.000000
0
INSERT
5
211
100
AcDbEntity
8
0
100
AcDbBlockReference
62
2
6
CONTINUOUS
2
_FILLED
10
207.7787538693
20
51.2019180154
41
  3.500000
42
  3.500000
43
  3.500000
50
  0.000000
0
ENDBLK
5
212
100
AcDbEntity
8
0
6
BYBLOCK
62
0
100
AcDbBlockEnd
0
BLOCK
5
213
100
AcDbEntity
8
0
100
AcDbBlockBegin
62
2
6
CONTINUOUS
2
*D1
70
65
10
0.0000000000
20
0.0000000000
3
*D1
1

0
TEXT
5
214
100
AcDbEntity
8
0
100
AcDbText
62
2
6
CONTINUOUS
10
171.0836136683
20
63.7021768986
7
STANDARD
40
3.5000000000
1
40
41
0.7143000000
72
0
100
AcDbText
0
LINE
5
215
100
AcDbEntity
8
0
100
AcDbLine
62
2
6
CONTINUOUS
10
152.4858606505
20
93.5995454678
11
152.4858606505
21
61.3271768986
0
LINE
5
216
100
AcDbEntity
8
0
100
AcDbLine
62
2
6
CONTINUOUS
10
191.7787538693
20
93.3569047806
11
191.7787538693
21
61.3271768986
0
LINE
5
217
100
AcDbEntity
8
0
100
AcDbLine
62
2
6
CONTINUOUS
10
152.4858606505
20
62.8271768986
11
172.1323072599
21
62.8271768986
0
LINE
5
218
100
AcDbEntity
8
0
100
AcDbLine
62
2
6
CONTINUOUS
10
191.7787538693
20
62.8271768986
11
172.1323072599
21
62.8271768986
0
INSERT
5
219
100
AcDbEntity
8
0
100
AcDbBlockReference
62
2
6
CONTINUOUS
2
_FILLED
10
152.4858606505
20
62.8271768986
41
  3.500000
42
  3.500000
43
  3.500000
50
180.000000
0
INSERT
5
21A
100
AcDbEntity
8
0
100
AcDbBlockReference
62
2
6
CONTINUOUS
2
_FILLED
10
191.7787538693
20
62.8271768986
41
  3.500000
42
  3.500000
43
  3.500000
0
ENDBLK
5
21B
100
AcDbEntity
8
0
6
BYBLOCK
62
0
100
AcDbBlockEnd
0
BLOCK
5
21C
100
AcDbEntity
8
0
100
AcDbBlockBegin
62
2
6
CONTINUOUS
2
*D2
70
65
10
0.0000000000
20
0.0000000000
3
*D2
1

0
TEXT
5
21D
100
AcDbEntity
8
0
100
AcDbText
62
2
6
CONTINUOUS
10
76.9488226042
20
57.0828745636
7
STANDARD
40
3.5000000000
1
18
41
0.7143000000
72
0
100
AcDbText
0
LINE
5
21E
100
AcDbEntity
8
0
100
AcDbLine
62
2
6
CONTINUOUS
10
70.9706447869
20
92.3569047806
11
70.9706447869
21
54.7078745636
0
LINE
5
21F
100
AcDbEntity
8
0
100
AcDbLine
62
2
6
CONTINUOUS
10
88.9706447869
20
92.3569047806
11
88.9706447869
21
54.7078745636
0
LINE
5
220
100
AcDbEntity
8
0
100
AcDbLine
62
2
6
CONTINUOUS
10
70.9706447869
20
56.2078745636
11
79.9706447869
21
56.2078745636
0
LINE
5
221
100
AcDbEntity
8
0
100
AcDbLine
62
2
6
CONTINUOUS
10
88.9706447869
20
56.2078745636
11
79.9706447869
21
56.2078745636
0
INSERT
5
222
100
AcDbEntity
8
0
100
AcDbBlockReference
62
2
6
CONTINUOUS
2
_FILLED
10
70.9706447869
20
56.2078745636
41
  3.500000
42
  3.500000
43
  3.500000
50
180.000000
0
INSERT
5
223
100
AcDbEntity
8
0
100
AcDbBlockReference
62
2
6
CONTINUOUS
2
_FILLED
10
88.9706447869
20
56.2078745636
41
  3.500000
42
  3.500000
43
  3.500000
0
ENDBLK
5
224
100
AcDbEntity
8
0
6
BYBLOCK
62
0
100
AcDbBlockEnd
0
BLOCK
5
225
100
AcDbEntity
8
0
100
AcDbBlockBegin
62
2
6
CONTINUOUS
2
*D3
70
65
10
0.0000000000
20
0.0000000000
3
*D3
1

0
TEXT
5
226
100
AcDbEntity
8
0
100
AcDbText
62
2
6
CONTINUOUS
10
213.5366922808
20
160.1696854577
7
STANDARD
40
3.5000000000
1
88
50
-45.0000000000
41
0.7143000000
72
0
100
AcDbText
0
LINE
5
227
100
AcDbEntity
8
0
100
AcDbLine
62
2
6
CONTINUOUS
10
141.5257055421
20
143.8170598890
11
186.1494534341
21
188.4408077810
0
LINE
5
228
100
AcDbEntity
8
0
100
AcDbLine
62
2
6
CONTINUOUS
10
203.4460157589
20
81.8967496723
11
248.0697636508
21
126.5204975642
0
LINE
5
229
100
AcDbEntity
8
0
100
AcDbLine
62
2
6
CONTINUOUS
10
185.0887932623
20
187.3801476092
11
216.0489483707
21
156.4199925008
0
LINE
5
22A
100
AcDbEntity
8
0
100
AcDbLine
62
2
6
CONTINUOUS
10
247.0091034791
20
125.4598373924
11
216.0489483707
21
156.4199925008
0
INSERT
5
22B
100
AcDbEntity
8
0
100
AcDbBlockReference
62
2
6
CONTINUOUS
2
_FILLED
10
185.0887932623
20
187.3801476092
41
  3.500000
42
  3.500000
43
  3.500000
50
135.000000
0
INSERT
5
22C
100
AcDbEntity
8
0
100
AcDbBlockReference
62
2
6
CONTINUOUS
2
_FILLED
10
247.0091034791
20
125.4598373924
41
  3.500000
42
  3.500000
43
  3.500000
50
315.000000
0
ENDBLK
5
22D
100
AcDbEntity
8
0
6
BYBLOCK
62
0
100
AcDbBlockEnd
0
BLOCK
5
22E
100
AcDbEntity
8
0
100
AcDbBlockBegin
2
_FILLED
70
64
10
0.0000000000
20
0.0000000000
3
_FILLED
1

0
SOLID
5
22F
100
AcDbEntity
8
0
6
BYBLOCK
62
0
100
AcDbTrace
10
0.0000000000
20
0.0000000000
11
-1.0000000000
21
0.1857142857
12
-1.0000000000
22
-0.1857142857
13
-1.0000000000
23
-0.1857142857
0
ENDBLK
5
230
100
AcDbEntity
8
0
6
BYBLOCK
62
0
100
AcDbBlockEnd
0
ENDSEC
0
SECTION
2
ENTITIES
0
DIMENSION
5
231
100
AcDbEntity
8
0
100
AcDbDimension
62
2
6
CONTINUOUS
2
*D0
10
207.7787538693
20
51.2019180154
11
174.5115012317
21
53.8269180154
70
160
42
71.292893
1
72
3
DIMSTYLE_1
100
AcDbAlignedDimension
13
136.4858606505
23
91.6497979996
14
207.7787538693
24
92.3569047806
100
AcDbRotatedDimension
0
DIMENSION
5
232
100
AcDbEntity
8
0
100
AcDbDimension
62
2
6
CONTINUOUS
2
*D1
10
191.7787538693
20
62.8271768986
11
173.5836636683
21
65.4521768986
70
160
42
39.292893
1
40
3
DIMSTYLE_1
100
AcDbAlignedDimension
13
152.4858606505
23
93.5995454678
14
191.7787538693
24
93.3569047806
100
AcDbRotatedDimension
0
DIMENSION
5
233
100
AcDbEntity
8
0
100
AcDbDimension
62
2
6
CONTINUOUS
2
*D2
10
88.9706447869
20
56.2078745636
11
79.4488726042
21
58.8328745636
70
160
42
18.000000
3
DIMSTYLE_2
100
AcDbAlignedDimension
13
70.9706447869
23
92.3569047806
14
88.9706447869
24
92.3569047806
100
AcDbRotatedDimension
0
DIMENSION
5
234
100
AcDbEntity
8
0
100
AcDbDimension
62
2
6
CONTINUOUS
2
*D3
10
247.0091034791
20
125.4598373924
11
216.5419314562
21
159.6393200165
70
160
42
87.568542
1
88
3
DIMSTYLE_1
100
AcDbAlignedDimension
13
141.5257055421
23
143.8170598890
14
203.4460157589
24
81.8967496723
50
315.000000
100
AcDbRotatedDimension
0
LINE
5
235
100
AcDbEntity
8
0
100
AcDbLine
62
7
6
CONTINUOUS
10
0.0000000000
20
0.0000000000
11
0.0000000000
21
210.0000000000
0
LINE
5
236
100
AcDbEntity
8
0
100
AcDbLine
62
7
6
CONTINUOUS
10
0.0000000000
20
0.0000000000
11
297.0000000000
21
0.0000000000
0
LINE
5
237
100
AcDbEntity
8
0
100
AcDbLine
62
7
6
CONTINUOUS
10
0.0000000000
20
210.0000000000
11
297.0000000000
21
210.0000000000
0
LINE
5
238
100
AcDbEntity
8
0
100
AcDbLine
62
7
6
CONTINUOUS
10
297.0000000000
20
0.0000000000
11
297.0000000000
21
210.0000000000
0
LINE
5
239
100
AcDbEntity
8
0
100
AcDbLine
62
7
6
CONTINUOUS
10
136.5081497948
20
91.5589663603
11
134.8677798914
21
93.1993362637
0
LINE
5
23A
100
AcDbEntity
8
0
100
AcDbLine
62
7
6
CONTINUOUS
10
151.1879222302
20
76.8791939249
11
152.3333173867
21
75.7337987684
0
LINE
5
23B
100
AcDbEntity
8
0
100
AcDbLine
62
7
6
CONTINUOUS
10
136.4858606505
20
132.1497979995
11
136.4858606505
21
92.1497979995
0
LINE
5
23C
100
AcDbEntity
8
0
100
AcDbLine
62
7
6
CONTINUOUS
10
151.7787538693
20
76.8569047806
11
191.7787538693
21
76.8569047806
0
LINE
5
23D
100
AcDbEntity
8
0
100
AcDbLine
62
9
6
CONTINUOUS
10
138.4858606505
20
132.1497979995
11
138.4858606505
21
92.1497979995
0
LINE
5
23E
100
AcDbEntity
8
0
100
AcDbLine
62
9
6
CONTINUOUS
10
151.7787538693
20
78.8569047806
11
191.7787538693
21
78.8569047806
0
LINE
5
23F
100
AcDbEntity
8
0
100
AcDbLine
62
7
6
CONTINUOUS
10
151.4858606505
20
91.8569047806
11
190.7787538693
21
91.8569047806
0
LINE
5
240
100
AcDbEntity
8
0
100
AcDbLine
62
9
6
CONTINUOUS
10
138.4858606505
20
92.1497979995
11
136.4858606505
21
92.1497979996
0
LINE
5
241
100
AcDbEntity
8
0
100
AcDbLine
62
7
6
CONTINUOUS
10
151.4858606505
20
131.1497979995
11
151.4858606505
21
91.8569047806
0
LINE
5
242
100
AcDbEntity
8
0
100
AcDbLine
62
9
6
CONTINUOUS
10
151.7787538693
20
78.8569047806
11
151.7787538693
21
76.8569047806
0
LINE
5
243
100
AcDbEntity
8
0
100
AcDbLine
62
7
6
CONTINUOUS
10
152.4858606505
20
131.1497979995
11
152.4858606505
21
94.0995454678
0
LINE
5
244
100
AcDbEntity
8
0
100
AcDbLine
62
9
6
CONTINUOUS
10
152.4858606505
20
146.1497979995
11
152.4858606508
21
148.1497979995
0
LINE
5
245
100
AcDbEntity
8
0
100
AcDbLine
62
9
6
CONTINUOUS
10
153.4858606505
20
133.1497979995
11
153.4858606505
21
132.1497979995
0
LINE
5
246
100
AcDbEntity
8
0
100
AcDbLine
62
7
6
CONTINUOUS
10
153.7285013376
20
92.8569047806
11
190.7787538693
21
92.8569047806
0
LINE
5
247
100
AcDbEntity
8
0
100
AcDbLine
62
9
6
CONTINUOUS
10
205.7787538693
20
92.8569047806
11
207.7787538693
21
92.8569047806
0
LINE
5
248
100
AcDbEntity
8
0
100
AcDbLine
62
9
6
CONTINUOUS
10
191.7787538693
20
93.8569047806
11
192.7787538693
21
93.8569047806
0
LINE
5
249
100
AcDbEntity
8
0
100
AcDbLine
62
7
6
CONTINUOUS
10
134.8678077573
20
93.6236281983
11
136.4858606505
21
95.2416810915
0
LINE
5
24A
100
AcDbEntity
8
0
100
AcDbLine
62
7
6
CONTINUOUS
10
189.3939775585
20
148.1497979995
11
191.0120304517
21
149.7678508927
0
LINE
5
24B
100
AcDbEntity
8
0
100
AcDbLine
62
9
6
CONTINUOUS
10
134.8677798914
20
93.1993362637
11
136.4858606505
21
94.8174170228
0
LINE
5
24C
100
AcDbEntity
8
0
100
AcDbLine
62
9
6
CONTINUOUS
10
189.8182416272
20
148.1497979995
11
191.4363223863
21
149.7678787586
0
LINE
5
24D
100
AcDbEntity
8
0
100
AcDbLine
62
7
6
CONTINUOUS
10
203.4404901378
20
143.8115342680
11
192.6574335258
21
133.0284776559
0
LINE
5
24E
100
AcDbEntity
8
0
100
AcDbLine
62
7
6
CONTINUOUS
10
140.8241243820
20
81.1951685122
11
151.6071809941
21
91.9782251242
0
LINE
5
24F
100
AcDbEntity
8
0
100
AcDbLine
62
7
6
CONTINUOUS
10
208.9018598816
20
132.3023412633
11
207.7787538693
21
131.1792352510
0
LINE
5
250
100
AcDbEntity
8
0
100
AcDbLine
62
7
6
CONTINUOUS
10
153.4564233990
20
76.8569047806
11
152.3333173867
21
75.7337987683
0
LINE
5
251
100
AcDbEntity
8
0
100
AcDbLine
62
9
6
CONTINUOUS
10
190.7787538693
20
91.8569047806
11
190.7787538693
21
92.8569047806
0
LINE
5
252
100
AcDbEntity
8
0
100
AcDbLine
62
9
6
CONTINUOUS
10
191.7787538693
20
78.8569047806
11
191.7787538691
21
76.8569047806
0
LINE
5
253
100
AcDbEntity
8
0
100
AcDbLine
62
7
6
CONTINUOUS
10
191.7787538693
20
93.8569047806
11
191.7787538693
21
130.9071573123
0
LINE
5
254
100
AcDbEntity
8
0
100
AcDbLine
62
9
6
CONTINUOUS
10
192.4858606505
20
146.1497979995
11
192.4858606505
21
148.1497979995
0
LINE
5
255
100
AcDbEntity
8
0
100
AcDbLine
62
7
6
CONTINUOUS
10
192.7787538693
20
93.8569047806
11
192.7787538693
21
133.1497979995
0
LINE
5
256
100
AcDbEntity
8
0
100
AcDbLine
62
9
6
CONTINUOUS
10
152.4858606505
20
131.1497979995
11
151.4858606505
21
131.1497979995
0
LINE
5
257
100
AcDbEntity
8
0
100
AcDbLine
62
7
6
CONTINUOUS
10
190.5361131822
20
132.1497979995
11
153.4858606505
21
132.1497979995
0
LINE
5
258
100
AcDbEntity
8
0
100
AcDbLine
62
9
6
CONTINUOUS
10
138.4858606505
20
132.1497979995
11
136.4858606505
21
132.1497979995
0
LINE
5
259
100
AcDbEntity
8
0
100
AcDbLine
62
9
6
CONTINUOUS
10
205.7787538693
20
132.8569047806
11
207.7787538693
21
132.8569047805
0
LINE
5
25A
100
AcDbEntity
8
0
100
AcDbLine
62
7
6
CONTINUOUS
10
192.7787538693
20
133.1497979995
11
153.4858606505
21
133.1497979995
0
LINE
5
25B
100
AcDbEntity
8
0
100
AcDbLine
62
9
6
CONTINUOUS
10
205.7787538693
20
92.8569047806
11
205.7787538693
21
132.8569047806
0
LINE
5
25C
100
AcDbEntity
8
0
100
AcDbLine
62
9
6
CONTINUOUS
10
192.4858606505
20
146.1497979995
11
152.4858606505
21
146.1497979995
0
LINE
5
25D
100
AcDbEntity
8
0
100
AcDbLine
62
7
6
CONTINUOUS
10
192.4858606505
20
148.1497979995
11
152.4858606505
21
148.1497979995
0
LINE
5
25E
100
AcDbEntity
8
0
100
AcDbLine
62
7
6
CONTINUOUS
10
207.7787538693
20
92.8569047806
11
207.7787538693
21
132.8569047806
0
LINE
5
25F
100
AcDbEntity
8
0
100
AcDbLine
62
7
6
CONTINUOUS
10
193.0766922897
20
148.1275088552
11
191.4363223863
21
149.7678787586
0
LINE
5
260
100
AcDbEntity
8
0
100
AcDbLine
62
7
6
CONTINUOUS
10
207.7564647251
20
133.4477364198
11
208.9018598816
21
132.3023412633
0
LINE
5
261
100
AcDbEntity
8
0
100
AcDbLine
62
7
6
CONTINUOUS
10
86.9706447869
20
76.8569047806
11
72.9706447869
21
76.8569047806
0
LINE
5
262
100
AcDbEntity
8
0
100
AcDbLine
62
7
6
CONTINUOUS
10
83.9706447869
20
77.2384843339
11
75.9706447869
21
77.2384843339
0
LWPOLYLINE
5
263
100
AcDbEntity
8
0
100
AcDbPolyline
62
7
6
CONTINUOUS
90
27
70
0
10
75.7269961514
20
148.1497979995
10
75.7798274532
20
148.2143728569
10
76.0207500630
20
148.4595811049
10
76.2887229762
20
148.6890467667
10
76.5823555579
20
148.9016185161
10
76.9003932137
20
149.0962259343
10
77.2398419184
20
149.2709242817
10
77.5973626559
20
149.4241465581
10
77.9709507197
20
149.5552245379
10
78.3583167886
20
149.6634330724
10
78.7564738890
20
149.7480051871
10
79.1623449959
20
149.8084060013
10
79.5733628600
20
149.8443683790
10
79.9867749960
20
149.8557279973
10
80.3999276097
20
149.8424579304
10
80.8101809841
20
149.8046491676
10
81.2147802160
20
149.7425331212
10
81.6111579102
20
149.6564493929
10
81.9963307322
20
149.5469881727
10
82.3674002856
20
149.4149613241
10
82.7221493513
20
149.2611339290
10
83.0586502653
20
149.0862072735
10
83.3736759302
20
148.8917631010
10
83.6643087220
20
148.6797717209
10
83.9294711461
20
148.4512256285
10
84.1678998068
20
148.2071857427
10
84.2146258331
20
148.1497979995
0
LINE
5
264
100
AcDbEntity
8
0
100
AcDbLine
62
7
6
CONTINUOUS
10
83.9706447869
20
89.3834421354
11
75.9706447869
21
89.3834421354
0
LINE
5
265
100
AcDbEntity
8
0
100
AcDbLine
62
9
6
CONTINUOUS
10
70.9706447869
20
92.8569047806
11
88.9706447869
21
92.8569047806
0
LINE
5
266
100
AcDbEntity
8
0
100
AcDbLine
62
7
6
CONTINUOUS
10
76.8517869394
20
132.8569047806
11
74.1971420950
21
126.3543794637
0
LINE
5
267
100
AcDbEntity
8
0
100
AcDbLine
62
7
6
CONTINUOUS
10
70.9706447869
20
78.8569047806
11
70.9706447869
21
146.1497979995
0
LINE
5
268
100
AcDbEntity
8
0
100
AcDbLine
62
9
6
CONTINUOUS
10
72.9706447869
20
76.8569047806
11
72.9706447869
21
148.1497979995
0
LINE
5
269
100
AcDbEntity
8
0
100
AcDbLine
62
7
6
CONTINUOUS
10
75.9706447869
20
77.2384843339
11
75.9706447869
21
89.3834421354
0
LINE
5
26A
100
AcDbEntity
8
0
100
AcDbLine
62
7
6
CONTINUOUS
10
76.9706447869
20
128.7668073573
11
76.9706447869
21
128.4839646449
0
LINE
5
26B
100
AcDbEntity
8
0
100
AcDbLine
62
7
6
CONTINUOUS
10
77.0838934410
20
133.4359278233
11
77.0838934410
21
132.6181224149
0
LINE
5
26C
100
AcDbEntity
8
0
100
AcDbLine
62
7
6
CONTINUOUS
10
77.0838934410
20
125.5470546030
11
77.0838934410
21
119.2833116518
0
LINE
5
26D
100
AcDbEntity
8
0
100
AcDbLine
62
7
6
CONTINUOUS
10
82.8573961329
20
119.2833116518
11
85.7441474788
21
126.3543794637
0
LINE
5
26E
100
AcDbEntity
8
0
100
AcDbLine
62
7
6
CONTINUOUS
10
74.1971420950
20
126.3543794637
11
77.0838934410
21
119.2833116518
0
LWPOLYLINE
5
26F
100
AcDbEntity
8
0
100
AcDbPolyline
62
2
6
CONTINUOUS
90
17
70
0
10
77.5706447869
20
128.0597005762
10
77.6163524141
20
127.7300739516
10
77.7517343063
20
127.4130027028
10
77.9716338092
20
127.1205639751
10
78.2735885121
20
126.8597005762
10
78.6355353097
20
126.6494731683
10
79.0483360125
20
126.4929608842
10
79.4962671700
20
126.3961252282
10
79.9706447869
20
126.3626443013
10
80.4368072299
20
126.3949644744
10
80.8852136902
20
126.4906939284
10
81.2987845051
20
126.6461863582
10
81.6677010618
20
126.8597005762
10
81.9650075132
20
127.1156356112
10
82.1863493080
20
127.4075297874
10
82.3232956060
20
127.7242649464
10
82.3706447869
20
128.0597007245
0
LINE
5
270
100
AcDbEntity
8
0
100
AcDbLine
62
7
6
CONTINUOUS
10
82.8573961329
20
133.4359278233
11
82.8573961329
21
132.6181224149
0
LINE
5
271
100
AcDbEntity
8
0
100
AcDbLine
62
7
6
CONTINUOUS
10
82.8573961329
20
125.5470546030
11
82.8573961329
21
119.2833116518
0
LINE
5
272
100
AcDbEntity
8
0
100
AcDbLine
62
7
6
CONTINUOUS
10
82.9706447869
20
128.7668073573
11
82.9706447869
21
128.4839646449
0
LINE
5
273
100
AcDbEntity
8
0
100
AcDbLine
62
7
6
CONTINUOUS
10
83.9706447869
20
77.2384843339
11
83.9706447869
21
89.3834421354
0
LWPOLYLINE
5
274
100
AcDbEntity
8
0
100
AcDbPolyline
62
2
6
CONTINUOUS
90
17
70
0
10
82.3706447869
20
128.0597005762
10
82.3249371598
20
128.3893272007
10
82.1895552676
20
128.7063984495
10
81.9696557646
20
128.9988371772
10
81.6677010618
20
129.2597005762
10
81.3057542641
20
129.4699279840
10
80.8929535613
20
129.6264402681
10
80.4450224038
20
129.7232759241
10
79.9706447869
20
129.7567568510
10
79.5044823440
20
129.7244366779
10
79.0560758837
20
129.6287072239
10
78.6425050687
20
129.4732147942
10
78.2735885121
20
129.2597005762
10
77.9762820607
20
129.0037655411
10
77.7549402659
20
128.7118713649
10
77.6179939678
20
128.3951362059
10
77.5706447869
20
128.0597004278
0
LWPOLYLINE
5
275
100
AcDbEntity
8
0
100
AcDbPolyline
62
2
6
CONTINUOUS
90
17
70
0
10
82.9706447869
20
128.7668073573
10
82.9135102530
20
129.1788406380
10
82.7442828878
20
129.5751796990
10
82.4694085091
20
129.9407281087
10
82.0919651305
20
130.2668073573
10
81.6395316334
20
130.5295916172
10
81.1235307549
20
130.7252319723
10
80.5636168081
20
130.8462765423
10
79.9706447869
20
130.8881277009
10
79.3879417333
20
130.8477274845
10
78.8274336579
20
130.7280656670
10
78.3104701392
20
130.5337001298
10
77.8493244434
20
130.2668073573
10
77.4776913791
20
129.9468885635
10
77.2010141356
20
129.5820208432
10
77.0298312631
20
129.1861018945
10
76.9706447869
20
128.7668071719
0
LINE
5
276
100
AcDbEntity
8
0
100
AcDbLine
62
9
6
CONTINUOUS
10
86.9706447869
20
148.1497979995
11
86.9706447869
21
76.8569047806
0
LINE
5
277
100
AcDbEntity
8
0
100
AcDbLine
62
7
6
CONTINUOUS
10
77.0838934410
20
119.2833116518
11
82.8573961329
21
119.2833116518
0
LINE
5
278
100
AcDbEntity
8
0
100
AcDbLine
62
7
6
CONTINUOUS
10
88.9706447869
20
146.1497979995
11
88.9706447869
21
78.8569047806
0
LINE
5
279
100
AcDbEntity
8
0
100
AcDbLine
62
7
6
CONTINUOUS
10
83.0895026345
20
132.8569047806
11
85.7441474788
21
126.3543794637
0
LINE
5
27A
100
AcDbEntity
8
0
100
AcDbLine
62
9
6
CONTINUOUS
10
88.9706447869
20
132.8569047806
11
83.0895026345
21
132.8569047806
0
LINE
5
27B
100
AcDbEntity
8
0
100
AcDbLine
62
9
6
CONTINUOUS
10
70.9706447869
20
132.8569047806
11
76.8517869394
21
132.8569047806
0
LINE
5
27C
100
AcDbEntity
8
0
100
AcDbLine
62
7
6
CONTINUOUS
10
82.8573961329
20
133.4359278233
11
77.0838934410
21
133.4359278233
0
LINE
5
27D
100
AcDbEntity
8
0
100
AcDbLine
62
7
6
CONTINUOUS
10
72.9706447869
20
143.8115342680
11
86.9706447869
21
143.8115342680
0
LINE
5
27E
100
AcDbEntity
8
0
100
AcDbLine
62
7
6
CONTINUOUS
10
82.8573961329
20
148.1393174518
11
77.0838934410
21
148.1393174518
0
LINE
5
27F
100
AcDbEntity
8
0
100
AcDbLine
62
7
6
CONTINUOUS
10
86.9706447869
20
148.1497979995
11
83.0895026345
21
148.1497979995
0
LINE
5
280
100
AcDbEntity
8
0
100
AcDbLine
62
7
6
CONTINUOUS
10
76.8517869394
20
148.1497979995
11
72.9706447869
21
148.1497979995
0
ARC
5
281
100
AcDbEntity
8
0
100
AcDbCircle
62
7
6
CONTINUOUS
10
191.2241903520
20
149.5557467242
40
0.3000000000
100
AcDbArc
50
45.0000000000
51
135.0000000000
0
ARC
5
282
100
AcDbEntity
8
0
100
AcDbCircle
62
7
6
CONTINUOUS
10
135.0799119257
20
93.4114682980
40
0.3000000000
100
AcDbArc
50
135.0000000000
51
225.0000000000
0
ARC
5
283
100
AcDbEntity
8
0
100
AcDbCircle
62
7
6
CONTINUOUS
10
190.5361131822
20
135.1497979995
40
3.0000000000
100
AcDbArc
50
270.0000000000
51
315.0000000000
0
ARC
5
284
100
AcDbEntity
8
0
100
AcDbCircle
62
7
6
CONTINUOUS
10
153.4858606505
20
131.1497979995
40
1.0000000000
100
AcDbArc
50
90.0000000000
51
180.0000000000
0
ARC
5
285
100
AcDbEntity
8
0
100
AcDbCircle
62
7
6
CONTINUOUS
10
149.4858606505
20
94.0995454678
40
3.0000000000
100
AcDbArc
50
315.0000000000
51
360.0000000000
0
ARC
5
286
100
AcDbEntity
8
0
100
AcDbCircle
62
7
6
CONTINUOUS
10
192.4858606505
20
132.1497979995
40
16.0000000000
100
AcDbArc
50
46.7907846593
51
90.0000000000
0
ARC
5
287
100
AcDbEntity
8
0
100
AcDbCircle
62
7
6
CONTINUOUS
10
152.4858606505
20
132.1497979995
40
16.0000000000
100
AcDbArc
50
90.0000000000
51
180.0000000000
0
ARC
5
288
100
AcDbEntity
8
0
100
AcDbCircle
62
7
6
CONTINUOUS
10
152.4858606505
20
92.1497979995
40
16.0000000000
100
AcDbArc
50
180.0000000000
51
223.2092153407
0
ARC
5
289
100
AcDbEntity
8
0
100
AcDbCircle
62
9
6
CONTINUOUS
10
192.4858606505
20
132.1497979995
40
14.0000000000
100
AcDbArc
50
47.0467164471
51
90.0000000000
0
ARC
5
28A
100
AcDbEntity
8
0
100
AcDbCircle
62
7
6
CONTINUOUS
10
153.4858606505
20
131.1497979995
40
2.0000000000
100
AcDbArc
50
90.0000000000
51
180.0000000000
0
ARC
5
28B
100
AcDbEntity
8
0
100
AcDbCircle
62
9
6
CONTINUOUS
10
152.4858606505
20
132.1497979995
40
14.0000001933
100
AcDbArc
50
90.0000000000
51
180.0000000000
0
ARC
5
28C
100
AcDbEntity
8
0
100
AcDbCircle
62
9
6
CONTINUOUS
10
152.4858606505
20
92.1497979995
40
14.0000000000
100
AcDbArc
50
180.0000000000
51
222.9532830560
0
ARC
5
28D
100
AcDbEntity
8
0
100
AcDbCircle
62
7
6
CONTINUOUS
10
153.7285013376
20
89.8569047806
40
3.0000000000
100
AcDbArc
50
90.0000000000
51
135.0000000000
0
ARC
5
28E
100
AcDbEntity
8
0
100
AcDbCircle
62
7
6
CONTINUOUS
10
190.7787538693
20
93.8569047806
40
1.0000000000
100
AcDbArc
50
270.0000000000
51
360.0000000000
0
ARC
5
28F
100
AcDbEntity
8
0
100
AcDbCircle
62
7
6
CONTINUOUS
10
194.7787538693
20
130.9071573123
40
3.0000000000
100
AcDbArc
50
135.0000000000
51
180.0000000000
0
ARC
5
290
100
AcDbEntity
8
0
100
AcDbCircle
62
7
6
CONTINUOUS
10
151.7787538693
20
92.8569047806
40
16.0000000000
100
AcDbArc
50
226.7907846593
51
270.0000000000
0
ARC
5
291
100
AcDbEntity
8
0
100
AcDbCircle
62
7
6
CONTINUOUS
10
191.7787538693
20
92.8569047806
40
16.0000000000
100
AcDbArc
50
270.0000000000
51
360.0000000000
0
ARC
5
292
100
AcDbEntity
8
0
100
AcDbCircle
62
7
6
CONTINUOUS
10
191.7787538693
20
132.8569047806
40
16.0000000000
100
AcDbArc
50
0.0000000000
51
43.2092153407
0
ARC
5
293
100
AcDbEntity
8
0
100
AcDbCircle
62
9
6
CONTINUOUS
10
151.7787538693
20
92.8569047806
40
14.0000000000
100
AcDbArc
50
227.0467164471
51
270.0000000000
0
ARC
5
294
100
AcDbEntity
8
0
100
AcDbCircle
62
7
6
CONTINUOUS
10
190.7787538693
20
93.8569047806
40
2.0000000000
100
AcDbArc
50
270.0000000000
51
360.0000000000
0
ARC
5
295
100
AcDbEntity
8
0
100
AcDbCircle
62
9
6
CONTINUOUS
10
191.7787538693
20
92.8569047806
40
14.0000001933
100
AcDbArc
50
270.0000000000
51
360.0000000000
0
ARC
5
296
100
AcDbEntity
8
0
100
AcDbCircle
62
9
6
CONTINUOUS
10
191.7787538693
20
132.8569047806
40
14.0000000000
100
AcDbArc
50
0.0000000000
51
42.9532830560
0
ARC
5
297
100
AcDbEntity
8
0
100
AcDbCircle
62
7
6
CONTINUOUS
10
72.9706447869
20
146.1497979995
40
2.0000000000
100
AcDbArc
50
90.0000000000
51
180.0000000000
0
ARC
5
298
100
AcDbEntity
8
0
100
AcDbCircle
62
7
6
CONTINUOUS
10
86.9706447869
20
146.1497979995
40
2.0000000000
100
AcDbArc
50
0.0000000000
51
90.0000000000
0
ARC
5
299
100
AcDbEntity
8
0
100
AcDbCircle
62
7
6
CONTINUOUS
10
86.9706447869
20
78.8569047806
40
2.0000000000
100
AcDbArc
50
270.0000000000
51
360.0000000000
0
ARC
5
29A
100
AcDbEntity
8
0
100
AcDbCircle
62
7
6
CONTINUOUS
10
72.9706447869
20
78.8569047806
40
2.0000000000
100
AcDbArc
50
180.0000000000
51
270.0000000000
0
SPLINE
5
29B
100
AcDbEntity
8
0
100
AcDbSpline
62
7
6
CONTINUOUS
70
0
71
3
72
10
73
6
74
4
42
0.0000001000
43
0.0000001000
44
0.0000000001
12
-1.2539721541
22
-0.9307344960
32
0.0000000000
13
-1.3965225760
23
-0.6982612880
33
0.0000000000
40
0.0000000000
40
0.0000000000
40
0.0000000000
40
0.0000000000
40
0.3182134758
40
0.6496276480
40
1.0000000000
40
1.0000000000
40
1.0000000000
40
1.0000000000
10
153.3519402806
20
76.8568424315
30
0.0000000000
10
153.2189300013
20
76.7581183451
30
0.0000000000
10
152.9404649971
20
76.5659328820
30
0.0000000000
10
152.4943929671
20
76.2972557799
30
0.0000000000
10
152.1806372016
20
76.1311304033
30
0.0000000000
10
152.0175362351
20
76.0495799200
30
0.0000000000
11
153.3519402806
21
76.8568424315
31
0.0000000000
11
152.9434083905
21
76.5740720564
31
0.0000000000
11
152.5005742398
21
76.3063793465
31
0.0000000000
11
152.0175362351
21
76.0495799200
31
0.0000000000
0
SPLINE
5
29C
100
AcDbEntity
8
0
100
AcDbSpline
62
7
6
CONTINUOUS
70
0
71
3
72
10
73
6
74
4
42
0.0000001000
43
0.0000001000
44
0.0000000001
12
-0.6982595878
22
-1.3965191756
32
0.0000000000
13
-0.9307314486
23
-1.2539696042
33
0.0000000000
40
0.0000000000
40
0.0000000000
40
0.0000000000
40
0.0000000000
40
0.3503895907
40
0.6818895182
40
1.0000000000
40
1.0000000000
40
1.0000000000
40
1.0000000000
10
208.5860787300
20
132.6181224149
30
0.0000000000
10
208.5045244329
20
132.4550138208
30
0.0000000000
10
208.3383740262
20
132.1412116003
30
0.0000000000
10
208.0696931218
20
131.6951431175
30
0.0000000000
10
207.8775102639
20
131.4166883382
30
0.0000000000
10
207.7788184540
20
131.2837213798
30
0.0000000000
11
208.5860787300
21
132.6181224149
31
0.0000000000
11
208.3292666915
21
132.1350621408
31
0.0000000000
11
208.0615006786
21
131.6921173166
31
0.0000000000
11
207.7788184540
21
131.2837213798
31
0.0000000000
0
SPLINE
5
29D
100
AcDbEntity
8
0
100
AcDbSpline
62
7
6
CONTINUOUS
70
0
71
3
72
10
73
6
74
4
42
0.0000001000
43
0.0000001000
44
0.0000000001
12
0.8239014045
22
-0.8597695323
32
0.0000000000
13
0.9223322334
23
-0.7530811151
33
0.0000000000
40
0.0000000000
40
0.0000000000
40
0.0000000000
40
0.0000000000
40
0.3355598881
40
0.6670518994
40
1.0000000000
40
1.0000000000
40
1.0000000000
40
1.0000000000
10
76.2095274617
20
76.8568782292
30
0.0000000000
10
76.3016835494
20
76.7607101732
30
0.0000000000
10
76.4887241871
20
76.5732173803
30
0.0000000000
10
76.7804966193
20
76.3039772514
30
0.0000000000
10
76.9815305192
20
76.1331588956
30
0.0000000000
10
77.0838934410
20
76.0495799200
30
0.0000000000
11
76.2095274617
21
76.8568782292
31
0.0000000000
11
76.4917846983
21
76.5740720564
31
0.0000000000
11
76.7818560745
21
76.3063793465
31
0.0000000000
11
77.0838934410
21
76.0495799200
31
0.0000000000
0
SPLINE
5
29E
100
AcDbEntity
8
0
100
AcDbSpline
62
7
6
CONTINUOUS
70
0
71
3
72
12
73
8
74
6
42
0.0000001000
43
0.0000001000
44
0.0000000001
12
2.8500350420
22
-0.5817609668
32
0.0000000000
13
2.9088048342
23
-0.0000000002
33
0.0000000000
40
0.0000000000
40
0.0000000000
40
0.0000000000
40
0.0000000000
40
0.2099998935
40
0.4113263420
40
0.6086274273
40
0.8044573348
40
1.0000000000
40
1.0000000000
40
1.0000000000
40
1.0000000000
10
77.0838934410
20
76.0495799200
30
0.0000000000
10
77.2833957928
20
76.0088566730
30
0.0000000000
10
77.6754131979
20
75.9350322701
30
0.0000000000
10
78.2589581009
20
75.8462806049
30
0.0000000000
10
78.8319119599
20
75.7819648422
30
0.0000000000
10
79.4015131450
20
75.7426472925
30
0.0000000000
10
79.7810463037
20
75.7337987684
30
0.0000000000
10
79.9706447869
20
75.7337987684
30
0.0000000000
11
77.0838934410
21
76.0495799200
31
0.0000000000
11
77.6842939800
21
75.9370839927
31
0.0000000000
11
78.2633298514
21
75.8495198520
31
0.0000000000
11
78.8337036601
21
75.7859053173
31
0.0000000000
11
79.4020015619
21
75.7469572737
31
0.0000000000
11
79.9706447869
21
75.7337987684
31
0.0000000000
0
SPLINE
5
29F
100
AcDbEntity
8
0
100
AcDbSpline
62
7
6
CONTINUOUS
70
0
71
3
72
12
73
8
74
6
42
0.0000001000
43
0.0000001000
44
0.0000000001
12
2.9088044401
22
0.0000000002
32
0.0000000000
13
2.8500346559
23
0.5817608880
33
0.0000000000
40
0.0000000000
40
0.0000000000
40
0.0000000000
40
0.0000000000
40
0.1965904100
40
0.3931900414
40
0.5907424305
40
0.7915603834
40
1.0000000000
40
1.0000000000
40
1.0000000000
40
1.0000000000
10
79.9706447869
20
75.7337987684
30
0.0000000000
10
80.1612591394
20
75.7337987684
30
0.0000000000
10
80.5425553710
20
75.7427364321
30
0.0000000000
10
81.1141464502
20
75.7823798160
30
0.0000000000
10
81.6875681178
20
75.8469836133
30
0.0000000000
10
82.2693401186
20
75.9356624025
30
0.0000000000
10
82.6593760892
20
76.0091592478
30
0.0000000000
10
82.8573961329
20
76.0495799200
30
0.0000000000
11
79.9706447869
21
75.7337987684
31
0.0000000000
11
80.5423331719
21
75.7470981248
31
0.0000000000
11
81.1128521061
21
75.7863830633
31
0.0000000000
11
81.6839266671
21
75.8503082594
31
0.0000000000
11
82.2614707339
21
75.9378443623
31
0.0000000000
11
82.8573961329
21
76.0495799200
31
0.0000000000
0
SPLINE
5
2A0
100
AcDbEntity
8
0
100
AcDbSpline
62
7
6
CONTINUOUS
70
0
71
3
72
10
73
6
74
4
42
0.0000001000
43
0.0000001000
44
0.0000000001
12
0.9223311969
22
0.7530802687
32
0.0000000000
13
0.8239006360
23
0.8597684265
33
0.0000000000
40
0.0000000000
40
0.0000000000
40
0.0000000000
40
0.0000000000
40
0.3329644469
40
0.6645449362
40
1.0000000000
40
1.0000000000
40
1.0000000000
40
1.0000000000
10
82.8573961329
20
76.0495799200
30
0.0000000000
10
82.9597639651
20
76.1331629050
30
0.0000000000
10
83.1608291978
20
76.3040082077
30
0.0000000000
10
83.4525993448
20
76.5732502546
30
0.0000000000
10
83.6396339857
20
76.7607393864
30
0.0000000000
10
83.7317611992
20
76.8568772772
30
0.0000000000
11
82.8573961329
21
76.0495799200
31
0.0000000000
11
83.1594477397
21
76.3063919585
31
0.0000000000
11
83.4495942239
21
76.5741579714
31
0.0000000000
11
83.7317611992
21
76.8568772772
31
0.0000000000
0
SPLINE
5
2A1
100
AcDbEntity
8
0
100
AcDbSpline
62
7
6
CONTINUOUS
70
0
71
3
72
14
73
10
74
8
42
0.0000001000
43
0.0000001000
44
0.0000000001
12
3.8845505377
22
0.0000000004
32
0.0000000000
13
3.0999338775
23
2.3450068224
33
0.0000000000
40
0.0000000000
40
0.0000000000
40
0.0000000000
40
0.0000000000
40
0.1682047293
40
0.3349689790
40
0.4989338421
40
0.6588552013
40
0.8136826103
40
0.9626246684
40
1.0000000000
40
1.0000000000
40
1.0000000000
40
1.0000000000
10
79.9706447869
20
75.7337987683
30
0.0000000000
10
80.1884447108
20
75.7337987684
30
0.0000000000
10
80.6224509253
20
75.7538238885
30
0.0000000000
10
81.2631494792
20
75.8435610187
30
0.0000000000
10
81.8820567607
20
75.9914545980
30
0.0000000000
10
82.4686699891
20
76.1950548144
30
0.0000000000
10
83.0131061233
20
76.4509923374
30
0.0000000000
10
83.3899655847
20
76.6834274165
30
0.0000000000
10
83.5848720253
20
76.8259133996
30
0.0000000000
10
83.6234923775
20
76.8551285355
30
0.0000000000
11
79.9706447869
21
75.7337987683
31
0.0000000000
11
80.6233437974
21
75.7640520863
31
0.0000000000
11
81.2648326407
21
75.8542867157
31
0.0000000000
11
81.8841684724
21
76.0029564632
31
0.0000000000
11
82.4707470688
21
76.2075122533
31
0.0000000000
11
83.0145361382
21
76.4644507301
31
0.0000000000
11
83.5062361382
21
76.7693732950
31
0.0000000000
11
83.6234923775
21
76.8551285355
31
0.0000000000
0
SPLINE
5
2A2
100
AcDbEntity
8
0
100
AcDbSpline
62
7
6
CONTINUOUS
70
0
71
3
72
14
73
10
74
8
42
0.0000001000
43
0.0000001000
44
0.0000000001
12
3.0999338775
22
-2.3450068224
32
0.0000000000
13
3.8845505377
23
-0.0000000004
33
0.0000000000
40
0.0000000000
40
0.0000000000
40
0.0000000000
40
0.0000000000
40
0.0373753316
40
0.1863173897
40
0.3411447987
40
0.5010661579
40
0.6650310210
40
0.8317952707
40
1.0000000000
40
1.0000000000
40
1.0000000000
40
1.0000000000
10
76.3177971963
20
76.8551285355
30
0.0000000000
10
76.3564175485
20
76.8259133997
30
0.0000000000
10
76.5513239891
20
76.6834274165
30
0.0000000000
10
76.9281834505
20
76.4509923375
30
0.0000000000
10
77.4726195846
20
76.1950548144
30
0.0000000000
10
78.0592328131
20
75.9914545980
30
0.0000000000
10
78.6781400947
20
75.8435610188
30
0.0000000000
10
79.3188386485
20
75.7538238885
30
0.0000000000
10
79.7528448630
20
75.7337987684
30
0.0000000000
10
79.9706447869
20
75.7337987683
30
0.0000000000
11
76.3177971963
21
76.8551285355
31
0.0000000000
11
76.4350534355
21
76.7693732950
31
0.0000000000
11
76.9267534356
21
76.4644507301
31
0.0000000000
11
77.4705425050
21
76.2075122534
31
0.0000000000
11
78.0571211014
21
76.0029564632
31
0.0000000000
11
78.6764569331
21
75.8542867157
31
0.0000000000
11
79.3179457764
21
75.7640520863
31
0.0000000000
11
79.9706447869
21
75.7337987683
31
0.0000000000
0
SPLINE
5
2A3
100
AcDbEntity
8
0
100
AcDbSpline
62
7
6
CONTINUOUS
70
0
71
3
72
10
73
6
74
4
42
0.0000001000
43
0.0000001000
44
0.0000000001
12
0.7211966992
22
-1.0549249902
32
0.0000000000
13
0.8081797499
23
-0.9898140039
33
0.0000000000
40
0.0000000000
40
0.0000000000
40
0.0000000000
40
0.0000000000
40
0.2674368200
40
0.6418089012
40
1.0000000000
40
1.0000000000
40
1.0000000000
40
1.0000000000
10
74.8787866587
20
128.0246145104
30
0.0000000000
10
74.9430781759
20
127.9305725822
30
0.0000000000
10
75.0993514293
20
127.7062419799
30
0.0000000000
10
75.3512364283
20
127.3626729587
30
0.0000000000
10
75.5440235038
20
127.1172212596
30
0.0000000000
10
75.6405177680
20
126.9990404043
30
0.0000000000
11
74.8787866587
21
128.0246145104
31
0.0000000000
11
75.0742495625
21
127.7442830528
31
0.0000000000
11
75.3574708169
21
127.3587418660
31
0.0000000000
11
75.6405177680
21
126.9990404043
31
0.0000000000
0
SPLINE
5
2A4
100
AcDbEntity
8
0
100
AcDbSpline
62
7
6
CONTINUOUS
70
0
71
3
72
12
73
8
74
6
42
0.0000001000
43
0.0000001000
44
0.0000000001
12
1.2970251386
22
-1.5885248866
32
0.0000000000
13
1.5885248866
23
-1.2970251386
33
0.0000000000
40
0.0000000000
40
0.0000000000
40
0.0000000000
40
0.0000000000
40
0.2133868941
40
0.4175135153
40
0.6142115635
40
0.8066830631
40
1.0000000000
40
1.0000000000
40
1.0000000000
40
1.0000000000
10
75.6405177680
20
126.9990404043
30
0.0000000000
10
75.7327738233
20
126.8860502737
30
0.0000000000
10
75.9173084118
20
126.6682138529
30
0.0000000000
10
76.2013233927
20
126.3588273164
30
0.0000000000
10
76.4877871682
20
126.0715567203
30
0.0000000000
10
76.7804966193
20
125.8014519344
30
0.0000000000
10
76.9815305192
20
125.6306335787
30
0.0000000000
10
77.0838934410
20
125.5470546030
30
0.0000000000
11
75.6405177680
21
126.9990404043
31
0.0000000000
11
75.9236284309
21
126.6653490848
31
0.0000000000
11
76.2068820575
21
126.3571145457
31
0.0000000000
11
76.4917846983
21
126.0715467394
31
0.0000000000
11
76.7818560745
21
125.8038540296
31
0.0000000000
11
77.0838934410
21
125.5470546030
31
0.0000000000
0
SPLINE
5
2A5
100
AcDbEntity
8
0
100
AcDbSpline
62
7
6
CONTINUOUS
70
0
71
3
72
12
73
8
74
6
42
0.0000001000
43
0.0000001000
44
0.0000000001
12
2.8500350420
22
-0.5817609668
32
0.0000000000
13
2.9088048342
23
-0.0000000002
33
0.0000000000
40
0.0000000000
40
0.0000000000
40
0.0000000000
40
0.0000000000
40
0.2099998935
40
0.4113263420
40
0.6086274273
40
0.8044573348
40
1.0000000000
40
1.0000000000
40
1.0000000000
40
1.0000000000
10
77.0838934410
20
125.5470546030
30
0.0000000000
10
77.2833957928
20
125.5063313560
30
0.0000000000
10
77.6754131979
20
125.4325069532
30
0.0000000000
10
78.2589581009
20
125.3437552880
30
0.0000000000
10
78.8319119599
20
125.2794395253
30
0.0000000000
10
79.4015131450
20
125.2401219756
30
0.0000000000
10
79.7810463037
20
125.2312734514
30
0.0000000000
10
79.9706447869
20
125.2312734514
30
0.0000000000
11
77.0838934410
21
125.5470546030
31
0.0000000000
11
77.6842939800
21
125.4345586757
31
0.0000000000
11
78.2633298514
21
125.3469945350
31
0.0000000000
11
78.8337036601
21
125.2833800003
31
0.0000000000
11
79.4020015619
21
125.2444319568
31
0.0000000000
11
79.9706447869
21
125.2312734514
31
0.0000000000
0
SPLINE
5
2A6
100
AcDbEntity
8
0
100
AcDbSpline
62
7
6
CONTINUOUS
70
0
71
3
72
12
73
8
74
6
42
0.0000001000
43
0.0000001000
44
0.0000000001
12
2.9088044401
22
0.0000000002
32
0.0000000000
13
2.8500346559
23
0.5817608880
33
0.0000000000
40
0.0000000000
40
0.0000000000
40
0.0000000000
40
0.0000000000
40
0.1965904100
40
0.3931900414
40
0.5907424305
40
0.7915603834
40
1.0000000000
40
1.0000000000
40
1.0000000000
40
1.0000000000
10
79.9706447869
20
125.2312734514
30
0.0000000000
10
80.1612591394
20
125.2312734514
30
0.0000000000
10
80.5425553710
20
125.2402111152
30
0.0000000000
10
81.1141464502
20
125.2798544991
30
0.0000000000
10
81.6875681178
20
125.3444582964
30
0.0000000000
10
82.2693401186
20
125.4331370855
30
0.0000000000
10
82.6593760892
20
125.5066339309
30
0.0000000000
10
82.8573961329
20
125.5470546030
30
0.0000000000
11
79.9706447869
21
125.2312734514
31
0.0000000000
11
80.5423331719
21
125.2445728079
31
0.0000000000
11
81.1128521061
21
125.2838577464
31
0.0000000000
11
81.6839266671
21
125.3477829424
31
0.0000000000
11
82.2614707339
21
125.4353190453
31
0.0000000000
11
82.8573961329
21
125.5470546030
31
0.0000000000
0
SPLINE
5
2A7
100
AcDbEntity
8
0
100
AcDbSpline
62
7
6
CONTINUOUS
70
0
71
3
72
12
73
8
74
6
42
0.0000001000
43
0.0000001000
44
0.0000000001
12
1.5885248866
22
1.2970251386
32
0.0000000000
13
1.2970251387
23
1.5885248866
33
0.0000000000
40
0.0000000000
40
0.0000000000
40
0.0000000000
40
0.0000000000
40
0.1933262106
40
0.3858488662
40
0.5825542157
40
0.7866600424
40
1.0000000000
40
1.0000000000
40
1.0000000000
40
1.0000000000
10
82.8573961329
20
125.5470546030
30
0.0000000000
10
82.9597639651
20
125.6306375881
30
0.0000000000
10
83.1608291978
20
125.8014828907
30
0.0000000000
10
83.4535707210
20
126.0716213122
30
0.0000000000
10
83.7400487856
20
126.3589140318
30
0.0000000000
10
84.0240322880
20
126.6682733382
30
0.0000000000
10
84.2085360432
20
126.8860751271
30
0.0000000000
10
84.3007718059
20
126.9990404044
30
0.0000000000
11
82.8573961329
21
125.5470546030
31
0.0000000000
11
83.1594477397
21
125.8038666415
31
0.0000000000
11
83.4495942239
21
126.0716326545
31
0.0000000000
11
83.7345036004
21
126.3572148917
31
0.0000000000
11
84.0177248548
21
126.6654212626
31
0.0000000000
11
84.3007718059
21
126.9990404044
31
0.0000000000
0
SPLINE
5
2A8
100
AcDbEntity
8
0
100
AcDbSpline
62
7
6
CONTINUOUS
70
0
71
3
72
10
73
6
74
4
42
0.0000001000
43
0.0000001000
44
0.0000000001
12
0.8081796214
22
0.9898138464
32
0.0000000000
13
0.7211965954
23
1.0549248028
33
0.0000000000
40
0.0000000000
40
0.0000000000
40
0.0000000000
40
0.0000000000
40
0.3582735762
40
0.7326929601
40
1.0000000000
40
1.0000000000
40
1.0000000000
40
1.0000000000
10
84.3007718059
20
126.9990404044
30
0.0000000000
10
84.3972882736
20
127.1172484533
30
0.0000000000
10
84.5901084240
20
127.3627444643
30
0.0000000000
10
84.8419903104
20
127.7063156911
30
0.0000000000
10
84.9982425008
20
127.9306180782
30
0.0000000000
10
85.0625028099
20
128.0246143537
30
0.0000000000
11
84.3007718059
21
126.9990404044
31
0.0000000000
11
84.5838824688
21
127.3588257498
31
0.0000000000
11
84.8671360954
21
127.7444180636
31
0.0000000000
11
85.0625028099
21
128.0246143537
31
0.0000000000
0
SPLINE
5
2A9
100
AcDbEntity
8
0
100
AcDbSpline
62
7
6
CONTINUOUS
70
0
71
3
72
15
73
11
74
9
42
0.0000001000
43
0.0000001000
44
0.0000000001
12
4.8222927415
22
0.0000000005
32
0.0000000000
13
3.0498857220
23
3.7353318952
33
0.0000000000
40
0.0000000000
40
0.0000000000
40
0.0000000000
40
0.0000000000
40
0.1354956670
40
0.2698309699
40
0.4019112543
40
0.5307343340
40
0.6554540321
40
0.7754328436
40
0.8902985387
40
1.0000000000
40
1.0000000000
40
1.0000000000
40
1.0000000000
10
79.9706447869
20
125.2312734514
30
0.0000000000
10
80.1884447108
20
125.2312734514
30
0.0000000000
10
80.6224509253
20
125.2512985715
30
0.0000000000
10
81.2631494792
20
125.3410357018
30
0.0000000000
10
81.8820567607
20
125.4889292810
30
0.0000000000
10
82.4686699891
20
125.6925294975
30
0.0000000000
10
83.0131061233
20
125.9484670205
30
0.0000000000
10
83.5062003463
20
126.2525920497
30
0.0000000000
10
83.9394856106
20
126.5998381788
30
0.0000000000
10
84.1892461658
20
126.8624499487
30
0.0000000000
10
84.3007718059
20
126.9990404044
30
0.0000000000
11
79.9706447869
21
125.2312734514
31
0.0000000000
11
80.6233437974
21
125.2615267693
31
0.0000000000
11
81.2648326407
21
125.3517613987
31
0.0000000000
11
81.8841684724
21
125.5004311462
31
0.0000000000
11
82.4707470688
21
125.7049869364
31
0.0000000000
11
83.0145361382
21
125.9619254131
31
0.0000000000
11
83.5062361382
21
126.2668479780
31
0.0000000000
11
83.9374390329
21
126.6145360675
31
0.0000000000
11
84.3007718059
21
126.9990404044
31
0.0000000000
0
SPLINE
5
2AA
100
AcDbEntity
8
0
100
AcDbSpline
62
7
6
CONTINUOUS
70
0
71
3
72
15
73
11
74
9
42
0.0000001000
43
0.0000001000
44
0.0000000001
12
3.0498857216
22
-3.7353318956
32
0.0000000000
13
4.8222927416
23
-0.0000000005
33
0.0000000000
40
0.0000000000
40
0.0000000000
40
0.0000000000
40
0.0000000000
40
0.1097014613
40
0.2245671564
40
0.3445459679
40
0.4692656660
40
0.5980887457
40
0.7301690301
40
0.8645043330
40
1.0000000000
40
1.0000000000
40
1.0000000000
40
1.0000000000
10
75.6405177679
20
126.9990404045
30
0.0000000000
10
75.7520434080
20
126.8624499487
30
0.0000000000
10
76.0018039632
20
126.5998381788
30
0.0000000000
10
76.4350892274
20
126.2525920497
30
0.0000000000
10
76.9281834505
20
125.9484670206
30
0.0000000000
10
77.4726195846
20
125.6925294975
30
0.0000000000
10
78.0592328131
20
125.4889292811
30
0.0000000000
10
78.6781400947
20
125.3410357018
30
0.0000000000
10
79.3188386485
20
125.2512985715
30
0.0000000000
10
79.7528448630
20
125.2312734514
30
0.0000000000
10
79.9706447869
20
125.2312734514
30
0.0000000000
11
75.6405177679
21
126.9990404045
31
0.0000000000
11
76.0038505409
21
126.6145360676
31
0.0000000000
11
76.4350534355
21
126.2668479781
31
0.0000000000
11
76.9267534356
21
125.9619254132
31
0.0000000000
11
77.4705425050
21
125.7049869364
31
0.0000000000
11
78.0571211014
21
125.5004311462
31
0.0000000000
11
78.6764569331
21
125.3517613987
31
0.0000000000
11
79.3179457764
21
125.2615267693
31
0.0000000000
11
79.9706447869
21
125.2312734514
31
0.0000000000
0
SPLINE
5
2AB
100
AcDbEntity
8
0
100
AcDbSpline
62
7
6
CONTINUOUS
70
0
71
3
72
11
73
7
74
5
42
0.0000001000
43
0.0000001000
44
0.0000000001
12
0.2535533360
22
-1.4796332265
32
0.0000000000
13
0.9481233251
23
-1.1612091803
33
0.0000000000
40
0.0000000000
40
0.0000000000
40
0.0000000000
40
0.0000000000
40
0.0243230570
40
0.3386329441
40
0.6626743740
40
1.0000000000
40
1.0000000000
40
1.0000000000
40
1.0000000000
10
75.0069949210
20
128.3412739969
30
0.0000000000
10
75.0090506517
20
128.3292775958
30
0.0000000000
10
75.0388687732
20
128.1624677248
30
0.0000000000
10
75.1297353078
20
127.8421761328
30
0.0000000000
10
75.3430385072
20
127.4012981896
30
0.0000000000
10
75.5339090032
20
127.1296089424
30
0.0000000000
10
75.6405177679
20
126.9990404045
30
0.0000000000
11
75.0069949210
21
128.3412739969
31
0.0000000000
11
75.0134198782
21
128.3053308115
31
0.0000000000
11
75.1410137461
21
127.8517488866
31
0.0000000000
11
75.3512446538
21
127.4138213245
31
0.0000000000
11
75.6405177679
21
126.9990404045
31
0.0000000000
0
SPLINE
5
2AC
100
AcDbEntity
8
0
100
AcDbSpline
62
7
6
CONTINUOUS
70
0
71
3
72
27
73
23
74
21
42
0.0000001000
43
0.0000001000
44
0.0000000001
12
0.0000000000
22
8.0955344050
32
0.0000000000
13
0.0000000000
23
-8.0955344050
33
0.0000000000
40
0.0000000000
40
0.0000000000
40
0.0000000000
40
0.0000000000
40
0.0412445578
40
0.0834682930
40
0.1274944669
40
0.1738871019
40
0.2229158327
40
0.2745714337
40
0.3286069866
40
0.3845874615
40
0.4419396520
40
0.5000000000
40
0.5580603480
40
0.6154125385
40
0.6713930134
40
0.7254285663
40
0.7770841673
40
0.8261128981
40
0.8725055331
40
0.9165317070
40
0.9587554422
40
1.0000000000
40
1.0000000000
40
1.0000000000
40
1.0000000000
10
82.9706447869
20
128.7668073573
30
0.0000000000
10
82.9706447869
20
128.8781062697
30
0.0000000000
10
82.9452068260
20
129.1041081187
30
0.0000000000
10
82.8325620494
20
129.4317889313
30
0.0000000000
10
82.6490162267
20
129.7417394485
30
0.0000000000
10
82.3999385411
20
130.0263300833
30
0.0000000000
10
82.0919062385
20
130.2791377359
30
0.0000000000
10
81.7325954832
20
130.4944370738
30
0.0000000000
10
81.3307441833
20
130.6673234701
30
0.0000000000
10
80.8960531251
20
130.7937958851
30
0.0000000000
10
80.4390080475
20
130.8708937404
30
0.0000000000
10
79.9706447869
20
130.8967975539
30
0.0000000000
10
79.5022815264
20
130.8708937404
30
0.0000000000
10
79.0452364487
20
130.7937958851
30
0.0000000000
10
78.6105453905
20
130.6673234701
30
0.0000000000
10
78.2086940906
20
130.4944370738
30
0.0000000000
10
77.8493833354
20
130.2791377359
30
0.0000000000
10
77.5413510327
20
130.0263300833
30
0.0000000000
10
77.2922733471
20
129.7417394485
30
0.0000000000
10
77.1087275245
20
129.4317889313
30
0.0000000000
10
76.9960827478
20
129.1041081187
30
0.0000000000
10
76.9706447869
20
128.8781062697
30
0.0000000000
10
76.9706447869
20
128.7668073573
30
0.0000000000
11
82.9706447869
21
128.7668073573
31
0.0000000000
11
82.9337098087
21
129.0986549705
31
0.0000000000
11
82.8238143358
21
129.4223313940
31
0.0000000000
11
82.6436643595
21
129.7298666402
31
0.0000000000
11
82.3976957700
21
130.0136881707
31
0.0000000000
11
82.0919651305
21
130.2668073573
31
0.0000000000
11
81.7340005438
21
130.4829915658
31
0.0000000000
11
81.3326162861
21
130.6569176233
31
0.0000000000
11
80.8976957700
21
130.7843028932
31
0.0000000000
11
80.4399481820
21
130.8620107273
31
0.0000000000
11
79.9706447869
21
130.8881277009
31
0.0000000000
11
79.5013413918
21
130.8620107273
31
0.0000000000
11
79.0435938038
21
130.7843028932
31
0.0000000000
11
78.6086732877
21
130.6569176233
31
0.0000000000
11
78.2072890300
21
130.4829915658
31
0.0000000000
11
77.8493244434
21
130.2668073573
31
0.0000000000
11
77.5435938038
21
130.0136881707
31
0.0000000000
11
77.2976252144
21
129.7298666402
31
0.0000000000
11
77.1174752380
21
129.4223313940
31
0.0000000000
11
77.0075797651
21
129.0986549705
31
0.0000000000
11
76.9706447869
21
128.7668073573
31
0.0000000000
0
SPLINE
5
2AD
100
AcDbEntity
8
0
100
AcDbSpline
62
7
6
CONTINUOUS
70
0
71
3
72
12
73
8
74
6
42
0.0000001000
43
0.0000001000
44
0.0000000001
12
-2.9088044401
22
0.0000000002
32
0.0000000000
13
-2.8500346559
23
0.5817608880
33
0.0000000000
40
0.0000000000
40
0.0000000000
40
0.0000000000
40
0.0000000000
40
0.1965904100
40
0.3931900414
40
0.5907424305
40
0.7915603834
40
1.0000000000
40
1.0000000000
40
1.0000000000
40
1.0000000000
10
79.9706447869
20
132.3023412633
30
0.0000000000
10
79.7800304344
20
132.3023412633
30
0.0000000000
10
79.3987342029
20
132.3112789270
30
0.0000000000
10
78.8271431237
20
132.3509223109
30
0.0000000000
10
78.2537214560
20
132.4155261082
30
0.0000000000
10
77.6719494553
20
132.5042048974
30
0.0000000000
10
77.2819134847
20
132.5777017428
30
0.0000000000
10
77.0838934410
20
132.6181224149
30
0.0000000000
11
79.9706447869
21
132.3023412633
31
0.0000000000
11
79.3989564019
21
132.3156406197
31
0.0000000000
11
78.8284374678
21
132.3549255582
31
0.0000000000
11
78.2573629067
21
132.4188507543
31
0.0000000000
11
77.6798188399
21
132.5063868572
31
0.0000000000
11
77.0838934410
21
132.6181224149
31
0.0000000000
0
SPLINE
5
2AE
100
AcDbEntity
8
0
100
AcDbSpline
62
7
6
CONTINUOUS
70
0
71
3
72
14
73
10
74
8
42
0.0000001000
43
0.0000001000
44
0.0000000001
12
-4.1776856527
22
-0.0000000004
32
0.0000000000
13
-3.1536551290
23
-2.7448814403
33
0.0000000000
40
0.0000000000
40
0.0000000000
40
0.0000000000
40
0.0000000000
40
0.1564023304
40
0.3114652551
40
0.4639252174
40
0.6126253958
40
0.7565890505
40
0.8950803110
40
1.0000000000
40
1.0000000000
40
1.0000000000
40
1.0000000000
10
79.9706447869
20
132.3023412633
30
0.0000000000
10
79.7528448631
20
132.3023412633
30
0.0000000000
10
79.3188386486
20
132.2823161432
30
0.0000000000
10
78.6781400947
20
132.1925790129
30
0.0000000000
10
78.0592328132
20
132.0446854336
30
0.0000000000
10
77.4726195847
20
131.8410852172
30
0.0000000000
10
76.9281834506
20
131.5851476942
30
0.0000000000
10
76.4679620633
20
131.3012975976
30
0.0000000000
10
76.2003273045
20
131.0922587330
30
0.0000000000
10
76.0900337993
20
130.9962613640
30
0.0000000000
11
79.9706447869
21
132.3023412633
31
0.0000000000
11
79.3179457764
21
132.2720879454
31
0.0000000000
11
78.6764569331
21
132.1818533160
31
0.0000000000
11
78.0571211015
21
132.0331835685
31
0.0000000000
11
77.4705425051
21
131.8286277783
31
0.0000000000
11
76.9267534357
21
131.5716893015
31
0.0000000000
11
76.4350534356
21
131.2667667367
31
0.0000000000
11
76.0900337993
21
130.9962613640
31
0.0000000000
0
SPLINE
5
2AF
100
AcDbEntity
8
0
100
AcDbSpline
62
7
6
CONTINUOUS
70
0
71
3
72
14
73
10
74
8
42
0.0000001000
43
0.0000001000
44
0.0000000001
12
-3.1536551290
22
2.7448814403
32
0.0000000000
13
-4.1776856527
23
0.0000000004
33
0.0000000000
40
0.0000000000
40
0.0000000000
40
0.0000000000
40
0.0000000000
40
0.1049196890
40
0.2434109495
40
0.3873746042
40
0.5360747826
40
0.6885347449
40
0.8435976696
40
1.0000000000
40
1.0000000000
40
1.0000000000
40
1.0000000000
10
83.8512557745
20
130.9962613639
30
0.0000000000
10
83.7409622694
20
131.0922587330
30
0.0000000000
10
83.4733275106
20
131.3012975976
30
0.0000000000
10
83.0131061234
20
131.5851476941
30
0.0000000000
10
82.4686699892
20
131.8410852172
30
0.0000000000
10
81.8820567607
20
132.0446854336
30
0.0000000000
10
81.2631494792
20
132.1925790129
30
0.0000000000
10
80.6224509253
20
132.2823161432
30
0.0000000000
10
80.1884447108
20
132.3023412633
30
0.0000000000
10
79.9706447869
20
132.3023412633
30
0.0000000000
11
83.8512557745
21
130.9962613639
31
0.0000000000
11
83.5062361383
21
131.2667667366
31
0.0000000000
11
83.0145361382
21
131.5716893015
31
0.0000000000
11
82.4707470689
21
131.8286277783
31
0.0000000000
11
81.8841684724
21
132.0331835685
31
0.0000000000
11
81.2648326408
21
132.1818533160
31
0.0000000000
11
80.6233437974
21
132.2720879454
31
0.0000000000
11
79.9706447869
21
132.3023412633
31
0.0000000000
0
SPLINE
5
2B0
100
AcDbEntity
8
0
100
AcDbSpline
62
7
6
CONTINUOUS
70
0
71
3
72
12
73
8
74
6
42
0.0000001000
43
0.0000001000
44
0.0000000001
12
-2.8500350420
22
-0.5817609668
32
0.0000000000
13
-2.9088048342
23
-0.0000000002
33
0.0000000000
40
0.0000000000
40
0.0000000000
40
0.0000000000
40
0.0000000000
40
0.2099998935
40
0.4113263420
40
0.6086274273
40
0.8044573348
40
1.0000000000
40
1.0000000000
40
1.0000000000
40
1.0000000000
10
82.8573961329
20
132.6181224149
30
0.0000000000
10
82.6578937811
20
132.5773991679
30
0.0000000000
10
82.2658763760
20
132.5035747650
30
0.0000000000
10
81.6823314730
20
132.4148230999
30
0.0000000000
10
81.1093776139
20
132.3505073371
30
0.0000000000
10
80.5397764288
20
132.3111897874
30
0.0000000000
10
80.1602432702
20
132.3023412633
30
0.0000000000
10
79.9706447869
20
132.3023412633
30
0.0000000000
11
82.8573961329
21
132.6181224149
31
0.0000000000
11
82.2569955938
21
132.5056264876
31
0.0000000000
11
81.6779597224
21
132.4180623469
31
0.0000000000
11
81.1075859137
21
132.3544478122
31
0.0000000000
11
80.5392880119
21
132.3154997687
31
0.0000000000
11
79.9706447869
21
132.3023412633
31
0.0000000000
0
SPLINE
5
2B1
100
AcDbEntity
8
0
100
AcDbSpline
62
7
6
CONTINUOUS
70
0
71
3
72
10
73
6
74
4
42
0.0000001000
43
0.0000001000
44
0.0000000001
12
-0.9248310298
22
1.3002740064
32
0.0000000000
13
-0.8332629650
23
1.3607127238
33
0.0000000000
40
0.0000000000
40
0.0000000000
40
0.0000000000
40
0.0000000000
40
0.3111738748
40
0.6429536971
40
1.0000000000
40
1.0000000000
40
1.0000000000
40
1.0000000000
10
83.7317081937
20
131.2837460039
30
0.0000000000
10
83.6357804420
20
131.4186164375
30
0.0000000000
10
83.4416466229
20
131.7001788302
30
0.0000000000
10
83.1505723982
20
132.1453711475
30
0.0000000000
10
82.9565672865
20
132.4561765991
30
0.0000000000
10
82.8573961329
20
132.6181224149
30
0.0000000000
11
83.7317081937
21
131.2837460039
31
0.0000000000
11
83.4495048756
21
131.6922502595
31
0.0000000000
11
83.1594334994
21
132.1350844102
31
0.0000000000
11
82.8573961329
21
132.6181224149
31
0.0000000000
0
SPLINE
5
2B2
100
AcDbEntity
8
0
100
AcDbSpline
62
7
6
CONTINUOUS
70
0
71
3
72
10
73
6
74
4
42
0.0000001000
43
0.0000001000
44
0.0000000001
12
-0.8332603964
22
-1.3607085294
32
0.0000000000
13
-0.9248278181
23
-1.3002702324
33
0.0000000000
40
0.0000000000
40
0.0000000000
40
0.0000000000
40
0.0000000000
40
0.3570639693
40
0.6889286307
40
1.0000000000
40
1.0000000000
40
1.0000000000
40
1.0000000000
10
77.0838934410
20
132.6181224149
30
0.0000000000
10
76.9847176861
20
132.4561690854
30
0.0000000000
10
76.7906841786
20
132.1453184182
30
0.0000000000
10
76.4996092026
20
131.7001285150
30
0.0000000000
10
76.3054800451
20
131.4185756189
30
0.0000000000
10
76.2095842265
20
131.2837500050
30
0.0000000000
11
77.0838934410
21
132.6181224149
31
0.0000000000
11
76.7818418342
21
132.1350621408
31
0.0000000000
11
76.4916953499
21
131.6921173166
31
0.0000000000
11
76.2095842265
21
131.2837500050
31
0.0000000000
0
SPLINE
5
2B3
100
AcDbEntity
8
0
100
AcDbSpline
62
7
6
CONTINUOUS
70
0
71
3
72
11
73
7
74
5
42
0.0000001000
43
0.0000001000
44
0.0000000001
12
0.9481233253
22
1.1612091802
32
0.0000000000
13
0.2535533360
23
1.4796332265
33
0.0000000000
40
0.0000000000
40
0.0000000000
40
0.0000000000
40
0.0000000000
40
0.3373256260
40
0.6613670559
40
0.9756769430
40
1.0000000000
40
1.0000000000
40
1.0000000000
40
1.0000000000
10
84.3007718059
20
126.9990404044
30
0.0000000000
10
84.4073805706
20
127.1296089423
30
0.0000000000
10
84.5982510666
20
127.4012981895
30
0.0000000000
10
84.8115542660
20
127.8421761328
30
0.0000000000
10
84.9024208007
20
128.1624677248
30
0.0000000000
10
84.9322389221
20
128.3292775958
30
0.0000000000
10
84.9342946529
20
128.3412739969
30
0.0000000000
11
84.3007718059
21
126.9990404044
31
0.0000000000
11
84.5900449200
21
127.4138213245
31
0.0000000000
11
84.8002758277
21
127.8517488866
31
0.0000000000
11
84.9278696956
21
128.3053308115
31
0.0000000000
11
84.9342946529
21
128.3412739969
31
0.0000000000
0
SPLINE
5
2B4
100
AcDbEntity
8
0
100
AcDbSpline
62
7
6
CONTINUOUS
70
0
71
3
72
24
73
20
74
18
42
0.0000001000
43
0.0000001000
44
0.0000000001
12
0.0000000000
22
-8.0923367885
32
0.0000000000
13
0.0000000000
23
8.0923367885
33
0.0000000000
40
0.0000000000
40
0.0000000000
40
0.0000000000
40
0.0000000000
40
0.0485798254
40
0.0987328816
40
0.1516952281
40
0.2081746020
40
0.2683250260
40
0.3318202783
40
0.3979624355
40
0.4657941722
40
0.5342058278
40
0.6020375645
40
0.6681797217
40
0.7316749740
40
0.7918253980
40
0.8483047719
40
0.9012671184
40
0.9514201746
40
1.0000000000
40
1.0000000000
40
1.0000000000
40
1.0000000000
10
76.9706447869
20
128.4839646449
30
0.0000000000
10
76.9706447869
20
128.3529232087
30
0.0000000000
10
77.0062602463
20
128.0853802861
30
0.0000000000
10
77.1627294742
20
127.7030686482
30
0.0000000000
10
77.4149930618
20
127.3499601363
30
0.0000000000
10
77.7529301569
20
127.0375378193
30
0.0000000000
10
78.1645610735
20
126.7751237474
30
0.0000000000
10
78.6360449752
20
126.5707415629
30
0.0000000000
10
79.1517581024
20
126.4307557196
30
0.0000000000
10
79.6946295808
20
126.3596193130
30
0.0000000000
10
80.2466599931
20
126.3596193130
30
0.0000000000
10
80.7895314714
20
126.4307557196
30
0.0000000000
10
81.3052445986
20
126.5707415629
30
0.0000000000
10
81.7767285004
20
126.7751237474
30
0.0000000000
10
82.1883594169
20
127.0375378193
30
0.0000000000
10
82.5262965120
20
127.3499601363
30
0.0000000000
10
82.7785600997
20
127.7030686482
30
0.0000000000
10
82.9350293275
20
128.0853802861
30
0.0000000000
10
82.9706447869
20
128.3529232087
30
0.0000000000
10
82.9706447869
20
128.4839646449
30
0.0000000000
11
76.9706447869
21
128.4839646449
31
0.0000000000
11
77.0217254879
21
128.0941730546
31
0.0000000000
11
77.1732280987
21
127.7176553494
31
0.0000000000
11
77.4199933797
21
127.3672333883
31
0.0000000000
11
77.7536180353
21
127.0548403706
31
0.0000000000
11
78.1627408778
21
126.7911144661
31
0.0000000000
11
78.6334297196
21
126.5850365441
31
0.0000000000
11
79.1496558167
21
126.4436243410
31
0.0000000000
11
79.6938397085
21
126.3716934799
31
0.0000000000
11
80.2474498653
21
126.3716934799
31
0.0000000000
11
80.7916337571
21
126.4436243410
31
0.0000000000
11
81.3078598543
21
126.5850365441
31
0.0000000000
11
81.7785486961
21
126.7911144661
31
0.0000000000
11
82.1876715386
21
127.0548403706
31
0.0000000000
11
82.5212961941
21
127.3672333883
31
0.0000000000
11
82.7680614751
21
127.7176553494
31
0.0000000000
11
82.9195640860
21
128.0941730546
31
0.0000000000
11
82.9706447869
21
128.4839646449
31
0.0000000000
0
SPLINE
5
2B5
100
AcDbEntity
8
0
100
AcDbSpline
62
9
6
CONTINUOUS
70
0
71
3
72
22
73
18
74
16
42
0.0000001000
43
0.0000001000
44
0.0000000001
12
6.2420809259
22
6.8291913426
32
0.0000000000
13
6.2420790172
23
-6.8291930758
33
0.0000000000
40
0.0000000000
40
0.0000000000
40
0.0000000000
40
0.0000000000
40
0.0475169281
40
0.1108031202
40
0.1769704298
40
0.2457628746
40
0.3167392281
40
0.3893586213
40
0.4629952196
40
0.5369806578
40
0.6106174889
40
0.6832372894
40
0.7542142409
40
0.8230075611
40
0.8891759156
40
0.9524627864
40
1.0000000000
40
1.0000000000
40
1.0000000000
40
1.0000000000
10
75.7713977893
20
148.1515046408
30
0.0000000000
10
75.8702659595
20
148.2596720388
30
0.0000000000
10
76.1158588771
20
148.4981160851
30
0.0000000000
10
76.5523259582
20
148.8276437495
30
0.0000000000
10
77.0834791395
20
149.1323606566
30
0.0000000000
10
77.6678909691
20
149.3829906816
30
0.0000000000
10
78.2947840403
20
149.5750401687
30
0.0000000000
10
78.9525595241
20
149.7050375201
30
0.0000000000
10
79.6291114207
20
149.7706373191
30
0.0000000000
10
80.3119566356
20
149.7706480078
30
0.0000000000
10
80.9885125582
20
149.7050693939
30
0.0000000000
10
81.6462959879
20
149.5750926819
30
0.0000000000
10
82.2732011091
20
149.3830628579
30
0.0000000000
10
82.8576291091
20
149.1324509557
30
0.0000000000
10
83.3888010542
20
148.8277507681
30
0.0000000000
10
83.8253363982
20
148.4982008193
30
0.0000000000
10
84.0709820484
20
148.2597175718
30
0.0000000000
10
84.1698923962
20
148.1515039685
30
0.0000000000
11
75.7713977893
21
148.1515046408
31
0.0000000000
11
76.0859978131
21
148.4582736350
31
0.0000000000
11
76.5518081731
21
148.8122243273
31
0.0000000000
11
77.0815896461
21
149.1179436114
31
0.0000000000
11
77.6655467806
21
149.3697421164
31
0.0000000000
11
78.2926126647
21
149.5628259137
31
0.0000000000
11
78.9510617602
21
149.6935910481
31
0.0000000000
11
79.6285657341
21
149.7595946256
31
0.0000000000
11
80.3125019512
21
149.7596053817
31
0.0000000000
11
80.9900101622
21
149.6936231015
31
0.0000000000
11
81.6484672201
21
149.5628787350
31
0.0000000000
11
82.2755449963
21
149.3698147748
31
0.0000000000
11
82.8595187248
21
149.1180343172
31
0.0000000000
11
83.3893205187
21
148.8123309225
31
0.0000000000
11
83.8551510530
21
148.4583964096
31
0.0000000000
11
84.1698923962
21
148.1515039685
31
0.0000000000
0
SPLINE
5
2B6
100
AcDbEntity
8
0
100
AcDbSpline
62
7
6
CONTINUOUS
70
0
71
3
72
8
73
4
74
2
42
0.0000001000
43
0.0000001000
44
0.0000000001
12
0.0000000000
22
0.2786288576
32
0.0000000000
13
-0.0512245392
23
0.2749553180
33
0.0000000000
40
0.0000000000
40
0.0000000000
40
0.0000000000
40
0.0000000000
40
1.0000000000
40
1.0000000000
40
1.0000000000
40
1.0000000000
10
82.9706447869
20
128.4839646449
30
0.0000000000
10
82.9706447869
20
128.5768409307
30
0.0000000000
10
82.9618419009
20
128.6700178544
30
0.0000000000
10
82.9447670545
20
128.7616696271
30
0.0000000000
11
82.9706447869
21
128.4839646449
31
0.0000000000
11
82.9447670545
21
128.7616696271
31
0.0000000000
0
SPLINE
5
2B7
100
AcDbEntity
8
0
100
AcDbSpline
62
7
6
CONTINUOUS
70
0
71
3
72
24
73
20
74
18
42
0.0000001000
43
0.0000001000
44
0.0000000001
12
-1.3852870692
22
7.4357339743
32
0.0000000000
13
-1.3852870692
23
-7.4357339743
33
0.0000000000
40
0.0000000000
40
0.0000000000
40
0.0000000000
40
0.0000000000
40
0.0151949899
40
0.0690571217
40
0.1259363051
40
0.1865926182
40
0.2511914743
40
0.3193825260
40
0.3904162346
40
0.4632644760
40
0.5367355240
40
0.6095837654
40
0.6806174740
40
0.7488085257
40
0.8134073818
40
0.8740636949
40
0.9309428783
40
0.9848050101
40
1.0000000000
40
1.0000000000
40
1.0000000000
40
1.0000000000
10
82.9447670545
20
128.7616696271
30
0.0000000000
10
82.9377505801
20
128.7993315948
30
0.0000000000
10
82.8995145445
20
128.9693246275
30
0.0000000000
10
82.7785600997
20
129.2648606415
30
0.0000000000
10
82.5262965120
20
129.6179691534
30
0.0000000000
10
82.1883594169
20
129.9303914705
30
0.0000000000
10
81.7767285004
20
130.1928055423
30
0.0000000000
10
81.3052445986
20
130.3971877269
30
0.0000000000
10
80.7895314714
20
130.5371735701
30
0.0000000000
10
80.2466599931
20
130.6083099767
30
0.0000000000
10
79.6946295808
20
130.6083099767
30
0.0000000000
10
79.1517581024
20
130.5371735701
30
0.0000000000
10
78.6360449752
20
130.3971877269
30
0.0000000000
10
78.1645610735
20
130.1928055423
30
0.0000000000
10
77.7529301569
20
129.9303914705
30
0.0000000000
10
77.4149930618
20
129.6179691534
30
0.0000000000
10
77.1627294742
20
129.2648606415
30
0.0000000000
10
77.0417750293
20
128.9693246275
30
0.0000000000
10
77.0035389937
20
128.7993315948
30
0.0000000000
10
76.9965225194
20
128.7616696271
30
0.0000000000
11
82.9447670545
21
128.7616696271
31
0.0000000000
11
82.9195640860
21
128.8737562351
31
0.0000000000
11
82.7680614751
21
129.2502739403
31
0.0000000000
11
82.5212961941
21
129.6006959015
31
0.0000000000
11
82.1876715386
21
129.9130889191
31
0.0000000000
11
81.7785486961
21
130.1768148236
31
0.0000000000
11
81.3078598543
21
130.3828927456
31
0.0000000000
11
80.7916337571
21
130.5243049487
31
0.0000000000
11
80.2474498653
21
130.5962358098
31
0.0000000000
11
79.6938397085
21
130.5962358098
31
0.0000000000
11
79.1496558167
21
130.5243049487
31
0.0000000000
11
78.6334297196
21
130.3828927456
31
0.0000000000
11
78.1627408778
21
130.1768148236
31
0.0000000000
11
77.7536180353
21
129.9130889191
31
0.0000000000
11
77.4199933797
21
129.6006959015
31
0.0000000000
11
77.1732280987
21
129.2502739403
31
0.0000000000
11
77.0217254879
21
128.8737562351
31
0.0000000000
11
76.9965225194
21
128.7616696271
31
0.0000000000
0
SPLINE
5
2B8
100
AcDbEntity
8
0
100
AcDbSpline
62
7
6
CONTINUOUS
70
0
71
3
72
8
73
4
74
2
42
0.0000001000
43
0.0000001000
44
0.0000000001
12
-0.0512245392
22
-0.2749553180
32
0.0000000000
13
0.0000000000
23
-0.2786288576
33
0.0000000000
40
0.0000000000
40
0.0000000000
40
0.0000000000
40
0.0000000000
40
1.0000000000
40
1.0000000000
40
1.0000000000
40
1.0000000000
10
76.9965225194
20
128.7616696271
30
0.0000000000
10
76.9794476730
20
128.6700178544
30
0.0000000000
10
76.9706447869
20
128.5768409307
30
0.0000000000
10
76.9706447869
20
128.4839646449
30
0.0000000000
11
76.9965225194
21
128.7616696271
31
0.0000000000
11
76.9706447869
21
128.4839646449
31
0.0000000000
0
SPLINE
5
2B9
100
AcDbEntity
8
0
100
AcDbSpline
62
7
6
CONTINUOUS
70
0
71
3
72
23
73
19
74
17
42
0.0000001000
43
0.0000001000
44
0.0000000001
12
0.0000000000
22
-6.4726813336
32
0.0000000000
13
0.0000000000
23
6.4726813336
33
0.0000000000
40
0.0000000000
40
0.0000000000
40
0.0000000000
40
0.0000000000
40
0.0516440503
40
0.1051635197
40
0.1619856910
40
0.2228536142
40
0.2878172934
40
0.3563477577
40
0.4274874096
40
0.5000000000
40
0.5725125904
40
0.6436522423
40
0.7121827066
40
0.7771463858
40
0.8380143090
40
0.8948364803
40
0.9483559497
40
1.0000000000
40
1.0000000000
40
1.0000000000
40
1.0000000000
10
82.3706447869
20
128.0597005762
30
0.0000000000
10
82.3706447869
20
127.9482754161
30
0.0000000000
10
82.3383088861
20
127.7202233066
30
0.0000000000
10
82.1968079761
20
127.3966124770
30
0.0000000000
10
81.9698366327
20
127.1011034668
30
0.0000000000
10
81.6675855181
20
126.8442985096
30
0.0000000000
10
81.3019823606
20
126.6346914535
30
0.0000000000
10
80.8867756139
20
126.4794599071
30
0.0000000000
10
80.4374178167
20
126.3840389971
30
0.0000000000
10
79.9706447869
20
126.3518447148
30
0.0000000000
10
79.5038717572
20
126.3840389971
30
0.0000000000
10
79.0545139599
20
126.4794599071
30
0.0000000000
10
78.6393072133
20
126.6346914535
30
0.0000000000
10
78.2737040558
20
126.8442985096
30
0.0000000000
10
77.9714529412
20
127.1011034668
30
0.0000000000
10
77.7444815978
20
127.3966124770
30
0.0000000000
10
77.6029806878
20
127.7202233066
30
0.0000000000
10
77.5706447869
20
127.9482754161
30
0.0000000000
10
77.5706447869
20
128.0597005762
30
0.0000000000
11
82.3706447869
21
128.0597005762
31
0.0000000000
11
82.3245294599
21
127.7286213210
31
0.0000000000
11
82.1879556650
21
127.4102652560
31
0.0000000000
11
81.9661718565
21
127.1168666261
31
0.0000000000
11
81.6677010618
21
126.8597005762
31
0.0000000000
11
81.3040133462
21
126.6486498533
31
0.0000000000
11
80.8890850246
21
126.4918250183
31
0.0000000000
11
80.4388615598
21
126.3952527618
31
0.0000000000
11
79.9706447869
21
126.3626443013
31
0.0000000000
11
79.5024280141
21
126.3952527618
31
0.0000000000
11
79.0522045492
21
126.4918250183
31
0.0000000000
11
78.6372762277
21
126.6486498533
31
0.0000000000
11
78.2735885121
21
126.8597005762
31
0.0000000000
11
77.9751177174
21
127.1168666261
31
0.0000000000
11
77.7533339089
21
127.4102652560
31
0.0000000000
11
77.6167601140
21
127.7286213210
31
0.0000000000
11
77.5706447869
21
128.0597005762
31
0.0000000000
0
SPLINE
5
2BA
100
AcDbEntity
8
0
100
AcDbSpline
62
7
6
CONTINUOUS
70
0
71
3
72
23
73
19
74
17
42
0.0000001000
43
0.0000001000
44
0.0000000001
12
0.0000000000
22
6.4726813336
32
0.0000000000
13
0.0000000000
23
-6.4726813336
33
0.0000000000
40
0.0000000000
40
0.0000000000
40
0.0000000000
40
0.0000000000
40
0.0516440503
40
0.1051635197
40
0.1619856910
40
0.2228536142
40
0.2878172934
40
0.3563477577
40
0.4274874096
40
0.5000000000
40
0.5725125904
40
0.6436522423
40
0.7121827066
40
0.7771463858
40
0.8380143090
40
0.8948364803
40
0.9483559497
40
1.0000000000
40
1.0000000000
40
1.0000000000
40
1.0000000000
10
77.5706447869
20
128.0597005762
30
0.0000000000
10
77.5706447869
20
128.1711257362
30
0.0000000000
10
77.6029806878
20
128.3991778457
30
0.0000000000
10
77.7444815978
20
128.7227886753
30
0.0000000000
10
77.9714529412
20
129.0182976855
30
0.0000000000
10
78.2737040558
20
129.2751026427
30
0.0000000000
10
78.6393072133
20
129.4847096988
30
0.0000000000
10
79.0545139599
20
129.6399412453
30
0.0000000000
10
79.5038717572
20
129.7353621552
30
0.0000000000
10
79.9706447869
20
129.7675564375
30
0.0000000000
10
80.4374178167
20
129.7353621552
30
0.0000000000
10
80.8867756139
20
129.6399412453
30
0.0000000000
10
81.3019823606
20
129.4847096988
30
0.0000000000
10
81.6675855181
20
129.2751026427
30
0.0000000000
10
81.9698366327
20
129.0182976855
30
0.0000000000
10
82.1968079761
20
128.7227886753
30
0.0000000000
10
82.3383088861
20
128.3991778457
30
0.0000000000
10
82.3706447869
20
128.1711257362
30
0.0000000000
10
82.3706447869
20
128.0597005762
30
0.0000000000
11
77.5706447869
21
128.0597005762
31
0.0000000000
11
77.6167601140
21
128.3907798313
31
0.0000000000
11
77.7533339089
21
128.7091358963
31
0.0000000000
11
77.9751177174
21
129.0025345262
31
0.0000000000
11
78.2735885121
21
129.2597005762
31
0.0000000000
11
78.6372762277
21
129.4707512991
31
0.0000000000
11
79.0522045492
21
129.6275761340
31
0.0000000000
11
79.5024280141
21
129.7241483905
31
0.0000000000
11
79.9706447869
21
129.7567568510
31
0.0000000000
11
80.4388615598
21
129.7241483905
31
0.0000000000
11
80.8890850246
21
129.6275761340
31
0.0000000000
11
81.3040133462
21
129.4707512991
31
0.0000000000
11
81.6677010618
21
129.2597005762
31
0.0000000000
11
81.9661718565
21
129.0025345262
31
0.0000000000
11
82.1879556650
21
128.7091358963
31
0.0000000000
11
82.3245294599
21
128.3907798313
31
0.0000000000
11
82.3706447869
21
128.0597005762
31
0.0000000000
0
SPLINE
5
2BB
100
AcDbEntity
8
0
100
AcDbSpline
62
7
6
CONTINUOUS
70
0
71
3
72
9
73
5
74
3
42
0.0000001000
43
0.0000001000
44
0.0000000001
12
0.2314261153
22
0.0212993921
32
0.0000000000
13
0.2324041974
23
0.0000000000
33
0.0000000000
40
0.0000000000
40
0.0000000000
40
0.0000000000
40
0.0000000000
40
0.4949083034
40
1.0000000000
40
1.0000000000
40
1.0000000000
40
1.0000000000
10
82.8573961329
20
148.1393174518
30
0.0000000000
10
82.8955743682
20
148.1428312005
30
0.0000000000
10
82.9728954569
20
148.1480925023
30
0.0000000000
10
83.0503741577
20
148.1497979995
30
0.0000000000
10
83.0895026345
20
148.1497979995
30
0.0000000000
11
82.8573961329
21
148.1393174518
31
0.0000000000
11
82.9721466705
21
148.1471679861
31
0.0000000000
11
83.0895026345
21
148.1497979995
31
0.0000000000
0
SPLINE
5
2BC
100
AcDbEntity
8
0
100
AcDbSpline
62
7
6
CONTINUOUS
70
0
71
3
72
9
73
5
74
3
42
0.0000001000
43
0.0000001000
44
0.0000000001
12
-0.2314261153
22
0.0212993921
32
0.0000000000
13
-0.2324041974
23
0.0000000000
33
0.0000000000
40
0.0000000000
40
0.0000000000
40
0.0000000000
40
0.0000000000
40
0.4949083034
40
1.0000000000
40
1.0000000000
40
1.0000000000
40
1.0000000000
10
77.0838934410
20
148.1393174518
30
0.0000000000
10
77.0457152056
20
148.1428312005
30
0.0000000000
10
76.9683941169
20
148.1480925023
30
0.0000000000
10
76.8909154162
20
148.1497979995
30
0.0000000000
10
76.8517869394
20
148.1497979995
30
0.0000000000
11
77.0838934410
21
148.1393174518
31
0.0000000000
11
76.9691429034
21
148.1471679861
31
0.0000000000
11
76.8517869394
21
148.1497979995
31
0.0000000000
0
SPLINE
5
2BD
100
AcDbEntity
8
0
100
AcDbSpline
62
7
6
CONTINUOUS
70
0
71
3
72
9
73
5
74
3
42
0.0000001000
43
0.0000001000
44
0.0000000001
12
-0.2357798783
22
0.5775403934
32
0.0000000000
13
-0.2284048213
23
0.5804965931
33
0.0000000000
40
0.0000000000
40
0.0000000000
40
0.0000000000
40
0.0000000000
40
0.5016410580
40
1.0000000000
40
1.0000000000
40
1.0000000000
40
1.0000000000
10
83.0895026345
20
132.8569047806
30
0.0000000000
10
83.0500770119
20
132.9534774387
30
0.0000000000
10
82.9720933790
20
133.1462403717
30
0.0000000000
10
82.8953386612
20
133.3394959339
30
0.0000000000
10
82.8573961329
20
133.4359278233
30
0.0000000000
11
83.0895026345
21
132.8569047806
31
0.0000000000
11
82.9721466765
21
133.1469970091
31
0.0000000000
11
82.8573961329
21
133.4359278233
31
0.0000000000
0
SPLINE
5
2BE
100
AcDbEntity
8
0
100
AcDbSpline
62
7
6
CONTINUOUS
70
0
71
3
72
9
73
5
74
3
42
0.0000001000
43
0.0000001000
44
0.0000000001
12
0.2357798783
22
0.5775403934
32
0.0000000000
13
0.2284048213
23
0.5804965931
33
0.0000000000
40
0.0000000000
40
0.0000000000
40
0.0000000000
40
0.0000000000
40
0.5016410580
40
1.0000000000
40
1.0000000000
40
1.0000000000
40
1.0000000000
10
76.8517869394
20
132.8569047806
30
0.0000000000
10
76.8912125619
20
132.9534774387
30
0.0000000000
10
76.9691961949
20
133.1462403717
30
0.0000000000
10
77.0459509126
20
133.3394959339
30
0.0000000000
10
77.0838934410
20
133.4359278233
30
0.0000000000
11
76.8517869394
21
132.8569047806
31
0.0000000000
11
76.9691428974
21
133.1469970091
31
0.0000000000
11
77.0838934410
21
133.4359278233
31
0.0000000000
0
SPLINE
5
2BF
100
AcDbEntity
8
0
100
AcDbSpline
62
7
6
CONTINUOUS
70
0
71
3
72
13
73
9
74
7
42
0.0000001000
43
0.0000001000
44
0.0000000001
12
0.0000000000
22
2.6941578083
32
0.0000000000
13
2.6941578083
23
0.0000000000
33
0.0000000000
40
0.0000000000
40
0.0000000000
40
0.0000000000
40
0.0000000000
40
0.1366119317
40
0.2853911536
40
0.4455206793
40
0.6200934983
40
0.8093655009
40
1.0000000000
40
1.0000000000
40
1.0000000000
40
1.0000000000
10
70.9706447869
20
142.3965308588
30
0.0000000000
10
70.9706447869
20
142.5192155596
30
0.0000000000
10
71.0196455139
20
142.7775577656
30
0.0000000000
10
71.2298946944
20
143.1261840215
30
0.0000000000
10
71.5567095710
20
143.4198304094
30
0.0000000000
10
71.9756545026
20
143.6425959872
30
0.0000000000
10
72.4574284936
20
143.7806347546
30
0.0000000000
10
72.7994449788
20
143.8115342680
30
0.0000000000
10
72.9706447869
20
143.8115342680
30
0.0000000000
11
70.9706447869
21
142.3965308588
31
0.0000000000
11
71.0371890412
21
142.7585193732
31
0.0000000000
11
71.2391592850
21
143.1047512020
31
0.0000000000
11
71.5564147363
21
143.3970989416
31
0.0000000000
11
71.9697083206
21
143.6215886742
31
0.0000000000
11
72.4592044812
21
143.7644897948
31
0.0000000000
11
72.9706447869
21
143.8115342680
31
0.0000000000
0
SPLINE
5
2C0
100
AcDbEntity
8
0
100
AcDbSpline
62
7
6
CONTINUOUS
70
0
71
3
72
13
73
9
74
7
42
0.0000001000
43
0.0000001000
44
0.0000000001
12
2.6941564882
22
0.0000000000
32
0.0000000000
13
-0.0000000000
23
-2.6941564882
33
0.0000000000
40
0.0000000000
40
0.0000000000
40
0.0000000000
40
0.0000000000
40
0.1906089385
40
0.3797979149
40
0.5543465942
40
0.7145170821
40
0.8633688237
40
1.0000000000
40
1.0000000000
40
1.0000000000
40
1.0000000000
10
86.9706447869
20
143.8115342680
30
0.0000000000
10
87.1418215564
20
143.8115342680
30
0.0000000000
10
87.4837401458
20
143.7806477044
30
0.0000000000
10
87.9654045249
20
143.6426755744
30
0.0000000000
10
88.3843279514
20
143.4200032109
30
0.0000000000
10
88.7112595612
20
143.1263656476
30
0.0000000000
10
88.9216210738
20
142.7776581854
30
0.0000000000
10
88.9706447869
20
142.5192327821
30
0.0000000000
10
88.9706447869
20
142.3965308588
30
0.0000000000
11
86.9706447869
21
143.8115342680
31
0.0000000000
11
87.4820168592
21
143.7645025625
31
0.0000000000
11
87.9713085596
21
143.6217001761
31
0.0000000000
11
88.3845804185
21
143.3973071984
31
0.0000000000
11
88.7019720994
21
143.1049447634
31
0.0000000000
11
88.9040821481
21
142.7585685268
31
0.0000000000
11
88.9706447869
21
142.3965308588
31
0.0000000000
0
ENDSEC
0
SECTION
2
OBJECTS
0
DICTIONARY
5
C
100
AcDbDictionary
280
0
281
1
3
ACAD_GROUP
350
D
3
ACAD_MLINESTYLE
350
17
3
ACAD_LAYOUT
350
1A
3
ACAD_PLOTSETTINGS
350
19
3
ACAD_PLOTSTYLENAME
350
E
0
DICTIONARY
5
D
102
{ACAD_REACTORS
330
C
102
}
100
AcDbDictionary
280
0
281
1
0
ACDBDICTIONARYWDFLT
5
E
102
{ACAD_REACTORS
330
C
102
}
100
AcDbDictionary
281
1
3
Normal
350
F
100
AcDbDictionaryWithDefault
340
F
0
DICTIONARY
5
17
102
{ACAD_REACTORS
330
C
102
}
100
AcDbDictionary
280
0
281
1
3
Standard
350
18
0
DICTIONARY
5
19
102
{ACAD_REACTORS
330
C
102
}
100
AcDbDictionary
281
1
0
DICTIONARY
5
1A
102
{ACAD_REACTORS
330
C
102
}
100
AcDbDictionary
281
1
3
Layout1
350
1E
3
Model
350
22
0
ACDBPLACEHOLDER
5
F
102
{ACAD_REACTORS
330
E
102
}
0
MLINESTYLE
5
18
102
{ACAD_REACTORS
330
17
102
}
100
AcDbMlineStyle
2
STANDARD
70
0
3

62
256
51
90.0
52
90.0
71
2
49
0.5
62
256
6
BYLAYER
49
-0.5
62
256
6
BYLAYER
0
LAYOUT
5
1E
102
{ACAD_REACTORS
330
1A
102
}
100
AcDbPlotSettings
1

2

4

6

40
0.0
41
0.0
42
0.0
43
0.0
44
0.0
45
0.0
46
0.0
47
0.0
48
0.0
49
0.0
140
0.0
141
0.0
142
1.0
143
1.0
70
0
72
0
73
0
74
0
7

75
0
147
1.0
148
0.0
149
0.0
100
AcDbLayout
1
Layout1
70
0
71
0
10
0.0
20
0.0
11
0.0
21
0.0
12
0.0
22
0.0
32
0.0
14
0.0
24
0.0
34
0.0
15
0.0
25
0.0
35
0.0
146
0.0
13
0.0
23
0.0
33
0.0
16
0.0
26
0.0
36
0.0
17
0.0
27
0.0
37
0.0
76
0
330
1B
331
0
345
0
346
0
0
LAYOUT
5
22
102
{ACAD_REACTORS
330
1A
102
}
100
AcDbPlotSettings
1

2

4

6

40
0.0
41
0.0
42
0.0
43
0.0
44
0.0
45
0.0
46
0.0
47
0.0
48
0.0
49
0.0
140
0.0
141
0.0
142
1.0
143
1.0
70
0
72
0
73
0
74
0
7

75
0
147
1.0
148
0.0
149
0.0
100
AcDbLayout
1
Model
70
0
71
0
10
0.0
20
0.0
11
0.0
21
0.0
12
0.0
22
0.0
32
0.0
14
0.0
24
0.0
34
0.0
15
0.0
25
0.0
35
0.0
146
0.0
13
0.0
23
0.0
33
0.0
16
0.0
26
0.0
36
0.0
17
0.0
27
0.0
37
0.0
76
0
330
1F
331
0
345
0
346
0
0
ENDSEC
0
EOF
