0
SECTION
2
HEADER
9
$EXTMAX
10
210.0000000000
20
297.0000000000
30
0.0000000000
9
$EXTMIN
10
0.0000000000
20
0.0000000000
30
0.0000000000
9
$LIMMIN
10
0.0000000000
20
0.0000000000
9
$LIMMAX
10
210.0000000000
20
297.0000000000
9
$VIEWCTR
10
105.0000000000
20
148.5000000000
9
$VIEWSIZE
40
297.0000000000
9
$CLAYER
8
0
9
$LTSCALE
40
19.3600000000
9
$CELTYPE
6
BYLAYER
9
$DIMSCALE
40
1
9
$DIMASZ
40
3.5000000000
9
$DIMEXO
40
2.2000000000
9
$DIMDLI
40
13.3760000000
9
$DIMEXE
40
6.3360000000
9
$DIMCEN
40
3.1680000000
9
$DIMLFAC
40
1.0000000000
9
$DIMBLK
1
_FILLED
9
$DIMTXT
40
3.5000000000
9
$PDMODE
70
3
9
$PDSIZE
40
0.3125000000
0
ENDSEC
0
SECTION
2
TABLES
0
TABLE
2
LTYPE
70
6
0
LTYPE
2
BYBLOCK
70
0
3

72
65
73
0
40
0.0
0
LTYPE
2
BYLAYER
70
0
3

72
65
73
0
40
0.0
0
LTYPE
2
CONTINUOUS
70
64
3
Solid line
72
65
73
0
40
0
0
LTYPE
2
CENTER
70
64
3
____ _ ____ _ ____ _ ____ _ ____ _ ____ _ ____
72
65
73
4
40
0.6
49
0.375
49
-0.075
49
0.075
49
-0.075
0
LTYPE
2
HIDDEN
70
64
3
- - - - - - - - - - - - - - - - - - - -
72
65
73
2
40
0.2
49
0.1
49
-0.1
0
LTYPE
2
PHANTOM
70
64
3
_____ _ _ _____ _ _ _____ _ _ _____
72
65
73
6
40
0.8
49
0.45
49
-0.05
49
0.1
49
-0.05
49
0.1
49
-0.05
0
LTYPE
2
DOT
70
64
3
. . . . . . . . . . . . . . . . . . . .
72
65
73
2
40
0.2
49
0.1
49
-0.1
0
LTYPE
2
DASHED
70
64
3
- - - - - - - - - - - - - - - - - - - -
72
65
73
2
40
0.2
49
0.1
49
-0.1
0
ENDTAB
0
TABLE
2
LAYER
70
36
0
LAYER
2
0
70
0
62
7
6
CONTINUOUS
0
LAYER
2
DEFAULT_1
70
0
62
7
6
CENTER
0
LAYER
2
DEFAULT_2
70
0
62
8
6
HIDDEN
0
LAYER
2
DEFAULT_3
70
0
62
7
6
PHANTOM
0
LAYER
2
ASSI
70
0
62
7
6
CONTINUOUS
0
LAYER
2
PIANI
70
0
62
7
6
CONTINUOUS
0
ENDTAB
0
TABLE
2
STYLE
70
1
0
STYLE
2
STANDARD
70
0
40
0.0
41
0.7143000000
50
0.0
71
0
42
0.2
3
txt
4

0
ENDTAB
0
ENDSEC
0
SECTION
2
BLOCKS
0
BLOCK
8
0
62
2
6
CONTINUOUS
2
*D0
70
65
10
0.0000000000
20
0.0000000000
0
TEXT
8
0
62
2
6
CONTINUOUS
10
56.3644567471
20
75.6144260671
7
STANDARD
40
3.5000000000
1
72
50
-45.0000000000
41
0.7143000000
72
0
0
LINE
8
0
62
2
6
CONTINUOUS
10
66.2841739845
20
134.7756014475
11
30.0643490702
21
98.5557765333
0
LINE
8
0
62
2
6
CONTINUOUS
10
117.1958622298
20
84.8639132020
11
80.4760373157
21
48.1440882879
0
LINE
8
0
62
2
6
CONTINUOUS
10
31.1250092420
20
99.6164367051
11
56.3308533647
21
74.4105925824
0
LINE
8
0
62
2
6
CONTINUOUS
10
81.5366974874
20
49.2047484597
11
56.3308533647
21
74.4105925824
0
INSERT
8
0
62
2
6
CONTINUOUS
2
_FILLED
10
31.1250092420
20
99.6164367051
41
  3.500000
42
  3.500000
43
  3.500000
50
135.000000
0
INSERT
8
0
62
2
6
CONTINUOUS
2
_FILLED
10
81.5366974874
20
49.2047484597
41
  3.500000
42
  3.500000
43
  3.500000
50
315.000000
0
ENDBLK
8
0
6
BYBLOCK
62
0
0
BLOCK
8
0
62
2
6
CONTINUOUS
2
*D1
70
65
10
0.0000000000
20
0.0000000000
0
TEXT
8
0
62
2
6
CONTINUOUS
10
66.9642063656
20
88.9435477983
7
STANDARD
40
3.5000000000
1
40
50
-45.0000000000
41
0.7143000000
72
0
0
LINE
8
0
62
2
6
CONTINUOUS
10
78.9765621397
20
124.8405726049
11
53.3424932441
21
99.2065037092
0
LINE
8
0
62
2
6
CONTINUOUS
10
106.5892605120
20
96.8847284821
11
81.1267644916
21
71.4222324617
0
LINE
8
0
62
2
6
CONTINUOUS
10
54.4031534159
20
100.2671638810
11
68.2952890396
21
86.3750282573
0
LINE
8
0
62
2
6
CONTINUOUS
10
82.1874246633
20
72.4828926335
11
68.2952890396
21
86.3750282573
0
INSERT
8
0
62
2
6
CONTINUOUS
2
_FILLED
10
54.4031534159
20
100.2671638810
41
  3.500000
42
  3.500000
43
  3.500000
50
135.000000
0
INSERT
8
0
62
2
6
CONTINUOUS
2
_FILLED
10
82.1874246633
20
72.4828926335
41
  3.500000
42
  3.500000
43
  3.500000
50
315.000000
0
ENDBLK
8
0
6
BYBLOCK
62
0
0
BLOCK
8
0
62
2
6
CONTINUOUS
2
*D2
70
65
10
0.0000000000
20
0.0000000000
0
TEXT
8
0
62
2
6
CONTINUOUS
10
41.8100551655
20
219.9658476931
7
STANDARD
40
3.5000000000
1
18
50
90.0000000000
41
0.7143000000
72
0
0
LINE
8
0
62
2
6
CONTINUOUS
10
67.5519409373
20
231.8189568706
11
41.1850551655
21
231.8189568706
0
LINE
8
0
62
2
6
CONTINUOUS
10
67.5519409373
20
213.8189568706
11
41.1850551655
21
213.8189568706
0
LINE
8
0
62
2
6
CONTINUOUS
10
42.6850551655
20
231.8189568706
11
42.6850551655
21
222.8189568706
0
LINE
8
0
62
2
6
CONTINUOUS
10
42.6850551655
20
213.8189568706
11
42.6850551655
21
222.8189568706
0
INSERT
8
0
62
2
6
CONTINUOUS
2
_FILLED
10
42.6850551655
20
231.8189568706
41
  3.500000
42
  3.500000
43
  3.500000
50
 90.000000
0
INSERT
8
0
62
2
6
CONTINUOUS
2
_FILLED
10
42.6850551655
20
213.8189568706
41
  3.500000
42
  3.500000
43
  3.500000
50
270.000000
0
ENDBLK
8
0
6
BYBLOCK
62
0
0
BLOCK
8
0
2
_FILLED
70
64
10
0.0000000000
20
0.0000000000
0
SOLID
8
0
6
BYBLOCK
62
0
10
0.0000000000
20
0.0000000000
11
-1.0000000000
21
0.1857142857
12
-1.0000000000
22
-0.1857142857
13
-1.0000000000
23
-0.1857142857
0
ENDBLK
8
0
6
BYBLOCK
62
0
0
ENDSEC
0
SECTION
2
ENTITIES
0
DIMENSION
8
0
62
2
6
CONTINUOUS
2
*D0
10
81.5366974874
20
49.2047484597
11
59.3696959225
21
75.0840606259
70
128
13
66.2841739845
23
134.7756014475
14
117.1958622298
24
84.8639132020
50
315.000000
0
DIMENSION
8
0
62
2
6
CONTINUOUS
2
*D1
10
82.1874246633
20
72.4828926335
11
69.9694455410
21
88.4131823571
70
128
13
78.9765621397
23
124.8405726049
14
106.5892605120
24
96.8847284821
50
315.000000
0
DIMENSION
8
0
62
2
6
CONTINUOUS
2
*D2
10
42.6850551655
20
213.8189568706
11
40.0600551655
21
222.4658976931
70
128
13
67.5519409373
23
231.8189568706
14
67.5519409373
24
213.8189568706
50
270.000000
0
LINE
8
0
62
7
6
CONTINUOUS
10
0.0000000000
20
0.0000000000
11
210.0000000000
21
0.0000000000
0
LINE
8
0
62
7
6
CONTINUOUS
10
0.0000000000
20
0.0000000000
11
0.0000000000
21
297.0000000000
0
LINE
8
0
62
7
6
CONTINUOUS
10
210.0000000000
20
0.0000000000
11
210.0000000000
21
297.0000000000
0
LINE
8
0
62
7
6
CONTINUOUS
10
0.0000000000
20
297.0000000000
11
210.0000000000
21
297.0000000000
0
LINE
8
0
62
7
6
CONTINUOUS
10
94.9219986224
20
163.4134260855
11
66.6377273749
21
135.1291548380
0
LINE
8
0
62
7
6
CONTINUOUS
10
96.3362121848
20
161.9992125231
11
68.0519409373
21
133.7149412756
0
LINE
8
0
62
7
6
CONTINUOUS
10
66.6377273749
20
113.5017378400
11
94.9219986224
21
85.2174665926
0
LINE
8
0
62
7
6
CONTINUOUS
10
68.0519409373
20
114.9159514024
11
96.3362121848
21
86.6316801549
0
LINE
8
0
62
7
6
CONTINUOUS
10
104.8214935590
20
152.0997175865
11
77.0372223115
21
124.3154463390
0
LINE
8
0
62
7
6
CONTINUOUS
10
68.0519409373
20
114.9159514024
11
66.6377273749
21
113.5017378400
0
LINE
8
0
62
7
6
CONTINUOUS
10
77.0372223115
20
124.3154463390
11
104.8214935590
21
96.5311750916
0
LINE
8
0
62
7
6
CONTINUOUS
10
68.0519409373
20
133.7149412756
11
66.6377273751
21
135.1291548381
0
LINE
8
0
62
7
6
CONTINUOUS
10
105.5286003402
20
151.3926108053
11
79.3301155303
21
125.1941259955
0
LINE
8
0
62
7
6
CONTINUOUS
10
116.1352020580
20
161.9992125231
11
117.5494156205
21
163.4134260853
0
LINE
8
0
62
7
6
CONTINUOUS
10
107.6499206837
20
152.0997175865
11
106.9428139026
21
151.3926108053
0
LINE
8
0
62
7
6
CONTINUOUS
10
79.3301155303
20
123.4367666826
11
105.5286003402
21
97.2382818727
0
LINE
8
0
62
7
6
CONTINUOUS
10
116.1352020580
20
86.6316801549
11
117.5494156203
21
85.2174665926
0
LINE
8
0
62
7
6
CONTINUOUS
10
106.9428139026
20
97.2382818727
11
107.6499206837
21
96.5311750916
0
LINE
8
0
62
7
6
CONTINUOUS
10
150.5121639605
20
124.3154463390
11
148.5110469485
21
124.3154463386
0
LINE
8
0
62
7
6
CONTINUOUS
10
63.9603672943
20
124.3154463386
11
61.9592502822
21
124.3154463390
0
LINE
8
0
62
7
6
CONTINUOUS
10
135.4341919312
20
124.3154463390
11
135.2626190559
21
124.3154463390
0
LINE
8
0
62
7
6
CONTINUOUS
10
77.0372223115
20
124.3154463390
11
77.2087951868
21
124.3154463390
0
LINE
8
0
62
7
6
CONTINUOUS
10
104.8214935590
20
96.5311750916
11
105.5286003402
21
97.2382818727
0
LINE
8
0
62
7
6
CONTINUOUS
10
96.3362121848
20
86.6316801549
11
94.9219986222
21
85.2174665927
0
LINE
8
0
62
7
6
CONTINUOUS
10
106.9428139026
20
97.2382818727
11
133.1412987124
21
123.4367666826
0
LINE
8
0
62
7
6
CONTINUOUS
10
144.4194733054
20
133.7149412756
11
145.8336868678
21
135.1291548380
0
LINE
8
0
62
7
6
CONTINUOUS
10
107.6499206837
20
96.5311750916
11
135.4341919312
21
124.3154463390
0
LINE
8
0
62
7
6
CONTINUOUS
10
105.5286003402
20
151.3926108053
11
104.8214935590
21
152.0997175865
0
LINE
8
0
62
7
6
CONTINUOUS
10
133.1412987124
20
125.1941259955
11
106.9428139026
21
151.3926108053
0
LINE
8
0
62
7
6
CONTINUOUS
10
96.3362121848
20
161.9992125231
11
94.9219986224
21
163.4134260855
0
LINE
8
0
62
7
6
CONTINUOUS
10
144.4194733054
20
114.9159514024
11
145.8336868677
21
113.5017378399
0
LINE
8
0
62
7
6
CONTINUOUS
10
135.4341919312
20
124.3154463390
11
107.6499206837
21
152.0997175865
0
LINE
8
0
62
7
6
CONTINUOUS
10
116.1352020580
20
86.6316801549
11
144.4194733054
21
114.9159514024
0
LINE
8
0
62
7
6
CONTINUOUS
10
144.4194733054
20
133.7149412756
11
116.1352020580
21
161.9992125231
0
LINE
8
0
62
7
6
CONTINUOUS
10
117.5494156203
20
85.2174665926
11
145.8336868678
21
113.5017378400
0
LINE
8
0
62
7
6
CONTINUOUS
10
145.8336868678
20
135.1291548380
11
117.5494156203
21
163.4134260855
0
POLYLINE
8
0
62
7
6
CONTINUOUS
66
1
70
0
0
VERTEX
8
0
62
7
6
CONTINUOUS
10
61.9592502822
20
215.8189568706
0
VERTEX
8
0
62
7
6
CONTINUOUS
10
61.9688339774
20
215.6234470531
0
VERTEX
8
0
62
7
6
CONTINUOUS
10
61.9974797351
20
215.4298773320
0
VERTEX
8
0
62
7
6
CONTINUOUS
10
62.0448524879
20
215.2402339489
0
VERTEX
8
0
62
7
6
CONTINUOUS
10
62.1106030490
20
215.0559185456
0
VERTEX
8
0
62
7
6
CONTINUOUS
10
62.1944222016
20
214.8782283494
0
VERTEX
8
0
62
7
6
CONTINUOUS
10
62.2954164989
20
214.7094078442
0
VERTEX
8
0
62
7
6
CONTINUOUS
10
62.4124227778
20
214.5514317860
0
VERTEX
8
0
62
7
6
CONTINUOUS
10
62.5443971046
20
214.4056801752
0
VERTEX
8
0
62
7
6
CONTINUOUS
10
62.6901122281
20
214.2735317131
0
VERTEX
8
0
62
7
6
CONTINUOUS
10
62.8481376285
20
214.1563062807
0
VERTEX
8
0
62
7
6
CONTINUOUS
10
63.0169376892
20
214.0551529997
0
VERTEX
8
0
62
7
6
CONTINUOUS
10
63.1948507529
20
213.9710680308
0
VERTEX
8
0
62
7
6
CONTINUOUS
10
63.3802023498
20
213.9048459074
0
VERTEX
8
0
62
7
6
CONTINUOUS
10
63.5709398798
20
213.8571886649
0
VERTEX
8
0
62
7
6
CONTINUOUS
10
63.7649241159
20
213.8285171309
0
VERTEX
8
0
62
7
6
CONTINUOUS
10
63.9603672943
20
213.8189568706
0
SEQEND
0
LINE
8
0
62
7
6
CONTINUOUS
10
61.9592502822
20
215.8189568706
11
61.9592502822
21
229.8189568706
0
LINE
8
0
62
7
6
CONTINUOUS
10
66.2357071214
20
219.9322055247
11
66.2357071214
21
225.7057082166
0
LINE
8
0
62
7
6
CONTINUOUS
10
66.6377273749
20
215.8189568706
11
66.6377273749
21
219.7000990231
0
LINE
8
0
62
7
6
CONTINUOUS
10
66.6377273749
20
225.9378147182
11
66.6377273749
21
229.8189568706
0
LINE
8
0
62
7
6
CONTINUOUS
10
66.7357071214
20
220.2208806593
11
66.7357071214
21
225.4170330820
0
POLYLINE
8
0
62
7
6
CONTINUOUS
66
1
70
0
0
VERTEX
8
0
62
7
6
CONTINUOUS
10
71.2352497365
20
217.3953034314
0
VERTEX
8
0
62
7
6
CONTINUOUS
10
71.2361645062
20
217.2729551952
0
VERTEX
8
0
62
7
6
CONTINUOUS
10
71.2357071214
20
217.2161697066
0
VERTEX
8
0
62
7
6
CONTINUOUS
10
71.2357071214
20
217.0454541787
0
SEQEND
0
POLYLINE
8
0
62
7
6
CONTINUOUS
66
1
70
0
0
VERTEX
8
0
62
7
6
CONTINUOUS
10
71.2357071214
20
217.6228044479
0
VERTEX
8
0
62
7
6
CONTINUOUS
10
71.2357071214
20
217.4520889200
0
VERTEX
8
0
62
7
6
CONTINUOUS
10
71.2352497365
20
217.3953034314
0
SEQEND
0
POLYLINE
8
0
62
7
6
CONTINUOUS
66
1
70
0
0
VERTEX
8
0
62
7
6
CONTINUOUS
10
71.2357071214
20
228.0151092933
0
VERTEX
8
0
62
7
6
CONTINUOUS
10
71.2358107474
20
228.1348413223
0
VERTEX
8
0
62
7
6
CONTINUOUS
10
71.2357071214
20
228.1858248212
0
VERTEX
8
0
62
7
6
CONTINUOUS
10
71.2352497365
20
228.2426103098
0
SEQEND
0
POLYLINE
8
0
62
7
6
CONTINUOUS
66
1
70
0
0
VERTEX
8
0
62
7
6
CONTINUOUS
10
71.2352497365
20
228.2426103098
0
VERTEX
8
0
62
7
6
CONTINUOUS
10
71.2361645062
20
228.3649585461
0
VERTEX
8
0
62
7
6
CONTINUOUS
10
71.2357071214
20
228.4217440346
0
VERTEX
8
0
62
7
6
CONTINUOUS
10
71.2356034953
20
228.4727275335
0
VERTEX
8
0
62
7
6
CONTINUOUS
10
71.2357071214
20
228.5924595625
0
SEQEND
0
LINE
8
0
62
7
6
CONTINUOUS
10
75.7357071214
20
225.4170330820
11
75.7357071214
21
220.2208806593
0
LINE
8
0
62
7
6
CONTINUOUS
10
76.2357071214
20
225.7057082166
11
76.2357071214
21
219.9322055247
0
LINE
8
0
62
7
6
CONTINUOUS
10
66.2357071214
20
225.7057082166
11
71.2357071214
21
228.5924595625
0
LINE
8
0
62
7
6
CONTINUOUS
10
66.7357071214
20
225.4170330820
11
71.2357071214
21
228.0151092933
0
LINE
8
0
62
7
6
CONTINUOUS
10
66.2357071214
20
219.9322055247
11
71.2357071214
21
217.0454541787
0
LINE
8
0
62
7
6
CONTINUOUS
10
71.2357071214
20
217.6228044479
11
66.7357071214
21
220.2208806593
0
POLYLINE
8
0
62
7
6
CONTINUOUS
66
1
70
0
0
VERTEX
8
0
62
7
6
CONTINUOUS
10
66.5384567693
20
220.1075262579
0
VERTEX
8
0
62
7
6
CONTINUOUS
10
66.4329574734
20
220.0455599260
0
VERTEX
8
0
62
7
6
CONTINUOUS
10
66.3835511053
20
220.0175632886
0
VERTEX
8
0
62
7
6
CONTINUOUS
10
66.2357071214
20
219.9322055247
0
SEQEND
0
POLYLINE
8
0
62
7
6
CONTINUOUS
66
1
70
0
0
VERTEX
8
0
62
7
6
CONTINUOUS
10
75.9329574734
20
225.5303874833
0
VERTEX
8
0
62
7
6
CONTINUOUS
10
76.0384567693
20
225.5923538152
0
VERTEX
8
0
62
7
6
CONTINUOUS
10
76.0878631374
20
225.6203504526
0
VERTEX
8
0
62
7
6
CONTINUOUS
10
76.2357071214
20
225.7057082166
0
SEQEND
0
POLYLINE
8
0
62
7
6
CONTINUOUS
66
1
70
0
0
VERTEX
8
0
62
7
6
CONTINUOUS
10
75.7357071214
20
225.4170330820
0
VERTEX
8
0
62
7
6
CONTINUOUS
10
75.8835511053
20
225.5023908459
0
VERTEX
8
0
62
7
6
CONTINUOUS
10
75.9329574734
20
225.5303874833
0
SEQEND
0
POLYLINE
8
0
62
7
6
CONTINUOUS
66
1
70
0
0
VERTEX
8
0
62
7
6
CONTINUOUS
10
66.7357071214
20
220.2208806593
0
VERTEX
8
0
62
7
6
CONTINUOUS
10
66.5878631374
20
220.1355228953
0
VERTEX
8
0
62
7
6
CONTINUOUS
10
66.5384567693
20
220.1075262579
0
SEQEND
0
POLYLINE
8
0
62
7
6
CONTINUOUS
66
1
70
0
0
VERTEX
8
0
62
7
6
CONTINUOUS
10
75.9325000886
20
220.1067340441
0
VERTEX
8
0
62
7
6
CONTINUOUS
10
76.0389141541
20
220.0463521398
0
VERTEX
8
0
62
7
6
CONTINUOUS
10
76.0878631374
20
220.0175632886
0
VERTEX
8
0
62
7
6
CONTINUOUS
10
76.2357071214
20
219.9322055247
0
SEQEND
0
POLYLINE
8
0
62
7
6
CONTINUOUS
66
1
70
0
0
VERTEX
8
0
62
7
6
CONTINUOUS
10
66.5389141541
20
225.5311796971
0
VERTEX
8
0
62
7
6
CONTINUOUS
10
66.4325000886
20
225.5915616014
0
VERTEX
8
0
62
7
6
CONTINUOUS
10
66.3835511053
20
225.6203504526
0
VERTEX
8
0
62
7
6
CONTINUOUS
10
66.2357071214
20
225.7057082166
0
SEQEND
0
POLYLINE
8
0
62
7
6
CONTINUOUS
66
1
70
0
0
VERTEX
8
0
62
7
6
CONTINUOUS
10
66.7357071214
20
225.4170330820
0
VERTEX
8
0
62
7
6
CONTINUOUS
10
66.5878631374
20
225.5023908459
0
VERTEX
8
0
62
7
6
CONTINUOUS
10
66.5389141541
20
225.5311796971
0
SEQEND
0
POLYLINE
8
0
62
7
6
CONTINUOUS
66
1
70
0
0
VERTEX
8
0
62
7
6
CONTINUOUS
10
75.7357071214
20
220.2208806593
0
VERTEX
8
0
62
7
6
CONTINUOUS
10
75.8835511053
20
220.1355228953
0
VERTEX
8
0
62
7
6
CONTINUOUS
10
75.9325000886
20
220.1067340441
0
SEQEND
0
LINE
8
0
62
7
6
CONTINUOUS
10
75.7357071214
20
220.2208806593
11
71.2357071214
21
217.6228044479
0
LINE
8
0
62
7
6
CONTINUOUS
10
76.2357071214
20
219.9322055247
11
71.2357071214
21
217.0454541787
0
POLYLINE
8
0
62
7
6
CONTINUOUS
66
1
70
0
0
VERTEX
8
0
62
7
6
CONTINUOUS
10
144.4194733054
20
213.8189568706
0
VERTEX
8
0
62
7
6
CONTINUOUS
10
144.6040652167
20
213.8360671479
0
VERTEX
8
0
62
7
6
CONTINUOUS
10
144.7854987092
20
213.8871052180
0
VERTEX
8
0
62
7
6
CONTINUOUS
10
144.9606694056
20
213.9711978056
0
VERTEX
8
0
62
7
6
CONTINUOUS
10
145.1265800866
20
214.0869060630
0
VERTEX
8
0
62
7
6
CONTINUOUS
10
145.2803919746
20
214.2322501900
0
VERTEX
8
0
62
7
6
CONTINUOUS
10
145.4194733054
20
214.4047433082
0
VERTEX
8
0
62
7
6
CONTINUOUS
10
145.5414443590
20
214.6014340126
0
VERTEX
8
0
62
7
6
CONTINUOUS
10
145.6442181768
20
214.8189568706
0
VERTEX
8
0
62
7
6
CONTINUOUS
10
145.7260362703
20
215.0535900059
0
VERTEX
8
0
62
7
6
CONTINUOUS
10
145.7854987092
20
215.3013187804
0
VERTEX
8
0
62
7
6
CONTINUOUS
10
145.8215880747
20
215.5579044862
0
VERTEX
8
0
62
7
6
CONTINUOUS
10
145.8336868678
20
215.8189568706
0
SEQEND
0
POLYLINE
8
0
62
7
6
CONTINUOUS
66
1
70
0
0
VERTEX
8
0
62
7
6
CONTINUOUS
10
68.0519409373
20
213.8189568706
0
VERTEX
8
0
62
7
6
CONTINUOUS
10
67.8673490241
20
213.8360671479
0
VERTEX
8
0
62
7
6
CONTINUOUS
10
67.6859155301
20
213.8871052180
0
VERTEX
8
0
62
7
6
CONTINUOUS
10
67.5107448325
20
213.9711978056
0
VERTEX
8
0
62
7
6
CONTINUOUS
10
67.3448341506
20
214.0869060630
0
VERTEX
8
0
62
7
6
CONTINUOUS
10
67.1910222621
20
214.2322501900
0
VERTEX
8
0
62
7
6
CONTINUOUS
10
67.0519409311
20
214.4047433082
0
VERTEX
8
0
62
7
6
CONTINUOUS
10
66.9299698777
20
214.6014340126
0
VERTEX
8
0
62
7
6
CONTINUOUS
10
66.8271960605
20
214.8189568706
0
VERTEX
8
0
62
7
6
CONTINUOUS
10
66.7453779679
20
215.0535900059
0
VERTEX
8
0
62
7
6
CONTINUOUS
10
66.6859155303
20
215.3013187804
0
VERTEX
8
0
62
7
6
CONTINUOUS
10
66.6498261664
20
215.5579044862
0
VERTEX
8
0
62
7
6
CONTINUOUS
10
66.6377273752
20
215.8189568706
0
SEQEND
0
LINE
8
0
62
7
6
CONTINUOUS
10
71.2357071214
20
228.0151092933
11
75.7357071214
21
225.4170330820
0
LINE
8
0
62
7
6
CONTINUOUS
10
71.2357071214
20
228.5924595625
11
76.2357071214
21
225.7057082166
0
LINE
8
0
62
7
6
CONTINUOUS
10
94.9219986224
20
215.8189568706
11
94.9219986224
21
229.8189568706
0
POLYLINE
8
0
62
7
6
CONTINUOUS
66
1
70
0
0
VERTEX
8
0
62
7
6
CONTINUOUS
10
116.1352020580
20
213.8189568706
0
VERTEX
8
0
62
7
6
CONTINUOUS
10
116.3197939676
20
213.8360671479
0
VERTEX
8
0
62
7
6
CONTINUOUS
10
116.5012274587
20
213.8871052180
0
VERTEX
8
0
62
7
6
CONTINUOUS
10
116.6763981540
20
213.9711978056
0
VERTEX
8
0
62
7
6
CONTINUOUS
10
116.8423088343
20
214.0869060630
0
VERTEX
8
0
62
7
6
CONTINUOUS
10
116.9961207218
20
214.2322501900
0
VERTEX
8
0
62
7
6
CONTINUOUS
10
117.1352020525
20
214.4047433082
0
VERTEX
8
0
62
7
6
CONTINUOUS
10
117.2571731063
20
214.6014340126
0
VERTEX
8
0
62
7
6
CONTINUOUS
10
117.3599469246
20
214.8189568706
0
VERTEX
8
0
62
7
6
CONTINUOUS
10
117.4417650189
20
215.0535900059
0
VERTEX
8
0
62
7
6
CONTINUOUS
10
117.5012274590
20
215.3013187804
0
VERTEX
8
0
62
7
6
CONTINUOUS
10
117.5373168259
20
215.5579044862
0
VERTEX
8
0
62
7
6
CONTINUOUS
10
117.5494156207
20
215.8189568706
0
SEQEND
0
POLYLINE
8
0
62
7
6
CONTINUOUS
66
1
70
0
0
VERTEX
8
0
62
7
6
CONTINUOUS
10
148.5110464358
20
213.8189568706
0
VERTEX
8
0
62
7
6
CONTINUOUS
10
148.7064899346
20
213.8285171309
0
VERTEX
8
0
62
7
6
CONTINUOUS
10
148.9004743629
20
213.8571886649
0
VERTEX
8
0
62
7
6
CONTINUOUS
10
149.0912119249
20
213.9048459074
0
VERTEX
8
0
62
7
6
CONTINUOUS
10
149.2765634898
20
213.9710680308
0
VERTEX
8
0
62
7
6
CONTINUOUS
10
149.4544765536
20
214.0551529997
0
VERTEX
8
0
62
7
6
CONTINUOUS
10
149.6232766143
20
214.1563062807
0
VERTEX
8
0
62
7
6
CONTINUOUS
10
149.7813020146
20
214.2735317131
0
VERTEX
8
0
62
7
6
CONTINUOUS
10
149.9270171381
20
214.4056801752
0
VERTEX
8
0
62
7
6
CONTINUOUS
10
150.0589914650
20
214.5514317860
0
VERTEX
8
0
62
7
6
CONTINUOUS
10
150.1759977439
20
214.7094078442
0
VERTEX
8
0
62
7
6
CONTINUOUS
10
150.2769920411
20
214.8782283494
0
VERTEX
8
0
62
7
6
CONTINUOUS
10
150.3608111937
20
215.0559185456
0
VERTEX
8
0
62
7
6
CONTINUOUS
10
150.4265617549
20
215.2402339489
0
VERTEX
8
0
62
7
6
CONTINUOUS
10
150.4739345076
20
215.4298773320
0
VERTEX
8
0
62
7
6
CONTINUOUS
10
150.5025802653
20
215.6234470531
0
VERTEX
8
0
62
7
6
CONTINUOUS
10
150.5121639606
20
215.8189568706
0
SEQEND
0
LINE
8
0
62
7
6
CONTINUOUS
10
148.5110223328
20
213.8189568706
11
63.9603919099
21
213.8189568706
0
POLYLINE
8
0
62
7
6
CONTINUOUS
66
1
70
0
0
VERTEX
8
0
62
7
6
CONTINUOUS
10
96.3362121848
20
213.8189568706
0
VERTEX
8
0
62
7
6
CONTINUOUS
10
96.1516202735
20
213.8360671479
0
VERTEX
8
0
62
7
6
CONTINUOUS
10
95.9701867810
20
213.8871052180
0
VERTEX
8
0
62
7
6
CONTINUOUS
10
95.7950160846
20
213.9711978056
0
VERTEX
8
0
62
7
6
CONTINUOUS
10
95.6291054036
20
214.0869060630
0
VERTEX
8
0
62
7
6
CONTINUOUS
10
95.4752935156
20
214.2322501900
0
VERTEX
8
0
62
7
6
CONTINUOUS
10
95.3362121848
20
214.4047433082
0
VERTEX
8
0
62
7
6
CONTINUOUS
10
95.2142411312
20
214.6014340126
0
VERTEX
8
0
62
7
6
CONTINUOUS
10
95.1114673134
20
214.8189568706
0
VERTEX
8
0
62
7
6
CONTINUOUS
10
95.0296492199
20
215.0535900059
0
VERTEX
8
0
62
7
6
CONTINUOUS
10
94.9701867810
20
215.3013187804
0
VERTEX
8
0
62
7
6
CONTINUOUS
10
94.9340974155
20
215.5579044862
0
VERTEX
8
0
62
7
6
CONTINUOUS
10
94.9219986224
20
215.8189568706
0
SEQEND
0
LINE
8
0
62
7
6
CONTINUOUS
10
97.6479251027
20
218.8189568706
11
97.6479251027
21
226.8189568706
0
LINE
8
0
62
7
6
CONTINUOUS
10
150.5121639605
20
215.8189568706
11
61.9592502822
21
215.8189568706
0
LINE
8
0
62
7
6
CONTINUOUS
10
97.6479251027
20
218.8189568706
11
114.8234891400
21
218.8189568706
0
LINE
8
0
62
7
6
CONTINUOUS
10
97.6479251027
20
226.8189568706
11
114.8234891400
21
226.8189568706
0
LINE
8
0
62
7
6
CONTINUOUS
10
114.8234891400
20
218.8189568706
11
114.8234891400
21
226.8189568706
0
LINE
8
0
62
7
6
CONTINUOUS
10
61.9592502822
20
229.8189568706
11
150.5121639605
21
229.8189568706
0
LINE
8
0
62
7
6
CONTINUOUS
10
63.9603919099
20
231.8189568706
11
148.5110223328
21
231.8189568706
0
LINE
8
0
62
7
6
CONTINUOUS
10
117.5494156203
20
215.8189568706
11
117.5494156203
21
229.8189568706
0
POLYLINE
8
0
62
7
6
CONTINUOUS
66
1
70
0
0
VERTEX
8
0
62
7
6
CONTINUOUS
10
96.3362121848
20
231.8189568706
0
VERTEX
8
0
62
7
6
CONTINUOUS
10
96.1516202748
20
231.8018465934
0
VERTEX
8
0
62
7
6
CONTINUOUS
10
95.9701867834
20
231.7508085232
0
VERTEX
8
0
62
7
6
CONTINUOUS
10
95.7950160879
20
231.6667159356
0
VERTEX
8
0
62
7
6
CONTINUOUS
10
95.6291054075
20
231.5510076782
0
VERTEX
8
0
62
7
6
CONTINUOUS
10
95.4752935199
20
231.4056635512
0
VERTEX
8
0
62
7
6
CONTINUOUS
10
95.3362121892
20
231.2331704330
0
VERTEX
8
0
62
7
6
CONTINUOUS
10
95.2142411355
20
231.0364797287
0
VERTEX
8
0
62
7
6
CONTINUOUS
10
95.1114673173
20
230.8189568706
0
VERTEX
8
0
62
7
6
CONTINUOUS
10
95.0296492231
20
230.5843237354
0
VERTEX
8
0
62
7
6
CONTINUOUS
10
94.9701867833
20
230.3365949608
0
VERTEX
8
0
62
7
6
CONTINUOUS
10
94.9340974166
20
230.0800092551
0
VERTEX
8
0
62
7
6
CONTINUOUS
10
94.9219986222
20
229.8189568706
0
SEQEND
0
POLYLINE
8
0
62
7
6
CONTINUOUS
66
1
70
0
0
VERTEX
8
0
62
7
6
CONTINUOUS
10
63.9603672943
20
231.8189568706
0
VERTEX
8
0
62
7
6
CONTINUOUS
10
63.7647245181
20
231.8093770219
0
VERTEX
8
0
62
7
6
CONTINUOUS
10
63.5710155113
20
231.7807400699
0
VERTEX
8
0
62
7
6
CONTINUOUS
10
63.3812229464
20
231.7333765208
0
VERTEX
8
0
62
7
6
CONTINUOUS
10
63.1967612693
20
231.6676350838
0
VERTEX
8
0
62
7
6
CONTINUOUS
10
63.0189361721
20
231.5838269947
0
VERTEX
8
0
62
7
6
CONTINUOUS
10
62.8499992891
20
231.4828498950
0
VERTEX
8
0
62
7
6
CONTINUOUS
10
62.6919329278
20
231.3658750789
0
VERTEX
8
0
62
7
6
CONTINUOUS
10
62.5461149497
20
231.2339506966
0
VERTEX
8
0
62
7
6
CONTINUOUS
10
62.4139247913
20
231.0883120454
0
VERTEX
8
0
62
7
6
CONTINUOUS
10
62.2966733590
20
230.9303875552
0
VERTEX
8
0
62
7
6
CONTINUOUS
10
62.1955053835
20
230.7617138289
0
VERTEX
8
0
62
7
6
CONTINUOUS
10
62.1114080767
20
230.5839417730
0
VERTEX
8
0
62
7
6
CONTINUOUS
10
62.0451715486
20
230.3987334698
0
VERTEX
8
0
62
7
6
CONTINUOUS
10
61.9974996193
20
230.2081366051
0
VERTEX
8
0
62
7
6
CONTINUOUS
10
61.9688156607
20
230.0142809022
0
VERTEX
8
0
62
7
6
CONTINUOUS
10
61.9592502822
20
229.8189568706
0
SEQEND
0
POLYLINE
8
0
62
7
6
CONTINUOUS
66
1
70
0
0
VERTEX
8
0
62
7
6
CONTINUOUS
10
116.1352020580
20
231.8189568706
0
VERTEX
8
0
62
7
6
CONTINUOUS
10
116.3197939693
20
231.8018465934
0
VERTEX
8
0
62
7
6
CONTINUOUS
10
116.5012274618
20
231.7508085232
0
VERTEX
8
0
62
7
6
CONTINUOUS
10
116.6763981581
20
231.6667159356
0
VERTEX
8
0
62
7
6
CONTINUOUS
10
116.8423088392
20
231.5510076782
0
VERTEX
8
0
62
7
6
CONTINUOUS
10
116.9961207271
20
231.4056635512
0
VERTEX
8
0
62
7
6
CONTINUOUS
10
117.1352020580
20
231.2331704330
0
VERTEX
8
0
62
7
6
CONTINUOUS
10
117.2571731116
20
231.0364797286
0
VERTEX
8
0
62
7
6
CONTINUOUS
10
117.3599469294
20
230.8189568706
0
VERTEX
8
0
62
7
6
CONTINUOUS
10
117.4417650229
20
230.5843237353
0
VERTEX
8
0
62
7
6
CONTINUOUS
10
117.5012274618
20
230.3365949608
0
VERTEX
8
0
62
7
6
CONTINUOUS
10
117.5373168273
20
230.0800092551
0
VERTEX
8
0
62
7
6
CONTINUOUS
10
117.5494156203
20
229.8189568706
0
SEQEND
0
LINE
8
0
62
7
6
CONTINUOUS
10
141.2357071214
20
228.5924595625
11
136.2357071214
21
225.7057082166
0
LINE
8
0
62
7
6
CONTINUOUS
10
141.2357071214
20
228.0151092933
11
136.7357071214
21
225.4170330820
0
POLYLINE
8
0
62
7
6
CONTINUOUS
66
1
70
0
0
VERTEX
8
0
62
7
6
CONTINUOUS
10
68.0519409373
20
231.8189568706
0
VERTEX
8
0
62
7
6
CONTINUOUS
10
67.8673490260
20
231.8018465934
0
VERTEX
8
0
62
7
6
CONTINUOUS
10
67.6859155335
20
231.7508085232
0
VERTEX
8
0
62
7
6
CONTINUOUS
10
67.5107448371
20
231.6667159356
0
VERTEX
8
0
62
7
6
CONTINUOUS
10
67.3448341561
20
231.5510076782
0
VERTEX
8
0
62
7
6
CONTINUOUS
10
67.1910222681
20
231.4056635512
0
VERTEX
8
0
62
7
6
CONTINUOUS
10
67.0519409373
20
231.2331704330
0
VERTEX
8
0
62
7
6
CONTINUOUS
10
66.9299698837
20
231.0364797286
0
VERTEX
8
0
62
7
6
CONTINUOUS
10
66.8271960659
20
230.8189568706
0
VERTEX
8
0
62
7
6
CONTINUOUS
10
66.7453779724
20
230.5843237353
0
VERTEX
8
0
62
7
6
CONTINUOUS
10
66.6859155335
20
230.3365949608
0
VERTEX
8
0
62
7
6
CONTINUOUS
10
66.6498261680
20
230.0800092551
0
VERTEX
8
0
62
7
6
CONTINUOUS
10
66.6377273749
20
229.8189568706
0
SEQEND
0
POLYLINE
8
0
62
7
6
CONTINUOUS
66
1
70
0
0
VERTEX
8
0
62
7
6
CONTINUOUS
10
144.4194733054
20
231.8189568706
0
VERTEX
8
0
62
7
6
CONTINUOUS
10
144.6040652182
20
231.8018465934
0
VERTEX
8
0
62
7
6
CONTINUOUS
10
144.7854987119
20
231.7508085232
0
VERTEX
8
0
62
7
6
CONTINUOUS
10
144.9606694092
20
231.6667159356
0
VERTEX
8
0
62
7
6
CONTINUOUS
10
145.1265800909
20
231.5510076782
0
VERTEX
8
0
62
7
6
CONTINUOUS
10
145.2803919793
20
231.4056635512
0
VERTEX
8
0
62
7
6
CONTINUOUS
10
145.4194733103
20
231.2331704330
0
VERTEX
8
0
62
7
6
CONTINUOUS
10
145.5414443637
20
231.0364797286
0
VERTEX
8
0
62
7
6
CONTINUOUS
10
145.6442181811
20
230.8189568706
0
VERTEX
8
0
62
7
6
CONTINUOUS
10
145.7260362738
20
230.5843237354
0
VERTEX
8
0
62
7
6
CONTINUOUS
10
145.7854987118
20
230.3365949608
0
VERTEX
8
0
62
7
6
CONTINUOUS
10
145.8215880761
20
230.0800092551
0
VERTEX
8
0
62
7
6
CONTINUOUS
10
145.8336868677
20
229.8189568706
0
SEQEND
0
LINE
8
0
62
7
6
CONTINUOUS
10
136.2357071214
20
219.9322055247
11
141.2357071214
21
217.0454541787
0
LINE
8
0
62
7
6
CONTINUOUS
10
136.7357071214
20
220.2208806593
11
141.2357071214
21
217.6228044479
0
POLYLINE
8
0
62
7
6
CONTINUOUS
66
1
70
0
0
VERTEX
8
0
62
7
6
CONTINUOUS
10
136.5389141541
20
220.1067340441
0
VERTEX
8
0
62
7
6
CONTINUOUS
10
136.5878631374
20
220.1355228953
0
VERTEX
8
0
62
7
6
CONTINUOUS
10
136.6319643296
20
220.1611043875
0
VERTEX
8
0
62
7
6
CONTINUOUS
10
136.7357071214
20
220.2208806593
0
SEQEND
0
POLYLINE
8
0
62
7
6
CONTINUOUS
66
1
70
0
0
VERTEX
8
0
62
7
6
CONTINUOUS
10
146.2357071214
20
225.7057082166
0
VERTEX
8
0
62
7
6
CONTINUOUS
10
146.1319643296
20
225.6459319448
0
VERTEX
8
0
62
7
6
CONTINUOUS
10
146.0878631374
20
225.6203504526
0
VERTEX
8
0
62
7
6
CONTINUOUS
10
146.0389141541
20
225.5915616014
0
SEQEND
0
POLYLINE
8
0
62
7
6
CONTINUOUS
66
1
70
0
0
VERTEX
8
0
62
7
6
CONTINUOUS
10
136.2357071214
20
219.9322055247
0
VERTEX
8
0
62
7
6
CONTINUOUS
10
136.3394499132
20
219.9919817964
0
VERTEX
8
0
62
7
6
CONTINUOUS
10
136.3835511053
20
220.0175632886
0
VERTEX
8
0
62
7
6
CONTINUOUS
10
136.4325000886
20
220.0463521398
0
VERTEX
8
0
62
7
6
CONTINUOUS
10
136.5389141541
20
220.1067340441
0
SEQEND
0
POLYLINE
8
0
62
7
6
CONTINUOUS
66
1
70
0
0
VERTEX
8
0
62
7
6
CONTINUOUS
10
146.0389141541
20
225.5915616014
0
VERTEX
8
0
62
7
6
CONTINUOUS
10
145.9325000886
20
225.5311796971
0
VERTEX
8
0
62
7
6
CONTINUOUS
10
145.8835511053
20
225.5023908459
0
VERTEX
8
0
62
7
6
CONTINUOUS
10
145.8394499132
20
225.4768093537
0
VERTEX
8
0
62
7
6
CONTINUOUS
10
145.7357071214
20
225.4170330820
0
SEQEND
0
POLYLINE
8
0
62
7
6
CONTINUOUS
66
1
70
0
0
VERTEX
8
0
62
7
6
CONTINUOUS
10
136.5384567693
20
225.5303874833
0
VERTEX
8
0
62
7
6
CONTINUOUS
10
136.5878631374
20
225.5023908459
0
VERTEX
8
0
62
7
6
CONTINUOUS
10
136.6320679556
20
225.4769888393
0
VERTEX
8
0
62
7
6
CONTINUOUS
10
136.7357071214
20
225.4170330820
0
SEQEND
0
POLYLINE
8
0
62
7
6
CONTINUOUS
66
1
70
0
0
VERTEX
8
0
62
7
6
CONTINUOUS
10
146.0389141541
20
220.0463521398
0
VERTEX
8
0
62
7
6
CONTINUOUS
10
145.9325000886
20
220.1067340441
0
VERTEX
8
0
62
7
6
CONTINUOUS
10
145.8835511053
20
220.1355228953
0
VERTEX
8
0
62
7
6
CONTINUOUS
10
145.7357071214
20
220.2208806593
0
SEQEND
0
POLYLINE
8
0
62
7
6
CONTINUOUS
66
1
70
0
0
VERTEX
8
0
62
7
6
CONTINUOUS
10
146.2357071214
20
219.9322055247
0
VERTEX
8
0
62
7
6
CONTINUOUS
10
146.0878631374
20
220.0175632886
0
VERTEX
8
0
62
7
6
CONTINUOUS
10
146.0389141541
20
220.0463521398
0
SEQEND
0
POLYLINE
8
0
62
7
6
CONTINUOUS
66
1
70
0
0
VERTEX
8
0
62
7
6
CONTINUOUS
10
136.2357071214
20
225.7057082166
0
VERTEX
8
0
62
7
6
CONTINUOUS
10
136.3393462871
20
225.6457524593
0
VERTEX
8
0
62
7
6
CONTINUOUS
10
136.3835511053
20
225.6203504526
0
VERTEX
8
0
62
7
6
CONTINUOUS
10
136.4329574734
20
225.5923538152
0
VERTEX
8
0
62
7
6
CONTINUOUS
10
136.5384567693
20
225.5303874833
0
SEQEND
0
LINE
8
0
62
7
6
CONTINUOUS
10
141.2357071214
20
217.6228044479
11
145.7357071214
21
220.2208806593
0
LINE
8
0
62
7
6
CONTINUOUS
10
141.2357071214
20
217.0454541787
11
146.2357071214
21
219.9322055247
0
LINE
8
0
62
7
6
CONTINUOUS
10
145.7357071214
20
225.4170330820
11
141.2357071214
21
228.0151092933
0
LINE
8
0
62
7
6
CONTINUOUS
10
141.2357071214
20
228.5924595625
11
146.2357071214
21
225.7057082166
0
LINE
8
0
62
7
6
CONTINUOUS
10
136.2357071214
20
225.7057082166
11
136.2357071214
21
219.9322055247
0
LINE
8
0
62
7
6
CONTINUOUS
10
136.7357071214
20
225.4170330820
11
136.7357071214
21
220.2208806593
0
POLYLINE
8
0
62
7
6
CONTINUOUS
66
1
70
0
0
VERTEX
8
0
62
7
6
CONTINUOUS
10
141.2352497365
20
228.2426103098
0
VERTEX
8
0
62
7
6
CONTINUOUS
10
141.2357071214
20
228.1858248212
0
VERTEX
8
0
62
7
6
CONTINUOUS
10
141.2358107474
20
228.1348413223
0
VERTEX
8
0
62
7
6
CONTINUOUS
10
141.2357071214
20
228.0151092933
0
SEQEND
0
POLYLINE
8
0
62
7
6
CONTINUOUS
66
1
70
0
0
VERTEX
8
0
62
7
6
CONTINUOUS
10
141.2357071214
20
228.5924595625
0
VERTEX
8
0
62
7
6
CONTINUOUS
10
141.2356034953
20
228.4727275335
0
VERTEX
8
0
62
7
6
CONTINUOUS
10
141.2357071214
20
228.4217440346
0
VERTEX
8
0
62
7
6
CONTINUOUS
10
141.2361645062
20
228.3649585461
0
VERTEX
8
0
62
7
6
CONTINUOUS
10
141.2352497365
20
228.2426103098
0
SEQEND
0
POLYLINE
8
0
62
7
6
CONTINUOUS
66
1
70
0
0
VERTEX
8
0
62
7
6
CONTINUOUS
10
141.2357071214
20
217.0454541787
0
VERTEX
8
0
62
7
6
CONTINUOUS
10
141.2358107474
20
217.1651862077
0
VERTEX
8
0
62
7
6
CONTINUOUS
10
141.2357071214
20
217.2161697066
0
VERTEX
8
0
62
7
6
CONTINUOUS
10
141.2352497365
20
217.2729551952
0
SEQEND
0
POLYLINE
8
0
62
7
6
CONTINUOUS
66
1
70
0
0
VERTEX
8
0
62
7
6
CONTINUOUS
10
141.2352497365
20
217.2729551952
0
VERTEX
8
0
62
7
6
CONTINUOUS
10
141.2361645062
20
217.3953034314
0
VERTEX
8
0
62
7
6
CONTINUOUS
10
141.2357071214
20
217.4520889200
0
VERTEX
8
0
62
7
6
CONTINUOUS
10
141.2356034953
20
217.5030724189
0
VERTEX
8
0
62
7
6
CONTINUOUS
10
141.2357071214
20
217.6228044479
0
SEQEND
0
LINE
8
0
62
7
6
CONTINUOUS
10
145.7357071214
20
220.2208806593
11
145.7357071214
21
225.4170330820
0
POLYLINE
8
0
62
7
6
CONTINUOUS
66
1
70
0
0
VERTEX
8
0
62
7
6
CONTINUOUS
10
150.5121639605
20
229.8189568706
0
VERTEX
8
0
62
7
6
CONTINUOUS
10
150.5025985821
20
230.0142809022
0
VERTEX
8
0
62
7
6
CONTINUOUS
10
150.4739146234
20
230.2081366051
0
VERTEX
8
0
62
7
6
CONTINUOUS
10
150.4262426942
20
230.3987334698
0
VERTEX
8
0
62
7
6
CONTINUOUS
10
150.3600061660
20
230.5839417730
0
VERTEX
8
0
62
7
6
CONTINUOUS
10
150.2759088593
20
230.7617138289
0
VERTEX
8
0
62
7
6
CONTINUOUS
10
150.1747408837
20
230.9303875552
0
VERTEX
8
0
62
7
6
CONTINUOUS
10
150.0574894514
20
231.0883120454
0
VERTEX
8
0
62
7
6
CONTINUOUS
10
149.9252992930
20
231.2339506966
0
VERTEX
8
0
62
7
6
CONTINUOUS
10
149.7794813149
20
231.3658750789
0
VERTEX
8
0
62
7
6
CONTINUOUS
10
149.6214149536
20
231.4828498950
0
VERTEX
8
0
62
7
6
CONTINUOUS
10
149.4524780706
20
231.5838269947
0
VERTEX
8
0
62
7
6
CONTINUOUS
10
149.2746529734
20
231.6676350838
0
VERTEX
8
0
62
7
6
CONTINUOUS
10
149.0901912963
20
231.7333765208
0
VERTEX
8
0
62
7
6
CONTINUOUS
10
148.9003987314
20
231.7807400699
0
VERTEX
8
0
62
7
6
CONTINUOUS
10
148.7066897246
20
231.8093770219
0
VERTEX
8
0
62
7
6
CONTINUOUS
10
148.5110469485
20
231.8189568706
0
SEQEND
0
LINE
8
0
62
7
6
CONTINUOUS
10
145.8336868678
20
215.8189568706
11
145.8336868678
21
219.7000990231
0
LINE
8
0
62
7
6
CONTINUOUS
10
145.8336868678
20
225.9378147182
11
145.8336868678
21
229.8189568706
0
LINE
8
0
62
7
6
CONTINUOUS
10
146.2357071214
20
219.9322055247
11
146.2357071214
21
225.7057082166
0
LINE
8
0
62
7
6
CONTINUOUS
10
150.5121639605
20
215.8189568706
11
150.5121639605
21
229.8189568706
0
ARC
8
0
62
7
6
CONTINUOUS
10
77.2087951868
20
121.3154463390
40
3.0000000000
50
45.0000000000
51
90.0000000000
0
ARC
8
0
62
7
6
CONTINUOUS
10
106.2357071214
20
97.9453886539
40
1.0000000000
50
225.0000000000
51
315.0000000000
0
ARC
8
0
62
7
6
CONTINUOUS
10
135.2626190559
20
121.3154463390
40
3.0000000000
50
90.0000000000
51
135.0000000000
0
ARC
8
0
62
7
6
CONTINUOUS
10
134.5199783688
20
124.8154463390
40
16.0000000000
50
315.0000000000
51
358.2092153407
0
ARC
8
0
62
7
6
CONTINUOUS
10
106.2357071214
20
96.5311750916
40
16.0000000000
50
225.0000000000
51
315.0000000000
0
ARC
8
0
62
7
6
CONTINUOUS
10
77.9514358739
20
124.8154463390
40
16.0000000000
50
181.7907846594
51
225.0000000000
0
ARC
8
0
62
7
6
CONTINUOUS
10
134.5199783688
20
123.8154463390
40
16.0000000000
50
1.7907846594
51
45.0000000000
0
ARC
8
0
62
7
6
CONTINUOUS
10
106.2357071214
20
152.0997175865
40
16.0000000000
50
45.0000000000
51
135.0000000000
0
ARC
8
0
62
7
6
CONTINUOUS
10
77.9514358739
20
123.8154463390
40
16.0000000000
50
135.0000000000
51
178.2092153407
0
ARC
8
0
62
7
6
CONTINUOUS
10
135.2626190559
20
127.3154463390
40
3.0000000000
50
225.0000000000
51
270.0000000000
0
ARC
8
0
62
7
6
CONTINUOUS
10
77.2087951868
20
127.3154463390
40
3.0000000000
50
270.0000000000
51
315.0000000000
0
ARC
8
0
62
7
6
CONTINUOUS
10
106.2357071214
20
150.6855040241
40
1.0000000000
50
45.0000000000
51
135.0000000000
0
ARC
8
0
62
7
6
CONTINUOUS
10
134.5199783688
20
124.8154463390
40
14.0000000000
50
315.0000000000
51
357.9533459808
0
ARC
8
0
62
7
6
CONTINUOUS
10
106.2357071214
20
96.5311750916
40
14.0000000000
50
225.0000000000
51
315.0000000000
0
ARC
8
0
62
7
6
CONTINUOUS
10
77.9514358739
20
124.8154463390
40
14.0000000000
50
182.0467793720
51
225.0000000000
0
ARC
8
0
62
7
6
CONTINUOUS
10
134.5199783688
20
123.8154463390
40
14.0000000000
50
2.0467793720
51
45.0000000000
0
ARC
8
0
62
7
6
CONTINUOUS
10
106.2357071214
20
152.0997175865
40
14.0000000000
50
45.0000000000
51
135.0000000000
0
ARC
8
0
62
7
6
CONTINUOUS
10
77.9514358739
20
123.8154463390
40
14.0000000000
50
135.0000000000
51
177.9533459808
0
ARC
8
0
62
7
6
CONTINUOUS
10
106.2357071214
20
97.9453886539
40
2.0000000000
50
225.0000000000
51
315.0000000000
0
ARC
8
0
62
7
6
CONTINUOUS
10
106.2357071214
20
150.6855040241
40
2.0000000000
50
45.0000000000
51
135.0000000000
0
CIRCLE
8
0
62
7
6
CONTINUOUS
10
141.2357071214
20
222.8189568706
40
3.1500000000
0
CIRCLE
8
0
62
7
6
CONTINUOUS
10
71.2357071214
20
222.8189568706
40
3.1500000000
0
ENDSEC
0
EOF
