999
DXF file: P612-1-7_16.dxf
999
Pro/ENGINEER 2004080 by Parametric Technology Corporation
0
SECTION
2
HEADER
9
$ACADVER
1
AC1014
9
$EXTMAX
10
420.0000000000
20
297.0000000000
30
0.0000000000
9
$EXTMIN
10
0.0000000000
20
0.0000000000
30
0.0000000000
9
$LIMMIN
10
0.0000000000
20
0.0000000000
9
$LIMMAX
10
420.0000000000
20
297.0000000000
9
$VIEWCTR
10
210.0000000000
20
148.5000000000
9
$VIEWSIZE
40
297.0000000000
9
$CLAYER
8
0
9
$LTSCALE
40
23.1000000000
9
$CELTYPE
6
BYLAYER
9
$DIMSCALE
40
1
9
$DIMASZ
40
3.5000000000
9
$DIMEXO
40
2.6250000000
9
$DIMDLI
40
15.9600000000
9
$DIMEXE
40
7.5600000000
9
$DIMCEN
40
3.7800000000
9
$DIMLFAC
40
1.0000000000
9
$DIMBLK
1
_FILLED
9
$DIMTXT
40
3.5000000000
9
$DIMTOL
70
1
9
$DIMLIM
70
0
9
$DIMTFAC
40
1.0000000000
9
$DIMTP
40
0.0010000000
9
$DIMTM
40
0.0010000000
9
$PDMODE
70
3
9
$PDSIZE
40
0.3125000000
9
$HANDSEED
5
305
9
$MEASUREMENT
70
1
0
ENDSEC
0
SECTION
2
CLASSES
0
ENDSEC
0
SECTION
2
TABLES
0
TABLE
2
VPORT
5
8
100
AcDbSymbolTable
70
2
0
VPORT
5
1F4
100
AcDbSymbolTableRecord
100
AcDbViewportTableRecord
2
*ACTIVE
70
0
10
0.0
20
0.0
11
1.0
21
1.0
12
210.0000000000
22
148.5000000000
13
0.0
23
0.0
14
1.0
24
1.0
15
0.0
25
0.0
16
0.0
26
0.0
36
1.0
17
0.0
27
0.0
37
0.0
40
297.0000000000
41
1.4141414141
42
50.0
43
0.0
44
0.0
50
0.0
51
0.0
71
0
72
100
73
1
74
1
75
0
76
0
77
0
78
0
0
ENDTAB
0
TABLE
2
LTYPE
5
5
100
AcDbSymbolTable
70
6
0
LTYPE
5
14
100
AcDbSymbolTableRecord
100
AcDbLinetypeTableRecord
2
BYBLOCK
70
0
3

72
65
73
0
40
0.0
0
LTYPE
5
15
100
AcDbSymbolTableRecord
100
AcDbLinetypeTableRecord
2
BYLAYER
70
0
3

72
65
73
0
40
0.0
0
LTYPE
5
16
100
AcDbSymbolTableRecord
100
AcDbLinetypeTableRecord
2
CONTINUOUS
70
64
3
Solid line
72
65
73
0
40
0
0
LTYPE
5
1F5
100
AcDbSymbolTableRecord
100
AcDbLinetypeTableRecord
2
CENTER
70
64
3
____ _ ____ _ ____ _ ____ _ ____ _ ____ _ ____
72
65
73
4
40
0.6
49
0.375
74
0
49
-0.075
74
0
49
0.075
74
0
49
-0.075
74
0
0
LTYPE
5
1F6
100
AcDbSymbolTableRecord
100
AcDbLinetypeTableRecord
2
HIDDEN
70
64
3
- - - - - - - - - - - - - - - - - - - -
72
65
73
2
40
0.2
49
0.1
74
0
49
-0.1
74
0
0
LTYPE
5
1F7
100
AcDbSymbolTableRecord
100
AcDbLinetypeTableRecord
2
PHANTOM
70
64
3
_____ _ _ _____ _ _ _____ _ _ _____
72
65
73
6
40
0.8
49
0.45
74
0
49
-0.05
74
0
49
0.1
74
0
49
-0.05
74
0
49
0.1
74
0
49
-0.05
74
0
0
LTYPE
5
1F8
100
AcDbSymbolTableRecord
100
AcDbLinetypeTableRecord
2
DOT
70
64
3
. . . . . . . . . . . . . . . . . . . .
72
65
73
2
40
0.2
49
0.1
74
0
49
-0.1
74
0
0
LTYPE
5
1F9
100
AcDbSymbolTableRecord
100
AcDbLinetypeTableRecord
2
DASHED
70
64
3
- - - - - - - - - - - - - - - - - - - -
72
65
73
2
40
0.2
49
0.1
74
0
49
-0.1
74
0
0
ENDTAB
0
TABLE
2
LAYER
5
2
100
AcDbSymbolTable
70
36
0
LAYER
5
10
100
AcDbSymbolTableRecord
100
AcDbLayerTableRecord
2
0
70
0
62
7
6
CONTINUOUS
0
LAYER
5
1FA
100
AcDbSymbolTableRecord
100
AcDbLayerTableRecord
2
DEFAULT_1
70
0
62
7
6
CENTER
0
LAYER
5
1FB
100
AcDbSymbolTableRecord
100
AcDbLayerTableRecord
2
DEFAULT_2
70
0
62
8
6
HIDDEN
0
LAYER
5
1FC
100
AcDbSymbolTableRecord
100
AcDbLayerTableRecord
2
DEFAULT_3
70
0
62
7
6
PHANTOM
0
LAYER
5
1FD
100
AcDbSymbolTableRecord
100
AcDbLayerTableRecord
2
ASSI
70
0
62
7
6
CONTINUOUS
0
LAYER
5
1FE
100
AcDbSymbolTableRecord
100
AcDbLayerTableRecord
2
AXES
70
0
62
7
6
CONTINUOUS
0
LAYER
5
1FF
100
AcDbSymbolTableRecord
100
AcDbLayerTableRecord
2
DIMS
70
0
62
7
6
CONTINUOUS
0
LAYER
5
200
100
AcDbSymbolTableRecord
100
AcDbLayerTableRecord
2
GEOM
70
0
62
7
6
CONTINUOUS
0
LAYER
5
201
100
AcDbSymbolTableRecord
100
AcDbLayerTableRecord
2
NOGEOM
70
0
62
7
6
CONTINUOUS
0
LAYER
5
202
100
AcDbSymbolTableRecord
100
AcDbLayerTableRecord
2
PIANI
70
0
62
7
6
CONTINUOUS
0
LAYER
5
203
100
AcDbSymbolTableRecord
100
AcDbLayerTableRecord
2
PLANES
70
0
62
7
6
CONTINUOUS
0
LAYER
5
204
100
AcDbSymbolTableRecord
100
AcDbLayerTableRecord
2
SURF_FILETTI
70
0
62
7
6
CONTINUOUS
0
ENDTAB
0
TABLE
2
STYLE
5
3
100
AcDbSymbolTable
70
1
0
STYLE
5
11
100
AcDbSymbolTableRecord
100
AcDbTextStyleTableRecord
2
STANDARD
70
0
40
0.0
41
0.7143000000
50
0.0
71
0
42
0.2
3
txt
4

0
ENDTAB
0
TABLE
2
VIEW
5
6
100
AcDbSymbolTable
70
0
0
ENDTAB
0
TABLE
2
UCS
5
7
100
AcDbSymbolTable
70
0
0
ENDTAB
0
TABLE
2
APPID
5
9
100
AcDbSymbolTable
70
1
0
APPID
5
205
100
AcDbSymbolTableRecord
100
AcDbRegAppTableRecord
2
ACAD
70
0
0
ENDTAB
0
TABLE
2
DIMSTYLE
5
A
100
AcDbSymbolTable
70
1
0
DIMSTYLE
105
206
100
AcDbSymbolTableRecord
100
AcDbDimStyleTableRecord
2
STANDARD
70
0
3

4

5
_FILLED
6
_FILLED
7
_FILLED
40
1.0
41
3.5000000000
42
0.0625
43
0.38
44
0.18
45
0.0
46
0.0
47
0.0010000000
48
0.0010000000
140
3.5000000000
141
0.09
142
0.0
143
25.4
144
1.0000000000
145
0.0
146
1.0000000000
147
0.09
71
1
72
0
73
0
74
0
75
0
76
0
77
1
78
8
170
0
171
2
172
0
173
0
174
0
175
0
176
0
177
0
178
0
270
2
271
3
272
3
273
2
274
2
340
11
275
0
280
0
281
0
282
0
283
1
284
8
285
0
286
0
287
3
288
0
0
DIMSTYLE
105
207
100
AcDbSymbolTableRecord
100
AcDbDimStyleTableRecord
2
DIMSTYLE_1
70
0
3

4

5
_FILLED
6
_FILLED
7
_FILLED
40
1.0
41
3.5000000000
42
0.0625
43
0.38
44
0.18
45
0.0
46
0.0
47
0.1500000000
48
0.1500000000
140
3.5000000000
141
0.09
142
0.0
143
25.4
144
1.0000000000
145
0.0
146
1.0000000000
147
0.09
71
0
72
0
73
0
74
0
75
0
76
0
77
1
78
8
170
0
171
2
172
0
173
0
174
0
175
0
176
0
177
0
178
0
270
2
271
3
272
3
273
2
274
2
340
11
275
0
280
0
281
0
282
0
283
1
284
8
285
0
286
0
287
3
288
0
0
DIMSTYLE
105
208
100
AcDbSymbolTableRecord
100
AcDbDimStyleTableRecord
2
DIMSTYLE_2
70
0
3

4

5
_FILLED
6
_FILLED
7
_FILLED
40
1.0
41
3.5000000000
42
0.0625
43
0.38
44
0.18
45
0.0
46
0.0
47
0.1000000000
48
0.1000000000
140
3.5000000000
141
0.09
142
0.0
143
25.4
144
1.0000000000
145
0.0
146
1.0000000000
147
0.09
71
0
72
0
73
0
74
0
75
0
76
0
77
1
78
8
170
0
171
2
172
0
173
0
174
0
175
0
176
0
177
0
178
0
270
2
271
3
272
3
273
2
274
2
340
11
275
0
280
0
281
0
282
0
283
1
284
8
285
0
286
0
287
3
288
0
0
DIMSTYLE
105
209
100
AcDbSymbolTableRecord
100
AcDbDimStyleTableRecord
2
DIMSTYLE_3
70
0
3

4

5
_FILLED
6
_FILLED
7
_FILLED
40
1.0
41
3.5000000000
42
0.0625
43
0.38
44
0.18
45
0.0
46
0.0
47
0.1500000000
48
0.1500000000
140
3.5000000000
141
0.09
142
0.0
143
25.4
144
1.0000000000
145
0.0
146
1.0000000000
147
0.09
71
0
72
0
73
0
74
0
75
0
76
0
77
1
78
8
170
0
171
2
172
0
173
0
174
0
175
0
176
0
177
0
178
0
270
2
271
2
272
2
273
2
274
2
340
11
275
0
280
0
281
0
282
0
283
1
284
8
285
0
286
0
287
3
288
0
0
DIMSTYLE
105
20A
100
AcDbSymbolTableRecord
100
AcDbDimStyleTableRecord
2
DIMSTYLE_4
70
0
3

4

5
_FILLED
6
_FILLED
7
_FILLED
40
1.0
41
3.5000000000
42
0.0625
43
0.38
44
0.18
45
0.0
46
0.0
47
0.1500000000
48
0.1500000000
140
3.5000000000
141
0.09
142
0.0
143
25.4
144
1.0000000000
145
0.0
146
1.0000000000
147
0.09
71
0
72
0
73
0
74
0
75
0
76
0
77
1
78
8
170
0
171
2
172
0
173
0
174
0
175
0
176
0
177
0
178
0
270
2
271
1
272
1
273
2
274
2
340
11
275
0
280
0
281
0
282
0
283
1
284
8
285
0
286
0
287
3
288
0
0
ENDTAB
0
TABLE
2
BLOCK_RECORD
5
1
100
AcDbSymbolTable
70
0
0
BLOCK_RECORD
5
1B
100
AcDbSymbolTableRecord
100
AcDbBlockTableRecord
2
*MODEL_SPACE
0
BLOCK_RECORD
5
1C
100
AcDbSymbolTableRecord
100
AcDbBlockTableRecord
2
*PAPER_SPACE
0
BLOCK_RECORD
5
20B
100
AcDbSymbolTableRecord
100
AcDbBlockTableRecord
2
_FILLED
0
BLOCK_RECORD
5
20C
100
AcDbSymbolTableRecord
100
AcDbBlockTableRecord
2
*D0
0
BLOCK_RECORD
5
20D
100
AcDbSymbolTableRecord
100
AcDbBlockTableRecord
2
*D1
0
BLOCK_RECORD
5
20E
100
AcDbSymbolTableRecord
100
AcDbBlockTableRecord
2
*D2
0
BLOCK_RECORD
5
20F
100
AcDbSymbolTableRecord
100
AcDbBlockTableRecord
2
*D3
0
BLOCK_RECORD
5
210
100
AcDbSymbolTableRecord
100
AcDbBlockTableRecord
2
*D4
0
ENDTAB
0
ENDSEC
0
SECTION
2
BLOCKS
0
BLOCK
5
1E
100
AcDbEntity
8
0
100
AcDbBlockBegin
2
*MODEL_SPACE
70
0
10
0.0
20
0.0
30
0.0
3
*MODEL_SPACE
1

0
ENDBLK
5
1F
100
AcDbEntity
8
0
100
AcDbBlockEnd
0
BLOCK
5
20
100
AcDbEntity
8
0
100
AcDbBlockBegin
2
*PAPER_SPACE
70
0
10
0.0
20
0.0
30
0.0
3
*PAPER_SPACE
1

0
ENDBLK
5
21
100
AcDbEntity
8
0
100
AcDbBlockEnd
0
BLOCK
5
211
100
AcDbEntity
8
0
100
AcDbBlockBegin
62
2
6
CONTINUOUS
2
*D0
70
65
10
0.0000000000
20
0.0000000000
3
*D0
1

0
TEXT
5
212
100
AcDbEntity
8
0
100
AcDbText
62
2
6
CONTINUOUS
10
117.0328760024
20
141.2118379713
7
STANDARD
40
3.5000000000
1
%%c
41
1.3333333333
72
0
100
AcDbText
0
TEXT
5
213
100
AcDbEntity
8
0
100
AcDbText
62
2
6
CONTINUOUS
10
121.6995426691
20
141.2118379713
7
STANDARD
40
3.5000000000
1
 1 7/16"
41
0.7143000000
72
0
100
AcDbText
0
LINE
5
214
100
AcDbEntity
8
0
100
AcDbLine
62
2
6
CONTINUOUS
10
150.9591028023
20
186.1445242370
11
150.9591028023
21
138.8368379713
0
LINE
5
215
100
AcDbEntity
8
0
100
AcDbLine
62
2
6
CONTINUOUS
10
114.4628002498
20
187.1445242370
11
114.4628002498
21
138.8368379713
0
LINE
5
216
100
AcDbEntity
8
0
100
AcDbLine
62
2
6
CONTINUOUS
10
150.9591028023
20
140.3368379713
11
132.7109515260
21
140.3368379713
0
LINE
5
217
100
AcDbEntity
8
0
100
AcDbLine
62
2
6
CONTINUOUS
10
114.4628002498
20
140.3368379713
11
132.7109515260
21
140.3368379713
0
INSERT
5
218
100
AcDbEntity
8
0
100
AcDbBlockReference
62
2
6
CONTINUOUS
2
_FILLED
10
150.9591028023
20
140.3368379713
41
  3.500000
42
  3.500000
43
  3.500000
0
INSERT
5
219
100
AcDbEntity
8
0
100
AcDbBlockReference
62
2
6
CONTINUOUS
2
_FILLED
10
114.4628002498
20
140.3368379713
41
  3.500000
42
  3.500000
43
  3.500000
50
180.000000
0
ENDBLK
5
21A
100
AcDbEntity
8
0
6
BYBLOCK
62
0
100
AcDbBlockEnd
0
BLOCK
5
21B
100
AcDbEntity
8
0
100
AcDbBlockBegin
62
2
6
CONTINUOUS
2
*D1
70
65
10
0.0000000000
20
0.0000000000
3
*D1
1

0
TEXT
5
21C
100
AcDbEntity
8
0
100
AcDbText
62
2
6
CONTINUOUS
10
236.5242498205
20
230.3460951526
7
STANDARD
40
3.5000000000
1
18
41
0.7143000000
72
0
100
AcDbText
0
LINE
5
21D
100
AcDbEntity
8
0
100
AcDbLine
62
2
6
CONTINUOUS
10
230.0168725314
20
218.3945242370
11
230.0168725314
21
230.9710951526
0
LINE
5
21E
100
AcDbEntity
8
0
100
AcDbLine
62
2
6
CONTINUOUS
10
248.0168725314
20
218.3945242370
11
248.0168725314
21
230.9710951526
0
LINE
5
21F
100
AcDbEntity
8
0
100
AcDbLine
62
2
6
CONTINUOUS
10
230.0168725314
20
229.4710951526
11
239.0168725314
21
229.4710951526
0
LINE
5
220
100
AcDbEntity
8
0
100
AcDbLine
62
2
6
CONTINUOUS
10
248.0168725314
20
229.4710951526
11
239.0168725314
21
229.4710951526
0
INSERT
5
221
100
AcDbEntity
8
0
100
AcDbBlockReference
62
2
6
CONTINUOUS
2
_FILLED
10
230.0168725314
20
229.4710951526
41
  3.500000
42
  3.500000
43
  3.500000
50
180.000000
0
INSERT
5
222
100
AcDbEntity
8
0
100
AcDbBlockReference
62
2
6
CONTINUOUS
2
_FILLED
10
248.0168725314
20
229.4710951526
41
  3.500000
42
  3.500000
43
  3.500000
0
ENDBLK
5
223
100
AcDbEntity
8
0
6
BYBLOCK
62
0
100
AcDbBlockEnd
0
BLOCK
5
224
100
AcDbEntity
8
0
100
AcDbBlockBegin
62
2
6
CONTINUOUS
2
*D2
70
65
10
0.0000000000
20
0.0000000000
3
*D2
1

0
TEXT
5
225
100
AcDbEntity
8
0
100
AcDbText
62
2
6
CONTINUOUS
10
127.4213136137
20
229.0786239761
7
STANDARD
40
3.5000000000
1
9.58
41
0.7143000000
72
0
100
AcDbText
0
LINE
5
226
100
AcDbEntity
8
0
100
AcDbLine
62
2
6
CONTINUOUS
10
127.9209515260
20
210.4145242370
11
127.9209515260
21
229.7036239761
0
LINE
5
227
100
AcDbEntity
8
0
100
AcDbLine
62
2
6
CONTINUOUS
10
137.5009515260
20
210.4145242370
11
137.5009515260
21
229.7036239761
0
LINE
5
228
100
AcDbEntity
8
0
100
AcDbLine
62
2
6
CONTINUOUS
10
127.9209515260
20
228.2036239761
11
119.9209515260
21
228.2036239761
0
LINE
5
229
100
AcDbEntity
8
0
100
AcDbLine
62
2
6
CONTINUOUS
10
119.9209515260
20
228.2036239761
11
132.7109515260
21
228.2036239761
0
LINE
5
22A
100
AcDbEntity
8
0
100
AcDbLine
62
2
6
CONTINUOUS
10
137.5009515260
20
228.2036239761
11
145.5009515260
21
228.2036239761
0
LINE
5
22B
100
AcDbEntity
8
0
100
AcDbLine
62
2
6
CONTINUOUS
10
145.5009515260
20
228.2036239761
11
132.7109515260
21
228.2036239761
0
INSERT
5
22C
100
AcDbEntity
8
0
100
AcDbBlockReference
62
2
6
CONTINUOUS
2
_FILLED
10
127.9209515260
20
228.2036239761
41
  3.500000
42
  3.500000
43
  3.500000
0
INSERT
5
22D
100
AcDbEntity
8
0
100
AcDbBlockReference
62
2
6
CONTINUOUS
2
_FILLED
10
137.5009515260
20
228.2036239761
41
  3.500000
42
  3.500000
43
  3.500000
50
180.000000
0
ENDBLK
5
22E
100
AcDbEntity
8
0
6
BYBLOCK
62
0
100
AcDbBlockEnd
0
BLOCK
5
22F
100
AcDbEntity
8
0
100
AcDbBlockBegin
62
2
6
CONTINUOUS
2
*D3
70
65
10
0.0000000000
20
0.0000000000
3
*D3
1

0
TEXT
5
230
100
AcDbEntity
8
0
100
AcDbText
62
2
6
CONTINUOUS
10
84.1833076891
20
181.6531651460
7
STANDARD
40
3.5000000000
1
41.03
50
90.0000000000
41
0.7143000000
72
0
100
AcDbText
0
LINE
5
231
100
AcDbEntity
8
0
100
AcDbLine
62
2
6
CONTINUOUS
10
128.4209515260
20
209.9145242370
11
83.5583076891
21
209.9145242370
0
LINE
5
232
100
AcDbEntity
8
0
100
AcDbLine
62
2
6
CONTINUOUS
10
132.2109515260
20
168.8895242370
11
83.5583076891
21
168.8895242370
0
LINE
5
233
100
AcDbEntity
8
0
100
AcDbLine
62
2
6
CONTINUOUS
10
85.0583076891
20
209.9145242370
11
85.0583076891
21
189.4020242370
0
LINE
5
234
100
AcDbEntity
8
0
100
AcDbLine
62
2
6
CONTINUOUS
10
85.0583076891
20
168.8895242370
11
85.0583076891
21
189.4020242370
0
INSERT
5
235
100
AcDbEntity
8
0
100
AcDbBlockReference
62
2
6
CONTINUOUS
2
_FILLED
10
85.0583076891
20
209.9145242370
41
  3.500000
42
  3.500000
43
  3.500000
50
 90.000000
0
INSERT
5
236
100
AcDbEntity
8
0
100
AcDbBlockReference
62
2
6
CONTINUOUS
2
_FILLED
10
85.0583076891
20
168.8895242370
41
  3.500000
42
  3.500000
43
  3.500000
50
270.000000
0
ENDBLK
5
237
100
AcDbEntity
8
0
6
BYBLOCK
62
0
100
AcDbBlockEnd
0
BLOCK
5
238
100
AcDbEntity
8
0
100
AcDbBlockBegin
62
2
6
CONTINUOUS
2
*D4
70
65
10
0.0000000000
20
0.0000000000
3
*D4
1

0
TEXT
5
239
100
AcDbEntity
8
0
100
AcDbText
62
2
6
CONTINUOUS
10
124.5630980990
20
68.7281414806
7
STANDARD
40
3.5000000000
1
%%c
41
1.3333333333
72
0
100
AcDbText
0
TEXT
5
23A
100
AcDbEntity
8
0
100
AcDbText
62
2
6
CONTINUOUS
10
129.2297647657
20
68.7281414806
7
STANDARD
40
3.5000000000
1
63.5
41
0.7143000000
72
0
100
AcDbText
0
LINE
5
23B
100
AcDbEntity
8
0
100
AcDbLine
62
2
6
CONTINUOUS
10
100.9648887780
20
81.7396095153
11
100.9648887780
21
66.3531414806
0
LINE
5
23C
100
AcDbEntity
8
0
100
AcDbLine
62
2
6
CONTINUOUS
10
164.4570142740
20
81.7396095153
11
164.4570142740
21
66.3531414806
0
LINE
5
23D
100
AcDbEntity
8
0
100
AcDbLine
62
2
6
CONTINUOUS
10
100.9648887780
20
67.8531414806
11
132.7109515260
21
67.8531414806
0
LINE
5
23E
100
AcDbEntity
8
0
100
AcDbLine
62
2
6
CONTINUOUS
10
164.4570142740
20
67.8531414806
11
132.7109515260
21
67.8531414806
0
INSERT
5
23F
100
AcDbEntity
8
0
100
AcDbBlockReference
62
2
6
CONTINUOUS
2
_FILLED
10
100.9648887780
20
67.8531414806
41
  3.500000
42
  3.500000
43
  3.500000
50
180.000000
0
INSERT
5
240
100
AcDbEntity
8
0
100
AcDbBlockReference
62
2
6
CONTINUOUS
2
_FILLED
10
164.4570142740
20
67.8531414806
41
  3.500000
42
  3.500000
43
  3.500000
0
ENDBLK
5
241
100
AcDbEntity
8
0
6
BYBLOCK
62
0
100
AcDbBlockEnd
0
BLOCK
5
242
100
AcDbEntity
8
0
100
AcDbBlockBegin
2
_FILLED
70
64
10
0.0000000000
20
0.0000000000
3
_FILLED
1

0
SOLID
5
243
100
AcDbEntity
8
0
6
BYBLOCK
62
0
100
AcDbTrace
10
0.0000000000
20
0.0000000000
11
-1.0000000000
21
0.1857142857
12
-1.0000000000
22
-0.1857142857
13
-1.0000000000
23
-0.1857142857
0
ENDBLK
5
244
100
AcDbEntity
8
0
6
BYBLOCK
62
0
100
AcDbBlockEnd
0
ENDSEC
0
SECTION
2
ENTITIES
0
DIMENSION
5
245
100
AcDbEntity
8
0
100
AcDbDimension
62
2
6
CONTINUOUS
2
*D0
10
114.4628002498
20
140.3368379713
11
129.3664093357
21
142.9618379713
70
160
1
%%c 1 7/16"
3
DIMSTYLE_1
100
AcDbAlignedDimension
13
150.9591028023
23
186.1445242370
14
114.4628002498
24
187.1445242370
50
180.000000
100
AcDbRotatedDimension
0
DIMENSION
5
246
100
AcDbEntity
8
0
100
AcDbDimension
62
2
6
CONTINUOUS
2
*D1
10
248.0168725314
20
229.4710951526
11
239.0242998205
21
232.0960951526
70
160
3
DIMSTYLE_2
100
AcDbAlignedDimension
13
230.0168725314
23
218.3945242370
14
248.0168725314
24
218.3945242370
100
AcDbRotatedDimension
0
DIMENSION
5
247
100
AcDbEntity
8
0
100
AcDbDimension
62
2
6
CONTINUOUS
2
*D2
10
137.5009515260
20
228.2036239761
11
132.4214136137
21
230.8286239761
70
160
3
DIMSTYLE_2
100
AcDbAlignedDimension
13
127.9209515260
23
210.4145242370
14
137.5009515260
24
210.4145242370
100
AcDbRotatedDimension
0
DIMENSION
5
248
100
AcDbEntity
8
0
100
AcDbDimension
62
2
6
CONTINUOUS
2
*D3
10
85.0583076891
20
168.8895242370
11
82.4333076891
21
187.9032901460
70
160
3
DIMSTYLE_3
100
AcDbAlignedDimension
13
128.4209515260
23
209.9145242370
14
132.2109515260
24
168.8895242370
50
270.000000
100
AcDbRotatedDimension
0
DIMENSION
5
249
100
AcDbEntity
8
0
100
AcDbDimension
62
2
6
CONTINUOUS
2
*D4
10
164.4570142740
20
67.8531414806
11
131.8965314323
21
70.4781414806
70
160
1
%%c<>
3
DIMSTYLE_4
100
AcDbAlignedDimension
13
100.9648887780
23
81.7396095153
14
164.4570142740
24
81.7396095153
100
AcDbRotatedDimension
0
LINE
5
24A
100
AcDbEntity
8
0
100
AcDbLine
62
7
6
CONTINUOUS
10
0.0000000000
20
0.0000000000
11
0.0000000000
21
297.0000000000
0
LINE
5
24B
100
AcDbEntity
8
0
100
AcDbLine
62
7
6
CONTINUOUS
10
0.0000000000
20
0.0000000000
11
420.0000000000
21
0.0000000000
0
LINE
5
24C
100
AcDbEntity
8
0
100
AcDbLine
62
7
6
CONTINUOUS
10
0.0000000000
20
297.0000000000
11
420.0000000000
21
297.0000000000
0
LINE
5
24D
100
AcDbEntity
8
0
100
AcDbLine
62
7
6
CONTINUOUS
10
420.0000000000
20
0.0000000000
11
420.0000000000
21
297.0000000000
0
LINE
5
24E
100
AcDbEntity
8
0
100
AcDbLine
62
7
6
CONTINUOUS
10
102.9609515260
20
198.2268430414
11
102.9609515260
21
199.3445242370
0
LINE
5
24F
100
AcDbEntity
8
0
100
AcDbLine
62
7
6
CONTINUOUS
10
104.7109515260
20
187.6445242370
11
104.7109515260
21
186.6445242370
0
LINE
5
250
100
AcDbEntity
8
0
100
AcDbLine
62
2
6
CONTINUOUS
10
105.1109515260
20
187.6445242370
11
105.1109515260
21
186.6445242370
0
LINE
5
251
100
AcDbEntity
8
0
100
AcDbLine
62
2
6
CONTINUOUS
10
109.3109515260
20
187.6445242370
11
109.3109515260
21
186.6445242370
0
LINE
5
252
100
AcDbEntity
8
0
100
AcDbLine
62
7
6
CONTINUOUS
10
109.7109515260
20
187.6445242370
11
109.7109515260
21
186.6445242370
0
LINE
5
253
100
AcDbEntity
8
0
100
AcDbLine
62
7
6
CONTINUOUS
10
127.9209515260
20
209.9145242370
11
127.9209515260
21
204.7598847215
0
LINE
5
254
100
AcDbEntity
8
DEFAULT_1
100
AcDbLine
62
2
6
CENTER
10
132.7109515260
20
221.8945242370
11
132.7109515260
21
152.3945242370
0
LINE
5
255
100
AcDbEntity
8
0
100
AcDbLine
62
7
6
CONTINUOUS
10
100.9648887780
20
186.6445242370
11
114.4628002498
21
186.6445242370
0
LINE
5
256
100
AcDbEntity
8
0
100
AcDbLine
62
7
6
CONTINUOUS
10
150.9591028023
20
186.6445242370
11
164.4570142740
21
186.6445242370
0
LINE
5
257
100
AcDbEntity
8
0
100
AcDbLine
62
7
6
CONTINUOUS
10
100.9648887780
20
187.6445242370
11
114.4628002498
21
187.6445242370
0
LINE
5
258
100
AcDbEntity
8
0
100
AcDbLine
62
7
6
CONTINUOUS
10
150.9591028023
20
187.6445242370
11
164.4570142740
21
187.6445242370
0
LINE
5
259
100
AcDbEntity
8
0
100
AcDbLine
62
7
6
CONTINUOUS
10
137.5009515260
20
204.7598847215
11
137.5009515260
21
209.9145242370
0
LINE
5
25A
100
AcDbEntity
8
0
100
AcDbLine
62
9
6
CONTINUOUS
10
102.9609515260
20
199.3445242370
11
103.4172575876
21
199.3445242370
0
LINE
5
25B
100
AcDbEntity
8
0
100
AcDbLine
62
9
6
CONTINUOUS
10
162.0046454645
20
199.3445242370
11
162.4609515260
21
199.3445242370
0
LINE
5
25C
100
AcDbEntity
8
0
100
AcDbLine
62
7
6
CONTINUOUS
10
103.2609845852
20
199.6445242370
11
103.5397360000
21
199.6445242370
0
LINE
5
25D
100
AcDbEntity
8
0
100
AcDbLine
62
7
6
CONTINUOUS
10
161.8821670520
20
199.6445242370
11
162.1609184669
21
199.6445242370
0
LINE
5
25E
100
AcDbEntity
8
0
100
AcDbLine
62
7
6
CONTINUOUS
10
155.7109515260
20
187.6445242370
11
155.7109515260
21
186.6445242370
0
LINE
5
25F
100
AcDbEntity
8
0
100
AcDbLine
62
2
6
CONTINUOUS
10
156.1109515260
20
187.6445242370
11
156.1109515260
21
186.6445242370
0
LINE
5
260
100
AcDbEntity
8
0
100
AcDbLine
62
7
6
CONTINUOUS
10
136.5009515260
20
209.9145242370
11
128.9209515260
21
209.9145242370
0
LINE
5
261
100
AcDbEntity
8
0
100
AcDbLine
62
2
6
CONTINUOUS
10
160.3109515260
20
187.6445242370
11
160.3109515260
21
186.6445242370
0
LINE
5
262
100
AcDbEntity
8
0
100
AcDbLine
62
7
6
CONTINUOUS
10
160.7109515260
20
187.6445242370
11
160.7109515260
21
186.6445242370
0
LINE
5
263
100
AcDbEntity
8
0
100
AcDbLine
62
7
6
CONTINUOUS
10
162.4609515260
20
198.2268430414
11
162.4609515260
21
199.3445242370
0
LINE
5
264
100
AcDbEntity
8
0
100
AcDbLine
62
7
6
CONTINUOUS
10
247.0168725314
20
155.3945242370
11
243.0168725314
21
155.3945242370
0
LINE
5
265
100
AcDbEntity
8
0
100
AcDbLine
62
7
6
CONTINUOUS
10
235.0168725314
20
155.3945242370
11
231.0168725314
21
155.3945242370
0
LINE
5
266
100
AcDbEntity
8
0
100
AcDbLine
62
7
6
CONTINUOUS
10
243.0168725314
20
157.3609297595
11
235.0168725314
21
157.3609297595
0
LINE
5
267
100
AcDbEntity
8
0
100
AcDbLine
62
7
6
CONTINUOUS
10
230.0168725314
20
217.8945242370
11
231.0168725314
21
218.8945242370
0
LINE
5
268
100
AcDbEntity
8
0
100
AcDbLine
62
7
6
CONTINUOUS
10
231.0168725314
20
155.3945242370
11
230.0168725314
21
156.3945242370
0
LINE
5
269
100
AcDbEntity
8
0
100
AcDbLine
62
7
6
CONTINUOUS
10
241.4668725314
20
163.7818938200
11
236.5668725314
21
163.7818938200
0
LINE
5
26A
100
AcDbEntity
8
0
100
AcDbLine
62
7
6
CONTINUOUS
10
241.1168725314
20
174.6445242370
11
236.9168725314
21
174.6445242370
0
LINE
5
26B
100
AcDbEntity
8
0
100
AcDbLine
62
7
6
CONTINUOUS
10
241.5168725314
20
175.0445242370
11
236.5168725314
21
175.0445242370
0
LINE
5
26C
100
AcDbEntity
8
0
100
AcDbLine
62
7
6
CONTINUOUS
10
241.4668725314
20
175.4051673551
11
236.5668725314
21
175.4051673551
0
LINE
5
26D
100
AcDbEntity
8
0
100
AcDbLine
62
7
6
CONTINUOUS
10
230.0168725314
20
217.8942839633
11
230.0168725314
21
187.6445242370
0
LINE
5
26E
100
AcDbEntity
8
0
100
AcDbLine
62
7
6
CONTINUOUS
10
230.0168725314
20
156.3947645107
11
230.0168725314
21
186.6445242370
0
LINE
5
26F
100
AcDbEntity
8
0
100
AcDbLine
62
7
6
CONTINUOUS
10
236.9168725314
20
174.6445242370
11
236.5168725314
21
175.0445242370
0
LINE
5
270
100
AcDbEntity
8
0
100
AcDbLine
62
7
6
CONTINUOUS
10
231.0168725314
20
218.8945242370
11
231.0168725314
21
187.6445242370
0
LINE
5
271
100
AcDbEntity
8
0
100
AcDbLine
62
7
6
CONTINUOUS
10
231.0168725314
20
155.3945242370
11
231.0168725314
21
186.6445242370
0
LINE
5
272
100
AcDbEntity
8
0
100
AcDbLine
62
7
6
CONTINUOUS
10
235.0168725314
20
218.8945242370
11
235.0168725314
21
216.9281187145
0
LINE
5
273
100
AcDbEntity
8
0
100
AcDbLine
62
7
6
CONTINUOUS
10
235.0168725314
20
155.3945242370
11
235.0168725314
21
157.3609297595
0
LINE
5
274
100
AcDbEntity
8
0
100
AcDbLine
62
7
6
CONTINUOUS
10
236.5168725314
20
187.6445242370
11
236.5168725314
21
186.6445242370
0
LINE
5
275
100
AcDbEntity
8
0
100
AcDbLine
62
7
6
CONTINUOUS
10
236.5168725314
20
175.1731341182
11
236.5168725314
21
175.0445242370
0
LINE
5
276
100
AcDbEntity
8
0
100
AcDbLine
62
7
6
CONTINUOUS
10
236.5668725314
20
174.9945242370
11
236.5668725314
21
163.7818938200
0
LINE
5
277
100
AcDbEntity
8
0
100
AcDbLine
62
7
6
CONTINUOUS
10
236.5668725314
20
199.6445242370
11
236.5668725314
21
210.5071546540
0
LINE
5
278
100
AcDbEntity
8
0
100
AcDbLine
62
2
6
CONTINUOUS
10
236.9168725314
20
187.6445242370
11
236.9168725314
21
186.6445242370
0
LINE
5
279
100
AcDbEntity
8
DEFAULT_1
100
AcDbLine
62
2
6
CENTER
10
239.0168725314
20
222.0118985637
11
239.0168725314
21
152.8759021544
0
LINE
5
27A
100
AcDbEntity
8
0
100
AcDbLine
62
7
6
CONTINUOUS
10
230.0168725314
20
186.6445242370
11
248.0168725314
21
186.6445242370
0
LINE
5
27B
100
AcDbEntity
8
0
100
AcDbLine
62
2
6
CONTINUOUS
10
241.1168725314
20
187.6445242370
11
241.1168725314
21
186.6445242370
0
LINE
5
27C
100
AcDbEntity
8
0
100
AcDbLine
62
7
6
CONTINUOUS
10
241.4668725314
20
174.9945242370
11
241.4668725314
21
163.7818938200
0
LINE
5
27D
100
AcDbEntity
8
0
100
AcDbLine
62
7
6
CONTINUOUS
10
241.4668725314
20
199.6445242370
11
241.4668725314
21
210.5071546540
0
LINE
5
27E
100
AcDbEntity
8
0
100
AcDbLine
62
7
6
CONTINUOUS
10
230.0168725314
20
187.6445242370
11
248.0168725314
21
187.6445242370
0
LINE
5
27F
100
AcDbEntity
8
0
100
AcDbLine
62
7
6
CONTINUOUS
10
241.5168725314
20
187.6445242370
11
241.5168725314
21
186.6445242370
0
LINE
5
280
100
AcDbEntity
8
0
100
AcDbLine
62
7
6
CONTINUOUS
10
241.5168725314
20
175.1731341182
11
241.5168725314
21
175.0445242370
0
LINE
5
281
100
AcDbEntity
8
0
100
AcDbLine
62
7
6
CONTINUOUS
10
243.0168725314
20
218.8945242370
11
243.0168725314
21
216.9281187145
0
LINE
5
282
100
AcDbEntity
8
0
100
AcDbLine
62
7
6
CONTINUOUS
10
243.0168725314
20
155.3945242370
11
243.0168725314
21
157.3609297595
0
LINE
5
283
100
AcDbEntity
8
0
100
AcDbLine
62
7
6
CONTINUOUS
10
247.0168725314
20
218.8945242370
11
247.0168725314
21
187.6445242370
0
LINE
5
284
100
AcDbEntity
8
0
100
AcDbLine
62
7
6
CONTINUOUS
10
247.0168725314
20
155.3945242370
11
247.0168725314
21
186.6445242370
0
LINE
5
285
100
AcDbEntity
8
0
100
AcDbLine
62
7
6
CONTINUOUS
10
248.0168725314
20
217.8942839633
11
248.0168725314
21
187.6445242370
0
LINE
5
286
100
AcDbEntity
8
0
100
AcDbLine
62
7
6
CONTINUOUS
10
248.0168725314
20
156.3947645107
11
248.0168725314
21
186.6445242370
0
LINE
5
287
100
AcDbEntity
8
0
100
AcDbLine
62
7
6
CONTINUOUS
10
241.1168725314
20
174.6445242370
11
241.5168725314
21
175.0445242370
0
LINE
5
288
100
AcDbEntity
8
0
100
AcDbLine
62
9
6
CONTINUOUS
10
236.4676102179
20
199.3445242370
11
241.5661348449
21
199.3445242370
0
LINE
5
289
100
AcDbEntity
8
0
100
AcDbLine
62
7
6
CONTINUOUS
10
236.4029643068
20
199.6445242370
11
241.6307807560
21
199.6445242370
0
LINE
5
28A
100
AcDbEntity
8
0
100
AcDbLine
62
7
6
CONTINUOUS
10
236.5668725314
20
210.5071546540
11
241.4668725314
21
210.5071546540
0
LINE
5
28B
100
AcDbEntity
8
0
100
AcDbLine
62
7
6
CONTINUOUS
10
248.0168725314
20
156.3945242370
11
247.0168725314
21
155.3945242370
0
LINE
5
28C
100
AcDbEntity
8
0
100
AcDbLine
62
7
6
CONTINUOUS
10
247.0168725314
20
218.8945242370
11
248.0168725314
21
217.8945242370
0
LINE
5
28D
100
AcDbEntity
8
0
100
AcDbLine
62
7
6
CONTINUOUS
10
235.0168725314
20
216.9281187145
11
243.0168725314
21
216.9281187145
0
LINE
5
28E
100
AcDbEntity
8
0
100
AcDbLine
62
7
6
CONTINUOUS
10
231.0168725314
20
218.8945242370
11
235.0168725314
21
218.8945242370
0
LINE
5
28F
100
AcDbEntity
8
0
100
AcDbLine
62
7
6
CONTINUOUS
10
243.0168725314
20
218.8945242370
11
247.0168725314
21
218.8945242370
0
LINE
5
290
100
AcDbEntity
8
0
100
AcDbLine
62
7
6
CONTINUOUS
10
100.9648887780
20
98.2396095153
11
100.9648887780
21
82.2396095153
0
LINE
5
291
100
AcDbEntity
8
0
100
AcDbLine
62
7
6
CONTINUOUS
10
103.2109515260
20
92.6896095153
11
103.2109515260
21
91.6701286869
0
LINE
5
292
100
AcDbEntity
8
0
100
AcDbLine
62
7
6
CONTINUOUS
10
103.2109515260
20
88.8090903436
11
103.2109515260
21
87.7896095153
0
LINE
5
293
100
AcDbEntity
8
0
100
AcDbLine
62
7
6
CONTINUOUS
10
105.0109515260
20
88.9694389230
11
105.0109515260
21
91.5097801075
0
LINE
5
294
100
AcDbEntity
8
0
100
AcDbLine
62
7
6
CONTINUOUS
10
105.2109515260
20
89.0849089769
11
105.2109515260
21
91.3943100536
0
LINE
5
295
100
AcDbEntity
8
0
100
AcDbLine
62
7
6
CONTINUOUS
10
107.2109515260
20
92.7799506997
11
107.2109515260
21
92.5490105920
0
LINE
5
296
100
AcDbEntity
8
DEFAULT_1
100
AcDbLine
62
2
6
CENTER
10
107.2109515260
20
90.2396095153
11
107.2109515260
21
87.9302084385
0
LINE
5
297
100
AcDbEntity
8
DEFAULT_1
100
AcDbLine
62
2
6
CENTER
10
107.2109515260
20
87.6992683308
11
107.2109515260
21
84.5896095153
0
LINE
5
298
100
AcDbEntity
8
0
100
AcDbLine
62
7
6
CONTINUOUS
10
107.2109515260
20
87.6992683308
11
107.2109515260
21
87.9302084385
0
LINE
5
299
100
AcDbEntity
8
DEFAULT_1
100
AcDbLine
62
2
6
CENTER
10
107.2109515260
20
90.2396095153
11
107.2109515260
21
92.5490105920
0
LINE
5
29A
100
AcDbEntity
8
DEFAULT_1
100
AcDbLine
62
2
6
CENTER
10
107.2109515260
20
92.7799506997
11
107.2109515260
21
95.8896095153
0
LINE
5
29B
100
AcDbEntity
8
0
100
AcDbLine
62
7
6
CONTINUOUS
10
109.2109515260
20
91.3943100536
11
109.2109515260
21
89.0849089769
0
LINE
5
29C
100
AcDbEntity
8
0
100
AcDbLine
62
7
6
CONTINUOUS
10
109.4109515260
20
91.5097801075
11
109.4109515260
21
88.9694389230
0
LINE
5
29D
100
AcDbEntity
8
0
100
AcDbLine
62
7
6
CONTINUOUS
10
111.2109515260
20
92.6896095153
11
111.2109515260
21
87.7896095153
0
LINE
5
29E
100
AcDbEntity
8
0
100
AcDbLine
62
7
6
CONTINUOUS
10
107.2109515260
20
94.7299156377
11
103.2109515260
21
92.6896095153
0
LINE
5
29F
100
AcDbEntity
8
0
100
AcDbLine
62
7
6
CONTINUOUS
10
107.2109515260
20
85.7493033928
11
103.2109515260
21
87.7896095153
0
LINE
5
2A0
100
AcDbEntity
8
0
100
AcDbLine
62
7
6
CONTINUOUS
10
105.0109515260
20
91.5097801075
11
107.2109515260
21
92.7799506997
0
LINE
5
2A1
100
AcDbEntity
8
0
100
AcDbLine
62
7
6
CONTINUOUS
10
105.2109515260
20
91.3943100536
11
107.2109515260
21
92.5490105920
0
LINE
5
2A2
100
AcDbEntity
8
0
100
AcDbLine
62
7
6
CONTINUOUS
10
107.2109515260
20
87.6992683308
11
105.0109515260
21
88.9694389230
0
LINE
5
2A3
100
AcDbEntity
8
0
100
AcDbLine
62
7
6
CONTINUOUS
10
107.2109515260
20
87.9302084385
11
105.2109515260
21
89.0849089769
0
LINE
5
2A4
100
AcDbEntity
8
0
100
AcDbLine
62
7
6
CONTINUOUS
10
121.7109515260
20
94.2396095153
11
121.7109515260
21
86.2396095153
0
LINE
5
2A5
100
AcDbEntity
8
0
100
AcDbLine
62
7
6
CONTINUOUS
10
109.4109515260
20
91.5097801075
11
109.2109515260
21
91.3943100536
0
LINE
5
2A6
100
AcDbEntity
8
0
100
AcDbLine
62
7
6
CONTINUOUS
10
105.0109515260
20
88.9694389230
11
105.2109515260
21
89.0849089769
0
LINE
5
2A7
100
AcDbEntity
8
0
100
AcDbLine
62
7
6
CONTINUOUS
10
109.2109515260
20
89.0849089769
11
107.2109515260
21
87.9302084385
0
LINE
5
2A8
100
AcDbEntity
8
0
100
AcDbLine
62
7
6
CONTINUOUS
10
109.4109515260
20
88.9694389230
11
109.2109515260
21
89.0849089769
0
LINE
5
2A9
100
AcDbEntity
8
0
100
AcDbLine
62
7
6
CONTINUOUS
10
105.0109515260
20
91.5097801075
11
105.2109515260
21
91.3943100536
0
LINE
5
2AA
100
AcDbEntity
8
0
100
AcDbLine
62
7
6
CONTINUOUS
10
107.2109515260
20
92.5490105920
11
109.2109515260
21
91.3943100536
0
LINE
5
2AB
100
AcDbEntity
8
0
100
AcDbLine
62
7
6
CONTINUOUS
10
109.4109515260
20
88.9694389230
11
107.2109515260
21
87.6992683308
0
LINE
5
2AC
100
AcDbEntity
8
0
100
AcDbLine
62
7
6
CONTINUOUS
10
163.4568862167
20
81.2396095153
11
101.9650168354
21
81.2396095153
0
LINE
5
2AD
100
AcDbEntity
8
0
100
AcDbLine
62
7
6
CONTINUOUS
10
107.2109515260
20
92.7799506997
11
109.4109515260
21
91.5097801075
0
LINE
5
2AE
100
AcDbEntity
8
0
100
AcDbLine
62
7
6
CONTINUOUS
10
111.2109515260
20
87.7896095153
11
107.2109515260
21
85.7493033928
0
LINE
5
2AF
100
AcDbEntity
8
0
100
AcDbLine
62
7
6
CONTINUOUS
10
164.4570142740
20
82.2396095153
11
100.9648887780
21
82.2396095153
0
LINE
5
2B0
100
AcDbEntity
8
0
100
AcDbLine
62
7
6
CONTINUOUS
10
111.2109515260
20
92.6896095153
11
107.2109515260
21
94.7299156377
0
LINE
5
2B1
100
AcDbEntity
8
0
100
AcDbLine
62
7
6
CONTINUOUS
10
143.7109515223
20
86.2396095153
11
121.7109515298
21
86.2396095153
0
LINE
5
2B2
100
AcDbEntity
8
DEFAULT_1
100
AcDbLine
62
2
6
CENTER
10
132.7109515260
20
78.2396095153
11
132.7109515260
21
102.2396095153
0
LINE
5
2B3
100
AcDbEntity
8
DEFAULT_1
100
AcDbLine
62
2
6
CENTER
10
158.2109515260
20
90.2396095153
11
152.5609515260
21
90.2396095153
0
LINE
5
2B4
100
AcDbEntity
8
DEFAULT_1
100
AcDbLine
62
2
6
CENTER
10
107.2109515260
20
90.2396095153
11
101.5609515260
21
90.2396095153
0
LINE
5
2B5
100
AcDbEntity
8
DEFAULT_1
100
AcDbLine
62
2
6
CENTER
10
107.2109515260
20
90.2396095153
11
112.8609515260
21
90.2396095153
0
LINE
5
2B6
100
AcDbEntity
8
DEFAULT_1
100
AcDbLine
62
2
6
CENTER
10
158.2109515260
20
90.2396095153
11
163.8609515260
21
90.2396095153
0
LINE
5
2B7
100
AcDbEntity
8
0
100
AcDbLine
62
7
6
CONTINUOUS
10
143.7109515223
20
94.2396095153
11
121.7109515298
21
94.2396095153
0
LINE
5
2B8
100
AcDbEntity
8
0
100
AcDbLine
62
7
6
CONTINUOUS
10
158.2109515260
20
94.7299156377
11
154.2109515260
21
92.6896095153
0
LINE
5
2B9
100
AcDbEntity
8
0
100
AcDbLine
62
7
6
CONTINUOUS
10
164.4570142740
20
98.2396095153
11
100.9648887780
21
98.2396095153
0
LINE
5
2BA
100
AcDbEntity
8
0
100
AcDbLine
62
7
6
CONTINUOUS
10
163.4568862167
20
99.2396095153
11
101.9650168354
21
99.2396095153
0
LINE
5
2BB
100
AcDbEntity
8
0
100
AcDbLine
62
7
6
CONTINUOUS
10
158.2109515260
20
85.7493033928
11
154.2109515260
21
87.7896095153
0
LINE
5
2BC
100
AcDbEntity
8
0
100
AcDbLine
62
7
6
CONTINUOUS
10
143.7109515260
20
94.2396095153
11
143.7109515260
21
86.2396095153
0
LINE
5
2BD
100
AcDbEntity
8
0
100
AcDbLine
62
7
6
CONTINUOUS
10
156.0109515260
20
91.5097801075
11
158.2109515260
21
92.7799506997
0
LINE
5
2BE
100
AcDbEntity
8
0
100
AcDbLine
62
7
6
CONTINUOUS
10
156.2109515260
20
91.3943100536
11
158.2109515260
21
92.5490105920
0
LINE
5
2BF
100
AcDbEntity
8
0
100
AcDbLine
62
7
6
CONTINUOUS
10
158.2109515260
20
87.6992683308
11
156.0109515260
21
88.9694389230
0
LINE
5
2C0
100
AcDbEntity
8
0
100
AcDbLine
62
7
6
CONTINUOUS
10
158.2109515260
20
87.9302084385
11
156.2109515260
21
89.0849089769
0
LINE
5
2C1
100
AcDbEntity
8
0
100
AcDbLine
62
7
6
CONTINUOUS
10
160.4109515260
20
91.5097801075
11
160.2109515260
21
91.3943100536
0
LINE
5
2C2
100
AcDbEntity
8
0
100
AcDbLine
62
7
6
CONTINUOUS
10
156.0109515260
20
88.9694389230
11
156.2109515260
21
89.0849089769
0
LINE
5
2C3
100
AcDbEntity
8
0
100
AcDbLine
62
7
6
CONTINUOUS
10
160.4109515260
20
88.9694389230
11
160.2109515260
21
89.0849089769
0
LINE
5
2C4
100
AcDbEntity
8
0
100
AcDbLine
62
7
6
CONTINUOUS
10
156.0109515260
20
91.5097801075
11
156.2109515260
21
91.3943100536
0
LINE
5
2C5
100
AcDbEntity
8
0
100
AcDbLine
62
7
6
CONTINUOUS
10
160.2109515260
20
89.0849089769
11
158.2109515260
21
87.9302084385
0
LINE
5
2C6
100
AcDbEntity
8
0
100
AcDbLine
62
7
6
CONTINUOUS
10
160.4109515260
20
88.9694389230
11
158.2109515260
21
87.6992683308
0
LINE
5
2C7
100
AcDbEntity
8
0
100
AcDbLine
62
7
6
CONTINUOUS
10
162.2109515260
20
87.7896095153
11
158.2109515260
21
85.7493033928
0
LINE
5
2C8
100
AcDbEntity
8
0
100
AcDbLine
62
7
6
CONTINUOUS
10
162.2109515260
20
92.6896095153
11
158.2109515260
21
94.7299156377
0
LINE
5
2C9
100
AcDbEntity
8
0
100
AcDbLine
62
7
6
CONTINUOUS
10
158.2109515260
20
92.5490105920
11
160.2109515260
21
91.3943100536
0
LINE
5
2CA
100
AcDbEntity
8
0
100
AcDbLine
62
7
6
CONTINUOUS
10
158.2109515260
20
92.7799506997
11
160.4109515260
21
91.5097801075
0
LINE
5
2CB
100
AcDbEntity
8
0
100
AcDbLine
62
7
6
CONTINUOUS
10
154.2109515260
20
92.6896095153
11
154.2109515260
21
87.7896095153
0
LINE
5
2CC
100
AcDbEntity
8
0
100
AcDbLine
62
7
6
CONTINUOUS
10
156.0109515260
20
88.9694389230
11
156.0109515260
21
91.5097801075
0
LINE
5
2CD
100
AcDbEntity
8
0
100
AcDbLine
62
7
6
CONTINUOUS
10
156.2109515260
20
89.0849089769
11
156.2109515260
21
91.3943100536
0
LINE
5
2CE
100
AcDbEntity
8
0
100
AcDbLine
62
7
6
CONTINUOUS
10
158.2109515260
20
92.7799506997
11
158.2109515260
21
92.5490105920
0
LINE
5
2CF
100
AcDbEntity
8
DEFAULT_1
100
AcDbLine
62
2
6
CENTER
10
158.2109515260
20
90.2396095153
11
158.2109515260
21
87.9302084385
0
LINE
5
2D0
100
AcDbEntity
8
DEFAULT_1
100
AcDbLine
62
2
6
CENTER
10
158.2109515260
20
87.6992683308
11
158.2109515260
21
84.5896095153
0
LINE
5
2D1
100
AcDbEntity
8
0
100
AcDbLine
62
7
6
CONTINUOUS
10
158.2109515260
20
87.6992683308
11
158.2109515260
21
87.9302084385
0
LINE
5
2D2
100
AcDbEntity
8
DEFAULT_1
100
AcDbLine
62
2
6
CENTER
10
158.2109515260
20
90.2396095153
11
158.2109515260
21
92.5490105920
0
LINE
5
2D3
100
AcDbEntity
8
DEFAULT_1
100
AcDbLine
62
2
6
CENTER
10
158.2109515260
20
92.7799506997
11
158.2109515260
21
95.8896095153
0
LINE
5
2D4
100
AcDbEntity
8
0
100
AcDbLine
62
7
6
CONTINUOUS
10
160.2109515260
20
91.3943100536
11
160.2109515260
21
89.0849089769
0
LINE
5
2D5
100
AcDbEntity
8
0
100
AcDbLine
62
7
6
CONTINUOUS
10
160.4109515260
20
91.5097801075
11
160.4109515260
21
88.9694389230
0
LINE
5
2D6
100
AcDbEntity
8
0
100
AcDbLine
62
7
6
CONTINUOUS
10
162.2109515260
20
92.6896095153
11
162.2109515260
21
91.6701286869
0
LINE
5
2D7
100
AcDbEntity
8
0
100
AcDbLine
62
7
6
CONTINUOUS
10
162.2109515260
20
88.8090903436
11
162.2109515260
21
87.7896095153
0
LINE
5
2D8
100
AcDbEntity
8
0
100
AcDbLine
62
7
6
CONTINUOUS
10
164.4570142740
20
98.2396095153
11
164.4570142740
21
82.2396095153
0
ARC
5
2D9
100
AcDbEntity
8
0
100
AcDbCircle
62
7
6
CONTINUOUS
10
162.1609515260
20
199.3445242370
40
0.3000000000
100
AcDbArc
50
0.0000000000
51
90.0000000000
0
ARC
5
2DA
100
AcDbEntity
8
0
100
AcDbCircle
62
7
6
CONTINUOUS
10
103.2609515260
20
199.3445242370
40
0.3000000000
100
AcDbArc
50
90.0000000000
51
180.0000000000
0
ARC
5
2DB
100
AcDbEntity
8
0
100
AcDbCircle
62
7
6
CONTINUOUS
10
137.0009515260
20
209.9145242370
40
0.5000000000
100
AcDbArc
50
0.0000000000
51
180.0000000000
0
ARC
5
2DC
100
AcDbEntity
8
0
100
AcDbCircle
62
7
6
CONTINUOUS
10
128.4209515260
20
209.9145242370
40
0.5000000000
100
AcDbArc
50
0.0000000000
51
180.0000000000
0
ARC
5
2DD
100
AcDbEntity
8
0
100
AcDbCircle
62
7
6
CONTINUOUS
10
132.7109515260
20
187.1445242370
40
31.7500000000
100
AcDbArc
50
0.9023330395
51
179.0976669605
0
ARC
5
2DE
100
AcDbEntity
8
0
100
AcDbCircle
62
7
6
CONTINUOUS
10
132.7109515260
20
187.1445242370
40
18.2550000000
100
AcDbArc
50
105.2121531446
51
178.4304862831
0
ARC
5
2DF
100
AcDbEntity
8
0
100
AcDbCircle
62
7
6
CONTINUOUS
10
132.7109515260
20
187.1445242370
40
18.2550000000
100
AcDbArc
50
1.5695137169
51
74.7878468554
0
ARC
5
2E0
100
AcDbEntity
8
0
100
AcDbCircle
62
7
6
CONTINUOUS
10
132.7109515260
20
187.1445242370
40
19.2550000000
100
AcDbArc
50
1.4879828760
51
75.5954647788
0
ARC
5
2E1
100
AcDbEntity
8
0
100
AcDbCircle
62
7
6
CONTINUOUS
10
132.7109515260
20
187.1445242370
40
19.2550000000
100
AcDbArc
50
104.4045352212
51
178.5120171240
0
ARC
5
2E2
100
AcDbEntity
8
0
100
AcDbCircle
62
7
6
CONTINUOUS
10
132.7109515260
20
187.1445242370
40
30.7500000000
100
AcDbArc
50
0.9316797493
51
179.0683202507
0
ARC
5
2E3
100
AcDbEntity
8
0
100
AcDbCircle
62
7
6
CONTINUOUS
10
132.7109515260
20
187.1445242370
40
31.7500000000
100
AcDbArc
50
180.9023330395
51
359.0976669605
0
ARC
5
2E4
100
AcDbEntity
8
0
100
AcDbCircle
62
7
6
CONTINUOUS
10
132.7109515260
20
187.1445242370
40
18.2550000000
100
AcDbArc
50
181.5695137169
51
358.4304862831
0
ARC
5
2E5
100
AcDbEntity
8
0
100
AcDbCircle
62
7
6
CONTINUOUS
10
132.7109515260
20
187.1445242370
40
19.2550000000
100
AcDbArc
50
181.4879828760
51
358.5120171240
0
ARC
5
2E6
100
AcDbEntity
8
0
100
AcDbCircle
62
7
6
CONTINUOUS
10
132.7109515260
20
187.1445242370
40
30.7500000000
100
AcDbArc
50
180.9316797493
51
359.0683202507
0
ARC
5
2E7
100
AcDbEntity
8
0
100
AcDbCircle
62
7
6
CONTINUOUS
10
158.2109515260
20
90.2396095153
40
4.2500000000
100
AcDbArc
50
136.7090636985
51
160.3209493075
0
ARC
5
2E8
100
AcDbEntity
8
0
100
AcDbCircle
62
7
6
CONTINUOUS
10
158.2109515260
20
90.2396095153
40
4.2500000000
100
AcDbArc
50
199.6790506927
51
223.2909363012
0
ARC
5
2E9
100
AcDbEntity
8
0
100
AcDbCircle
62
7
6
CONTINUOUS
10
158.2109515260
20
90.2396095153
40
4.2500000000
100
AcDbArc
50
262.5904083491
51
277.4095916509
0
ARC
5
2EA
100
AcDbEntity
8
0
100
AcDbCircle
62
7
6
CONTINUOUS
10
158.2109515260
20
90.2396095153
40
4.2500000000
100
AcDbArc
50
316.7090636985
51
43.2909363012
0
ARC
5
2EB
100
AcDbEntity
8
0
100
AcDbCircle
62
7
6
CONTINUOUS
10
158.2109515260
20
90.2396095153
40
4.2500000000
100
AcDbArc
50
82.5904083491
51
97.4095916509
0
CIRCLE
5
2EC
100
AcDbEntity
8
0
100
AcDbCircle
62
9
6
CONTINUOUS
10
158.2109515260
20
90.2396095153
40
3.9499999963
0
ARC
5
2ED
100
AcDbEntity
8
0
100
AcDbCircle
62
7
6
CONTINUOUS
10
107.2109515260
20
90.2396095153
40
4.2500000000
100
AcDbArc
50
136.7090636985
51
223.2909363012
0
ARC
5
2EE
100
AcDbEntity
8
0
100
AcDbCircle
62
7
6
CONTINUOUS
10
107.2109515260
20
90.2396095153
40
4.2500000000
100
AcDbArc
50
262.5904083491
51
277.4095916509
0
ARC
5
2EF
100
AcDbEntity
8
0
100
AcDbCircle
62
7
6
CONTINUOUS
10
107.2109515260
20
90.2396095153
40
4.2500000000
100
AcDbArc
50
316.7090636985
51
340.3209493075
0
ARC
5
2F0
100
AcDbEntity
8
0
100
AcDbCircle
62
7
6
CONTINUOUS
10
107.2109515260
20
90.2396095153
40
4.2500000000
100
AcDbArc
50
19.6790506927
51
43.2909363012
0
ARC
5
2F1
100
AcDbEntity
8
0
100
AcDbCircle
62
7
6
CONTINUOUS
10
107.2109515260
20
90.2396095153
40
4.2500000000
100
AcDbArc
50
82.5904083491
51
97.4095916509
0
CIRCLE
5
2F2
100
AcDbEntity
8
0
100
AcDbCircle
62
9
6
CONTINUOUS
10
107.2109515260
20
90.2396095153
40
3.9499999963
0
SPLINE
5
2F3
100
AcDbEntity
8
0
100
AcDbSpline
62
7
6
CONTINUOUS
70
0
71
3
72
10
73
6
74
4
42
0.0000001000
43
0.0000001000
44
0.0000000001
12
-2.6428899098
22
-6.9848351008
32
0.0000000000
13
-1.4855982306
23
-7.3188651004
33
0.0000000000
40
0.0000000000
40
0.0000000000
40
0.0000000000
40
0.0000000000
40
0.3256348806
40
0.6597650779
40
1.0000000000
40
1.0000000000
40
1.0000000000
40
1.0000000000
10
243.5071786539
20
206.0604566750
30
0.0000000000
10
243.2203062738
20
205.3022880271
30
0.0000000000
10
242.6862321007
20
203.7479695311
30
0.0000000000
10
242.0087121947
20
201.3514770370
30
0.0000000000
10
241.6353566642
20
199.7139256180
30
0.0000000000
10
241.4668725314
20
198.8838811189
30
0.0000000000
11
243.5071786539
21
206.0604566750
31
0.0000000000
11
242.7143195758
21
203.7614539276
31
0.0000000000
11
242.0333569180
21
201.3608434524
31
0.0000000000
11
241.4668725314
21
198.8838811189
31
0.0000000000
0
SPLINE
5
2F4
100
AcDbEntity
8
0
100
AcDbSpline
62
7
6
CONTINUOUS
70
0
71
3
72
10
73
6
74
4
42
0.0000001000
43
0.0000001000
44
0.0000000001
12
2.6428899098
22
-6.9848351008
32
0.0000000000
13
1.4855982306
23
-7.3188651004
33
0.0000000000
40
0.0000000000
40
0.0000000000
40
0.0000000000
40
0.0000000000
40
0.3256348806
40
0.6597650779
40
1.0000000000
40
1.0000000000
40
1.0000000000
40
1.0000000000
10
234.5265664090
20
206.0604566750
30
0.0000000000
10
234.8134387890
20
205.3022880271
30
0.0000000000
10
235.3475129621
20
203.7479695311
30
0.0000000000
10
236.0250328682
20
201.3514770370
30
0.0000000000
10
236.3983883987
20
199.7139256180
30
0.0000000000
10
236.5668725314
20
198.8838811189
30
0.0000000000
11
234.5265664090
21
206.0604566750
31
0.0000000000
11
235.3194254871
21
203.7614539276
31
0.0000000000
11
236.0003881449
21
201.3608434524
31
0.0000000000
11
236.5668725314
21
198.8838811189
31
0.0000000000
0
SPLINE
5
2F5
100
AcDbEntity
8
0
100
AcDbSpline
62
7
6
CONTINUOUS
70
0
71
3
72
10
73
6
74
4
42
0.0000001000
43
0.0000001000
44
0.0000000001
12
-2.3735841662
22
-4.2823880248
32
0.0000000000
13
-1.7327137138
23
-4.5793506280
33
0.0000000000
40
0.0000000000
40
0.0000000000
40
0.0000000000
40
0.0000000000
40
0.3245895407
40
0.6584150839
40
1.0000000000
40
1.0000000000
40
1.0000000000
40
1.0000000000
10
236.5668725314
20
210.5071546540
30
0.0000000000
10
236.3100590000
20
210.0438151999
30
0.0000000000
10
235.8148495961
20
209.0894903489
30
0.0000000000
10
235.1358641489
20
207.6047574136
30
0.0000000000
10
234.7238560318
20
206.5818690417
30
0.0000000000
10
234.5265664090
20
206.0604566750
30
0.0000000000
11
236.5668725314
21
210.5071546540
31
0.0000000000
11
235.8334996134
21
209.0972277340
31
0.0000000000
11
235.1525130288
21
207.6113716605
31
0.0000000000
11
234.5265664090
21
206.0604566750
31
0.0000000000
0
SPLINE
5
2F6
100
AcDbEntity
8
0
100
AcDbSpline
62
7
6
CONTINUOUS
70
0
71
3
72
10
73
6
74
4
42
0.0000001000
43
0.0000001000
44
0.0000000001
12
2.3735841662
22
-4.2823880248
32
0.0000000000
13
1.7327137138
23
-4.5793506280
33
0.0000000000
40
0.0000000000
40
0.0000000000
40
0.0000000000
40
0.0000000000
40
0.3245895407
40
0.6584150839
40
1.0000000000
40
1.0000000000
40
1.0000000000
40
1.0000000000
10
241.4668725314
20
210.5071546540
30
0.0000000000
10
241.7236860629
20
210.0438151999
30
0.0000000000
10
242.2188954668
20
209.0894903489
30
0.0000000000
10
242.8978809139
20
207.6047574136
30
0.0000000000
10
243.3098890310
20
206.5818690417
30
0.0000000000
10
243.5071786539
20
206.0604566750
30
0.0000000000
11
241.4668725314
21
210.5071546540
31
0.0000000000
11
242.2002454494
21
209.0972277340
31
0.0000000000
11
242.8812320340
21
207.6113716605
31
0.0000000000
11
243.5071786539
21
206.0604566750
31
0.0000000000
0
SPLINE
5
2F7
100
AcDbEntity
8
0
100
AcDbSpline
62
7
6
CONTINUOUS
70
0
71
3
72
10
73
6
74
4
42
0.0000001000
43
0.0000001000
44
0.0000000001
12
2.5144026140
22
6.6452588777
32
0.0000000000
13
1.4612783587
23
6.9535293884
33
0.0000000000
40
0.0000000000
40
0.0000000000
40
0.0000000000
40
0.0000000000
40
0.3422749942
40
0.6934794203
40
1.0000000000
40
1.0000000000
40
1.0000000000
40
1.0000000000
10
234.5265664090
20
168.2285917990
30
0.0000000000
10
234.8134387890
20
168.9867604469
30
0.0000000000
10
235.3475129621
20
170.5410789429
30
0.0000000000
10
235.9920944169
20
172.8210630501
30
0.0000000000
10
236.3441224578
20
174.3391261479
30
0.0000000000
10
236.4934264210
20
175.0495927676
30
0.0000000000
11
234.5265664090
21
168.2285917990
31
0.0000000000
11
235.3194254871
21
170.5275945463
31
0.0000000000
11
236.0003881449
21
172.9282050215
31
0.0000000000
11
236.4934264210
21
175.0495927676
31
0.0000000000
0
SPLINE
5
2F8
100
AcDbEntity
8
0
100
AcDbSpline
62
7
6
CONTINUOUS
70
0
71
3
72
8
73
4
74
2
42
0.0000001000
43
0.0000001000
44
0.0000000001
12
0.0746720926
22
0.3553290083
32
0.0000000000
13
0.0722241583
23
0.3558154963
33
0.0000000000
40
0.0000000000
40
0.0000000000
40
0.0000000000
40
0.0000000000
40
1.0000000000
40
1.0000000000
40
1.0000000000
40
1.0000000000
10
236.4934264210
20
175.0495927676
30
0.0000000000
10
236.5183171185
20
175.1680357704
30
0.0000000000
10
236.5427978120
20
175.2865621897
30
0.0000000000
10
236.5668725314
20
175.4051673551
30
0.0000000000
11
236.4934264210
21
175.0495927676
31
0.0000000000
11
236.5668725314
21
175.4051673551
31
0.0000000000
0
SPLINE
5
2F9
100
AcDbEntity
8
0
100
AcDbSpline
62
7
6
CONTINUOUS
70
0
71
3
72
10
73
6
74
4
42
0.0000001000
43
0.0000001000
44
0.0000000001
12
-2.5144026140
22
6.6452588777
32
0.0000000000
13
-1.4612783587
23
6.9535293884
33
0.0000000000
40
0.0000000000
40
0.0000000000
40
0.0000000000
40
0.0000000000
40
0.3422749942
40
0.6934794203
40
1.0000000000
40
1.0000000000
40
1.0000000000
40
1.0000000000
10
243.5071786539
20
168.2285917990
30
0.0000000000
10
243.2203062738
20
168.9867604469
30
0.0000000000
10
242.6862321007
20
170.5410789429
30
0.0000000000
10
242.0416506459
20
172.8210630501
30
0.0000000000
10
241.6896226050
20
174.3391261479
30
0.0000000000
10
241.5403186418
20
175.0495927676
30
0.0000000000
11
243.5071786539
21
168.2285917990
31
0.0000000000
11
242.7143195758
21
170.5275945463
31
0.0000000000
11
242.0333569180
21
172.9282050215
31
0.0000000000
11
241.5403186418
21
175.0495927676
31
0.0000000000
0
SPLINE
5
2FA
100
AcDbEntity
8
0
100
AcDbSpline
62
7
6
CONTINUOUS
70
0
71
3
72
8
73
4
74
2
42
0.0000001000
43
0.0000001000
44
0.0000000001
12
-0.0746720926
22
0.3553290083
32
0.0000000000
13
-0.0722241583
23
0.3558154963
33
0.0000000000
40
0.0000000000
40
0.0000000000
40
0.0000000000
40
0.0000000000
40
1.0000000000
40
1.0000000000
40
1.0000000000
40
1.0000000000
10
241.5403186418
20
175.0495927676
30
0.0000000000
10
241.5154279443
20
175.1680357704
30
0.0000000000
10
241.4909472509
20
175.2865621897
30
0.0000000000
10
241.4668725314
20
175.4051673551
30
0.0000000000
11
241.5403186418
21
175.0495927676
31
0.0000000000
11
241.4668725314
21
175.4051673551
31
0.0000000000
0
SPLINE
5
2FB
100
AcDbEntity
8
0
100
AcDbSpline
62
7
6
CONTINUOUS
70
0
71
3
72
10
73
6
74
4
42
0.0000001000
43
0.0000001000
44
0.0000000001
12
2.3735841662
22
4.2823880248
32
0.0000000000
13
1.7327137138
23
4.5793506280
33
0.0000000000
40
0.0000000000
40
0.0000000000
40
0.0000000000
40
0.0000000000
40
0.3245895407
40
0.6584150839
40
1.0000000000
40
1.0000000000
40
1.0000000000
40
1.0000000000
10
241.4668725314
20
163.7818938200
30
0.0000000000
10
241.7236860629
20
164.2452332740
30
0.0000000000
10
242.2188954668
20
165.1995581251
30
0.0000000000
10
242.8978809139
20
166.6842910604
30
0.0000000000
10
243.3098890310
20
167.7071794322
30
0.0000000000
10
243.5071786539
20
168.2285917990
30
0.0000000000
11
241.4668725314
21
163.7818938200
31
0.0000000000
11
242.2002454494
21
165.1918207400
31
0.0000000000
11
242.8812320340
21
166.6776768134
31
0.0000000000
11
243.5071786539
21
168.2285917990
31
0.0000000000
0
SPLINE
5
2FC
100
AcDbEntity
8
0
100
AcDbSpline
62
7
6
CONTINUOUS
70
0
71
3
72
10
73
6
74
4
42
0.0000001000
43
0.0000001000
44
0.0000000001
12
-2.3735841662
22
4.2823880248
32
0.0000000000
13
-1.7327137138
23
4.5793506280
33
0.0000000000
40
0.0000000000
40
0.0000000000
40
0.0000000000
40
0.0000000000
40
0.3245895407
40
0.6584150839
40
1.0000000000
40
1.0000000000
40
1.0000000000
40
1.0000000000
10
236.5668725314
20
163.7818938200
30
0.0000000000
10
236.3100590000
20
164.2452332740
30
0.0000000000
10
235.8148495961
20
165.1995581251
30
0.0000000000
10
235.1358641489
20
166.6842910604
30
0.0000000000
10
234.7238560318
20
167.7071794322
30
0.0000000000
10
234.5265664090
20
168.2285917990
30
0.0000000000
11
236.5668725314
21
163.7818938200
31
0.0000000000
11
235.8334996134
21
165.1918207400
31
0.0000000000
11
235.1525130288
21
166.6776768134
31
0.0000000000
11
234.5265664090
21
168.2285917990
31
0.0000000000
0
SPLINE
5
2FD
100
AcDbEntity
8
0
100
AcDbSpline
62
7
6
CONTINUOUS
70
0
71
3
72
10
73
6
74
4
42
0.0000001000
43
0.0000001000
44
0.0000000001
12
1.0001301397
22
0.9999979174
32
0.0000000000
13
1.0001260406
23
1.0000020170
33
0.0000000000
40
0.0000000000
40
0.0000000000
40
0.0000000000
40
0.0000000000
40
0.3326298542
40
0.6659642903
40
1.0000000000
40
1.0000000000
40
1.0000000000
40
1.0000000000
10
163.4568862167
20
81.2396095153
30
0.0000000000
10
163.5677772642
20
81.3504859024
30
0.0000000000
10
163.7897940917
20
81.5724736956
30
0.0000000000
10
164.1231701045
20
81.9058070353
30
0.0000000000
10
164.3456550034
20
82.1282640541
30
0.0000000000
10
164.4570142740
20
82.2396095153
30
0.0000000000
11
163.4568862167
21
81.2396095153
31
0.0000000000
11
163.7895591239
21
81.5722389121
31
0.0000000000
11
164.1229362420
21
81.9055733521
31
0.0000000000
11
164.4570142740
21
82.2396095153
31
0.0000000000
0
SPLINE
5
2FE
100
AcDbEntity
8
0
100
AcDbSpline
62
7
6
CONTINUOUS
70
0
71
3
72
10
73
6
74
4
42
0.0000001000
43
0.0000001000
44
0.0000000001
12
-1.0001301397
22
0.9999979174
32
0.0000000000
13
-1.0001260406
23
1.0000020170
33
0.0000000000
40
0.0000000000
40
0.0000000000
40
0.0000000000
40
0.0000000000
40
0.3326298542
40
0.6659642903
40
1.0000000000
40
1.0000000000
40
1.0000000000
40
1.0000000000
10
101.9650168354
20
81.2396095153
30
0.0000000000
10
101.8541257879
20
81.3504859024
30
0.0000000000
10
101.6321089604
20
81.5724736956
30
0.0000000000
10
101.2987329476
20
81.9058070353
30
0.0000000000
10
101.0762480486
20
82.1282640541
30
0.0000000000
10
100.9648887780
20
82.2396095153
30
0.0000000000
11
101.9650168354
21
81.2396095153
31
0.0000000000
11
101.6323439282
21
81.5722389121
31
0.0000000000
11
101.2989668101
21
81.9055733521
31
0.0000000000
11
100.9648887780
21
82.2396095153
31
0.0000000000
0
SPLINE
5
2FF
100
AcDbEntity
8
0
100
AcDbSpline
62
7
6
CONTINUOUS
70
0
71
3
72
10
73
6
74
4
42
0.0000001000
43
0.0000001000
44
0.0000000001
12
-1.0001301397
22
-0.9999979174
32
0.0000000000
13
-1.0001260406
23
-1.0000020170
33
0.0000000000
40
0.0000000000
40
0.0000000000
40
0.0000000000
40
0.0000000000
40
0.3326298542
40
0.6659642903
40
1.0000000000
40
1.0000000000
40
1.0000000000
40
1.0000000000
10
101.9650168354
20
99.2396095153
30
0.0000000000
10
101.8541257879
20
99.1287331281
30
0.0000000000
10
101.6321089604
20
98.9067453349
30
0.0000000000
10
101.2987329476
20
98.5734119953
30
0.0000000000
10
101.0762480486
20
98.3509549764
30
0.0000000000
10
100.9648887780
20
98.2396095153
30
0.0000000000
11
101.9650168354
21
99.2396095153
31
0.0000000000
11
101.6323439282
21
98.9069801185
31
0.0000000000
11
101.2989668101
21
98.5736456785
31
0.0000000000
11
100.9648887780
21
98.2396095153
31
0.0000000000
0
SPLINE
5
300
100
AcDbEntity
8
0
100
AcDbSpline
62
7
6
CONTINUOUS
70
0
71
3
72
10
73
6
74
4
42
0.0000001000
43
0.0000001000
44
0.0000000001
12
1.0001301397
22
-0.9999979174
32
0.0000000000
13
1.0001260406
23
-1.0000020170
33
0.0000000000
40
0.0000000000
40
0.0000000000
40
0.0000000000
40
0.0000000000
40
0.3326298542
40
0.6659642903
40
1.0000000000
40
1.0000000000
40
1.0000000000
40
1.0000000000
10
163.4568862167
20
99.2396095153
30
0.0000000000
10
163.5677772642
20
99.1287331281
30
0.0000000000
10
163.7897940917
20
98.9067453349
30
0.0000000000
10
164.1231701045
20
98.5734119953
30
0.0000000000
10
164.3456550034
20
98.3509549764
30
0.0000000000
10
164.4570142740
20
98.2396095153
30
0.0000000000
11
163.4568862167
21
99.2396095153
31
0.0000000000
11
163.7895591239
21
98.9069801185
31
0.0000000000
11
164.1229362420
21
98.5736456785
31
0.0000000000
11
164.4570142740
21
98.2396095153
31
0.0000000000
0
ENDSEC
0
SECTION
2
OBJECTS
0
DICTIONARY
5
301
100
AcDbDictionary
3
ACAD_GROUP
350
302
3
ACAD_MLINESTYLE
350
303
0
DICTIONARY
5
302
102
{ACAD_REACTORS
330
301
102
}
100
AcDbDictionary
0
DICTIONARY
5
303
102
{ACAD_REACTORS
330
301
102
}
100
AcDbDictionary
3
STANDARD
350
304
0
MLINESTYLE
5
304
102
{ACAD_REACTORS
330
303
102
}
100
AcDbMlineStyle
2
STANDARD
70
0
3

62
256
51
90.0
52
90.0
71
2
49
0.5
62
256
6
BYLAYER
49
-0.5
62
256
6
BYLAYER
0
ENDSEC
0
EOF
