  0
SECTION
  2
HEADER
  9
$ACADVER
  1
AC1009
  9
$INSBASE
 10
0
 20
0
  9
$EXTMIN
 10
128.147385620915
 20
-133.932698228785
  9
$EXTMAX
 10
369.551304405205
 20
85.53152763753209
  9
$LIMMIN
 10
128.147385620915
 20
-133.932698228785
  9
$LIMMAX
 10
369.551304405205
 20
85.53152763753209
  9
$VIEWCTR
 10
10
 20
10
  9
$VIEWSIZE
 40
10
  9
$SNAPMODE
 70
0
  9
$SNAPUNIT
 10
1
 20
1
  9
$SNAPBASE
 10
0
 20
0
  9
$SNAPANG
 50
0
  9
$SNAPSTYLE
 70
0
  9
$SNAPISOPAIR
 70
0
  9
$GRIDMODE
 70
0
  9
$GRIDUNIT
 10
0
 20
0
  9
$ORTHOMODE
 70
0
  9
$REGENMODE
 70
1
  9
$FILLMODE
 70
1
  9
$QTEXTMODE
 70
0
  9
$DRAGMODE
 70
2
  9
$LTSCALE
 40
1
  9
$OSMODE
 70
0
  9
$ATTMODE
 70
1
  9
$TEXTSIZE
 40
3.5
  9
$TRACEWID
 40
0.5
  9
$TEXTSTYLE
  7
STANDARD
  9
$CLAYER
  8
0
  9
$CELTYPE
  6
BYLAYER
  9
$CECOLOR
 62
256
  9
$DIMSCALE
 40
1
  9
$DIMASZ
 40
0.18
  9
$DIMEXO
 40
0.0625
  9
$DIMDLI
 40
0.38
  9
$DIMRND
 40
0
  9
$DIMDLE
 40
0
  9
$DIMEXE
 40
0.18
  9
$DIMTP
 40
0
  9
$DIMTM
 40
0
  9
$DIMTXT
 40
0.18
  9
$DIMCEN
 40
0.09
  9
$DIMTSZ
 40
0
  9
$DIMTOL
 70
0
  9
$DIMLIM
 70
0
  9
$DIMTIH
 70
1
  9
$DIMTOH
 70
1
  9
$DIMSE1
 70
0
  9
$DIMSE2
 70
0
  9
$DIMTAD
 70
0
  9
$DIMZIN
 70
0
  9
$DIMBLK
  1

  9
$DIMASO
 70
1
  9
$DIMSHO
 70
1
  9
$DIMPOST
  1

  9
$DIMAPOST
  1

  9
$DIMALT
 70
0
  9
$DIMALTD
 70
2
  9
$DIMALTF
 40
25.4
  9
$DIMLFAC
 40
1
  9
$DIMTOFL
 70
0
  9
$DIMTVP
 40
0
  9
$DIMTIX
 70
0
  9
$DIMSOXD
 70
0
  9
$DIMSAH
 70
0
  9
$DIMBLK1
  1

  9
$DIMBLK2
  1

  9
$DIMSTYLE
  2
*UNNAMED
  9
$DIMCLRD
 70
0
  9
$DIMCLRE
 70
0
  9
$DIMCLRT
 70
0
  9
$DIMTFAC
 40
1
  9
$DIMGAP
 40
0.09
  9
$LUNITS
 70
2
  9
$LUPREC
 70
4
  9
$AXISMODE
 70
0
  9
$AXISUNIT
 10
0
 20
0
  9
$SKETCHINC
 40
0.1
  9
$FILLETRAD
 40
2
  9
$AUNITS
 70
0
  9
$AUPREC
 70
0
  9
$MENU
  1
ACAD
  9
$ELEVATION
 40
0
  9
$THICKNESS
 40
0
  9
$VIEWDIR
 10
0
 20
0
 30
1
  9
$LIMCHECK
 70
0
  9
$BLIPMODE
 70
1
  9
$CHAMFERA
 40
0
  9
$CHAMFERB
 40
0
  9
$FASTZOOM
 70
1
  9
$SKPOLY
 70
0
  9
$ANGBASE
 50
0
  9
$ANGDIR
 70
0
  9
$PDMODE
 70
0
  9
$PDSIZE
 40
0
  9
$PLINEWID
 40
0
  9
$COORDS
 70
2
  0
ENDSEC
  0
SECTION
  2
TABLES
  0
TABLE
  2
DIMSTYLE
 70
2
  0
DIMSTYLE
  2
DMST_1
 70
0
  3

  4

  5

  6

  7

 40
1
 41
3.200000000000001
 42
1
 43
7
 44
1
 45
0
 46
0
 47
0
 48
0
140
3.200000000000001
141
0
142
0
143
25.4
144
1
145
0
146
1
147
0.09
 71
0
 72
0
 73
0
 74
0
 75
0
 76
0
 77
1
 78
9
170
0
171
2
172
0
173
0
174
0
175
0
176
2
177
2
178
2
  0
DIMSTYLE
  2
DMST_2
 70
0
  3

  4

  5

  6

  7

 40
1
 41
3.2
 42
1
 43
7
 44
1
 45
0
 46
0
 47
0
 48
0
140
3.2
141
-1.5
142
0
143
25.4
144
1
145
0
146
1
147
0.09
 71
0
 72
0
 73
0
 74
0
 75
0
 76
0
 77
1
 78
9
170
0
171
2
172
1
173
0
174
0
175
0
176
2
177
2
178
2
  0
ENDTAB
  0
TABLE
  2
LTYPE
 70
9
  0
LTYPE
  2
CONTINUOUS
 70
64
  3
Solid line
 72
65
 73
0
 40
0
  0
LTYPE
  2
BORDER
 70
64
  3
__ __ . __ __ .
 72
65
 73
6
 40
11.11728573348704
 49
3.176367352424868
 49
-1.588183676212434
 49
3.176367352424868
 49
-1.588183676212434
 49
0
 49
-1.588183676212434
  0
LTYPE
  2
CENTER
 70
64
  3
____ _ ____ _
 72
65
 73
4
 40
12.70546940969947
 49
7.94091838106217
 49
-1.588183676212434
 49
1.588183676212434
 49
-1.588183676212434
  0
LTYPE
  2
DASHDOT
 70
64
  3
__ . __ . __ .
 72
65
 73
4
 40
6.352734704849736
 49
3.176367352424868
 49
-1.588183676212434
 49
0
 49
-1.588183676212434
  0
LTYPE
  2
DASHED
 70
64
  3
__ __ __ __ __
 72
65
 73
2
 40
4.764551028637301
 49
3.176367352424868
 49
-1.588183676212434
  0
LTYPE
  2
DIVIDE
 70
64
  3
__ . . __ . . 
 72
65
 73
6
 40
7.94091838106217
 49
3.176367352424868
 49
-1.588183676212434
 49
0
 49
-1.588183676212434
 49
0
 49
-1.588183676212434
  0
LTYPE
  2
DOT
 70
64
  3
..............
 72
65
 73
4
 40
3.176367352424868
 49
0
 49
-1.588183676212434
 49
0
 49
-1.588183676212434
  0
LTYPE
  2
HIDDEN
 70
64
  3
_ _ _ _ _ _ _
 72
65
 73
2
 40
2.382275514318651
 49
1.588183676212434
 49
-0.794091838106217
  0
LTYPE
  2
PHANTOM
 70
64
  3
_____ _ _ _____ _ _ 
 72
65
 73
6
 40
15.88183676212434
 49
7.94091838106217
 49
-1.588183676212434
 49
1.588183676212434
 49
-1.588183676212434
 49
1.588183676212434
 49
-1.588183676212434
  0
ENDTAB
  0
TABLE
  2
LAYER
 70
3
  0
LAYER
  2
1
 70
0
 62
7
  6
CONTINUOUS
  0
LAYER
  2
0
 70
0
 62
7
  6
CONTINUOUS
  0
ENDTAB
  0
TABLE
  2
STYLE
 70
4
  0
STYLE
  2
STANDARD
 70
0
 40
0
 41
1
 50
0
 71
0
 42
3.5
  3
txt
  4

  0
STYLE
  2
SIMPLEX
 70
0
 40
0
 41
1
 50
0
 71
0
 42
3.5
  3
simplex
  4

  0
STYLE
  2
COMPLEX
 70
0
 40
0
 41
1
 50
0
 71
0
 42
3.5
  3
complex
  4

  0
STYLE
  2
ITALIC
 70
0
 40
0
 41
1
 50
0
 71
0
 42
3.5
  3
italic
  4

  0
ENDTAB
  0
TABLE
  2
VIEW
 70
0
  0
ENDTAB
  0
ENDSEC
  0
SECTION
  2
BLOCKS
  0
BLOCK
  8
0
  2
LOGO_MARBETT
 70
0
 10
202.8330827802065
 20
-89.37008084255859
 30
0
  0
LINE
  8
1
 62
2
 10
198.9010533785296
 20
-84.2273216546934
 30
0
 11
198.9718067740664
 21
-84.2273216546934
 31
0
  0
LINE
  8
1
 62
2
 10
201.3099092108145
 20
-80.9419521744811
 30
0
 11
201.5010533785296
 21
-80.9419521744811
 31
0
  0
LINE
  8
1
 62
2
 10
200.8935692428241
 20
-76.22352476567423
 30
0
 11
199.4210533785296
 21
-76.22352005025051
 31
0
  0
LINE
  8
1
 62
2
 10
199.4210533785296
 20
-76.66352005025047
 30
0
 11
200.8685584157513
 21
-76.66352005025047
 31
0
  0
LINE
  8
1
 62
2
 10
201.9810533785296
 20
-82.8524605069547
 30
0
 11
201.9810533785296
 21
-88.862577234215
 31
0
  0
LINE
  8
1
 62
2
 10
200.1413169985542
 20
-81.7035200502505
 30
0
 11
201.9810533785296
 21
-82.8524605069547
 31
0
  0
LINE
  8
1
 62
2
 10
201.7410533785296
 20
-88.862577234215
 30
0
 11
201.7410533785296
 21
-82.9425772342149
 31
0
  0
LINE
  8
1
 62
2
 10
201.7410533785296
 20
-82.9425772342149
 30
0
 11
200.1413169985542
 21
-81.9435200502505
 31
0
  0
LINE
  8
1
 62
2
 10
201.9810533785296
 20
-88.862577234215
 30
0
 11
201.7410533785296
 21
-88.862577234215
 31
0
  0
LINE
  8
1
 62
2
 10
198.4613169985543
 20
-81.9435200502505
 30
0
 11
200.1413169985542
 21
-81.9435200502505
 31
0
  0
LINE
  8
1
 62
2
 10
198.2213169985542
 20
-81.7035200502505
 30
0
 11
198.2213169985542
 21
-85.7435200502505
 31
0
  0
LINE
  8
1
 62
2
 10
198.4613169985543
 20
-85.5035200502505
 30
0
 11
198.4613169985543
 21
-81.9435200502505
 31
0
  0
LINE
  8
1
 62
2
 10
199.7209763055639
 20
-88.222577234215
 30
0
 11
201.5010533785296
 21
-88.222577234215
 31
0
  0
LINE
  8
1
 62
2
 10
199.7209763055639
 20
-87.622577234215
 30
0
 11
201.5010533785296
 21
-87.622577234215
 31
0
  0
LINE
  8
1
 62
2
 10
201.5010533785296
 20
-86.982577234215
 30
0
 11
199.7209763055639
 21
-86.982577234215
 31
0
  0
LINE
  8
1
 62
2
 10
199.7209763055639
 20
-86.38257723421501
 30
0
 11
201.5010533785296
 21
-86.38257723421501
 31
0
  0
LINE
  8
1
 62
2
 10
201.0332444475405
 20
-76.34352005025059
 30
0
 11
201.5129448168268
 21
-76.34352005025059
 31
0
  0
LINE
  8
1
 62
2
 10
201.033456567421
 20
-75.26388192803626
 30
0
 11
201.0332444475405
 21
-75.26352005025052
 31
0
  0
LINE
  8
1
 62
2
 10
200.8685584157513
 20
-75.58352005025046
 30
0
 11
199.4210533785296
 21
-75.58352005025046
 31
0
  0
LINE
  8
1
 62
2
 10
201.0332444475405
 20
-75.26352005025052
 30
0
 11
201.5132444475407
 21
-75.26352005025052
 31
0
  0
LINE
  8
1
 62
2
 10
199.4210533785296
 20
-76.66352005025047
 30
0
 11
199.4210533785296
 21
-76.22352005025051
 31
0
  0
LINE
  8
1
 62
2
 10
199.4210533785296
 20
-77.30352005025057
 30
0
 11
200.8849214614579
 21
-77.30352005025057
 31
0
  0
LINE
  8
1
 62
2
 10
199.3527158636662
 20
-77.62352005025051
 30
0
 11
198.9010533785296
 21
-77.62352005025051
 31
0
  0
LINE
  8
1
 62
2
 10
199.4210533785296
 20
-77.581696497916
 30
0
 11
199.4210533785296
 21
-77.30352005025057
 31
0
  0
LINE
  8
1
 62
2
 10
198.9010533785296
 20
-77.30352005025057
 30
0
 11
198.9010533785296
 21
-77.62352005025051
 31
0
  0
LINE
  8
1
 62
2
 10
198.9010533785296
 20
-77.30352005025057
 30
0
 11
198.4610533785296
 21
-77.30352005025057
 31
0
  0
LINE
  8
1
 62
2
 10
198.4610533785296
 20
-76.66352005025047
 30
0
 11
198.4610533785296
 21
-77.30352005025057
 31
0
  0
LINE
  8
1
 62
2
 10
198.9010533785296
 20
-76.66352005025047
 30
0
 11
198.4610533785296
 21
-76.66352005025047
 31
0
  0
LINE
  8
1
 62
2
 10
198.9010533785296
 20
-76.22352005025051
 30
0
 11
198.9010533785296
 21
-76.66352005025047
 31
0
  0
LINE
  8
1
 62
2
 10
198.9010533785296
 20
-76.22352005025051
 30
0
 11
198.4610533785296
 21
-76.22352005025051
 31
0
  0
LINE
  8
1
 62
2
 10
198.4610533785296
 20
-75.58352005025046
 30
0
 11
198.4610533785296
 21
-76.22352005025051
 31
0
  0
LINE
  8
1
 62
2
 10
198.9010533785296
 20
-75.58352005025046
 30
0
 11
198.4610533785296
 21
-75.58352005025046
 31
0
  0
LINE
  8
1
 62
2
 10
199.4210533785296
 20
-75.26352005025052
 30
0
 11
199.4210533785296
 21
-75.58352005025046
 31
0
  0
LINE
  8
1
 62
2
 10
198.9010533785296
 20
-75.26352005025052
 30
0
 11
198.9010533785296
 21
-75.58352005025046
 31
0
  0
LINE
  8
1
 62
2
 10
198.9010533785296
 20
-75.26352005025052
 30
0
 11
199.4210533785296
 21
-75.26352005025052
 31
0
  0
LINE
  8
1
 62
2
 10
199.8933429250577
 20
-78.13430415746977
 30
0
 11
199.8933429250578
 21
-78.87273857787997
 31
0
  0
LINE
  8
1
 62
2
 10
200.6933429250577
 20
-77.45807392496673
 30
0
 11
200.6933429250577
 21
-78.18827142834786
 31
0
  0
LINE
  8
1
 62
2
 10
200.4533429250576
 20
-78.88310543151121
 30
0
 11
200.4533429250576
 21
-77.40260706698606
 31
0
  0
LINE
  8
1
 62
2
 10
199.0938050805677
 20
-80.9435200502505
 30
0
 11
198.2213169985542
 21
-80.9435200502505
 31
0
  0
LINE
  8
1
 62
2
 10
201.5010533785296
 20
-81.54352005025051
 30
0
 11
201.5010533785296
 21
-80.9419521744811
 31
0
  0
LINE
  8
1
 62
2
 10
198.2213169985542
 20
-81.54352005025051
 30
0
 11
198.2213169985542
 21
-80.9435200502505
 31
0
  0
LINE
  8
1
 62
2
 10
198.2213169985542
 20
-81.54352005025051
 30
0
 11
201.5010533785296
 21
-81.54352005025051
 31
0
  0
LINE
  8
1
 62
2
 10
198.8213169985543
 20
-85.5035200502505
 30
0
 11
198.4613169985543
 21
-85.5035200502505
 31
0
  0
LINE
  8
1
 62
2
 10
200.1413169985542
 20
-81.7035200502505
 30
0
 11
198.2213169985542
 21
-81.7035200502505
 31
0
  0
LINE
  8
1
 62
2
 10
198.8213169985543
 20
-85.7435200502505
 30
0
 11
198.2213169985542
 21
-85.7435200502505
 31
0
  0
LINE
  8
1
 62
2
 10
198.8213169985543
 20
-85.7435200502505
 30
0
 11
198.8213169985543
 21
-85.5035200502505
 31
0
  0
LINE
  8
1
 62
2
 10
199.0850533785297
 20
-82.90352005025051
 30
0
 11
198.9010533785296
 21
-82.90352005025051
 31
0
  0
LINE
  8
1
 62
2
 10
199.4363651064758
 20
-82.3035200502504
 30
0
 11
198.8210533785297
 21
-82.3035200502504
 31
0
  0
LINE
  8
1
 62
2
 10
199.9230441502846
 20
-82.90352005025051
 30
0
 11
201.5010533785296
 21
-82.90352005025051
 31
0
  0
LINE
  8
1
 62
2
 10
201.5010533785296
 20
-82.90352005025051
 30
0
 11
201.5010533785296
 21
-83.5035200502504
 31
0
  0
LINE
  8
1
 62
2
 10
198.9010533785296
 20
-82.90352005025051
 30
0
 11
198.9010533785296
 21
-83.5035200502504
 31
0
  0
LINE
  8
1
 62
2
 10
201.5010533785296
 20
-83.5035200502504
 30
0
 11
198.9010533785296
 21
-83.5035200502504
 31
0
  0
LINE
  8
1
 62
2
 10
198.9010533785296
 20
-83.62352005025051
 30
0
 11
198.9010533785296
 21
-84.2273216546934
 31
0
  0
LINE
  8
1
 62
2
 10
201.5010533785296
 20
-83.62352005025051
 30
0
 11
201.5010533785296
 21
-84.22348271931691
 31
0
  0
LINE
  8
1
 62
2
 10
201.5010533785296
 20
-83.62352005025051
 30
0
 11
201.5010533785296
 21
-83.6225770591479
 31
0
  0
LINE
  8
1
 62
2
 10
198.9010533785296
 20
-83.62352005025051
 30
0
 11
201.5010533785296
 21
-83.62352005025051
 31
0
  0
LINE
  8
1
 62
2
 10
199.6963155229552
 20
-85.74331769082529
 30
0
 11
201.5010533785296
 21
-85.74257723421491
 31
0
  0
LINE
  8
1
 62
2
 10
201.5010533785296
 20
-86.38257723421501
 30
0
 11
201.5010533785296
 21
-85.74257723421491
 31
0
  0
LINE
  8
1
 62
2
 10
201.5010533785296
 20
-87.622577234215
 30
0
 11
201.5010533785296
 21
-86.982577234215
 31
0
  0
LINE
  8
1
 62
2
 10
198.9010533785296
 20
-88.222577234215
 30
0
 11
199.1010533785297
 21
-88.222577234215
 31
0
  0
LINE
  8
1
 62
2
 10
201.5010533785296
 20
-88.862577234215
 30
0
 11
201.5010533785296
 21
-88.222577234215
 31
0
  0
LINE
  8
1
 62
2
 10
198.9010533785296
 20
-88.862577234215
 30
0
 11
198.9010533785296
 21
-88.222577234215
 31
0
  0
LINE
  8
1
 62
2
 10
201.5010533785296
 20
-88.862577234215
 30
0
 11
198.9010533785296
 21
-88.862577234215
 31
0
  0
LINE
  8
1
 62
2
 10
201.4281696825502
 20
-84.22348271931691
 30
0
 11
201.5010533785296
 21
-84.22348271931691
 31
0
  0
ARC
  8
1
 62
2
 10
200.8732264832153
 20
-76.46321265702069
 30
0
 40
0.1999999999999529
 50
268.662575728668
 51
36.7598996776157
  0
ARC
  8
1
 62
2
 10
200.8932907567633
 20
-76.62357155595397
 30
0
 40
0.6799999999999642
 50
270
 51
24.32050151228258
  0
ARC
  8
1
 62
2
 10
200.8732264832153
 20
-75.38357453480654
 30
0
 40
0.1999999999999529
 50
268.662575728668
 51
36.7598996776581
  0
ARC
  8
1
 62
2
 10
200.8935692428241
 20
-75.54352476567416
 30
0
 40
0.6800000000000637
 50
270
 51
24.31617516313847
  0
ARC
  8
1
 62
2
 10
199.3780204404985
 20
-82.4165345429842
 30
0
 40
0.568317326575575
 50
168.5298093589791
 51
238.9691796267497
  0
ARC
  8
1
 62
2
 10
199.9009919503236
 20
-82.42402687983309
 30
0
 40
0.4800000000000522
 50
165.4599966011236
 51
272.6332143368911
  0
ARC
  8
1
 62
2
 10
199.4605196228741
 20
-87.6930642323191
 30
0
 40
0.6400000000002387
 50
127.1795648900291
 51
235.8289083108279
  0
ARC
  8
1
 62
2
 10
199.6610533785297
 20
-86.5825772342149
 30
0
 40
0.840000000000005
 50
87.59408820059733
 51
225.6402602033514
  0
ARC
  8
1
 62
2
 10
199.7209763055639
 20
-86.682577234215
 30
0
 40
0.2999999999999972
 50
90
 51
270
  0
ARC
  8
1
 62
2
 10
199.7209763055639
 20
-87.922577234215
 30
0
 40
0.2999999999999972
 50
90
 51
270
  0
POLYLINE
  8
1
 62
2
 66
1
  0
VERTEX
  8
1
 10
199.4210533785296
 20
-77.581696497916
 30
0
 42
-0.0007783469678054203
  0
VERTEX
  8
1
 10
199.457502813522
 20
-77.56360930863724
 30
0
 42
-0.002336684104133295
  0
VERTEX
  8
1
 10
199.4940513485445
 20
-77.54575579320543
 30
0
 42
-0.003899050142688902
  0
VERTEX
  8
1
 10
199.5307980836274
 20
-77.52836962546756
 30
0
 42
-0.005465107897840249
  0
VERTEX
  8
1
 10
199.5678421188008
 20
-77.51168447927057
 30
0
 42
-0.007029939166211399
  0
VERTEX
  8
1
 10
199.605282554095
 20
-77.49593402846145
 30
0
 42
-0.01034098532781467
  0
VERTEX
  8
1
 10
199.6570289607901
 20
-77.47629408629268
 30
0
 42
-0.00976179670346824
  0
VERTEX
  8
1
 10
199.7095715889439
 20
-77.45873338762206
 30
0
 42
-0.009201172057848709
  0
VERTEX
  8
1
 10
199.7627875385835
 20
-77.44316392493508
 30
0
 42
-0.008663127115756406
  0
VERTEX
  8
1
 10
199.8165539097359
 20
-77.42949769071714
 30
0
 42
-0.00815027905350125
  0
VERTEX
  8
1
 10
199.8707478024282
 20
-77.41764667745366
 30
0
 42
-0.04306337956997419
  0
VERTEX
  8
1
 10
200.1667081406119
 20
-77.38400993997294
 30
0
 42
-0.005615967325794375
  0
VERTEX
  8
1
 10
200.2021598363352
 20
-77.38349243490963
 30
0
 42
-0.005896787497489269
  0
VERTEX
  8
1
 10
200.237606203316
 20
-77.38379115114799
 30
0
 42
-0.006183265485537331
  0
VERTEX
  8
1
 10
200.2730228868993
 20
-77.38494562732257
 30
0
 42
-0.006474550680398614
  0
VERTEX
  8
1
 10
200.30838553243
 20
-77.38699540206787
 30
0
 42
-0.004906220034033519
  0
VERTEX
  8
1
 10
200.3374407521118
 20
-77.38935761837428
 30
0
 42
-0.003815125889375666
  0
VERTEX
  8
1
 10
200.3664534776895
 20
-77.39222657913217
 30
0
 42
-0.002723561793527131
  0
VERTEX
  8
1
 10
200.3954343326889
 20
-77.3954755982287
 30
0
 42
-0.001633216122879201
  0
VERTEX
  8
1
 10
200.4243939406363
 20
-77.39897798955094
 30
0
 42
-0.0005442210087120037
  0
VERTEX
  8
1
 10
200.4533429250576
 20
-77.40260706698606
 30
0
  0
SEQEND
  8
1
  0
POLYLINE
  8
1
 62
2
 66
1
 70
1
  0
VERTEX
  8
1
 10
199.4010534084556
 20
-80.5841881296255
 30
0
 42
0.0180027369267487
  0
VERTEX
  8
1
 10
199.4015739670301
 20
-80.5983355904018
 30
0
 42
0.01735180301692438
  0
VERTEX
  8
1
 10
199.4030934615967
 20
-80.61241853230277
 30
0
 42
0.03337132818546618
  0
VERTEX
  8
1
 10
199.4089691154198
 20
-80.64013505744065
 30
0
 42
0.01550733894933164
  0
VERTEX
  8
1
 10
199.4132452030331
 20
-80.6536407396586
 30
0
 42
0.01724460433242693
  0
VERTEX
  8
1
 10
199.4188196774992
 20
-80.66792285727485
 30
0
 42
0.01494267034971138
  0
VERTEX
  8
1
 10
199.4252994374938
 20
-80.6818128359871
 30
0
 42
0.01510254194076532
  0
VERTEX
  8
1
 10
199.4326048549894
 20
-80.69529465891509
 30
0
 42
0.01287950440244205
  0
VERTEX
  8
1
 10
199.4406563019583
 20
-80.70835230917854
 30
0
 42
0.01315932255101524
  0
VERTEX
  8
1
 10
199.4493741503728
 20
-80.7209697698972
 30
0
 42
0.01264335220454198
  0
VERTEX
  8
1
 10
199.459943205708
 20
-80.73469467822901
 30
0
 42
0.01291343122797209
  0
VERTEX
  8
1
 10
199.4711936041402
 20
-80.74785464025038
 30
0
 42
0.01079001851095077
  0
VERTEX
  8
1
 10
199.4830563089368
 20
-80.7604681172989
 30
0
 42
0.01108600086750625
  0
VERTEX
  8
1
 10
199.495462283365
 20
-80.77255357071203
 30
0
 42
0.009012777642971018
  0
VERTEX
  8
1
 10
199.5083424906921
 20
-80.78412946182741
 30
0
 42
0.01069583587089911
  0
VERTEX
  8
1
 10
199.5234904496309
 20
-80.79670052617102
 30
0
 42
0.008898217276120586
  0
VERTEX
  8
1
 10
199.5391143312176
 20
-80.80866470667678
 30
0
 42
0.009379367137779475
  0
VERTEX
  8
1
 10
199.5551658343467
 20
-80.82005048284498
 30
0
 42
0.007593997475706315
  0
VERTEX
  8
1
 10
199.5715966579126
 20
-80.83088633417603
 30
0
 42
0.008097708859269007
  0
VERTEX
  8
1
 10
199.5883585008097
 20
-80.84120074017029
 30
0
 42
0.007279109686479135
  0
VERTEX
  8
1
 10
199.6075003258684
 20
-80.85218292322719
 30
0
 42
0.008037788288892631
  0
VERTEX
  8
1
 10
199.626966174019
 20
-80.86257187551013
 30
0
 42
0.006402728817875279
  0
VERTEX
  8
1
 10
199.6467243530341
 20
-80.87239461454888
 30
0
 42
0.00716824555812991
  0
VERTEX
  8
1
 10
199.6667431706863
 20
-80.88167815787328
 30
0
 42
0.005544384382917168
  0
VERTEX
  8
1
 10
199.6869909347483
 20
-80.8904495230131
 30
0
 42
0.006948847051196938
  0
VERTEX
  8
1
 10
199.7094488485348
 20
-80.89951888811569
 30
0
 42
0.005512061824315771
  0
VERTEX
  8
1
 10
199.7321237484982
 20
-80.90802504559261
 30
0
 42
0.006383291711817667
  0
VERTEX
  8
1
 10
199.7549948876848
 20
-80.91598950931791
 30
0
 42
0.004950994883575536
  0
VERTEX
  8
1
 10
199.778041519141
 20
-80.92343379316566
 30
0
 42
0.005828593813750867
  0
VERTEX
  8
1
 10
199.8012428959129
 20
-80.9303794110099
 30
0
 42
0.004805288758285436
  0
VERTEX
  8
1
 10
199.8262709546282
 20
-80.9372954634905
 30
0
 42
0.005814783970424737
  0
VERTEX
  8
1
 10
199.851439029879
 20
-80.94367809116662
 30
0
 42
0.00445594096292832
  0
VERTEX
  8
1
 10
199.8767330758087
 20
-80.94954246697343
 30
0
 42
0.005468708024226162
  0
VERTEX
  8
1
 10
199.9021390465606
 20
-80.95490376384605
 30
0
 42
0.004114019222945907
  0
VERTEX
  8
1
 10
199.927642896278
 20
-80.9597771547197
 30
0
 42
0.01011803372308462
  0
VERTEX
  8
1
 10
199.9813218912661
 20
-80.96845885019991
 30
0
 42
0.00848095587232558
  0
VERTEX
  8
1
 10
200.0352865424086
 20
-80.97513830080065
 30
0
 42
0.01393930340998038
  0
VERTEX
  8
1
 10
200.1178513917827
 20
-80.98161719622243
 30
0
 42
0.06057705148629029
  0
VERTEX
  8
1
 10
200.5003736076405
 20
-80.95457650174491
 30
0
 42
0.008744476476069152
  0
VERTEX
  8
1
 10
200.5257736974311
 20
-80.9491874115965
 30
0
 42
0.001180311925686498
  0
VERTEX
  8
1
 10
200.5510613120516
 20
-80.94329536527116
 30
0
 42
0.009090568927531781
  0
VERTEX
  8
1
 10
200.5762223890532
 20
-80.93688520521027
 30
0
 42
0.001529652872327014
  0
VERTEX
  8
1
 10
200.6012428659868
 20
-80.92994177385521
 30
0
 42
0.009104379444973967
  0
VERTEX
  8
1
 10
200.6244366297232
 20
-80.9229707757134
 30
0
 42
0.00167535590492265
  0
VERTEX
  8
1
 10
200.6474751026497
 20
-80.91550128117225
 30
0
 42
0.009659105484416139
  0
VERTEX
  8
1
 10
200.6703375142867
 20
-80.90751179906968
 30
0
 42
0.002236409636670404
  0
VERTEX
  8
1
 10
200.6930030941548
 20
-80.89898083824359
 30
0
 42
0.01022469159101126
  0
VERTEX
  8
1
 10
200.7154510717745
 20
-80.8898869075319
 30
0
 42
0.002268731371403999
  0
VERTEX
  8
1
 10
200.7356892270321
 20
-80.88109339471312
 30
0
 42
0.010444102598787
  0
VERTEX
  8
1
 10
200.7556978756466
 20
-80.87178795450484
 30
0
 42
0.003127051425173344
  0
VERTEX
  8
1
 10
200.7754452958499
 20
-80.86194360406773
 30
0
 42
0.01131369797396908
  0
VERTEX
  8
1
 10
200.7948997658739
 20
-80.85153336056237
 30
0
 42
0.004003402419815579
  0
VERTEX
  8
1
 10
200.8140295639507
 20
-80.8405302411494
 30
0
 42
0.01137362235523197
  0
VERTEX
  8
1
 10
200.8307801119003
 20
-80.83019750232022
 30
0
 42
0.004318278249268196
  0
VERTEX
  8
1
 10
200.8471990702072
 20
-80.81934368063213
 30
0
 42
0.01265536775987698
  0
VERTEX
  8
1
 10
200.8632381066357
 20
-80.80794034944771
 30
0
 42
0.005622441587741364
  0
VERTEX
  8
1
 10
200.8788488889499
 20
-80.79595908212949
 30
0
 42
0.0139719371955696
  0
VERTEX
  8
1
 10
200.8939830849138
 20
-80.7833714520401
 30
0
 42
0.005736996460545716
  0
VERTEX
  8
1
 10
200.906850619435
 20
-80.77178147571361
 30
0
 42
0.01436213421788689
  0
VERTEX
  8
1
 10
200.9192433638328
 20
-80.759682456249
 30
0
 42
0.007514141120697777
  0
VERTEX
  8
1
 10
200.9310922612174
 20
-80.74705600785237
 30
0
 42
0.01618972785300125
  0
VERTEX
  8
1
 10
200.9423282546991
 20
-80.7338837447298
 30
0
 42
0.009367352448591871
  0
VERTEX
  8
1
 10
200.9528822873878
 20
-80.72014728108741
 30
0
 42
0.01643564281476073
  0
VERTEX
  8
1
 10
200.9615863259141
 20
-80.70752028978716
 30
0
 42
0.009603487442028035
  0
VERTEX
  8
1
 10
200.9696234817856
 20
-80.69445383831044
 30
0
 42
0.01837906295843163
  0
VERTEX
  8
1
 10
200.9769141445461
 20
-80.6809640306484
 30
0
 42
0.0116664875138138
  0
VERTEX
  8
1
 10
200.9833787037396
 20
-80.66706697079215
 30
0
 42
0.02052137532046951
  0
VERTEX
  8
1
 10
200.98893754891
 20
-80.65277876273279
 30
0
 42
0.02839560756537069
  0
VERTEX
  8
1
 10
200.9965810575897
 20
-80.62550264886147
 30
0
 42
0.02088534600698025
  0
VERTEX
  8
1
 10
200.9990441833583
 20
-80.61154547310402
 30
0
 42
0.01326474996656309
  0
VERTEX
  8
1
 10
201.0005482689729
 20
-80.59746087716418
 30
0
 42
0.05809677318933692
  0
VERTEX
  8
1
 10
200.9990132954625
 20
-80.55508245263883
 30
0
 42
0.02832278927858103
  0
VERTEX
  8
1
 10
200.9931376416394
 20
-80.52736592750094
 30
0
 42
0.02055271817854757
  0
VERTEX
  8
1
 10
200.9888615540262
 20
-80.513860245283
 30
0
 42
0.0121997715355736
  0
VERTEX
  8
1
 10
200.9832870795602
 20
-80.49957812766681
 30
0
 42
0.01998794847819288
  0
VERTEX
  8
1
 10
200.9768073195655
 20
-80.48568814895458
 30
0
 42
0.01005800409645528
  0
VERTEX
  8
1
 10
200.9695019020699
 20
-80.47220632602664
 30
0
 42
0.01792444048341128
  0
VERTEX
  8
1
 10
200.961450455101
 20
-80.45914867576322
 30
0
 42
0.008115012251125044
  0
VERTEX
  8
1
 10
200.9527326066865
 20
-80.4465312150446
 30
0
 42
0.01768825187142869
  0
VERTEX
  8
1
 10
200.9421635513514
 20
-80.43280630671279
 30
0
 42
0.007869147008429833
  0
VERTEX
  8
1
 10
200.9309131529191
 20
-80.41964634469139
 30
0
 42
0.01583465195122997
  0
VERTEX
  8
1
 10
200.9190504481226
 20
-80.40703286764284
 30
0
 42
0.006041891354980934
  0
VERTEX
  8
1
 10
200.9066444736944
 20
-80.39494741422966
 30
0
 42
0.01405718833886162
  0
VERTEX
  8
1
 10
200.8937642663673
 20
-80.38337152311431
 30
0
 42
0.005651759294519881
  0
VERTEX
  8
1
 10
200.8786163074285
 20
-80.37080045877069
 30
0
 42
0.01394261471027232
  0
VERTEX
  8
1
 10
200.8629924258417
 20
-80.35883627826497
 30
0
 42
0.004335390358465449
  0
VERTEX
  8
1
 10
200.8469409227126
 20
-80.34745050209678
 30
0
 42
0.01263825323489783
  0
VERTEX
  8
1
 10
200.8305100991466
 20
-80.33661465076575
 30
0
 42
0.003053812448595964
  0
VERTEX
  8
1
 10
200.8137482562495
 20
-80.3263002447715
 30
0
 42
0.01232333381066588
  0
VERTEX
  8
1
 10
200.7946064311908
 20
-80.31531806171466
 30
0
 42
0.002993895230059488
  0
VERTEX
  8
1
 10
200.7751405830403
 20
-80.30492910943173
 30
0
 42
0.01144687016544253
  0
VERTEX
  8
1
 10
200.7553824040252
 20
-80.29510637039294
 30
0
 42
0.002124397066605444
  0
VERTEX
  8
1
 10
200.7353635863731
 20
-80.28582282706853
 30
0
 42
0.01058845216966231
  0
VERTEX
  8
1
 10
200.7151158223112
 20
-80.27705146192871
 30
0
 42
0.001905008598572114
  0
VERTEX
  8
1
 10
200.6926579085247
 20
-80.26798209682607
 30
0
 42
0.01055612698693965
  0
VERTEX
  8
1
 10
200.6699830085613
 20
-80.25947593934913
 30
0
 42
0.001339476901245067
  0
VERTEX
  8
1
 10
200.6471118693746
 20
-80.25151147562382
 30
0
 42
0.009995016160555568
  0
VERTEX
  8
1
 10
200.6240652379184
 20
-80.24406719177605
 30
0
 42
0.0007847990577477703
  0
VERTEX
  8
1
 10
200.6008638611464
 20
-80.2371215739318
 30
0
 42
0.009849299157639629
  0
VERTEX
  8
1
 10
200.5758358024312
 20
-80.2302055214512
 30
0
 42
0.0007709896752576941
  0
VERTEX
  8
1
 10
200.5506677271803
 20
-80.22382289377509
 30
0
 42
0.009499926154230863
  0
VERTEX
  8
1
 10
200.5253736812506
 20
-80.2179585179683
 30
0
 42
0.0004249246198156311
  0
VERTEX
  8
1
 10
200.4999677104988
 20
-80.21259722109565
 30
0
 42
0.009157980937049488
  0
VERTEX
  8
1
 10
200.4744638607814
 20
-80.20772383022199
 30
0
 42
0.005074003096401255
  0
VERTEX
  8
1
 10
200.4207848657932
 20
-80.19904213474172
 30
0
 42
0.01352530611544953
  0
VERTEX
  8
1
 10
200.3668202146506
 20
-80.19236268414088
 30
0
 42
0.008894906355249988
  0
VERTEX
  8
1
 10
200.2842553652765
 20
-80.18588378871914
 30
0
 42
0.06564087887506294
  0
VERTEX
  8
1
 10
199.9017331494189
 20
-80.21292448319687
 30
0
 42
0.003700541578756277
  0
VERTEX
  8
1
 10
199.8763330596282
 20
-80.21831357334526
 30
0
 42
0.006224120663566496
  0
VERTEX
  8
1
 10
199.8510454450076
 20
-80.22420561967059
 30
0
 42
0.004046611703280009
  0
VERTEX
  8
1
 10
199.825884368006
 20
-80.23061577973145
 30
0
 42
0.006573475272330754
  0
VERTEX
  8
1
 10
199.8008638910724
 20
-80.23755921108651
 30
0
 42
0.004060421305336067
  0
VERTEX
  8
1
 10
199.7776701273361
 20
-80.24453020922832
 30
0
 42
0.006719184365715795
  0
VERTEX
  8
1
 10
199.7546316544095
 20
-80.25199970376949
 30
0
 42
0.004615108961568877
  0
VERTEX
  8
1
 10
199.7317692427725
 20
-80.25998918587207
 30
0
 42
0.007280263439884156
  0
VERTEX
  8
1
 10
199.7091036629044
 20
-80.26852014669818
 30
0
 42
0.005180652737506887
  0
VERTEX
  8
1
 10
199.6866556852847
 20
-80.27761407740989
 30
0
 42
0.007312586731676511
  0
VERTEX
  8
1
 10
199.6664175300272
 20
-80.28640759022872
 30
0
 42
0.005400046452026457
  0
VERTEX
  8
1
 10
199.6464088814126
 20
-80.29571303043696
 30
0
 42
0.008170951985417296
  0
VERTEX
  8
1
 10
199.6266614612093
 20
-80.30555738087409
 30
0
 42
0.006269568520486353
  0
VERTEX
  8
1
 10
199.6072069911853
 20
-80.31596762437944
 30
0
 42
0.00904735679554642
  0
VERTEX
  8
1
 10
199.5880771931085
 20
-80.3269707437924
 30
0
 42
0.006329487569666363
  0
VERTEX
  8
1
 10
199.571326645159
 20
-80.33730348262155
 30
0
 42
0.009362253848943333
  0
VERTEX
  8
1
 10
199.554907686852
 20
-80.34815730430958
 30
0
 42
0.007611110251766385
  0
VERTEX
  8
1
 10
199.5388686504235
 20
-80.35956063549398
 30
0
 42
0.01066651575736528
  0
VERTEX
  8
1
 10
199.5232578681093
 20
-80.37154190281214
 30
0
 42
0.008927536375276492
  0
VERTEX
  8
1
 10
199.5081236721454
 20
-80.3841295329015
 30
0
 42
0.01078108010952774
  0
VERTEX
  8
1
 10
199.4952561376242
 20
-80.39571950922799
 30
0
 42
0.009317687563438782
  0
VERTEX
  8
1
 10
199.4828633932264
 20
-80.40781852869259
 30
0
 42
0.01255838876707451
  0
VERTEX
  8
1
 10
199.4710144958417
 20
-80.42044497708922
 30
0
 42
0.01114504609102349
  0
VERTEX
  8
1
 10
199.4597785023601
 20
-80.43361724021179
 30
0
 42
0.01441180504830387
  0
VERTEX
  8
1
 10
199.4492244696714
 20
-80.44735370385421
 30
0
 42
0.01139092684763439
  0
VERTEX
  8
1
 10
199.4405204311452
 20
-80.4599806951545
 30
0
 42
0.01464796864107625
  0
VERTEX
  8
1
 10
199.4324832752737
 20
-80.47304714663125
 30
0
 42
0.01333405521254072
  0
VERTEX
  8
1
 10
199.4251926125133
 20
-80.48653695429334
 30
0
 42
0.01671124253636776
  0
VERTEX
  8
1
 10
199.4187280533198
 20
-80.50043401414962
 30
0
 42
0.01547600179188935
  0
VERTEX
  8
1
 10
199.4131692081494
 20
-80.514722222209
 30
0
 42
0.03344416915235367
  0
VERTEX
  8
1
 10
199.4055256994697
 20
-80.54199833608027
 30
0
 42
0.01583990573531969
  0
VERTEX
  8
1
 10
199.403062573701
 20
-80.55595551183768
 30
0
 42
0.01830974665109799
  0
VERTEX
  8
1
 10
199.4015584880864
 20
-80.57004010777746
 30
0
 42
0.01704480368743477
  0
SEQEND
  8
1
  0
POLYLINE
  8
1
 62
2
 66
1
 70
1
  0
VERTEX
  8
1
 10
199.4010534084556
 20
-84.583548147415
 30
0
 42
0.01800273692673293
  0
VERTEX
  8
1
 10
199.4015739670301
 20
-84.59769560819132
 30
0
 42
0.01735180301585251
  0
VERTEX
  8
1
 10
199.4030934615967
 20
-84.61177855009231
 30
0
 42
0.03337132818796065
  0
VERTEX
  8
1
 10
199.4089691154198
 20
-84.63949507523023
 30
0
 42
0.01550733894634255
  0
VERTEX
  8
1
 10
199.4132452030331
 20
-84.6530007574482
 30
0
 42
0.01724460433572986
  0
VERTEX
  8
1
 10
199.4188196774992
 20
-84.66728287506443
 30
0
 42
0.01494267034662942
  0
VERTEX
  8
1
 10
199.4252994374938
 20
-84.68117285377666
 30
0
 42
0.01510254194426378
  0
VERTEX
  8
1
 10
199.4326048549895
 20
-84.69465467670464
 30
0
 42
0.01287950439756411
  0
VERTEX
  8
1
 10
199.4406563019583
 20
-84.70771232696808
 30
0
 42
0.01315932255724378
  0
VERTEX
  8
1
 10
199.4493741503728
 20
-84.72032978768669
 30
0
 42
0.01264335219778091
  0
VERTEX
  8
1
 10
199.459943205708
 20
-84.73405469601849
 30
0
 42
0.01291343123421164
  0
VERTEX
  8
1
 10
199.4711936041402
 20
-84.74721465803988
 30
0
 42
0.01079001850468158
  0
VERTEX
  8
1
 10
199.4830563089368
 20
-84.75982813508838
 30
0
 42
0.01108600087407724
  0
VERTEX
  8
1
 10
199.495462283365
 20
-84.77191358850155
 30
0
 42
0.009012777636739635
  0
VERTEX
  8
1
 10
199.5083424906921
 20
-84.7834894796169
 30
0
 42
0.01069583587655354
  0
VERTEX
  8
1
 10
199.5234904496309
 20
-84.79606054396054
 30
0
 42
0.008898217270891826
  0
VERTEX
  8
1
 10
199.5391143312176
 20
-84.80802472446626
 30
0
 42
0.009379367142712158
  0
VERTEX
  8
1
 10
199.5551658343467
 20
-84.81941050063449
 30
0
 42
0.007593997470637105
  0
VERTEX
  8
1
 10
199.5715966579126
 20
-84.83024635196556
 30
0
 42
0.008097708864940731
  0
VERTEX
  8
1
 10
199.5883585008097
 20
-84.84056075795981
 30
0
 42
0.007279109681067732
  0
VERTEX
  8
1
 10
199.6075003258684
 20
-84.85154294101668
 30
0
 42
0.008037788294298544
  0
VERTEX
  8
1
 10
199.626966174019
 20
-84.86193189329957
 30
0
 42
0.006402728812497359
  0
VERTEX
  8
1
 10
199.6467243530341
 20
-84.87175463233831
 30
0
 42
0.007168245563224097
  0
VERTEX
  8
1
 10
199.6667431706863
 20
-84.8810381756627
 30
0
 42
0.005544384377815037
  0
VERTEX
  8
1
 10
199.6869909347483
 20
-84.8898095408025
 30
0
 42
0.006948847055723148
  0
VERTEX
  8
1
 10
199.7094488485348
 20
-84.89887890590511
 30
0
 42
0.005512061819583801
  0
VERTEX
  8
1
 10
199.7321237484982
 20
-84.90738506338204
 30
0
 42
0.006383291716481127
  0
VERTEX
  8
1
 10
199.7549948876848
 20
-84.91534952710737
 30
0
 42
0.004950994879368243
  0
VERTEX
  8
1
 10
199.778041519141
 20
-84.92279381095513
 30
0
 42
0.005828593817495388
  0
VERTEX
  8
1
 10
199.8012428959129
 20
-84.92973942879939
 30
0
 42
0.004805288755106572
  0
VERTEX
  8
1
 10
199.8262709546282
 20
-84.93665548128
 30
0
 42
0.005814783974132119
  0
VERTEX
  8
1
 10
199.851439029879
 20
-84.94303810895609
 30
0
 42
0.004455940959613961
  0
VERTEX
  8
1
 10
199.8767330758087
 20
-84.94890248476285
 30
0
 42
0.00546870802665901
  0
VERTEX
  8
1
 10
199.9021390465606
 20
-84.95426378163546
 30
0
 42
0.004114019220845829
  0
VERTEX
  8
1
 10
199.927642896278
 20
-84.9591371725091
 30
0
 42
0.01011803372485377
  0
VERTEX
  8
1
 10
199.9813218912661
 20
-84.96781886798931
 30
0
 42
0.008480955869869978
  0
VERTEX
  8
1
 10
200.0352865424087
 20
-84.97449831859012
 30
0
 42
0.01393930341271878
  0
VERTEX
  8
1
 10
200.1178513917827
 20
-84.98097721401196
 30
0
 42
0.060577051484053
  0
VERTEX
  8
1
 10
200.5003736076405
 20
-84.95393651953432
 30
0
 42
0.008744476477726842
  0
VERTEX
  8
1
 10
200.5257736974311
 20
-84.94854742938594
 30
0
 42
0.001180311924063572
  0
VERTEX
  8
1
 10
200.5510613120516
 20
-84.94265538306061
 30
0
 42
0.00909056892887998
  0
VERTEX
  8
1
 10
200.5762223890532
 20
-84.93624522299976
 30
0
 42
0.001529652871527874
  0
VERTEX
  8
1
 10
200.6012428659868
 20
-84.9293017916447
 30
0
 42
0.009104379446507922
  0
VERTEX
  8
1
 10
200.6244366297232
 20
-84.92233079350288
 30
0
 42
0.001675355903144845
  0
VERTEX
  8
1
 10
200.6474751026496
 20
-84.91486129896171
 30
0
 42
0.009659105486369647
  0
VERTEX
  8
1
 10
200.6703375142866
 20
-84.90687181685911
 30
0
 42
0.00223640963423756
  0
VERTEX
  8
1
 10
200.6930030941548
 20
-84.898340856033
 30
0
 42
0.01022469159364931
  0
VERTEX
  8
1
 10
200.7154510717745
 20
-84.8892469253213
 30
0
 42
0.002268731367995597
  0
VERTEX
  8
1
 10
200.7356892270321
 20
-84.88045341250252
 30
0
 42
0.01044410260239551
  0
VERTEX
  8
1
 10
200.7556978756466
 20
-84.87114797229427
 30
0
 42
0.003127051422150843
  0
VERTEX
  8
1
 10
200.7754452958499
 20
-84.86130362185716
 30
0
 42
0.0113136979752661
  0
VERTEX
  8
1
 10
200.794899765874
 20
-84.85089337835186
 30
0
 42
0.004003402420010093
  0
VERTEX
  8
1
 10
200.8140295639507
 20
-84.83989025893889
 30
0
 42
0.01137362235537077
  0
VERTEX
  8
1
 10
200.8307801119002
 20
-84.82955752010972
 30
0
 42
0.004318278248051703
  0
VERTEX
  8
1
 10
200.8471990702072
 20
-84.81870369842164
 30
0
 42
0.01265536776208657
  0
VERTEX
  8
1
 10
200.8632381066357
 20
-84.8073003672372
 30
0
 42
0.005622441585671176
  0
VERTEX
  8
1
 10
200.8788488889499
 20
-84.79531909991898
 30
0
 42
0.01397193719674134
  0
VERTEX
  8
1
 10
200.8939830849138
 20
-84.7827314698296
 30
0
 42
0.005736996460128814
  0
VERTEX
  8
1
 10
200.906850619435
 20
-84.77114149350309
 30
0
 42
0.01436213421799515
  0
VERTEX
  8
1
 10
200.9192433638328
 20
-84.75904247403848
 30
0
 42
0.007514141120601293
  0
VERTEX
  8
1
 10
200.9310922612174
 20
-84.74641602564185
 30
0
 42
0.01618972785282557
  0
VERTEX
  8
1
 10
200.9423282546991
 20
-84.73324376251929
 30
0
 42
0.009367352449032113
  0
VERTEX
  8
1
 10
200.9528822873878
 20
-84.71950729887691
 30
0
 42
0.01643564281431108
  0
VERTEX
  8
1
 10
200.9615863259141
 20
-84.70688030757665
 30
0
 42
0.009603487442234111
  0
VERTEX
  8
1
 10
200.9696234817856
 20
-84.69381385609995
 30
0
 42
0.01837906295847683
  0
VERTEX
  8
1
 10
200.9769141445461
 20
-84.68032404843791
 30
0
 42
0.01166648751416823
  0
VERTEX
  8
1
 10
200.9833787037396
 20
-84.66642698858163
 30
0
 42
0.02052137531956119
  0
VERTEX
  8
1
 10
200.98893754891
 20
-84.65213878052229
 30
0
 42
0.0283956075664687
  0
VERTEX
  8
1
 10
200.9965810575897
 20
-84.62486266665097
 30
0
 42
0.02088534600588998
  0
VERTEX
  8
1
 10
200.9990441833583
 20
-84.61090549089352
 30
0
 42
0.01326474996763942
  0
VERTEX
  8
1
 10
201.0005482689729
 20
-84.59682089495368
 30
0
 42
0.0580967731882733
  0
VERTEX
  8
1
 10
200.9990132954625
 20
-84.55444247042831
 30
0
 42
0.02832278927921236
  0
VERTEX
  8
1
 10
200.9931376416394
 20
-84.52672594529044
 30
0
 42
0.02055271817929573
  0
VERTEX
  8
1
 10
200.9888615540262
 20
-84.5132202630725
 30
0
 42
0.01219977153336404
  0
VERTEX
  8
1
 10
200.9832870795602
 20
-84.49893814545627
 30
0
 42
0.01998794847921936
  0
VERTEX
  8
1
 10
200.9768073195655
 20
-84.48504816674404
 30
0
 42
0.01005800409644806
  0
VERTEX
  8
1
 10
200.9695019020699
 20
-84.47156634381605
 30
0
 42
0.01792444048439969
  0
VERTEX
  8
1
 10
200.961450455101
 20
-84.4585086935526
 30
0
 42
0.008115012250861016
  0
VERTEX
  8
1
 10
200.9527326066865
 20
-84.445891232834
 30
0
 42
0.0176882518714157
  0
VERTEX
  8
1
 10
200.9421635513514
 20
-84.43216632450223
 30
0
 42
0.007869147008503779
  0
VERTEX
  8
1
 10
200.9309131529191
 20
-84.41900636248087
 30
0
 42
0.01583465195267662
  0
VERTEX
  8
1
 10
200.9190504481225
 20
-84.40639288543238
 30
0
 42
0.006041891352086699
  0
VERTEX
  8
1
 10
200.9066444736943
 20
-84.39430743201925
 30
0
 42
0.01405718834007412
  0
VERTEX
  8
1
 10
200.8937642663673
 20
-84.3827315409039
 30
0
 42
0.005651759294271627
  0
VERTEX
  8
1
 10
200.8786163074285
 20
-84.37016047656027
 30
0
 42
0.01394261470875679
  0
VERTEX
  8
1
 10
200.8629924258417
 20
-84.3581962960545
 30
0
 42
0.004335390360812283
  0
VERTEX
  8
1
 10
200.8469409227126
 20
-84.34681051988625
 30
0
 42
0.01263825323241387
  0
VERTEX
  8
1
 10
200.8305100991466
 20
-84.33597466855518
 30
0
 42
0.003053812450979857
  0
VERTEX
  8
1
 10
200.8137482562495
 20
-84.3256602625609
 30
0
 42
0.01232333380840201
  0
VERTEX
  8
1
 10
200.7946064311909
 20
-84.31467807950403
 30
0
 42
0.002993895233201891
  0
VERTEX
  8
1
 10
200.7751405830403
 20
-84.3042891272211
 30
0
 42
0.01144687016229685
  0
VERTEX
  8
1
 10
200.7553824040253
 20
-84.29446638818232
 30
0
 42
0.00212439707029784
  0
VERTEX
  8
1
 10
200.7353635863731
 20
-84.28518284485791
 30
0
 42
0.01058845216569904
  0
VERTEX
  8
1
 10
200.7151158223112
 20
-84.27641147971811
 30
0
 42
0.001905008602564935
  0
VERTEX
  8
1
 10
200.6926579085248
 20
-84.2673421146155
 30
0
 42
0.01055612698337877
  0
VERTEX
  8
1
 10
200.6699830085613
 20
-84.25883595713859
 30
0
 42
0.001339476904325719
  0
VERTEX
  8
1
 10
200.6471118693746
 20
-84.25087149341329
 30
0
 42
0.009995016157835027
  0
VERTEX
  8
1
 10
200.6240652379183
 20
-84.24342720956554
 30
0
 42
0.0007847990597745948
  0
VERTEX
  8
1
 10
200.6008638611464
 20
-84.2364815917213
 30
0
 42
0.009849299155931496
  0
VERTEX
  8
1
 10
200.5758358024312
 20
-84.22956553924071
 30
0
 42
0.0007709896764427468
  0
VERTEX
  8
1
 10
200.5506677271803
 20
-84.22318291156459
 30
0
 42
0.009499926153453416
  0
VERTEX
  8
1
 10
200.5253736812507
 20
-84.21731853575781
 30
0
 42
0.0004249246201882221
  0
VERTEX
  8
1
 10
200.4999677104988
 20
-84.21195723888515
 30
0
 42
0.009157980937046823
  0
VERTEX
  8
1
 10
200.4744638607814
 20
-84.20708384801149
 30
0
 42
0.005074003096474531
  0
VERTEX
  8
1
 10
200.4207848657932
 20
-84.19840215253123
 30
0
 42
0.01352530611569272
  0
VERTEX
  8
1
 10
200.3668202146506
 20
-84.19172270193045
 30
0
 42
0.008894906354856938
  0
VERTEX
  8
1
 10
200.2842553652765
 20
-84.18524380650877
 30
0
 42
0.06564087887496035
  0
VERTEX
  8
1
 10
199.9017331494189
 20
-84.21228450098639
 30
0
 42
0.00370054157900164
  0
VERTEX
  8
1
 10
199.8763330596282
 20
-84.21767359113477
 30
0
 42
0.006224120663445476
  0
VERTEX
  8
1
 10
199.8510454450076
 20
-84.2235656374601
 30
0
 42
0.004046611703280009
  0
VERTEX
  8
1
 10
199.8258843680061
 20
-84.22997579752096
 30
0
 42
0.006573475271923728
  0
VERTEX
  8
1
 10
199.8008638910724
 20
-84.23691922887601
 30
0
 42
0.004060421306142547
  0
VERTEX
  8
1
 10
199.7776701273361
 20
-84.24389022701782
 30
0
 42
0.006719184364064375
  0
VERTEX
  8
1
 10
199.7546316544095
 20
-84.25135972155894
 30
0
 42
0.004615108963791147
  0
VERTEX
  8
1
 10
199.7317692427725
 20
-84.25934920366152
 30
0
 42
0.007280263437386023
  0
VERTEX
  8
1
 10
199.7091036629044
 20
-84.26788016448759
 30
0
 42
0.005180652740278078
  0
VERTEX
  8
1
 10
199.6866556852847
 20
-84.27697409519929
 30
0
 42
0.007312586728631674
  0
VERTEX
  8
1
 10
199.6664175300271
 20
-84.28576760801811
 30
0
 42
0.005400046455914572
  0
VERTEX
  8
1
 10
199.6464088814126
 20
-84.29507304822636
 30
0
 42
0.008170951980379655
  0
VERTEX
  8
1
 10
199.6266614612093
 20
-84.30491739866346
 30
0
 42
0.006269568526977638
  0
VERTEX
  8
1
 10
199.6072069911852
 20
-84.31532764216883
 30
0
 42
0.009047356789064629
  0
VERTEX
  8
1
 10
199.5880771931085
 20
-84.3263307615818
 30
0
 42
0.00632948757616498
  0
VERTEX
  8
1
 10
199.571326645159
 20
-84.33666350041098
 30
0
 42
0.009362253843033542
  0
VERTEX
  8
1
 10
199.554907686852
 20
-84.34751732209907
 30
0
 42
0.007611110257061788
  0
VERTEX
  8
1
 10
199.5388686504235
 20
-84.35892065328349
 30
0
 42
0.01066651575234761
  0
VERTEX
  8
1
 10
199.5232578681093
 20
-84.3709019206017
 30
0
 42
0.008927536380250687
  0
VERTEX
  8
1
 10
199.5081236721454
 20
-84.3834895506911
 30
0
 42
0.01078108010403216
  0
VERTEX
  8
1
 10
199.4952561376242
 20
-84.3950795270176
 30
0
 42
0.009317687569507788
  0
VERTEX
  8
1
 10
199.4828633932264
 20
-84.40717854648221
 30
0
 42
0.01255838875984915
  0
VERTEX
  8
1
 10
199.4710144958418
 20
-84.41980499487883
 30
0
 42
0.01114504609764369
  0
VERTEX
  8
1
 10
199.4597785023601
 20
-84.43297725800139
 30
0
 42
0.01441180504257948
  0
VERTEX
  8
1
 10
199.4492244696714
 20
-84.4467137216438
 30
0
 42
0.01139092685282225
  0
VERTEX
  8
1
 10
199.4405204311452
 20
-84.45934071294407
 30
0
 42
0.01464796863592282
  0
VERTEX
  8
1
 10
199.4324832752737
 20
-84.47240716442079
 30
0
 42
0.0133340552179669
  0
VERTEX
  8
1
 10
199.4251926125133
 20
-84.48589697208287
 30
0
 42
0.01671124253114447
  0
VERTEX
  8
1
 10
199.4187280533198
 20
-84.49979403193915
 30
0
 42
0.01547600179678394
  0
VERTEX
  8
1
 10
199.4131692081494
 20
-84.5140822399985
 30
0
 42
0.03344416914721093
  0
VERTEX
  8
1
 10
199.4055256994697
 20
-84.54135835386975
 30
0
 42
0.01583990574103211
  0
VERTEX
  8
1
 10
199.403062573701
 20
-84.55531552962717
 30
0
 42
0.01830974664641128
  0
VERTEX
  8
1
 10
199.4015584880864
 20
-84.56940012556694
 30
0
 42
0.0170448036911511
  0
SEQEND
  8
1
  0
POLYLINE
  8
1
 62
2
 66
1
  0
VERTEX
  8
1
 10
198.9718067740664
 20
-84.2273216546934
 30
0
 42
0.001296016112092948
  0
VERTEX
  8
1
 10
198.9539695143629
 20
-84.25461130043755
 30
0
 42
0.003893043287682354
  0
VERTEX
  8
1
 10
198.9364329372398
 20
-84.28205874431032
 30
0
 42
0.00651170591626118
  0
VERTEX
  8
1
 10
198.9194977252778
 20
-84.30982178444029
 30
0
 42
0.009145318782367774
  0
VERTEX
  8
1
 10
198.9034645610575
 20
-84.33805821895609
 30
0
 42
0.01177636581355744
  0
VERTEX
  8
1
 10
198.8886341271592
 20
-84.3669258459863
 30
0
 42
0.01277475361376057
  0
VERTEX
  8
1
 10
198.8758053167754
 20
-84.39523551023073
 30
0
 42
0.011332632358955
  0
VERTEX
  8
1
 10
198.8643378517869
 20
-84.42417574652157
 30
0
 42
0.02324027437862975
  0
VERTEX
  8
1
 10
198.8454305386001
 20
-84.48358287991522
 30
0
 42
0.03815196885178766
  0
VERTEX
  8
1
 10
198.8247904233427
 20
-84.59363749561859
 30
0
 42
0.0217123769006936
  0
VERTEX
  8
1
 10
198.8212550217692
 20
-84.6473665292806
 30
0
 42
0.02925672092860648
  0
VERTEX
  8
1
 10
198.8241800144212
 20
-84.728112426108
 30
0
 42
0.03461697422571186
  0
VERTEX
  8
1
 10
198.8391119274873
 20
-84.81839231126256
 30
0
 42
0.02664361881258514
  0
VERTEX
  8
1
 10
198.8614214839057
 20
-84.894149250628
 30
0
 42
0.02223282846661441
  0
VERTEX
  8
1
 10
198.8849785370316
 20
-84.95242926618568
 30
0
 42
0.01866308519073314
  0
VERTEX
  8
1
 10
198.9132153417401
 20
-85.0085854628807
 30
0
 42
0.01454391123116734
  0
VERTEX
  8
1
 10
198.9354975503396
 20
-85.04641417020942
 30
0
 42
0.01152073504616522
  0
VERTEX
  8
1
 10
198.9597122764013
 20
-85.08301815108146
 30
0
 42
0.01678482747182236
  0
VERTEX
  8
1
 10
198.9933614101507
 20
-85.12811382343841
 30
0
 42
0.01655182479323301
  0
VERTEX
  8
1
 10
199.0380064172696
 20
-85.18029594289652
 30
0
 42
0.01778131207130683
  0
VERTEX
  8
1
 10
199.0861495337351
 20
-85.22931595752419
 30
0
 42
0.008894233821571231
  0
VERTEX
  8
1
 10
199.1190682069183
 20
-85.25943867222615
 30
0
 42
0.01109776197754667
  0
VERTEX
  8
1
 10
199.1531636207581
 20
-85.2882206324424
 30
0
 42
0.008072280150454124
  0
VERTEX
  8
1
 10
199.1883402448522
 20
-85.31567697996644
 30
0
 42
0.01030274464268688
  0
VERTEX
  8
1
 10
199.2245025487984
 20
-85.34182285659171
 30
0
 42
0.01384932959416925
  0
VERTEX
  8
1
 10
199.2906803494579
 20
-85.38496362372952
 30
0
 42
0.01351177762640325
  0
VERTEX
  8
1
 10
199.3502465870617
 20
-85.41930549313381
 30
0
 42
0.01057670419690778
  0
VERTEX
  8
1
 10
199.411396494528
 20
-85.4507385471902
 30
0
 42
0.01858710814656282
  0
VERTEX
  8
1
 10
199.5102032562436
 20
-85.49444738546841
 30
0
 42
0.01505784251018543
  0
VERTEX
  8
1
 10
199.6117775705926
 20
-85.53143339306004
 30
0
 42
0.01755110272394144
  0
VERTEX
  8
1
 10
199.7222796443914
 20
-85.56368698437937
 30
0
 42
0.0153861257447062
  0
VERTEX
  8
1
 10
199.8414874748141
 20
-85.59010949334368
 30
0
 42
0.01719248180020847
  0
VERTEX
  8
1
 10
199.962170554567
 20
-85.60871610084109
 30
0
 42
0.1234150951294771
  0
VERTEX
  8
1
 10
200.9057404389573
 20
-85.48823717030318
 30
0
 42
0.01823423269327048
  0
VERTEX
  8
1
 10
200.9547737634265
 20
-85.46698113044843
 30
0
 42
0.008829991276506369
  0
VERTEX
  8
1
 10
201.0030425727406
 20
-85.4440341711049
 30
0
 42
0.009131878691076909
  0
VERTEX
  8
1
 10
201.0504688585365
 20
-85.4193618022269
 30
0
 42
0.009599466182176357
  0
VERTEX
  8
1
 10
201.0975436235453
 20
-85.39258591685028
 30
0
 42
0.01010690639962649
  0
VERTEX
  8
1
 10
201.1435324379186
 20
-85.36397252919099
 30
0
 42
0.01055287751005344
  0
VERTEX
  8
1
 10
201.1882932033262
 20
-85.33348862121036
 30
0
 42
0.01110561772195884
  0
VERTEX
  8
1
 10
201.2316838214377
 20
-85.30110117486959
 30
0
 42
0.01158639886347873
  0
VERTEX
  8
1
 10
201.2735621939225
 20
-85.26677717212991
 30
0
 42
0.01036590244035603
  0
VERTEX
  8
1
 10
201.3078455655911
 20
-85.23606622537992
 30
0
 42
0.0108377658800359
  0
VERTEX
  8
1
 10
201.3407977018297
 20
-85.20392803334934
 30
0
 42
0.01144447876025831
  0
VERTEX
  8
1
 10
201.3722819311411
 20
-85.17035753541015
 30
0
 42
0.01196157886624804
  0
VERTEX
  8
1
 10
201.4021615820279
 20
-85.13534967093433
 30
0
 42
0.01259850986159064
  0
VERTEX
  8
1
 10
201.4302999829929
 20
-85.0988993792939
 30
0
 42
0.02460771186497136
  0
VERTEX
  8
1
 10
201.4776255255819
 20
-85.02713749544779
 30
0
 42
0.01354990705623189
  0
VERTEX
  8
1
 10
201.4984836545331
 20
-84.989558232864
 30
0
 42
0.01324424955908611
  0
VERTEX
  8
1
 10
201.5172832187048
 20
-84.95094841596753
 30
0
 42
0.0216810066309956
  0
VERTEX
  8
1
 10
201.541076322607
 20
-84.89194079996291
 30
0
 42
0.02155716368632812
  0
VERTEX
  8
1
 10
201.5592568359354
 20
-84.83249863699162
 30
0
 42
0.04713558345263385
  0
VERTEX
  8
1
 10
201.5796427657427
 20
-84.70577929179517
 30
0
 42
0.09859378230496078
  0
VERTEX
  8
1
 10
201.5452681819059
 20
-84.44537491663471
 30
0
 42
0.002624987659006523
  0
VERTEX
  8
1
 10
201.5384493197729
 20
-84.42566347161568
 30
0
 42
0.01160354381775977
  0
VERTEX
  8
1
 10
201.5310738775348
 20
-84.40615796572621
 30
0
 42
0.003254778293979754
  0
VERTEX
  8
1
 10
201.5231266179933
 20
-84.38689101387682
 30
0
 42
0.0122610683320031
  0
VERTEX
  8
1
 10
201.5145923039504
 20
-84.36789523097792
 30
0
 42
0.003937326307486356
  0
VERTEX
  8
1
 10
201.5054556982079
 20
-84.34920323194
 30
0
 42
0.01558450223041271
  0
VERTEX
  8
1
 10
201.4914881376799
 20
-84.3232476468378
 30
0
 42
0.003594615257079558
  0
VERTEX
  8
1
 10
201.4765274820828
 20
-84.29783305012066
 30
0
 42
0.01076024623380737
  0
VERTEX
  8
1
 10
201.460822005184
 20
-84.27282419469229
 30
0
 42
0.003573430001158473
  0
VERTEX
  8
1
 10
201.4446199807507
 20
-84.24808583345646
 30
0
 42
0.001187330501838872
  0
VERTEX
  8
1
 10
201.4281696825502
 20
-84.22348271931691
 30
0
  0
SEQEND
  8
1
  0
POLYLINE
  8
1
 62
2
 66
1
  0
VERTEX
  8
1
 10
199.0938050805677
 20
-80.9435200502505
 30
0
 42
-0.0009341593475258353
  0
VERTEX
  8
1
 10
199.0746750701339
 20
-80.92547249926307
 30
0
 42
-0.002805225712646274
  0
VERTEX
  8
1
 10
199.0556898392708
 20
-80.90729132923195
 30
0
 42
-0.004682980462765684
  0
VERTEX
  8
1
 10
199.036994167549
 20
-80.88884292111348
 30
0
 42
-0.006566650818194976
  0
VERTEX
  8
1
 10
199.0187328345394
 20
-80.86999365586394
 30
0
 42
-0.008447508586133412
  0
VERTEX
  8
1
 10
199.0010506198124
 20
-80.8506099144397
 30
0
 42
-0.0144171876138472
  0
VERTEX
  8
1
 10
198.9746588766744
 20
-80.81882991130131
 30
0
 42
-0.01363349053398703
  0
VERTEX
  8
1
 10
198.9500565748946
 20
-80.78559412252074
 30
0
 42
-0.01924361675190506
  0
VERTEX
  8
1
 10
198.9172263375184
 20
-80.73458007639266
 30
0
 42
-0.006864503059303979
  0
VERTEX
  8
1
 10
198.9073142334313
 20
-80.71721996932476
 30
0
 42
-0.007127599845421457
  0
VERTEX
  8
1
 10
198.8978930808853
 20
-80.69959182792897
 30
0
 42
-0.01467572923853226
  0
VERTEX
  8
1
 10
198.8808948988631
 20
-80.66415745099104
 30
0
 42
-0.01500986753593493
  0
VERTEX
  8
1
 10
198.8662903832903
 20
-80.62838969741613
 30
0
 42
-0.01558881308498631
  0
VERTEX
  8
1
 10
198.8539076145846
 20
-80.59179539183739
 30
0
 42
-0.0234557606984391
  0
VERTEX
  8
1
 10
198.8401521503712
 20
-80.53746802576745
 30
0
 42
-0.02697669811320359
  0
VERTEX
  8
1
 10
198.8310702230233
 20
-80.47604004785309
 30
0
 42
-0.1218140749675169
  0
VERTEX
  8
1
 10
198.8722937080433
 20
-80.20328500511455
 30
0
 42
-0.01349854779323628
  0
VERTEX
  8
1
 10
198.8865271146966
 20
-80.17059866025397
 30
0
 42
-0.01299116070606483
  0
VERTEX
  8
1
 10
198.9024770568261
 20
-80.13869913380944
 30
0
 42
-0.01254486894328718
  0
VERTEX
  8
1
 10
198.9200292111183
 20
-80.107663549826
 30
0
 42
-0.0117678787376823
  0
VERTEX
  8
1
 10
198.9385868635188
 20
-80.07828433114693
 30
0
 42
-0.01122153862844267
  0
VERTEX
  8
1
 10
198.958464453584
 20
-80.04980445953592
 30
0
 42
-0.01068557225470487
  0
VERTEX
  8
1
 10
198.9795661530263
 20
-80.02222783216286
 30
0
 42
-0.01016685768806395
  0
VERTEX
  8
1
 10
199.001796133558
 20
-79.99555834619764
 30
0
 42
-0.01574231785232824
  0
VERTEX
  8
1
 10
199.0405588714535
 20
-79.95367846196901
 30
0
 42
-0.0115643817036082
  0
VERTEX
  8
1
 10
199.0726606444791
 20
-79.92255918109825
 30
0
 42
-0.01091953106845016
  0
VERTEX
  8
1
 10
199.1061196925734
 20
-79.89290952921925
 30
0
 42
-0.01432357754906879
  0
VERTEX
  8
1
 10
199.1549779832536
 20
-79.8538207212074
 30
0
 42
-0.006730713708216156
  0
VERTEX
  8
1
 10
199.1802089299677
 20
-79.83530435312017
 30
0
 42
-0.006481046588617717
  0
VERTEX
  8
1
 10
199.2059225600042
 20
-79.81745938977031
 30
0
 42
-0.01100843902981208
  0
VERTEX
  8
1
 10
199.2527805403622
 20
-79.78731578902813
 30
0
 42
-0.009206901751792132
  0
VERTEX
  8
1
 10
199.2948766475674
 20
-79.76256885056917
 30
0
 42
-0.008836476324869743
  0
VERTEX
  8
1
 10
199.337824420275
 20
-79.73935724805588
 30
0
 42
-0.0029838031638565
  0
VERTEX
  8
1
 10
199.3531391948528
 20
-79.73153940412439
 30
0
 42
-0.002874272688191446
  0
VERTEX
  8
1
 10
199.3685444679395
 20
-79.72390154721313
 30
0
 42
-0.002764370186899865
  0
VERTEX
  8
1
 10
199.3840362251086
 20
-79.71643726246884
 30
0
 42
-0.002654233000649411
  0
VERTEX
  8
1
 10
199.3996104519336
 20
-79.70914013503813
 30
0
 42
-0.007047220961136838
  0
VERTEX
  8
1
 10
199.4432514044294
 20
-79.68971644786647
 30
0
 42
-0.004855794217798724
  0
VERTEX
  8
1
 10
199.4714693868588
 20
-79.67795720895414
 30
0
 42
-0.005153295053009828
  0
VERTEX
  8
1
 10
199.4999119056563
 20
-79.66676713730428
 30
0
 42
-0.005456722401080003
  0
VERTEX
  8
1
 10
199.5285737852018
 20
-79.65618733689053
 30
0
 42
-0.005765611538623261
  0
VERTEX
  8
1
 10
199.5574498498754
 20
-79.64625891168654
 30
0
 42
-0.00942994813692326
  0
VERTEX
  8
1
 10
199.6090002227208
 20
-79.63031380849463
 30
0
 42
-0.007329528264770374
  0
VERTEX
  8
1
 10
199.6610733844415
 20
-79.6161007815939
 30
0
 42
-0.00522506749134722
  0
VERTEX
  8
1
 10
199.7135386378189
 20
-79.60318681191154
 30
0
 42
-0.003128740197241746
  0
VERTEX
  8
1
 10
199.766265285634
 20
-79.59113888037477
 30
0
 42
-0.001041648149947475
  0
VERTEX
  8
1
 10
199.8191226306679
 20
-79.5795239679108
 30
0
  0
SEQEND
  8
1
  0
POLYLINE
  8
1
 62
2
 66
1
  0
VERTEX
  8
1
 10
200.5878929805177
 20
-79.57922160527529
 30
0
 42
-0.0008216426660069414
  0
VERTEX
  8
1
 10
200.6352655473488
 20
-79.58996746832544
 30
0
 42
-0.002466631633185683
  0
VERTEX
  8
1
 10
200.6825500943421
 20
-79.60102077421323
 30
0
 42
-0.004115670741633594
  0
VERTEX
  8
1
 10
200.7296586016596
 20
-79.6126889657763
 30
0
 42
-0.00576790108590028
  0
VERTEX
  8
1
 10
200.7765030494636
 20
-79.6252794858523
 30
0
 42
-0.007417079199232554
  0
VERTEX
  8
1
 10
200.8229954179161
 20
-79.63909977727892
 30
0
 42
-0.06587938378566709
  0
VERTEX
  8
1
 10
201.1712209230813
 20
-79.80126420821293
 30
0
 42
-0.01240759635493093
  0
VERTEX
  8
1
 10
201.2225709453504
 20
-79.83601833882602
 30
0
 42
-0.01354988183838091
  0
VERTEX
  8
1
 10
201.2720131167816
 20
-79.87336272141769
 30
0
 42
-0.01471843895035987
  0
VERTEX
  8
1
 10
201.3192499895949
 20
-79.9134272004661
 30
0
 42
-0.01588560927012026
  0
VERTEX
  8
1
 10
201.3639841160102
 20
-79.95634162044945
 30
0
 42
-0.01507054401291862
  0
VERTEX
  8
1
 10
201.4010854372284
 20
-79.99662957271828
 30
0
 42
-0.01628483089914208
  0
VERTEX
  8
1
 10
201.4356092103151
 20
-80.03918454881696
 30
0
 42
-0.01761978356084713
  0
VERTEX
  8
1
 10
201.4671553599545
 20
-80.08395644693279
 30
0
 42
-0.01904297327197559
  0
VERTEX
  8
1
 10
201.4953238108308
 20
-80.13089516525304
 30
0
 42
-0.02050337931789175
  0
VERTEX
  8
1
 10
201.5197144876283
 20
-80.179950601965
 30
0
 42
-0.03950987592512886
  0
VERTEX
  8
1
 10
201.5533415573046
 20
-80.2746478572609
 30
0
 42
-0.02081273236111716
  0
VERTEX
  8
1
 10
201.5643067122468
 20
-80.32371362182309
 30
0
 42
-0.02174309540816324
  0
VERTEX
  8
1
 10
201.5710536573166
 20
-80.37345497778799
 30
0
 42
-0.0656412989377493
  0
VERTEX
  8
1
 10
201.5653450438065
 20
-80.51699142855102
 30
0
 42
-0.01945422531997639
  0
VERTEX
  8
1
 10
201.5556916812126
 20
-80.56302004460689
 30
0
 42
-0.01867780281012609
  0
VERTEX
  8
1
 10
201.5425502501668
 20
-80.60821993920597
 30
0
 42
-0.03204797419532884
  0
VERTEX
  8
1
 10
201.5110847723005
 20
-80.68599910487816
 30
0
 42
-0.06776987861767272
  0
VERTEX
  8
1
 10
201.4105411442722
 20
-80.83831003044786
 30
0
 42
-0.009327539371429616
  0
VERTEX
  8
1
 10
201.386412019405
 20
-80.86508778286066
 30
0
 42
-0.006641678156625628
  0
VERTEX
  8
1
 10
201.3614010158258
 20
-80.89112220692675
 30
0
 42
-0.003972214495034423
  0
VERTEX
  8
1
 10
201.3358020931055
 20
-80.91666107876171
 30
0
 42
-0.001321502161212747
  0
VERTEX
  8
1
 10
201.3099092108145
 20
-80.9419521744811
 30
0
  0
SEQEND
  8
1
  0
POLYLINE
  8
1
 62
2
 66
1
  0
VERTEX
  8
1
 10
199.8191226306679
 20
-79.5795239679108
 30
0
 42
-0.001450422422364527
  0
VERTEX
  8
1
 10
199.7529472661601
 20
-79.55933011268125
 30
0
 42
-0.004361134360968018
  0
VERTEX
  8
1
 10
199.6870855776305
 20
-79.538392616545
 30
0
 42
-0.007295673650227599
  0
VERTEX
  8
1
 10
199.6218512410575
 20
-79.51596783859536
 30
0
 42
-0.01025025247228572
  0
VERTEX
  8
1
 10
199.5575579324192
 20
-79.49131213792565
 30
0
 42
-0.01319067906653819
  0
VERTEX
  8
1
 10
199.4945193276939
 20
-79.46368187362916
 30
0
 42
-0.01481768303429637
  0
VERTEX
  8
1
 10
199.4311464429878
 20
-79.43147046194454
 30
0
 42
-0.02838131133768257
  0
VERTEX
  8
1
 10
199.3101362252086
 20
-79.35614789590429
 30
0
 42
-0.05659020514968304
  0
VERTEX
  8
1
 10
199.089153538665
 20
-79.1600654163953
 30
0
 42
-0.01150077234812137
  0
VERTEX
  8
1
 10
199.0561251141535
 20
-79.121125692988
 30
0
 42
-0.03323692105420972
  0
VERTEX
  8
1
 10
198.9759680693327
 20
-79.00744032471837
 30
0
 42
-0.04284971679292249
  0
VERTEX
  8
1
 10
198.8973208848489
 20
-78.84943074748715
 30
0
 42
-0.02226957448848638
  0
VERTEX
  8
1
 10
198.8685844456963
 20
-78.76584161943153
 30
0
 42
-0.06283747416833346
  0
VERTEX
  8
1
 10
198.8304374314488
 20
-78.53149525226881
 30
0
 42
-0.04022566817188187
  0
VERTEX
  8
1
 10
198.8371562244146
 20
-78.38245694172012
 30
0
 42
-0.05416823064532045
  0
VERTEX
  8
1
 10
198.8822713568136
 20
-78.19345343645401
 30
0
 42
-0.01542602015175531
  0
VERTEX
  8
1
 10
198.9040962799647
 20
-78.13740706956975
 30
0
 42
-0.01484786144471725
  0
VERTEX
  8
1
 10
198.929304407336
 20
-78.08271271320638
 30
0
 42
-0.01432466117418038
  0
VERTEX
  8
1
 10
198.9576944084157
 20
-78.02951239499431
 30
0
 42
-0.04059208795790339
  0
VERTEX
  8
1
 10
199.058096960355
 20
-77.88281532638126
 30
0
 42
-0.07524922270264763
  0
VERTEX
  8
1
 10
199.310551844362
 20
-77.65234966820495
 30
0
 42
-0.00172855940124901
  0
VERTEX
  8
1
 10
199.3316006316569
 20
-77.63788627009421
 30
0
 42
-0.0005761864993746228
  0
VERTEX
  8
1
 10
199.3527158636662
 20
-77.62352005025051
 30
0
  0
SEQEND
  8
1
  0
POLYLINE
  8
1
 62
2
 66
1
  0
VERTEX
  8
1
 10
199.8933429250578
 20
-78.87273857787997
 30
0
 42
-0.0003965526120963183
  0
VERTEX
  8
1
 10
199.8773477053721
 20
-78.86908554725079
 30
0
 42
-0.001189780346069034
  0
VERTEX
  8
1
 10
199.8613649786873
 20
-78.86538197952203
 30
0
 42
-0.001983255917113078
  0
VERTEX
  8
1
 10
199.8454072380044
 20
-78.86157733759413
 30
0
 42
-0.002776745203627466
  0
VERTEX
  8
1
 10
199.8294869763243
 20
-78.85762108436754
 30
0
 42
-0.003569414880982115
  0
VERTEX
  8
1
 10
199.8136166866481
 20
-78.85346268274267
 30
0
 42
-0.01536012803923013
  0
VERTEX
  8
1
 10
199.7538793984191
 20
-78.83535794104174
 30
0
 42
-0.01609001686564628
  0
VERTEX
  8
1
 10
199.6953726692606
 20
-78.81351031388167
 30
0
 42
-0.008378724300298596
  0
VERTEX
  8
1
 10
199.6666829986098
 20
-78.80115529824948
 30
0
 42
-0.006127513378618762
  0
VERTEX
  8
1
 10
199.6471000788558
 20
-78.79204234700602
 30
0
 42
-0.006658849329257158
  0
VERTEX
  8
1
 10
199.6277608817157
 20
-78.7824338587925
 30
0
 42
-0.007199388591651431
  0
VERTEX
  8
1
 10
199.6087034192566
 20
-78.77229745291351
 30
0
 42
-0.007747021815741088
  0
VERTEX
  8
1
 10
199.5899657035457
 20
-78.7616007486736
 30
0
 42
-0.008298588420065568
  0
VERTEX
  8
1
 10
199.5715857466504
 20
-78.75031136537737
 30
0
 42
-0.006463912807491536
  0
VERTEX
  8
1
 10
199.5584295703608
 20
-78.74168470519513
 30
0
 42
-0.006887062922088497
  0
VERTEX
  8
1
 10
199.545506994259
 20
-78.7327089044293
 30
0
 42
-0.007311913787127395
  0
VERTEX
  8
1
 10
199.5328411013754
 20
-78.72336730224194
 30
0
 42
-0.007735807885502496
  0
VERTEX
  8
1
 10
199.5204549747398
 20
-78.713643237795
 30
0
 42
-0.008155449440072743
  0
VERTEX
  8
1
 10
199.5083716973824
 20
-78.70352005025049
 30
0
 42
-0.01138646422998374
  0
VERTEX
  8
1
 10
199.4932609785616
 20
-78.68982780659516
 30
0
 42
-0.01261037281594522
  0
VERTEX
  8
1
 10
199.4788183993061
 20
-78.67542099394328
 30
0
 42
-0.01390620495617076
  0
VERTEX
  8
1
 10
199.4651682188259
 20
-78.66027885826772
 30
0
 42
-0.0152572262486152
  0
VERTEX
  8
1
 10
199.4524346963313
 20
-78.64438064554142
 30
0
 42
-0.01663427600913909
  0
VERTEX
  8
1
 10
199.4407420910322
 20
-78.62770560173723
 30
0
 42
-0.01197431106601015
  0
VERTEX
  8
1
 10
199.4335411752409
 20
-78.61606789381355
 30
0
 42
-0.01271032395989374
  0
VERTEX
  8
1
 10
199.4269222911661
 20
-78.60408763466228
 30
0
 42
-0.01349868680160994
  0
VERTEX
  8
1
 10
199.42094225981
 20
-78.59178178964157
 30
0
 42
-0.01432774436355143
  0
VERTEX
  8
1
 10
199.4156579021743
 20
-78.57916732410955
 30
0
 42
-0.01518093005692591
  0
VERTEX
  8
1
 10
199.4111260392609
 20
-78.56626120342436
 30
0
 42
-0.02949359063357723
  0
VERTEX
  8
1
 10
199.4048622967545
 20
-78.54154933693864
 30
0
 42
-0.03088679060172644
  0
VERTEX
  8
1
 10
199.4016279721053
 20
-78.51626181342643
 30
0
 42
-0.05210427343606353
  0
VERTEX
  8
1
 10
199.4032444602404
 20
-78.47529048488124
 30
0
 42
-0.03324823316240647
  0
VERTEX
  8
1
 10
199.4091014688784
 20
-78.44756873067395
 30
0
 42
-0.03128851292113018
  0
VERTEX
  8
1
 10
199.4183351263927
 20
-78.42118186070047
 30
0
 42
-0.0141532296877092
  0
VERTEX
  8
1
 10
199.4240429828796
 20
-78.40862126475172
 30
0
 42
-0.0132850632859765
  0
VERTEX
  8
1
 10
199.4304320236493
 20
-78.39639077796568
 30
0
 42
-0.0124510207789719
  0
VERTEX
  8
1
 10
199.4374434124989
 20
-78.38450218697061
 30
0
 42
-0.01166350168682183
  0
VERTEX
  8
1
 10
199.4450183132256
 20
-78.37296727839473
 30
0
 42
-0.01353937027730587
  0
VERTEX
  8
1
 10
199.4551224383942
 20
-78.35915372643319
 30
0
 42
-0.01259074052940826
  0
VERTEX
  8
1
 10
199.4659324155595
 20
-78.34588917087463
 30
0
 42
-0.01165416403857017
  0
VERTEX
  8
1
 10
199.4773766078819
 20
-78.33315957701345
 30
0
 42
-0.01074422394788781
  0
VERTEX
  8
1
 10
199.4893833785218
 20
-78.32095091014408
 30
0
 42
-0.009870419498031918
  0
VERTEX
  8
1
 10
199.5018810906399
 20
-78.30924913556098
 30
0
 42
-0.009380040788476984
  0
VERTEX
  8
1
 10
199.5150924979416
 20
-78.29779859735682
 30
0
 42
-0.008825949335245028
  0
VERTEX
  8
1
 10
199.5287052450424
 20
-78.28684204149137
 30
0
 42
-0.008272745466203163
  0
VERTEX
  8
1
 10
199.5426827540936
 20
-78.27635871468428
 30
0
 42
-0.007725146057502234
  0
VERTEX
  8
1
 10
199.5569884472459
 20
-78.26632786365516
 30
0
 42
-0.007186613586517863
  0
VERTEX
  8
1
 10
199.5715857466504
 20
-78.25672873512369
 30
0
 42
-0.009101321359833627
  0
VERTEX
  8
1
 10
199.5918723231442
 20
-78.24431649881839
 30
0
 42
-0.008453906414376742
  0
VERTEX
  8
1
 10
199.6125831694897
 20
-78.23262342950869
 30
0
 42
-0.007810104232758745
  0
VERTEX
  8
1
 10
199.6336697141009
 20
-78.22160672700079
 30
0
 42
-0.007174464550174876
  0
VERTEX
  8
1
 10
199.6550833853921
 20
-78.21122359110093
 30
0
 42
-0.006549960516679219
  0
VERTEX
  8
1
 10
199.6767756117772
 20
-78.20143122161531
 30
0
 42
-0.01533478896012883
  0
VERTEX
  8
1
 10
199.7301475221638
 20
-78.18007989417909
 30
0
 42
-0.01777422894204714
  0
VERTEX
  8
1
 10
199.7915157121223
 20
-78.16015269726967
 30
0
 42
-0.005187574724237158
  0
VERTEX
  8
1
 10
199.8168161440416
 20
-78.1531687320135
 30
0
 42
-0.003701367017105808
  0
VERTEX
  8
1
 10
199.8422506085163
 20
-78.14663204987691
 30
0
 42
-0.002218427010867583
  0
VERTEX
  8
1
 10
199.8677744280278
 20
-78.14039355648674
 30
0
 42
-0.0007389996922389892
  0
VERTEX
  8
1
 10
199.8933429250577
 20
-78.13430415746977
 30
0
  0
SEQEND
  8
1
  0
POLYLINE
  8
1
 62
2
 66
1
  0
VERTEX
  8
1
 10
200.4533429250576
 20
-78.88310543151121
 30
0
 42
0.0006897471754671882
  0
VERTEX
  8
1
 10
200.4805142934586
 20
-78.87777045026161
 30
0
 42
0.002070012620106508
  0
VERTEX
  8
1
 10
200.5076483859966
 20
-78.87228707688598
 30
0
 42
0.003453624191089263
  0
VERTEX
  8
1
 10
200.5347079268083
 20
-78.8665069192583
 30
0
 42
0.004839606201956866
  0
VERTEX
  8
1
 10
200.5616556400306
 20
-78.86028158525254
 30
0
 42
0.006225462360238043
  0
VERTEX
  8
1
 10
200.5884542498006
 20
-78.85346268274267
 30
0
 42
0.02396627506667534
  0
VERTEX
  8
1
 10
200.6775927235763
 20
-78.82495472595404
 30
0
 42
0.0165854465792955
  0
VERTEX
  8
1
 10
200.7353879378389
 20
-78.80115529824948
 30
0
 42
0.008891777487999707
  0
VERTEX
  8
1
 10
200.7638258987138
 20
-78.78771237500405
 30
0
 42
0.01032758758046501
  0
VERTEX
  8
1
 10
200.7917213952311
 20
-78.77318910276654
 30
0
 42
0.01127935481326127
  0
VERTEX
  8
1
 10
200.8189402673154
 20
-78.75748771875016
 30
0
 42
0.01278481655150649
  0
VERTEX
  8
1
 10
200.8453483548912
 20
-78.74051046016811
 30
0
 42
0.0137764597518279
  0
VERTEX
  8
1
 10
200.8708114978832
 20
-78.72215956423362
 30
0
 42
0.01069216883287003
  0
VERTEX
  8
1
 10
200.8875889081862
 20
-78.70877425908751
 30
0
 42
0.01176651853532934
  0
VERTEX
  8
1
 10
200.9037508909358
 20
-78.69464695777103
 30
0
 42
0.01335684455710579
  0
VERTEX
  8
1
 10
200.919185993537
 20
-78.67972285308839
 30
0
 42
0.01445840311075647
  0
VERTEX
  8
1
 10
200.9337827633952
 20
-78.66394713784382
 30
0
 42
0.01601643205571757
  0
VERTEX
  8
1
 10
200.9474297479153
 20
-78.6472650048415
 30
0
 42
0.01796959187583814
  0
VERTEX
  8
1
 10
200.9606184541244
 20
-78.6287005792726
 30
0
 42
0.02009350066447627
  0
VERTEX
  8
1
 10
200.972369106108
 20
-78.60916731694138
 30
0
 42
0.02190467024830681
  0
VERTEX
  8
1
 10
200.9824184712185
 20
-78.58876048535633
 30
0
 42
0.02461438313165841
  0
VERTEX
  8
1
 10
200.9905033168085
 20
-78.56757535202588
 30
0
 42
0.02683442835015994
  0
VERTEX
  8
1
 10
200.9963604102301
 20
-78.54570718445849
 30
0
 42
0.04231854795902562
  0
VERTEX
  8
1
 10
201.0005397413997
 20
-78.51202534474115
 30
0
 42
0.1249994892681725
  0
VERTEX
  8
1
 10
200.9789364548768
 20
-78.41059162436872
 30
0
 42
0.01081841085126955
  0
VERTEX
  8
1
 10
200.9706431576194
 20
-78.39466903411838
 30
0
 42
0.0220153067795814
  0
VERTEX
  8
1
 10
200.9613288454164
 20
-78.3793344987637
 30
0
 42
0.01373876656855153
  0
VERTEX
  8
1
 10
200.9472605528918
 20
-78.35951756035007
 30
0
 42
0.02392331889179619
  0
VERTEX
  8
1
 10
200.9317520926998
 20
-78.34082860764082
 30
0
 42
0.009813792968631416
  0
VERTEX
  8
1
 10
200.9150010768276
 20
-78.32320876393507
 30
0
 42
0.02005935161097829
  0
VERTEX
  8
1
 10
200.8972051172624
 20
-78.30659915253193
 30
0
 42
0.006111933281505921
  0
VERTEX
  8
1
 10
200.8785618259912
 20
-78.29094089673055
 30
0
 42
0.01711725480538075
  0
VERTEX
  8
1
 10
200.8589935034352
 20
-78.27599882991621
 30
0
 42
0.004939850320427487
  0
VERTEX
  8
1
 10
200.8388132247055
 20
-78.26195361115489
 30
0
 42
0.01622196908636089
  0
VERTEX
  8
1
 10
200.8180754842607
 20
-78.24878662740071
 30
0
 42
0.004056944220858273
  0
VERTEX
  8
1
 10
200.7968347765594
 20
-78.23647926560764
 30
0
 42
0.01536173207217185
  0
VERTEX
  8
1
 10
200.7751455960602
 20
-78.22501291272971
 30
0
 42
0.0004134472173922095
  0
VERTEX
  8
1
 10
200.7590378217057
 20
-78.21713700143266
 30
0
 42
0.01046292838051018
  0
VERTEX
  8
1
 10
200.7427615407872
 20
-78.20961283308273
 30
0
 42
0.00339584244563257
  0
VERTEX
  8
1
 10
200.7263588799457
 20
-78.20235247194313
 30
0
 42
0.002035533668157764
  0
VERTEX
  8
1
 10
200.7098719658222
 20
-78.1952679822771
 30
0
 42
0.0006784193900331539
  0
VERTEX
  8
1
 10
200.6933429250577
 20
-78.18827142834786
 30
0
  0
SEQEND
  8
1
  0
POLYLINE
  8
1
 62
2
 66
1
  0
VERTEX
  8
1
 10
200.5878929805177
 20
-79.57922160527529
 30
0
 42
0.001702461331468393
  0
VERTEX
  8
1
 10
200.6657470697397
 20
-79.55393927401978
 30
0
 42
0.005118314918456856
  0
VERTEX
  8
1
 10
200.7431277562062
 20
-79.52763850683498
 30
0
 42
0.008581328233208152
  0
VERTEX
  8
1
 10
200.8195616371614
 20
-79.49930086779162
 30
0
 42
0.01207557991386509
  0
VERTEX
  8
1
 10
200.89457530985
 20
-79.46790792096044
 30
0
 42
0.01555874468005269
  0
VERTEX
  8
1
 10
200.9676953715163
 20
-79.43244123041214
 30
0
 42
0.1788296683597501
  0
VERTEX
  8
1
 10
201.5151674594581
 20
-78.82576841638581
 30
0
 42
0.2860178231301662
  0
VERTEX
  8
1
 10
201.3475094429139
 20
-77.88808008487855
 30
0
 42
0.01948596541344303
  0
VERTEX
  8
1
 10
201.2882938720653
 20
-77.82040711963948
 30
0
 42
0.01838682526567524
  0
VERTEX
  8
1
 10
201.2240843359336
 20
-77.75736613122604
 30
0
 42
0.01741404596809466
  0
VERTEX
  8
1
 10
201.155494417103
 20
-77.69904966690851
 30
0
 42
0.09065645893231107
  0
VERTEX
  8
1
 10
200.7195478002142
 20
-77.467092845991
 30
0
 42
0.0005317465860698974
  0
VERTEX
  8
1
 10
200.6933429250577
 20
-77.45807392496673
 30
0
  0
SEQEND
  8
1
  0
POLYLINE
  8
1
 62
2
 66
1
 70
1
  0
VERTEX
  8
1
 10
198.5186386369576
 20
-74.56849924959582
 30
0
  0
VERTEX
  8
1
 10
198.5186386369576
 20
-74.56849924959582
 30
0
 42
0.4142135624
  0
VERTEX
  8
1
 10
198.1186386369576
 20
-74.16849924959581
 30
0
  0
VERTEX
  8
1
 10
198.1186386369576
 20
-74.16849924959581
 30
0
 42
0.4142135624
  0
VERTEX
  8
1
 10
197.7186386369576
 20
-74.56849924959582
 30
0
  0
VERTEX
  8
1
 10
197.7186386369576
 20
-74.56849924959582
 30
0
 42
0.4142135624
  0
VERTEX
  8
1
 10
198.1186386369576
 20
-74.96849924959582
 30
0
  0
VERTEX
  8
1
 10
198.1186386369576
 20
-74.96849924959582
 30
0
 42
0.4142135624
  0
SEQEND
  8
1
  0
TEXT
  8
1
 62
2
 10
198.3186386369576
 20
-74.70849924959582
 30
0
 40
0.4
  1
R
 50
90
 41
0.9
  0
ENDBLK
  8
0
  0
BLOCK
  8
1
  2
*D0
 70
1
 10
0
 20
0
 30
0
  0
LINE
  8
1
 62
2
 10
170.647385620915
 20
-132.932698228785
 30
0
 11
234.647385620915
 21
-132.932698228785
 31
0
  0
LINE
  8
1
 62
2
 10
234.647385620915
 20
-64.62495789054266
 30
0
 11
234.647385620915
 21
-133.932698228785
 31
0
  0
LINE
  8
1
 62
2
 10
170.647385620915
 20
-47.29446821152726
 30
0
 11
170.647385620915
 21
-133.932698228785
 31
0
  0
SOLID
  8
1
 62
2
 10
170.647385620915
 20
-132.932698228785
 30
0
 11
173.847385620915
 21
-132.516698228785
 31
0
 12
173.847385620915
 22
-133.348698228785
 32
0
 13
173.847385620915
 23
-133.348698228785
 33
0
  0
SOLID
  8
1
 62
2
 10
234.647385620915
 20
-132.932698228785
 30
0
 11
231.447385620915
 21
-133.348698228785
 31
0
 12
231.447385620915
 22
-132.516698228785
 32
0
 13
231.447385620915
 23
-132.516698228785
 33
0
  0
TEXT
  8
1
 62
2
 10
200.247385620915
 20
-131.732698228785
 30
0
 40
3.200000000000001
  1
64
 41
0.9
  0
ENDBLK
  8
0
  0
BLOCK
  8
1
  2
*D1
 70
1
 10
0
 20
0
 30
0
  0
LINE
  8
1
 62
2
 10
129.647385620915
 20
-132.932698228785
 30
0
 11
170.647385620915
 21
-132.932698228785
 31
0
  0
LINE
  8
1
 62
2
 10
170.647385620915
 20
-47.29446821152726
 30
0
 11
170.647385620915
 21
-133.932698228785
 31
0
  0
LINE
  8
1
 62
2
 10
129.647385620915
 20
-65.52930083728273
 30
0
 11
129.647385620915
 21
-133.932698228785
 31
0
  0
SOLID
  8
1
 62
2
 10
170.647385620915
 20
-132.932698228785
 30
0
 11
167.447385620915
 21
-133.348698228785
 31
0
 12
167.447385620915
 22
-132.516698228785
 32
0
 13
167.447385620915
 23
-132.516698228785
 33
0
  0
SOLID
  8
1
 62
2
 10
129.647385620915
 20
-132.932698228785
 30
0
 11
132.847385620915
 21
-132.516698228785
 31
0
 12
132.847385620915
 22
-133.348698228785
 32
0
 13
132.847385620915
 23
-133.348698228785
 33
0
  0
TEXT
  8
1
 62
2
 10
148.227385620915
 20
-131.732698228785
 30
0
 40
3.200000000000001
  1
41
 41
0.9
  0
ENDBLK
  8
0
  0
BLOCK
  8
1
  2
*D2
 70
1
 10
0
 20
0
 30
0
  0
LINE
  8
1
 62
2
 10
170.647385620915
 20
58.1269508592183
 30
0
 11
203.647385620915
 21
58.1269508592183
 31
0
  0
LINE
  8
1
 62
2
 10
203.647385620915
 20
34.25
 30
0
 11
203.647385620915
 21
59.1269508592183
 31
0
  0
LINE
  8
1
 62
2
 10
170.647385620915
 20
54.65594825257899
 30
0
 11
170.647385620915
 21
59.1269508592183
 31
0
  0
SOLID
  8
1
 62
2
 10
203.647385620915
 20
58.1269508592183
 30
0
 11
200.447385620915
 21
57.71095085921831
 31
0
 12
200.447385620915
 22
58.5429508592183
 32
0
 13
200.447385620915
 23
58.5429508592183
 33
0
  0
SOLID
  8
1
 62
2
 10
170.647385620915
 20
58.1269508592183
 30
0
 11
173.847385620915
 21
58.5429508592183
 31
0
 12
173.847385620915
 22
57.71095085921831
 32
0
 13
173.847385620915
 23
57.71095085921831
 33
0
  0
TEXT
  8
1
 62
2
 10
190.038660095068
 20
59.3269508592183
 30
0
 40
3.200000000000001
  1
33
 41
0.9
  0
ENDBLK
  8
0
  0
BLOCK
  8
1
  2
*D3
 70
1
 10
0
 20
0
 30
0
  0
LINE
  8
1
 62
2
 10
303.6473856209149
 20
66.84716788675641
 30
0
 11
363.647385620915
 21
66.84716788675641
 31
0
  0
LINE
  8
1
 62
2
 10
363.647385620915
 20
26
 30
0
 11
363.647385620915
 21
67.84716788675641
 31
0
  0
LINE
  8
1
 62
2
 10
303.6473856209149
 20
26
 30
0
 11
303.6473856209149
 21
67.84716788675641
 31
0
  0
SOLID
  8
1
 62
2
 10
303.6473856209149
 20
66.84716788675641
 30
0
 11
306.8473856209149
 21
67.26316788675641
 31
0
 12
306.8473856209149
 22
66.43116788675641
 32
0
 13
306.8473856209149
 23
66.43116788675641
 33
0
  0
SOLID
  8
1
 62
2
 10
363.647385620915
 20
66.84716788675641
 30
0
 11
360.447385620915
 21
66.43116788675641
 31
0
 12
360.447385620915
 22
67.26316788675641
 32
0
 13
360.447385620915
 23
67.26316788675641
 33
0
  0
TEXT
  8
1
 62
2
 10
331.247385620915
 20
68.04716788675641
 30
0
 40
3.2
  1
60
 41
0.9
  0
ENDBLK
  8
0
  0
BLOCK
  8
1
  2
*D4
 70
1
 10
0
 20
0
 30
0
  0
LINE
  8
1
 62
2
 10
150.647385620915
 20
-40.106769845942
 30
0
 11
190.647385620915
 21
-40.106769845942
 31
0
  0
LINE
  8
1
 62
2
 10
190.647385620915
 20
-62.01779637014531
 30
0
 11
190.647385620915
 21
-39.106769845942
 31
0
  0
LINE
  8
1
 62
2
 10
150.647385620915
 20
-62.01779637014531
 30
0
 11
150.647385620915
 21
-39.106769845942
 31
0
  0
SOLID
  8
1
 62
2
 10
150.647385620915
 20
-40.106769845942
 30
0
 11
153.847385620915
 21
-39.690769845942
 31
0
 12
153.847385620915
 22
-40.52276984594199
 32
0
 13
153.847385620915
 23
-40.52276984594199
 33
0
  0
SOLID
  8
1
 62
2
 10
190.647385620915
 20
-40.106769845942
 30
0
 11
187.447385620915
 21
-40.52276984594199
 31
0
 12
187.447385620915
 22
-39.690769845942
 32
0
 13
187.447385620915
 23
-39.690769845942
 33
0
  0
TEXT
  8
1
 62
2
 10
168.247385620915
 20
-38.906769845942
 30
0
 40
3.2
  1
40
 41
0.9
  0
ENDBLK
  8
0
  0
BLOCK
  8
1
  2
*D5
 70
1
 10
0
 20
0
 30
0
  0
LINE
  8
1
 62
2
 10
259.984868151
 20
-112.0177963701453
 30
0
 11
259.984868151
 21
-52.01779637014531
 31
0
  0
LINE
  8
1
 62
2
 10
205.989123132978
 20
-52.01779637014531
 30
0
 11
260.984868151
 21
-52.01779637014531
 31
0
  0
LINE
  8
1
 62
2
 10
205.989123132978
 20
-112.0177963701453
 30
0
 11
260.984868151
 21
-112.0177963701453
 31
0
  0
SOLID
  8
1
 62
2
 10
259.984868151
 20
-52.01779637014531
 30
0
 11
260.400868151
 21
-55.21779637014531
 31
0
 12
259.568868151
 22
-55.21779637014531
 32
0
 13
259.568868151
 23
-55.21779637014531
 33
0
  0
SOLID
  8
1
 62
2
 10
259.984868151
 20
-112.0177963701453
 30
0
 11
259.568868151
 21
-108.8177963701453
 31
0
 12
260.400868151
 22
-108.8177963701453
 32
0
 13
260.400868151
 23
-108.8177963701453
 33
0
  0
TEXT
  8
1
 62
2
 10
258.784868151
 20
-84.41779637014531
 30
0
 40
3.2
  1
60
 50
90
 41
0.9
  0
ENDBLK
  8
0
  0
BLOCK
  8
1
  2
*D6
 70
1
 10
0
 20
0
 30
0
  0
LINE
  8
1
 62
2
 10
256.365033440256
 20
10.00000000000002
 30
0
 11
256.365033440256
 21
40
 31
0
  0
LINE
  8
1
 62
2
 10
230.1950577670195
 20
10.00000000000002
 30
0
 11
232.869436734256
 21
10.00000000000002
 31
0
  0
LINE
  8
1
 62
2
 10
235.627628275335
 20
10.00000000000002
 30
0
 11
257.365033440256
 21
10.00000000000002
 31
0
  0
LINE
  8
1
 62
2
 10
236.561858177664
 20
40
 30
0
 11
257.365033440256
 21
40
 31
0
  0
LINE
  8
1
 62
2
 10
230.1950577670195
 20
40
 30
0
 11
233.073975559553
 21
40
 31
0
  0
SOLID
  8
1
 62
2
 10
256.365033440256
 20
40
 30
0
 11
256.781033440256
 21
36.8
 31
0
 12
255.949033440256
 22
36.8
 32
0
 13
255.949033440256
 23
36.8
 33
0
  0
SOLID
  8
1
 62
2
 10
256.365033440256
 20
10.00000000000002
 30
0
 11
255.949033440256
 21
13.20000000000002
 31
0
 12
256.781033440256
 22
13.20000000000002
 32
0
 13
256.781033440256
 23
13.20000000000002
 33
0
  0
TEXT
  8
1
 62
2
 10
255.165033440256
 20
22.60000000000001
 30
0
 40
3.2
  1
30
 50
90
 41
0.9
  0
ENDBLK
  8
0
  0
BLOCK
  8
1
  2
*D7
 70
1
 10
0
 20
0
 30
0
  0
LINE
  8
1
 62
2
 10
263.654289638603
 20
2.500000000000021
 30
0
 11
263.654289638603
 21
47.5
 31
0
  0
LINE
  8
1
 62
2
 10
194.147385620915
 20
2.500000000000021
 30
0
 11
231.991830334822
 21
2.500000000000021
 31
0
  0
LINE
  8
1
 62
2
 10
236.505234674769
 20
2.500000000000021
 30
0
 11
264.654289638603
 21
2.500000000000021
 31
0
  0
LINE
  8
1
 62
2
 10
236.925179283717
 20
47.5
 30
0
 11
240.169473563413
 21
47.5
 31
0
  0
LINE
  8
1
 62
2
 10
242.697815809402
 20
47.5
 30
0
 11
264.654289638603
 21
47.5
 31
0
  0
LINE
  8
1
 62
2
 10
194.147385620915
 20
47.5
 30
0
 11
231.257370029287
 21
47.5
 31
0
  0
SOLID
  8
1
 62
2
 10
263.654289638603
 20
47.5
 30
0
 11
264.070289638603
 21
44.3
 31
0
 12
263.238289638603
 22
44.3
 32
0
 13
263.238289638603
 23
44.3
 33
0
  0
SOLID
  8
1
 62
2
 10
263.654289638603
 20
2.500000000000021
 30
0
 11
263.238289638603
 21
5.700000000000022
 31
0
 12
264.070289638603
 22
5.700000000000022
 32
0
 13
264.070289638603
 23
5.700000000000022
 33
0
  0
TEXT
  8
1
 62
2
 10
262.454289638603
 20
22.60000000000001
 30
0
 40
3.2
  1
45
 50
90
 41
0.9
  0
ENDBLK
  8
0
  0
BLOCK
  8
1
  2
*D8
 70
1
 10
0
 20
0
 30
0
  0
LINE
  8
1
 62
2
 10
129.647385620915
 20
81.1315276375321
 30
0
 11
234.647385620915
 21
81.1315276375321
 31
0
  0
LINE
  8
1
 62
2
 10
129.647385620915
 20
43.257178917647
 30
0
 11
129.647385620915
 21
82.1315276375321
 31
0
  0
LINE
  8
1
 62
2
 10
129.647385620915
 20
26
 30
0
 11
129.647385620915
 21
36.6889174109095
 31
0
  0
LINE
  8
1
 62
2
 10
234.647385620915
 20
27.5
 30
0
 11
234.647385620915
 21
41.9819422534846
 31
0
  0
LINE
  8
1
 62
2
 10
234.647385620915
 20
42.1504984032173
 30
0
 11
234.647385620915
 21
82.1315276375321
 31
0
  0
SOLID
  8
1
 62
2
 10
129.647385620915
 20
81.1315276375321
 30
0
 11
132.847385620915
 21
81.5475276375321
 31
0
 12
132.847385620915
 22
80.71552763753211
 32
0
 13
132.847385620915
 23
80.71552763753211
 33
0
  0
SOLID
  8
1
 62
2
 10
234.647385620915
 20
81.1315276375321
 30
0
 11
231.447385620915
 21
80.71552763753211
 31
0
 12
231.447385620915
 22
81.5475276375321
 32
0
 13
231.447385620915
 23
81.5475276375321
 33
0
  0
TEXT
  8
1
 62
2
 10
174.625241531689
 20
82.33152763753211
 30
0
 40
3.2
  1
105
 41
0.9
  0
ENDBLK
  8
0
  0
BLOCK
  8
1
  2
*D9
 70
1
 10
0
 20
0
 30
0
  0
LINE
  8
1
 62
2
 10
211.897385620915
 20
25
 30
0
 11
195.397385620915
 21
25
 31
0
  0
LINE
  8
1
 62
2
 10
203.647385620915
 20
33.25
 30
0
 11
203.647385620915
 21
16.75
 31
0
  0
LINE
  8
1
 62
2
 10
209.7493165592442
 20
29.36078419826764
 30
0
 11
186.348209743493
 21
12.63703267510753
 31
0
  0
SOLID
  8
1
 62
2
 10
209.7493165592442
 20
29.36078419826764
 30
0
 11
207.3877041890877
 21
27.16172917096079
 31
0
 12
206.9039478620265
 22
27.83863670971944
 32
0
 13
206.9039478620265
 23
27.83863670971944
 33
0
  0
TEXT
  8
1
 62
2
 10
188.7746729121948
 20
15.84606313475324
 30
0
 40
3.2
  1
15
 50
35.55174005606611
 41
0.9
  0
TEXT
  8
1
 62
2
 10
185.6504842717702
 20
13.6133416252402
 30
0
 40
3.2
  1
%%c
 50
35.55174005606611
 41
0.9
  0
ENDBLK
  8
0
  0
ENDSEC
  0
SECTION
  2
ENTITIES
  0
LINE
  8
1
 62
2
 10
363.6473856209151
 20
25
 30
0
 11
363.6473856209151
 21
24.5
 31
0
  0
LINE
  8
1
 62
2
 10
363.6473856209151
 20
25
 30
0
 11
363.6473856209151
 21
25.5
 31
0
  0
LINE
  8
1
 62
2
 10
303.647385620915
 20
25
 30
0
 11
303.647385620915
 21
25.5
 31
0
  0
LINE
  8
1
 62
2
 10
303.647385620915
 20
25
 30
0
 11
303.647385620915
 21
24.5
 31
0
  0
LINE
  8
1
 62
7
 10
205.647385620915
 20
-52.06131672255519
 30
0
 11
206.147385620915
 21
-52.06131672255519
 31
0
  0
LINE
  8
1
 62
2
 10
166.9368860941654
 20
-35.2224395322875
 30
0
 11
163.9368860941654
 21
-39.2224395322875
 31
0
  0
LINE
  8
1
 62
2
 10
164.0203073755254
 20
-38.8857473798443
 30
0
 11
164.0203073755254
 21
-35.8857473798443
 31
0
  0
LINE
  8
1
 62
2
 10
167.0203073755254
 20
-38.8857473798443
 30
0
 11
164.0203073755254
 21
-38.8857473798443
 31
0
  0
LINE
  8
1
 62
2
 10
167.0203073755254
 20
-35.8857473798443
 30
0
 11
167.0203073755254
 21
-38.8857473798443
 31
0
  0
LINE
  8
1
 62
2
 10
164.0203073755254
 20
-35.8857473798443
 30
0
 11
167.0203073755254
 21
-35.8857473798443
 31
0
  0
LINE
  8
1
 62
7
 10
149.647385620915
 20
-52.14221569561116
 30
0
 11
149.147385620915
 21
-52.14221569561116
 31
0
  0
LINE
  8
1
 62
2
  6
DASHDOT
 10
128.632234105763
 20
25
 30
0
 11
240.25253984982
 21
25
 31
0
  0
LINE
  8
1
 62
2
  6
DASHDOT
 10
170.647385620915
 20
53.65594825257899
 30
0
 11
170.647385620915
 21
-4.344051747421005
 31
0
  0
LINE
  8
1
 62
7
 10
147.647385620915
 20
43
 30
0
 11
147.647385620915
 21
47
 31
0
  0
LINE
  8
1
 62
7
 10
148.147385620915
 20
47.5
 30
0
 11
193.147385620915
 21
47.5
 31
0
  0
LINE
  8
1
 62
7
 10
193.647385620915
 20
47
 30
0
 11
193.647385620915
 21
43
 31
0
  0
LINE
  8
1
 62
7
 10
229.1950577670195
 20
40
 30
0
 11
196.647385620915
 21
40
 31
0
  0
LINE
  8
1
 62
7
 10
196.647385620915
 20
40
 30
0
 11
144.647385620915
 21
40
 31
0
  0
LINE
  8
1
 62
2
  6
DASHDOT
 10
161.147385620915
 20
25
 30
0
 11
128.147385620915
 21
25
 31
0
  0
LINE
  8
1
 62
2
  6
DASHDOT
 10
144.647385620915
 20
41.5
 30
0
 11
144.647385620915
 21
8.5
 31
0
  0
LINE
  8
1
 62
2
  6
DASHDOT
 10
148.897385620915
 20
25
 30
0
 11
132.397385620915
 21
25
 31
0
  0
LINE
  8
1
 62
2
  6
DASHDOT
 10
140.647385620915
 20
33.25
 30
0
 11
140.647385620915
 21
16.75
 31
0
  0
LINE
  8
1
 62
7
 10
234.1882054407924
 20
35.26167978121472
 30
0
 11
234.647385620915
 21
26.5
 31
0
  0
LINE
  8
1
 62
7
 10
234.647385620915
 20
26.5
 30
0
 11
215.5342455875576
 21
26.5
 31
0
  0
LINE
  8
1
 62
7
 10
149.647385620915
 20
40
 30
0
 11
149.647385620915
 21
25
 31
0
  0
LINE
  8
1
 62
2
  6
DASHDOT
 10
220.647385620915
 20
44.61503916167
 30
0
 11
220.647385620915
 21
7.615039161669998
 31
0
  0
LINE
  8
1
 62
2
  6
DASHED
 10
216.397385620915
 20
32
 30
0
 11
216.397385620915
 21
26.5
 31
0
  0
LINE
  8
1
 62
2
  6
DASHED
 10
224.897385620915
 20
32
 30
0
 11
224.897385620915
 21
26.5
 31
0
  0
LINE
  8
1
 62
7
 10
205.647385620915
 20
40
 30
0
 11
205.647385620915
 21
32.22841614740051
 31
0
  0
LINE
  8
1
 62
7
 10
147.147385620915
 20
28.74165738677394
 30
0
 11
140.647385620915
 21
32.5
 31
0
  0
LINE
  8
1
 62
7
 10
140.647385620915
 20
32.5
 30
0
 11
134.147385620915
 21
28.74165738677394
 31
0
  0
LINE
  8
1
 62
7
 10
134.147385620915
 20
28.74165738677394
 30
0
 11
134.147385620915
 21
25
 31
0
  0
LINE
  8
1
 62
7
 10
147.147385620915
 20
28.74165738677394
 30
0
 11
147.147385620915
 21
25
 31
0
  0
LINE
  8
1
 62
2
  6
DASHED
 10
214.147385620915
 20
32
 30
0
 11
226.877409338904
 21
32
 31
0
  0
LINE
  8
1
 62
7
 10
147.647385620915
 20
3.000000000000028
 30
0
 11
147.647385620915
 21
7.000000000000028
 31
0
  0
LINE
  8
1
 62
7
 10
193.147385620915
 20
2.500000000000028
 30
0
 11
148.147385620915
 21
2.500000000000028
 31
0
  0
LINE
  8
1
 62
7
 10
193.647385620915
 20
7.000000000000028
 30
0
 11
193.647385620915
 21
3.000000000000028
 31
0
  0
LINE
  8
1
 62
7
 10
196.647385620915
 20
10.00000000000003
 30
0
 11
229.1950577670195
 21
10.00000000000003
 31
0
  0
LINE
  8
1
 62
7
 10
144.647385620915
 20
10.00000000000003
 30
0
 11
196.647385620915
 21
10.00000000000003
 31
0
  0
LINE
  8
1
 62
7
 10
234.647385620915
 20
23.50000000000003
 30
0
 11
234.1882054407924
 21
14.7383202187853
 31
0
  0
LINE
  8
1
 62
7
 10
215.5342455875576
 20
23.50000000000003
 30
0
 11
234.647385620915
 21
23.50000000000003
 31
0
  0
LINE
  8
1
 62
7
 10
149.647385620915
 20
25
 30
0
 11
149.647385620915
 21
10.00000000000003
 31
0
  0
LINE
  8
1
 62
7
 10
205.647385620915
 20
17.77158385259948
 30
0
 11
205.647385620915
 21
10.00000000000003
 31
0
  0
LINE
  8
1
 62
7
 10
140.647385620915
 20
17.50000000000003
 30
0
 11
147.147385620915
 21
21.25834261322609
 31
0
  0
LINE
  8
1
 62
7
 10
134.147385620915
 20
21.25834261322609
 30
0
 11
140.647385620915
 21
17.50000000000003
 31
0
  0
LINE
  8
1
 62
7
 10
134.147385620915
 20
25
 30
0
 11
134.147385620915
 21
21.25834261322609
 31
0
  0
LINE
  8
1
 62
7
 10
147.147385620915
 20
25
 30
0
 11
147.147385620915
 21
21.25834261322609
 31
0
  0
LINE
  8
1
 62
2
  6
DASHDOT
 10
128.557883864168
 20
-82.01779637014531
 30
0
 11
225.729313354348
 21
-82.01779637014531
 31
0
  0
LINE
  8
1
 62
7
 10
151.647385620915
 20
-62.01779637014531
 30
0
 11
189.647385620915
 21
-62.01779637014531
 31
0
  0
LINE
  8
1
 62
7
 10
190.647385620915
 20
-63.01779637014531
 30
0
 11
190.647385620915
 21
-82.01779637014531
 31
0
  0
LINE
  8
1
 62
7
 10
151.647385620915
 20
-59.01779637014531
 30
0
 11
189.647385620915
 21
-59.01779637014531
 31
0
  0
LINE
  8
1
 62
7
 10
193.647385620915
 20
-63.01779637014531
 30
0
 11
193.647385620915
 21
-82.01779637014531
 31
0
  0
LINE
  8
1
 62
7
 10
147.647385620915
 20
-63.01779637014531
 30
0
 11
147.647385620915
 21
-80.51779637014531
 31
0
  0
LINE
  8
1
 62
7
 10
148.6427676254262
 20
-52.48625743496206
 30
0
 11
132.5342943122115
 21
-59.99776190209948
 31
0
  0
LINE
  8
1
 62
7
 10
129.647385620915
 20
-64.52930083728273
 30
0
 11
129.647385620915
 21
-80.51779637014531
 31
0
  0
LINE
  8
1
 62
7
 10
150.7558589341297
 20
-52.01779637014531
 30
0
 11
204.989123132978
 21
-52.01779637014531
 31
0
  0
LINE
  8
1
 62
7
 10
206.2832183584906
 20
-52.18816723869996
 30
0
 11
230.9414808464276
 21
-58.79532875909732
 31
0
  0
LINE
  8
1
 62
7
 10
234.647385620915
 20
-63.62495789054266
 30
0
 11
234.647385620915
 21
-82.01779637014531
 31
0
  0
LINE
  8
1
 62
7
 10
129.647385620915
 20
-80.51779637014531
 30
0
 11
147.647385620915
 21
-80.51779637014531
 31
0
  0
LINE
  8
1
 62
7
 10
148.647385620915
 20
-80.51779637014531
 30
0
 11
150.647385620915
 21
-78.51779637014531
 31
0
  0
LINE
  8
1
 62
7
 10
147.647385620915
 20
-80.51779637014531
 30
0
 11
148.647385620915
 21
-80.51779637014531
 31
0
  0
LINE
  8
1
 62
7
 10
150.647385620915
 20
-78.51779637014531
 30
0
 11
150.647385620915
 21
-63.01779637014531
 31
0
  0
LINE
  8
1
 62
2
  6
DASHED
 10
136.397385620915
 20
-68.01779637014531
 30
0
 11
136.397385620915
 21
-80.51779637014531
 31
0
  0
LINE
  8
1
 62
2
  6
DASHED
 10
136.397385620915
 20
-68.01779637014531
 30
0
 11
134.147385620915
 21
-68.01779637014531
 31
0
  0
LINE
  8
1
 62
2
  6
DASHED
 10
144.897385620915
 20
-80.51779637014531
 30
0
 11
144.897385620915
 21
-68.01779637014531
 31
0
  0
LINE
  8
1
 62
2
  6
DASHED
 10
144.897385620915
 20
-68.01779637014531
 30
0
 11
147.147385620915
 21
-68.01779637014531
 31
0
  0
LINE
  8
1
 62
2
  6
DASHDOT
 10
228.897385620915
 20
-69.51779637014531
 30
0
 11
212.397385620915
 21
-69.51779637014531
 31
0
  0
LINE
  8
1
 62
2
  6
DASHDOT
 10
220.647385620915
 20
-61.26779637014531
 30
0
 11
220.647385620915
 21
-77.76779637014531
 31
0
  0
LINE
  8
1
 62
7
 10
220.647385620915
 20
-62.01779637014531
 30
0
 11
214.147385620915
 21
-65.77613898337137
 31
0
  0
LINE
  8
1
 62
7
 10
227.147385620915
 20
-65.77613898337137
 30
0
 11
220.647385620915
 21
-62.01779637014531
 31
0
  0
LINE
  8
1
 62
7
 10
227.147385620915
 20
-65.77613898337137
 30
0
 11
227.147385620915
 21
-69.51779637014531
 31
0
  0
LINE
  8
1
 62
7
 10
227.147385620915
 20
-69.51779637014531
 30
0
 11
227.147385620915
 21
-73.25945375691921
 31
0
  0
LINE
  8
1
 62
7
 10
220.647385620915
 20
-77.01779637014528
 30
0
 11
227.147385620915
 21
-73.25945375691921
 31
0
  0
LINE
  8
1
 62
7
 10
214.147385620915
 20
-73.25945375691921
 30
0
 11
220.647385620915
 21
-77.01779637014528
 31
0
  0
LINE
  8
1
 62
7
 10
214.147385620915
 20
-65.77613898337137
 30
0
 11
214.147385620915
 21
-69.51779637014531
 31
0
  0
LINE
  8
1
 62
7
 10
214.147385620915
 20
-69.51779637014531
 30
0
 11
214.147385620915
 21
-73.25945375691921
 31
0
  0
LINE
  8
1
 62
2
  6
DASHED
 10
136.397385620915
 20
-68.01779637014531
 30
0
 11
144.897385620915
 21
-68.01779637014531
 31
0
  0
LINE
  8
1
 62
7
 10
189.647385620915
 20
-102.0177963701453
 30
0
 11
151.647385620915
 21
-102.0177963701453
 31
0
  0
LINE
  8
1
 62
7
 10
190.647385620915
 20
-82.01779637014531
 30
0
 11
190.647385620915
 21
-101.0177963701453
 31
0
  0
LINE
  8
1
 62
7
 10
189.647385620915
 20
-105.0177963701453
 30
0
 11
151.647385620915
 21
-105.0177963701453
 31
0
  0
LINE
  8
1
 62
7
 10
193.647385620915
 20
-82.01779637014531
 30
0
 11
193.647385620915
 21
-101.0177963701453
 31
0
  0
LINE
  8
1
 62
7
 10
147.647385620915
 20
-83.51779637014531
 30
0
 11
147.647385620915
 21
-101.0177963701453
 31
0
  0
LINE
  8
1
 62
7
 10
132.5342943122115
 20
-104.0378308381911
 30
0
 11
148.6427676254262
 21
-111.5493353053286
 31
0
  0
LINE
  8
1
 62
7
 10
129.647385620915
 20
-83.51779637014531
 30
0
 11
129.647385620915
 21
-99.50629190300791
 31
0
  0
LINE
  8
1
 62
7
 10
204.989123132978
 20
-112.0177963701453
 30
0
 11
150.7558589341297
 21
-112.0177963701453
 31
0
  0
LINE
  8
1
 62
7
 10
230.9414808464276
 20
-105.2402639811933
 30
0
 11
206.2832183584906
 21
-111.8474255015906
 31
0
  0
LINE
  8
1
 62
7
 10
234.647385620915
 20
-82.01779637014531
 30
0
 11
234.647385620915
 21
-100.410634849748
 31
0
  0
LINE
  8
1
 62
7
 10
147.647385620915
 20
-83.51779637014531
 30
0
 11
129.647385620915
 21
-83.51779637014531
 31
0
  0
LINE
  8
1
 62
7
 10
150.647385620915
 20
-85.51779637014531
 30
0
 11
148.647385620915
 21
-83.51779637014531
 31
0
  0
LINE
  8
1
 62
7
 10
148.647385620915
 20
-83.51779637014531
 30
0
 11
147.647385620915
 21
-83.51779637014531
 31
0
  0
LINE
  8
1
 62
7
 10
150.647385620915
 20
-101.0177963701453
 30
0
 11
150.647385620915
 21
-85.51779637014531
 31
0
  0
LINE
  8
1
 62
7
 10
214.147385620915
 20
-98.2594537569192
 30
0
 11
220.647385620915
 21
-102.0177963701453
 31
0
  0
LINE
  8
1
 62
7
 10
220.647385620915
 20
-102.0177963701453
 30
0
 11
227.147385620915
 21
-98.2594537569192
 31
0
  0
LINE
  8
1
 62
7
 10
227.147385620915
 20
-94.51779637014531
 30
0
 11
227.147385620915
 21
-98.2594537569192
 31
0
  0
LINE
  8
1
 62
7
 10
227.147385620915
 20
-90.7761389833714
 30
0
 11
227.147385620915
 21
-94.51779637014531
 31
0
  0
LINE
  8
1
 62
7
 10
227.147385620915
 20
-90.7761389833714
 30
0
 11
220.647385620915
 21
-87.01779637014528
 31
0
  0
LINE
  8
1
 62
7
 10
220.647385620915
 20
-87.01779637014528
 30
0
 11
214.147385620915
 21
-90.7761389833714
 31
0
  0
LINE
  8
1
 62
7
 10
214.147385620915
 20
-94.51779637014531
 30
0
 11
214.147385620915
 21
-98.2594537569192
 31
0
  0
LINE
  8
1
 62
7
 10
214.147385620915
 20
-90.7761389833714
 30
0
 11
214.147385620915
 21
-94.51779637014531
 31
0
  0
LINE
  8
1
 62
2
  6
DASHDOT
 10
212.397385620915
 20
-94.51779637014531
 30
0
 11
228.897385620915
 21
-94.51779637014531
 31
0
  0
LINE
  8
1
 62
2
  6
DASHDOT
 10
220.647385620915
 20
-86.26779637014531
 30
0
 11
220.647385620915
 21
-102.7677963701453
 31
0
  0
LINE
  8
1
 62
7
 10
193.647385620915
 20
-67.76779637014531
 30
0
 11
213.147385620915
 21
-67.76779637014531
 31
0
  0
LINE
  8
1
 62
7
 10
193.647385620915
 20
-71.26779637014531
 30
0
 11
213.147385620915
 21
-71.26779637014531
 31
0
  0
LINE
  8
1
 62
7
 10
147.647385620915
 20
-67.76779637014531
 30
0
 11
137.647385620915
 21
-67.76779637014531
 31
0
  0
LINE
  8
1
 62
7
 10
147.647385620915
 20
-71.26779637014531
 30
0
 11
137.647385620915
 21
-71.26779637014531
 31
0
  0
LINE
  8
1
 62
7
 10
137.647385620915
 20
-67.76779637014531
 30
0
 11
137.647385620915
 21
-71.26779637014531
 31
0
  0
LINE
  8
1
 62
7
 10
137.647385620915
 20
-96.26779637014531
 30
0
 11
147.647385620915
 21
-96.26779637014531
 31
0
  0
LINE
  8
1
 62
7
 10
137.647385620915
 20
-92.76779637014531
 30
0
 11
147.647385620915
 21
-92.76779637014531
 31
0
  0
LINE
  8
1
 62
7
 10
137.647385620915
 20
-92.76779637014531
 30
0
 11
137.647385620915
 21
-96.26779637014531
 31
0
  0
LINE
  8
1
 62
7
 10
213.147385620915
 20
-67.76779637014531
 30
0
 11
213.147385620915
 21
-71.26779637014531
 31
0
  0
LINE
  8
1
 62
7
 10
213.147385620915
 20
-92.76779637014531
 30
0
 11
213.147385620915
 21
-96.26779637014531
 31
0
  0
LINE
  8
1
 62
7
 10
213.147385620915
 20
-92.76779637014531
 30
0
 11
193.647385620915
 21
-92.76779637014531
 31
0
  0
LINE
  8
1
 62
7
 10
213.147385620915
 20
-96.26779637014531
 30
0
 11
193.647385620915
 21
-96.26779637014531
 31
0
  0
LINE
  8
1
 62
5
 10
197.647385620915
 20
-90.01779637014531
 30
0
 11
210.647385620915
 21
-90.01779637014531
 31
0
  0
LINE
  8
1
 62
5
 10
210.647385620915
 20
-90.01779637014531
 30
0
 11
210.647385620915
 21
-74.01779637014531
 31
0
  0
LINE
  8
1
 62
5
 10
197.647385620915
 20
-90.01779637014531
 30
0
 11
197.647385620915
 21
-74.01779637014531
 31
0
  0
LINE
  8
1
 62
5
 10
197.647385620915
 20
-74.01779637014531
 30
0
 11
210.647385620915
 21
-74.01779637014531
 31
0
  0
LINE
  8
1
 62
2
  6
DASHED
 10
214.147385620915
 20
32
 30
0
 11
214.147385620915
 21
38.5
 31
0
  0
LINE
  8
1
 62
2
  6
DASHED
 10
226.877409338904
 20
32
 30
0
 11
226.877409338904
 21
38.5
 31
0
  0
LINE
  8
1
 62
2
  6
DASHED
 10
213.147385620915
 20
38.5
 30
0
 11
228.147385620915
 21
38.5
 31
0
  0
LINE
  8
1
 62
2
  6
DASHED
 10
213.147385620915
 20
40
 30
0
 11
213.147385620915
 21
38.5
 31
0
  0
LINE
  8
1
 62
2
  6
DASHED
 10
228.147385620915
 20
40
 30
0
 11
228.147385620915
 21
38.5
 31
0
  0
LINE
  8
1
 62
2
  6
DASHED
 10
228.147385620915
 20
11.49999999999997
 30
0
 11
213.147385620915
 21
11.49999999999997
 31
0
  0
LINE
  8
1
 62
2
  6
DASHED
 10
213.147385620915
 20
11.49999999999997
 30
0
 11
213.147385620915
 21
10.00000000000003
 31
0
  0
LINE
  8
1
 62
7
  6
DASHED
 10
228.147385620915
 20
11.49999999999997
 30
0
 11
213.147385620915
 21
11.49999999999997
 31
0
  0
LINE
  8
1
 62
2
  6
DASHED
 10
228.147385620915
 20
11.49999999999997
 30
0
 11
228.147385620915
 21
9.999999999999972
 31
0
  0
LINE
  8
1
 62
2
  6
DASHED
 10
226.877409338904
 20
17.99999999999997
 30
0
 11
214.147385620915
 21
17.99999999999997
 31
0
  0
LINE
  8
1
 62
2
  6
DASHED
 10
226.877409338904
 20
11.49999999999997
 30
0
 11
226.877409338904
 21
17.99999999999997
 31
0
  0
LINE
  8
1
 62
2
  6
DASHED
 10
214.147385620915
 20
11.49999999999997
 30
0
 11
214.147385620915
 21
17.99999999999997
 31
0
  0
LINE
  8
1
 62
2
  6
DASHED
 10
216.397385620915
 20
23.49999999999997
 30
0
 11
216.397385620915
 21
17.99999999999997
 31
0
  0
LINE
  8
1
 62
2
  6
DASHED
 10
224.897385620915
 20
23.50000000000003
 30
0
 11
224.897385620915
 21
17.99999999999997
 31
0
  0
LINE
  8
1
 62
2
  6
DASHED
 10
134.147385620915
 20
-68.01779637014531
 30
0
 11
134.147385620915
 21
-61.21187272970278
 31
0
  0
LINE
  8
1
 62
2
  6
DASHED
 10
147.147385620915
 20
-68.01779637014531
 30
0
 11
147.147385620915
 21
-61.21187272970278
 31
0
  0
LINE
  8
1
 62
2
  6
DASHED
 10
133.147385620915
 20
-61.21187272970278
 30
0
 11
148.147385620915
 21
-61.21187272970278
 31
0
  0
LINE
  8
1
 62
2
  6
DASHED
 10
133.147385620915
 20
-61.21187272970278
 30
0
 11
133.147385620915
 21
-59.71187272970278
 31
0
  0
LINE
  8
1
 62
2
  6
DASHED
 10
148.147385620915
 20
-61.21187272970278
 30
0
 11
148.147385620915
 21
-52.7172578573778
 31
0
  0
LINE
  8
1
 62
2
  6
DASHED
 10
148.147385620915
 20
-102.8237200105878
 30
0
 11
133.147385620915
 21
-102.8237200105878
 31
0
  0
LINE
  8
1
 62
2
  6
DASHED
 10
133.147385620915
 20
-104.3237200105878
 30
0
 11
133.147385620915
 21
-102.8237200105878
 31
0
  0
LINE
  8
1
 62
2
  6
DASHED
 10
148.147385620915
 20
-111.3183348829128
 30
0
 11
148.147385620915
 21
-102.8237200105878
 31
0
  0
LINE
  8
1
 62
2
  6
DASHED
 10
134.147385620915
 20
-102.8237200105878
 30
0
 11
134.147385620915
 21
-96.01779637014531
 31
0
  0
LINE
  8
1
 62
2
  6
DASHED
 10
134.147385620915
 20
-96.01779637014531
 30
0
 11
136.397385620915
 21
-96.01779637014531
 31
0
  0
LINE
  8
1
 62
2
  6
DASHED
 10
147.147385620915
 20
-102.8237200105878
 30
0
 11
147.147385620915
 21
-96.01779637014531
 31
0
  0
LINE
  8
1
 62
2
  6
DASHED
 10
144.897385620915
 20
-96.01779637014531
 30
0
 11
136.397385620915
 21
-96.01779637014531
 31
0
  0
LINE
  8
1
 62
2
  6
DASHED
 10
147.147385620915
 20
-96.01779637014531
 30
0
 11
144.897385620915
 21
-96.01779637014531
 31
0
  0
LINE
  8
1
 62
2
  6
DASHED
 10
136.397385620915
 20
-83.51779637014531
 30
0
 11
136.397385620915
 21
-96.01779637014531
 31
0
  0
LINE
  8
1
 62
2
  6
DASHED
 10
144.897385620915
 20
-96.01779637014531
 30
0
 11
144.897385620915
 21
-83.51779637014531
 31
0
  0
LINE
  8
1
 62
2
  6
DASHDOT
 10
333.647385620915
 20
54.04863015178501
 30
0
 11
333.647385620915
 21
-2.951369848214986
 31
0
  0
LINE
  8
1
 62
7
 10
333.647385620915
 20
2.5
 30
0
 11
310.647385620915
 21
2.5
 31
0
  0
LINE
  8
1
 62
7
 10
314.949618958112
 20
10
 30
0
 11
332.147385620915
 21
10
 31
0
  0
LINE
  8
1
 62
7
 10
304.1851774699621
 20
14.73832021878525
 30
0
 11
303.647385620915
 21
25
 31
0
  0
LINE
  8
1
 62
7
 10
310.647385620915
 20
2.5
 30
0
 11
310.647385620915
 21
7.147852257027523
 31
0
  0
LINE
  8
1
 62
7
 10
310.647385620915
 20
47.49999999999997
 30
0
 11
333.647385620915
 21
47.49999999999997
 31
0
  0
LINE
  8
1
 62
7
 10
332.147385620915
 20
39.99999999999997
 30
0
 11
314.949618958112
 21
39.99999999999997
 31
0
  0
LINE
  8
1
 62
7
 10
303.647385620915
 20
25
 30
0
 11
304.1851774699621
 21
35.2616797812147
 31
0
  0
LINE
  8
1
 62
7
 10
310.647385620915
 20
42.85214774297242
 30
0
 11
310.647385620915
 21
47.49999999999997
 31
0
  0
LINE
  8
1
 62
7
 10
332.147385620915
 20
47.49999999999997
 30
0
 11
332.147385620915
 21
2.5
 31
0
  0
LINE
  8
1
 62
7
 10
311.949618958112
 20
36.99999999999997
 30
0
 11
311.949618958112
 21
13
 31
0
  0
LINE
  8
1
 62
7
 10
314.949618958112
 20
39.99999999999997
 30
0
 11
308.5775755220949
 21
39.99999999999997
 31
0
  0
LINE
  8
1
 62
7
 10
308.5775755220949
 20
10
 30
0
 11
314.949618958112
 21
10
 31
0
  0
LINE
  8
1
 62
7
 10
356.6473856209151
 20
2.5
 30
0
 11
333.647385620915
 21
2.5
 31
0
  0
LINE
  8
1
 62
7
 10
335.1473856209151
 20
10
 30
0
 11
352.3451522837181
 21
10
 31
0
  0
LINE
  8
1
 62
7
 10
363.6473856209151
 20
25
 30
0
 11
363.109593771868
 21
14.73832021878525
 31
0
  0
LINE
  8
1
 62
7
 10
356.6473856209151
 20
7.147852257027523
 30
0
 11
356.6473856209151
 21
2.5
 31
0
  0
LINE
  8
1
 62
7
 10
333.647385620915
 20
47.49999999999997
 30
0
 11
356.6473856209151
 21
47.49999999999997
 31
0
  0
LINE
  8
1
 62
7
 10
352.3451522837181
 20
39.99999999999997
 30
0
 11
335.1473856209151
 21
39.99999999999997
 31
0
  0
LINE
  8
1
 62
7
 10
363.109593771868
 20
35.2616797812147
 30
0
 11
363.6473856209151
 21
25
 31
0
  0
LINE
  8
1
 62
7
 10
356.6473856209151
 20
47.49999999999997
 30
0
 11
356.6473856209151
 21
42.85214774297242
 31
0
  0
LINE
  8
1
 62
7
 10
335.1473856209151
 20
2.5
 30
0
 11
335.1473856209151
 21
47.49999999999997
 31
0
  0
LINE
  8
1
 62
7
 10
355.3451522837181
 20
13
 30
0
 11
355.3451522837181
 21
36.99999999999997
 31
0
  0
LINE
  8
1
 62
7
 10
358.7171957197352
 20
39.99999999999997
 30
0
 11
352.3451522837181
 21
39.99999999999997
 31
0
  0
LINE
  8
1
 62
7
 10
352.3451522837181
 20
10
 30
0
 11
358.7171957197352
 21
10
 31
0
  0
LINE
  8
1
 62
2
  6
DASHDOT
 10
298.551304405205
 20
25
 30
0
 11
369.551304405205
 21
25
 31
0
  0
LINE
  8
1
 62
2
  6
DASHDOT
 10
170.647385620915
 20
-46.29446821152726
 30
0
 11
170.647385620915
 21
-119.2944682115273
 31
0
  0
LINE
  8
1
 62
7
 10
137.647385620915
 20
11.73350083857841
 30
0
 11
147.647385620915
 21
3.000000000000028
 31
0
  0
LINE
  8
1
 62
7
 10
147.647385620915
 20
47
 30
0
 11
137.647385620915
 21
38.26649916142162
 31
0
  0
LINE
  8
1
 62
7
 10
193.647385620915
 20
47
 30
0
 11
213.147385620915
 21
40
 31
0
  0
LINE
  8
1
 62
7
 10
193.647385620915
 20
3.000000000000028
 30
0
 11
213.147385620915
 21
10.00000000000003
 31
0
  0
LINE
  8
1
 62
2
 10
234.647385620915
 20
23.50000000000003
 30
0
 11
234.647385620915
 21
23.00000000000003
 31
0
  0
LINE
  8
1
 62
2
 10
234.647385620915
 20
26.5
 30
0
 11
234.647385620915
 21
27
 31
0
  0
LINE
  8
1
 62
2
  6
DASHDOT
 10
231.709672922987
 20
-82.01779637014531
 30
0
 11
240.557883864168
 21
-82.01779637014531
 31
0
  0
LINE
  8
1
 62
7
 10
210.2806352016258
 20
28.5
 30
0
 11
212.9958548492646
 21
26.5
 31
0
  0
LINE
  8
1
 62
7
 10
212.9958548492646
 20
23.5
 30
0
 11
210.2806352016258
 21
21.5
 31
0
  0
LINE
  8
1
 62
7
 10
212.9958548492646
 20
23.5
 30
0
 11
234.647385620915
 21
23.50000000000003
 31
0
  0
LINE
  8
1
 62
7
 10
234.647385620915
 20
26.5
 30
0
 11
212.9958548492646
 21
26.5
 31
0
  0
LINE
  8
1
 62
2
  6
DASHDOT
 10
179.632234105763
 20
25
 30
0
 11
240.25253984982
 21
25
 31
0
  0
LINE
  8
1
 62
2
  6
DASHDOT
 10
211.897385620915
 20
25
 30
0
 11
195.397385620915
 21
25
 31
0
  0
LINE
  8
1
 62
2
  6
DASHDOT
 10
203.647385620915
 20
33.25
 30
0
 11
203.647385620915
 21
16.75
 31
0
  0
ARC
  8
1
 62
7
 10
144.647385620915
 20
25
 30
0
 40
15
 50
90
 51
180
  0
ARC
  8
1
 62
7
 10
140.647385620915
 20
25
 30
0
 40
7.5
 50
0
 51
180
  0
ARC
  8
1
 62
7
 10
140.647385620915
 20
25
 30
0
 40
4.25
 50
0
 51
180
  0
ARC
  8
1
 62
7
 10
144.647385620915
 20
25
 30
0
 40
15
 50
180
 51
270
  0
ARC
  8
1
 62
7
 10
140.647385620915
 20
25
 30
0
 40
7.5
 50
180
 51
0
  0
ARC
  8
1
 62
7
 10
140.647385620915
 20
25
 30
0
 40
4.25
 50
180
 51
0
  0
ARC
  8
1
 62
7
 10
220.647385620915
 20
-69.51779637014531
 30
0
 40
7.5
 50
0
 51
180
  0
ARC
  8
1
 62
7
 10
220.647385620915
 20
-69.51779637014531
 30
0
 40
7.5
 50
180
 51
0
  0
ARC
  8
1
 62
7
 10
220.647385620915
 20
-69.51779637014531
 30
0
 40
4.25
 50
180
 51
0
  0
ARC
  8
1
 62
7
 10
220.647385620915
 20
-69.51779637014531
 30
0
 40
4.25
 50
0
 51
180
  0
ARC
  8
1
 62
7
 10
220.647385620915
 20
-94.51779637014531
 30
0
 40
7.5
 50
180
 51
0
  0
ARC
  8
1
 62
7
 10
220.647385620915
 20
-94.51779637014531
 30
0
 40
7.5
 50
0
 51
180
  0
ARC
  8
1
 62
7
 10
220.647385620915
 20
-94.51779637014531
 30
0
 40
4.25
 50
0
 51
180
  0
ARC
  8
1
 62
7
 10
220.647385620915
 20
-94.51779637014531
 30
0
 40
4.25
 50
180
 51
0
  0
ARC
  8
1
 62
7
 10
203.647385620915
 20
25
 30
0
 40
7.50000000000001
 50
27.8181392846539
 51
180
  0
ARC
  8
1
 62
7
 10
203.647385620915
 20
25
 30
0
 40
7.5
 50
180
 51
332.1818607153461
  0
POLYLINE
  8
1
 62
7
 66
1
 70
1
  0
VERTEX
  8
1
 10
307.535775524452
 20
32.46991607591851
 30
0
 42
0.0244570373407061
  0
VERTEX
  8
1
 10
307.2368534812794
 20
32.38605814759154
 30
0
 42
0.05762058323220137
  0
VERTEX
  8
1
 10
306.930122385663
 20
32.23923148734252
 30
0
 42
0.004574873016036218
  0
VERTEX
  8
1
 10
306.6278413748007
 20
32.03197841933924
 30
0
 42
0.05694163140542708
  0
VERTEX
  8
1
 10
306.0955008262288
 20
31.49519052838329
 30
0
 42
0.04857892430791369
  0
VERTEX
  8
1
 10
305.8296576399832
 20
31.13120097325122
 30
0
 42
0.002294711222344408
  0
VERTEX
  8
1
 10
305.5816681433828
 20
30.71930892441009
 30
0
 42
0.03355319609416112
  0
VERTEX
  8
1
 10
305.1650616169591
 20
29.82090707264906
 30
0
 42
0.02968887356831407
  0
VERTEX
  8
1
 10
304.9754577338975
 20
29.29032825334664
 30
0
 42
0.0009200463084026476
  0
VERTEX
  8
1
 10
304.8098093594046
 20
28.72924073072128
 30
0
 42
0.02375150422909525
  0
VERTEX
  8
1
 10
304.5577605539284
 20
27.56515107494252
 30
0
 42
0.0222114191940682
  0
VERTEX
  8
1
 10
304.4652436919459
 20
26.93547340775162
 30
0
 42
0.0002476272518013631
  0
VERTEX
  8
1
 10
304.3993474016692
 20
26.29467813807828
 30
0
 42
0.0205544150435715
  0
VERTEX
  8
1
 10
304.3468471081475
 20
24.99999999999999
 30
0
 42
0.02031116895105738
  0
VERTEX
  8
1
 10
304.3993474016691
 20
23.70532186192171
 30
0
 42
0.02044133723448488
  0
VERTEX
  8
1
 10
304.4652436919458
 20
23.06452659224838
 30
0
 42
0.0005368918058390548
  0
VERTEX
  8
1
 10
304.5577605539284
 20
22.43484892505747
 30
0
 42
0.0229079299383393
  0
VERTEX
  8
1
 10
304.8098093594045
 20
21.27075926927871
 30
0
 42
0.02411266566322162
  0
VERTEX
  8
1
 10
304.9754577338974
 20
20.70967174665337
 30
0
 42
0.001473824103030407
  0
VERTEX
  8
1
 10
305.165061616959
 20
20.17909292735096
 30
0
 42
0.0315875472030508
  0
VERTEX
  8
1
 10
305.5816681433831
 20
19.2806910755899
 30
0
 42
0.03474978332117547
  0
VERTEX
  8
1
 10
305.8296576399833
 20
18.86879902674879
 30
0
 42
0.003453795525443939
  0
VERTEX
  8
1
 10
306.0955008262288
 20
18.50480947161673
 30
0
 42
0.0531623013971044
  0
VERTEX
  8
1
 10
306.6278413748007
 20
17.96802158066075
 30
0
 42
0.06094583124339936
  0
VERTEX
  8
1
 10
306.9301223856631
 20
17.76076851265745
 30
0
 42
0.004075538018445569
  0
VERTEX
  8
1
 10
307.2368534812794
 20
17.61394185240843
 30
0
 42
0.08770107155474168
  0
VERTEX
  8
1
 10
307.84415454431
 20
17.50000000000003
 30
0
 42
0.08787533853838804
  0
VERTEX
  8
1
 10
308.4514556073405
 20
17.61394185240843
 30
0
 42
0.08629794705210647
  0
VERTEX
  8
1
 10
308.7581867029568
 20
17.76076851265745
 30
0
 42
0.004574873015985187
  0
VERTEX
  8
1
 10
309.0604677138192
 20
17.96802158066075
 30
0
 42
0.05694163140536104
  0
VERTEX
  8
1
 10
309.5928082623912
 20
18.50480947161672
 30
0
 42
0.04857892430799204
  0
VERTEX
  8
1
 10
309.8586514486367
 20
18.86879902674878
 30
0
 42
0.002294711222548634
  0
VERTEX
  8
1
 10
310.106640945237
 20
19.28069107558989
 30
0
 42
0.03355319609422105
  0
VERTEX
  8
1
 10
310.523247471661
 20
20.17909292735095
 30
0
 42
0.0296888735685924
  0
VERTEX
  8
1
 10
310.7128513547225
 20
20.70967174665336
 30
0
 42
0.0009200463083992066
  0
VERTEX
  8
1
 10
310.8784997292154
 20
21.27075926927871
 30
0
 42
0.02375150422904475
  0
VERTEX
  8
1
 10
311.1305485346916
 20
22.43484892505749
 30
0
 42
0.02221141919033781
  0
VERTEX
  8
1
 10
311.223065396674
 20
23.06452659224839
 30
0
 42
0.0002476272518874492
  0
VERTEX
  8
1
 10
311.2889616869507
 20
23.70532186192171
 30
0
 42
0.02055441504361528
  0
VERTEX
  8
1
 10
311.3414619804725
 20
25
 30
0
 42
0.0203111689511451
  0
VERTEX
  8
1
 10
311.2889616869507
 20
26.29467813807828
 30
0
 42
0.02044133724186902
  0
VERTEX
  8
1
 10
311.223065396674
 20
26.9354734077516
 30
0
 42
0.0005368918058411917
  0
VERTEX
  8
1
 10
311.1305485346915
 20
27.56515107494251
 30
0
 42
0.02290792993829332
  0
VERTEX
  8
1
 10
310.8784997292153
 20
28.72924073072127
 30
0
 42
0.02411266566061016
  0
VERTEX
  8
1
 10
310.7128513547224
 20
29.29032825334664
 30
0
 42
0.001473824103025699
  0
VERTEX
  8
1
 10
310.5232474716609
 20
29.82090707264905
 30
0
 42
0.03158754720304205
  0
VERTEX
  8
1
 10
310.106640945237
 20
30.71930892441012
 30
0
 42
0.03474978332278671
  0
VERTEX
  8
1
 10
309.8586514486368
 20
31.13120097325123
 30
0
 42
0.003453795525541175
  0
VERTEX
  8
1
 10
309.5928082623912
 20
31.4951905283833
 30
0
 42
0.05316230139711712
  0
VERTEX
  8
1
 10
309.0604677138192
 20
32.03197841933925
 30
0
 42
0.06094583124606037
  0
VERTEX
  8
1
 10
308.758186702957
 20
32.23923148734254
 30
0
 42
0.004075538018283574
  0
VERTEX
  8
1
 10
308.4514556073408
 20
32.38605814759158
 30
0
 42
0.08770107155465122
  0
VERTEX
  8
1
 10
307.8441545443099
 20
32.49999999999999
 30
0
  0
VERTEX
  8
1
 10
307.535775524452
 20
32.46991607591851
 30
0
  0
SEQEND
  8
1
  0
POLYLINE
  8
1
 62
7
 66
1
 70
1
  0
VERTEX
  8
1
 10
359.7589957173781
 20
32.46991607591851
 30
0
 42
-0.02445703734060726
  0
VERTEX
  8
1
 10
360.0579177605508
 20
32.38605814759154
 30
0
 42
-0.0576205832321711
  0
VERTEX
  8
1
 10
360.364648856167
 20
32.23923148734252
 30
0
 42
-0.004574873015942574
  0
VERTEX
  8
1
 10
360.6669298670294
 20
32.03197841933924
 30
0
 42
-0.05694163140542708
  0
VERTEX
  8
1
 10
361.1992704156013
 20
31.49519052838329
 30
0
 42
-0.04857892430771078
  0
VERTEX
  8
1
 10
361.465113601847
 20
31.13120097325122
 30
0
 42
-0.002294711222331356
  0
VERTEX
  8
1
 10
361.7131030984472
 20
30.71930892441009
 30
0
 42
-0.0335531960941625
  0
VERTEX
  8
1
 10
362.1297096248711
 20
29.82090707264906
 30
0
 42
-0.02968887357048827
  0
VERTEX
  8
1
 10
362.3193135079326
 20
29.29032825334664
 30
0
 42
-0.000920046308592533
  0
VERTEX
  8
1
 10
362.4849618824254
 20
28.72924073072128
 30
0
 42
-0.02375150422923738
  0
VERTEX
  8
1
 10
362.7370106879017
 20
27.56515107494252
 30
0
 42
-0.0222114191938916
  0
VERTEX
  8
1
 10
362.8295275498842
 20
26.93547340775162
 30
0
 42
-0.0002476272517992227
  0
VERTEX
  8
1
 10
362.8954238401609
 20
26.29467813807828
 30
0
 42
-0.0205544150435715
  0
VERTEX
  8
1
 10
362.9479241336826
 20
24.99999999999999
 30
0
 42
-0.02031116895097025
  0
VERTEX
  8
1
 10
362.895423840161
 20
23.70532186192171
 30
0
 42
-0.02044133722722846
  0
VERTEX
  8
1
 10
362.8295275498842
 20
23.06452659224838
 30
0
 42
-0.0005368918057506713
  0
VERTEX
  8
1
 10
362.7370106879017
 20
22.43484892505747
 30
0
 42
-0.02290792993824735
  0
VERTEX
  8
1
 10
362.4849618824255
 20
21.27075926927871
 30
0
 42
-0.02411266566048442
  0
VERTEX
  8
1
 10
362.3193135079328
 20
20.70967174665337
 30
0
 42
-0.0014738241032204
  0
VERTEX
  8
1
 10
362.1297096248711
 20
20.17909292735096
 30
0
 42
-0.03158754720310111
  0
VERTEX
  8
1
 10
361.7131030984471
 20
19.2806910755899
 30
0
 42
-0.03474978332274028
  0
VERTEX
  8
1
 10
361.4651136018468
 20
18.86879902674879
 30
0
 42
-0.003453795525545806
  0
VERTEX
  8
1
 10
361.1992704156013
 20
18.50480947161673
 30
0
 42
-0.05316230139721069
  0
VERTEX
  8
1
 10
360.6669298670293
 20
17.96802158066075
 30
0
 42
-0.06094583124594351
  0
VERTEX
  8
1
 10
360.364648856167
 20
17.76076851265745
 30
0
 42
-0.004075538018373377
  0
VERTEX
  8
1
 10
360.0579177605508
 20
17.61394185240843
 30
0
 42
-0.08770107155466068
  0
VERTEX
  8
1
 10
359.4506166975201
 20
17.50000000000003
 30
0
 42
-0.08787533853837043
  0
VERTEX
  8
1
 10
358.8433156344896
 20
17.61394185240843
 30
0
 42
-0.08629794705203515
  0
VERTEX
  8
1
 10
358.5365845388733
 20
17.76076851265745
 30
0
 42
-0.004574873016072884
  0
VERTEX
  8
1
 10
358.2343035280109
 20
17.96802158066075
 30
0
 42
-0.05694163140551488
  0
VERTEX
  8
1
 10
357.7019629794389
 20
18.50480947161672
 30
0
 42
-0.04857892430799204
  0
VERTEX
  8
1
 10
357.4361197931934
 20
18.86879902674878
 30
0
 42
-0.002294711222440756
  0
VERTEX
  8
1
 10
357.1881302965931
 20
19.28069107558989
 30
0
 42
-0.03355319609406216
  0
VERTEX
  8
1
 10
356.7715237701692
 20
20.17909292735095
 30
0
 42
-0.02968887357048194
  0
VERTEX
  8
1
 10
356.5819198871076
 20
20.70967174665336
 30
0
 42
-0.0009200463083956802
  0
VERTEX
  8
1
 10
356.4162715126147
 20
21.27075926927871
 30
0
 42
-0.02375150422909251
  0
VERTEX
  8
1
 10
356.1642227071385
 20
22.43484892505749
 30
0
 42
-0.02221141918660902
  0
VERTEX
  8
1
 10
356.0717058451561
 20
23.06452659224839
 30
0
 42
-0.0002476272517986158
  0
VERTEX
  8
1
 10
356.0058095548794
 20
23.70532186192171
 30
0
 42
-0.02055441504352725
  0
VERTEX
  8
1
 10
355.9533092613576
 20
25
 30
0
 42
-0.02031116895101417
  0
VERTEX
  8
1
 10
356.0058095548793
 20
26.29467813807828
 30
0
 42
-0.02044133724195674
  0
VERTEX
  8
1
 10
356.0717058451561
 20
26.9354734077516
 30
0
 42
-0.0005368918056601685
  0
VERTEX
  8
1
 10
356.1642227071386
 20
27.56515107494251
 30
0
 42
-0.02290792993824797
  0
VERTEX
  8
1
 10
356.4162715126149
 20
28.72924073072127
 30
0
 42
-0.02411266566316115
  0
VERTEX
  8
1
 10
356.5819198871077
 20
29.29032825334664
 30
0
 42
-0.001473824103230039
  0
VERTEX
  8
1
 10
356.7715237701692
 20
29.82090707264905
 30
0
 42
-0.03158754720309401
  0
VERTEX
  8
1
 10
357.1881302965932
 20
30.71930892441012
 30
0
 42
-0.03474978332278671
  0
VERTEX
  8
1
 10
357.4361197931934
 20
31.13120097325123
 30
0
 42
-0.003453795525446788
  0
VERTEX
  8
1
 10
357.7019629794388
 20
31.4951905283833
 30
0
 42
-0.05316230139716872
  0
VERTEX
  8
1
 10
358.234303528011
 20
32.03197841933925
 30
0
 42
-0.06094583124597316
  0
VERTEX
  8
1
 10
358.5365845388732
 20
32.23923148734254
 30
0
 42
-0.004075538018427955
  0
VERTEX
  8
1
 10
358.8433156344894
 20
32.38605814759158
 30
0
 42
-0.0877010715546819
  0
VERTEX
  8
1
 10
359.4506166975201
 20
32.49999999999999
 30
0
  0
VERTEX
  8
1
 10
359.7589957173781
 20
32.46991607591851
 30
0
  0
SEQEND
  8
1
  0
ARC
  8
1
 62
7
 10
196.647385620915
 20
43
 30
0
 40
3
 50
180
 51
270
  0
ARC
  8
1
 62
7
 10
144.647385620915
 20
43
 30
0
 40
3
 50
270
 51
0
  0
ARC
  8
1
 62
7
 10
229.1950577670195
 20
35
 30
0
 40
5.000000000000012
 50
2.999999999999967
 51
90
  0
ARC
  8
1
 62
7
 10
196.647385620915
 20
7.000000000000028
 30
0
 40
3.000000000000002
 50
90
 51
180
  0
ARC
  8
1
 62
7
 10
144.647385620915
 20
7.000000000000028
 30
0
 40
3
 50
0
 51
90
  0
ARC
  8
1
 62
7
 10
229.1950577670195
 20
15.00000000000003
 30
0
 40
5
 50
270
 51
356.9999999999999
  0
ARC
  8
1
 62
7
 10
189.647385620915
 20
-63.01779637014531
 30
0
 40
4
 50
0
 51
90
  0
ARC
  8
1
 62
7
 10
151.647385620915
 20
-63.01779637014531
 30
0
 40
4
 50
90
 51
180
  0
ARC
  8
1
 62
7
 10
134.647385620915
 20
-64.52930083728273
 30
0
 40
5.000000000000008
 50
115
 51
180
  0
ARC
  8
1
 62
7
 10
150.7558589341297
 20
-57.01779637014531
 30
0
 40
5
 50
90
 51
115
  0
ARC
  8
1
 62
7
 10
204.989123132978
 20
-57.01779637014531
 30
0
 40
5.000000000000006
 50
75.00000000000016
 51
90
  0
ARC
  8
1
 62
7
 10
229.647385620915
 20
-63.62495789054266
 30
0
 40
5
 50
0
 51
75.00000000000011
  0
ARC
  8
1
 62
7
 10
189.647385620915
 20
-101.0177963701453
 30
0
 40
4
 50
270
 51
0
  0
ARC
  8
1
 62
7
 10
151.647385620915
 20
-101.0177963701453
 30
0
 40
4
 50
180
 51
270
  0
ARC
  8
1
 62
7
 10
134.647385620915
 20
-99.50629190300791
 30
0
 40
5
 50
180
 51
244.9999999999997
  0
ARC
  8
1
 62
7
 10
150.7558589341297
 20
-107.0177963701453
 30
0
 40
5.00000000000004
 50
245.0000000000001
 51
270
  0
ARC
  8
1
 62
7
 10
204.989123132978
 20
-107.0177963701453
 30
0
 40
5
 50
270
 51
285
  0
ARC
  8
1
 62
7
 10
229.647385620915
 20
-100.410634849748
 30
0
 40
4.999999999999945
 50
285.0000000000001
 51
0
  0
ARC
  8
1
 62
7
 10
151.647385620915
 20
-63.01779637014531
 30
0
 40
1
 50
90
 51
180
  0
ARC
  8
1
 62
7
 10
189.647385620915
 20
-63.01779637014531
 30
0
 40
1
 50
0
 51
90
  0
ARC
  8
1
 62
7
 10
189.647385620915
 20
-101.0177963701453
 30
0
 40
1
 50
270
 51
0
  0
ARC
  8
1
 62
7
 10
151.647385620915
 20
-101.0177963701453
 30
0
 40
1
 50
180
 51
270
  0
ARC
  8
1
 62
7
 10
309.178325143735
 20
15
 30
0
 40
4.999999999999986
 50
183.0000000000004
 51
258.9674027861073
  0
ARC
  8
1
 62
7
 10
307.647385620915
 20
7.147852257027523
 30
0
 40
3
 50
0
 51
78.96740278610672
  0
ARC
  8
1
 62
7
 10
309.178325143735
 20
34.99999999999997
 30
0
 40
4.999999999999993
 50
101.0325972138927
 51
176.9999999999999
  0
ARC
  8
1
 62
7
 10
307.647385620915
 20
42.85214774297242
 30
0
 40
2.999999999999985
 50
281.0325972138934
 51
0
  0
ARC
  8
1
 62
7
 10
314.949618958112
 20
36.99999999999997
 30
0
 40
3
 50
90
 51
180
  0
ARC
  8
1
 62
7
 10
314.949618958112
 20
13
 30
0
 40
3
 50
180
 51
270
  0
ARC
  8
1
 62
7
 10
358.1164460980951
 20
15
 30
0
 40
5.000000000000002
 50
281.0325972138933
 51
356.9999999999997
  0
ARC
  8
1
 62
7
 10
359.6473856209151
 20
7.147852257027523
 30
0
 40
3.000000000000004
 50
101.0325972138922
 51
180
  0
ARC
  8
1
 62
7
 10
358.1164460980951
 20
34.99999999999997
 30
0
 40
5.000000000000042
 50
3.000000000000112
 51
78.96740278610668
  0
ARC
  8
1
 62
7
 10
359.6473856209151
 20
42.85214774297242
 30
0
 40
3
 50
180
 51
258.9674027861076
  0
ARC
  8
1
 62
7
 10
352.3451522837181
 20
36.99999999999997
 30
0
 40
3
 50
0
 51
90
  0
ARC
  8
1
 62
7
 10
352.3451522837181
 20
13
 30
0
 40
3
 50
270
 51
0
  0
ARC
  8
1
 62
7
 10
193.147385620915
 20
3.000000000000028
 30
0
 40
0.5
 50
270
 51
0
  0
ARC
  8
1
 62
7
 10
148.147385620915
 20
3.000000000000028
 30
0
 40
0.5
 50
180
 51
270
  0
ARC
  8
1
 62
7
 10
148.147385620915
 20
47
 30
0
 40
0.5
 50
90
 51
180
  0
ARC
  8
1
 62
7
 10
193.147385620915
 20
47
 30
0
 40
0.5
 50
0
 51
90
  0
TEXT
  8
1
 62
2
 10
206.114853255321
 20
-89.12634628961359
 30
0
 40
1.3
  1
MADE IN ITALY
 50
90
 41
0.9
  0
TEXT
  8
1
 62
2
 10
209.582320889727
 20
-87.0600801068168
 30
0
 40
1.5
  1
Part.587
 50
90
 41
0.9
  0
DIMENSION
  8
1
  6
CONTINUOUS
 62
2
  2
*D0
  3
DMST_1
 10
234.647385620915
 20
-132.932698228785
 30
0
 11
202.647385620915
 21
-130.132698228785
 31
0
 12
0
 22
0
 32
0
 70
0
 13
170.647385620915
 23
-46.29446821152726
 33
0
 14
234.647385620915
 24
-63.62495789054266
 34
0
 53
0
  0
DIMENSION
  8
1
  6
CONTINUOUS
 62
2
  2
*D1
  3
DMST_1
 10
170.647385620915
 20
-132.932698228785
 30
0
 11
150.147385620915
 21
-130.132698228785
 31
0
 12
0
 22
0
 32
0
 70
0
 13
129.647385620915
 23
-64.52930083728273
 33
0
 14
170.647385620915
 24
-46.29446821152726
 34
0
 53
0
  0
DIMENSION
  8
1
  6
CONTINUOUS
 62
2
  2
*D2
  3
DMST_1
 10
203.647385620915
 20
58.1269508592183
 30
0
 11
192.438660095068
 21
60.9269508592183
 31
0
 12
0
 22
0
 32
0
 70
0
 13
170.647385620915
 23
53.65594825257899
 33
0
 14
203.647385620915
 24
33.25
 34
0
 53
0
  0
DIMENSION
  8
1
  6
CONTINUOUS
 62
2
  2
*D3
  3
DMST_1
 10
363.647385620915
 20
66.84716788675641
 30
0
 11
333.647385620915
 21
69.64716788675641
 31
0
 12
0
 22
0
 32
0
 70
0
 13
303.647385620915
 23
25
 33
0
 14
363.6473856209151
 24
25
 34
0
 53
0
  0
DIMENSION
  8
1
  6
CONTINUOUS
 62
2
  2
*D4
  3
DMST_1
 10
190.647385620915
 20
-40.106769845942
 30
0
 11
170.647385620915
 21
-37.306769845942
 31
0
 12
0
 22
0
 32
0
 70
0
 13
150.647385620915
 23
-63.01779637014531
 33
0
 14
190.647385620915
 24
-63.01779637014531
 34
0
 53
0
  0
DIMENSION
  8
1
  6
CONTINUOUS
 62
2
  2
*D5
  3
DMST_1
 10
259.984868151
 20
-52.01779637014531
 30
0
 11
257.184868151
 21
-82.01779637014531
 31
0
 12
0
 22
0
 32
0
 70
0
 13
204.989123132978
 23
-112.0177963701453
 33
0
 14
204.989123132978
 24
-52.01779637014531
 34
0
 50
90
 53
0
  0
DIMENSION
  8
1
  6
CONTINUOUS
 62
2
  2
*D6
  3
DMST_1
 10
256.365033440256
 20
10.00000000000002
 30
0
 11
253.565033440256
 21
25.00000000000001
 31
0
 12
0
 22
0
 32
0
 70
0
 13
229.1950577670195
 23
40
 33
0
 14
229.1950577670195
 24
10.00000000000003
 34
0
 50
90
 53
0
  0
DIMENSION
  8
1
  6
CONTINUOUS
 62
2
  2
*D7
  3
DMST_1
 10
263.654289638603
 20
2.500000000000021
 30
0
 11
260.854289638603
 21
25.00000000000001
 31
0
 12
0
 22
0
 32
0
 70
0
 13
193.147385620915
 23
47.5
 33
0
 14
193.147385620915
 24
2.500000000000028
 34
0
 50
90
 53
0
  0
DIMENSION
  8
1
  6
CONTINUOUS
 62
2
  2
*D8
  3
DMST_1
 10
129.647385620915
 20
81.1315276375321
 30
0
 11
177.985241531689
 21
83.9315276375321
 31
0
 12
0
 22
0
 32
0
 70
0
 13
234.647385620915
 23
26.5
 33
0
 14
129.647385620915
 24
25
 34
0
 53
0
  0
DIMENSION
  8
1
  6
CONTINUOUS
 62
2
  2
*D9
  3
DMST_2
 10
209.7493165592442
 20
29.36078419826765
 30
0
 11
187.844372283231
 21
17.1478084015968
 31
0
 12
0
 22
0
 32
0
 70
3
 15
197.5454546825858
 25
20.63921580173236
 35
0
 40
0
 53
0
  0
INSERT
  8
0
  2
LOGO_MARBETT
 10
202.8330827802065
 20
-89.37008084255859
 30
0
  0
ENDSEC
  0
EOF
