0
SECTION
2
HEADER
9
$ACADVER
1
AC1015
9
$DWGCODEPAGE
3
ANSI_1252
9
$EXTMAX
10
210.0000000000
20
297.0000000000
30
0.0000000000
9
$EXTMIN
10
0.0000000000
20
0.0000000000
30
0.0000000000
9
$LIMMIN
10
0.0000000000
20
0.0000000000
9
$LIMMAX
10
210.0000000000
20
297.0000000000
9
$VIEWCTR
10
105.0000000000
20
148.5000000000
9
$VIEWSIZE
40
297.0000000000
9
$CLAYER
8
0
9
$LTSCALE
40
19.3600000000
9
$CELTYPE
6
BYLAYER
9
$DIMSCALE
40
1
9
$DIMASZ
40
3.5000000000
9
$DIMEXO
40
2.2000000000
9
$DIMDLI
40
13.3760000000
9
$DIMEXE
40
6.3360000000
9
$DIMCEN
40
3.1680000000
9
$DIMLFAC
40
1.0000000000
9
$DIMBLK
1
_FILLED
9
$DIMTXT
40
3.5000000000
9
$DIMTOL
70
1
9
$DIMLIM
70
0
9
$DIMTFAC
40
1.0000000000
9
$DIMTP
40
0.0010000000
9
$DIMTM
40
0.0010000000
9
$PDMODE
70
3
9
$PDSIZE
40
0.3125000000
9
$HANDSEED
5
51B
9
$MEASUREMENT
70
1
9
$INSUNITS
70
4
0
ENDSEC
0
SECTION
2
CLASSES
0
CLASS
1
ACDBDICTIONARYWDFLT
2
AcDbDictionaryWithDefault
3
AutoCAD 2000
90
0
280
0
281
0
0
CLASS
1
ACDBPLACEHOLDER
2
AcDbPlaceHolder
3
AutoCAD 2000
90
0
280
0
281
0
0
CLASS
1
LAYOUT
2
AcDbLayout
3
AutoCAD 2000
90
0
280
0
281
0
0
ENDSEC
0
SECTION
2
TABLES
0
TABLE
2
VPORT
5
8
100
AcDbSymbolTable
70
2
0
VPORT
5
1F4
100
AcDbSymbolTableRecord
100
AcDbViewportTableRecord
2
*ACTIVE
70
0
10
0.0
20
0.0
11
1.0
21
1.0
12
105.0000000000
22
148.5000000000
13
0.0
23
0.0
14
1.0
24
1.0
15
0.0
25
0.0
16
0.0
26
0.0
36
1.0
17
0.0
27
0.0
37
0.0
40
297.0000000000
41
0.7070707071
42
50.0
43
0.0
44
0.0
50
0.0
51
0.0
71
0
72
100
73
1
74
1
75
0
76
0
77
0
78
0
0
ENDTAB
0
TABLE
2
LTYPE
5
5
100
AcDbSymbolTable
70
6
0
LTYPE
5
14
100
AcDbSymbolTableRecord
100
AcDbLinetypeTableRecord
2
BYBLOCK
70
0
3

72
65
73
0
40
0.0
0
LTYPE
5
15
100
AcDbSymbolTableRecord
100
AcDbLinetypeTableRecord
2
BYLAYER
70
0
3

72
65
73
0
40
0.0
0
LTYPE
5
16
100
AcDbSymbolTableRecord
100
AcDbLinetypeTableRecord
2
CONTINUOUS
70
64
3
Solid line
72
65
73
0
40
0
0
LTYPE
5
1F5
100
AcDbSymbolTableRecord
100
AcDbLinetypeTableRecord
2
CENTER
70
64
3
____ _ ____ _ ____ _ ____ _ ____ _ ____ _ ____
72
65
73
4
40
0.6
49
0.375
74
0
49
-0.075
74
0
49
0.075
74
0
49
-0.075
74
0
0
LTYPE
5
1F6
100
AcDbSymbolTableRecord
100
AcDbLinetypeTableRecord
2
HIDDEN
70
64
3
- - - - - - - - - - - - - - - - - - - -
72
65
73
2
40
0.2
49
0.1
74
0
49
-0.1
74
0
0
LTYPE
5
1F7
100
AcDbSymbolTableRecord
100
AcDbLinetypeTableRecord
2
PHANTOM
70
64
3
_____ _ _ _____ _ _ _____ _ _ _____
72
65
73
6
40
0.8
49
0.45
74
0
49
-0.05
74
0
49
0.1
74
0
49
-0.05
74
0
49
0.1
74
0
49
-0.05
74
0
0
LTYPE
5
1F8
100
AcDbSymbolTableRecord
100
AcDbLinetypeTableRecord
2
DOT
70
64
3
. . . . . . . . . . . . . . . . . . . .
72
65
73
2
40
0.2
49
0.1
74
0
49
-0.1
74
0
0
LTYPE
5
1F9
100
AcDbSymbolTableRecord
100
AcDbLinetypeTableRecord
2
DASHED
70
64
3
- - - - - - - - - - - - - - - - - - - -
72
65
73
2
40
0.2
49
0.1
74
0
49
-0.1
74
0
0
ENDTAB
0
TABLE
2
LAYER
5
2
100
AcDbSymbolTable
70
36
0
LAYER
5
10
100
AcDbSymbolTableRecord
100
AcDbLayerTableRecord
2
0
70
0
62
7
6
CONTINUOUS
370
-3
390
F
0
LAYER
5
1FA
100
AcDbSymbolTableRecord
100
AcDbLayerTableRecord
2
DEFAULT_1
70
0
62
7
6
CENTER
370
-3
390
F
0
LAYER
5
1FB
100
AcDbSymbolTableRecord
100
AcDbLayerTableRecord
2
DEFAULT_2
70
0
62
8
6
HIDDEN
370
-3
390
F
0
LAYER
5
1FC
100
AcDbSymbolTableRecord
100
AcDbLayerTableRecord
2
DEFAULT_3
70
0
62
7
6
PHANTOM
370
-3
390
F
0
LAYER
5
1FD
100
AcDbSymbolTableRecord
100
AcDbLayerTableRecord
2
_2D_DELETED_OBJS
70
0
62
7
6
CONTINUOUS
370
-3
390
F
0
LAYER
5
1FE
100
AcDbSymbolTableRecord
100
AcDbLayerTableRecord
2
_BLACK_HOLE
70
0
62
7
6
CONTINUOUS
370
-3
390
F
0
LAYER
5
1FF
100
AcDbSymbolTableRecord
100
AcDbLayerTableRecord
2
ASSI
70
0
62
7
6
CONTINUOUS
370
-3
390
F
0
LAYER
5
200
100
AcDbSymbolTableRecord
100
AcDbLayerTableRecord
2
CURVE
70
0
62
7
6
CONTINUOUS
370
-3
390
F
0
LAYER
5
201
100
AcDbSymbolTableRecord
100
AcDbLayerTableRecord
2
PIANI
70
0
62
7
6
CONTINUOUS
370
-3
390
F
0
LAYER
5
202
100
AcDbSymbolTableRecord
100
AcDbLayerTableRecord
2
SURF_FILETTI
70
0
62
7
6
CONTINUOUS
370
-3
390
F
0
ENDTAB
0
TABLE
2
STYLE
5
3
100
AcDbSymbolTable
70
1
0
STYLE
5
11
100
AcDbSymbolTableRecord
100
AcDbTextStyleTableRecord
2
STANDARD
70
0
40
0.0
41
0.7143000000
50
0.0
71
0
42
0.2
3
txt
4

0
ENDTAB
0
TABLE
2
VIEW
5
6
100
AcDbSymbolTable
70
0
0
ENDTAB
0
TABLE
2
UCS
5
7
100
AcDbSymbolTable
70
0
0
ENDTAB
0
TABLE
2
APPID
5
9
100
AcDbSymbolTable
70
1
0
APPID
5
203
100
AcDbSymbolTableRecord
100
AcDbRegAppTableRecord
2
ACAD
70
0
0
ENDTAB
0
TABLE
2
BLOCK_RECORD
5
1
100
AcDbSymbolTable
70
0
0
BLOCK_RECORD
5
1F
100
AcDbSymbolTableRecord
100
AcDbBlockTableRecord
2
*MODEL_SPACE
0
BLOCK_RECORD
5
1B
100
AcDbSymbolTableRecord
100
AcDbBlockTableRecord
2
*PAPER_SPACE
0
BLOCK_RECORD
5
204
100
AcDbSymbolTableRecord
100
AcDbBlockTableRecord
2
_FILLED
0
BLOCK_RECORD
5
205
100
AcDbSymbolTableRecord
100
AcDbBlockTableRecord
2
*D0
0
BLOCK_RECORD
5
206
100
AcDbSymbolTableRecord
100
AcDbBlockTableRecord
2
*D1
0
BLOCK_RECORD
5
207
100
AcDbSymbolTableRecord
100
AcDbBlockTableRecord
2
*D2
0
BLOCK_RECORD
5
208
100
AcDbSymbolTableRecord
100
AcDbBlockTableRecord
2
*D3
0
ENDTAB
0
TABLE
2
DIMSTYLE
5
A
100
AcDbSymbolTable
70
1
100
AcDbDimStyleTable
71
0
0
DIMSTYLE
105
209
100
AcDbSymbolTableRecord
100
AcDbDimStyleTableRecord
2
STANDARD
70
0
3

4

40
1.0
41
3.5000000000
42
0.0625
43
0.38
44
0.18
45
0.0
46
0.0
47
0.0010000000
48
0.0010000000
140
3.5000000000
141
0.09
142
0.0
143
25.4
144
1.0000000000
145
0.0
146
1.0000000000
147
0.09
71
1
72
0
73
0
74
0
75
0
76
0
77
1
78
8
170
0
171
2
172
0
173
0
174
0
175
0
176
0
177
0
178
0
270
2
271
3
272
3
273
2
274
2
275
0
280
0
281
0
282
0
283
1
284
8
285
0
286
0
287
3
288
0
340
11
341
204
342
204
343
204
344
204
0
DIMSTYLE
105
20A
100
AcDbSymbolTableRecord
100
AcDbDimStyleTableRecord
2
DIMSTYLE_1
70
0
3

4

40
1.0
41
3.5000000000
42
0.0625
43
0.38
44
0.18
45
0.0
46
0.0
47
0.1500000000
48
0.1500000000
140
3.5000000000
141
0.09
142
0.0
143
25.4
144
1.0000000000
145
0.0
146
1.0000000000
147
0.09
71
0
72
0
73
0
74
0
75
0
76
0
77
1
78
8
170
0
171
2
172
0
173
0
174
0
175
0
176
0
177
0
178
0
270
2
271
3
272
3
273
2
274
2
275
0
280
0
281
0
282
0
283
1
284
8
285
0
286
0
287
3
288
0
340
11
341
204
342
204
343
204
344
204
0
DIMSTYLE
105
20B
100
AcDbSymbolTableRecord
100
AcDbDimStyleTableRecord
2
DIMSTYLE_2
70
0
3

4

40
1.0
41
3.5000000000
42
0.0625
43
0.38
44
0.18
45
0.0
46
0.0
47
0.1500000000
48
0.1500000000
140
3.5000000000
141
0.09
142
0.0
143
25.4
144
1.0000000000
145
0.0
146
1.0000000000
147
0.09
71
0
72
0
73
0
74
0
75
0
76
0
77
1
78
8
170
0
171
2
172
0
173
0
174
0
175
0
176
0
177
0
178
0
270
2
271
1
272
1
273
2
274
2
275
0
280
0
281
0
282
0
283
1
284
8
285
0
286
0
287
3
288
0
340
11
341
204
342
204
343
204
344
204
0
DIMSTYLE
105
20C
100
AcDbSymbolTableRecord
100
AcDbDimStyleTableRecord
2
DIMSTYLE_3
70
0
3

4

40
1.0
41
3.5000000000
42
0.0625
43
0.38
44
0.18
45
0.0
46
0.0
47
0.1000000000
48
0.1000000000
140
3.5000000000
141
0.09
142
0.0
143
25.4
144
1.0000000000
145
0.0
146
1.0000000000
147
0.09
71
0
72
0
73
0
74
0
75
0
76
0
77
1
78
8
170
0
171
2
172
0
173
0
174
0
175
0
176
0
177
0
178
0
270
2
271
3
272
3
273
2
274
2
275
0
280
0
281
0
282
0
283
1
284
8
285
0
286
0
287
3
288
0
340
11
341
204
342
204
343
204
344
204
0
ENDTAB
0
ENDSEC
0
SECTION
2
BLOCKS
0
BLOCK
5
20
100
AcDbEntity
8
0
100
AcDbBlockBegin
2
*MODEL_SPACE
70
0
10
0.0
20
0.0
30
0.0
3
*MODEL_SPACE
1

0
ENDBLK
5
21
100
AcDbEntity
8
0
100
AcDbBlockEnd
0
BLOCK
5
1C
100
AcDbEntity
8
0
100
AcDbBlockBegin
2
*PAPER_SPACE
70
0
10
0.0
20
0.0
30
0.0
3
*PAPER_SPACE
1

0
ENDBLK
5
1D
100
AcDbEntity
8
0
100
AcDbBlockEnd
0
BLOCK
5
20D
100
AcDbEntity
8
0
100
AcDbBlockBegin
62
2
6
CONTINUOUS
2
*D0
70
65
10
0.0000000000
20
0.0000000000
3
*D0
1

0
TEXT
5
20E
100
AcDbEntity
8
0
100
AcDbText
62
2
6
CONTINUOUS
10
19.6527997238
20
207.1505505193
7
STANDARD
40
3.5000000000
1
115
50
90.0000000000
41
0.7143000000
72
0
100
AcDbText
0
LINE
5
20F
100
AcDbEntity
8
0
100
AcDbLine
62
2
6
CONTINUOUS
10
35.8857895349
20
263.7251978290
11
19.0277997238
21
263.7251978290
0
LINE
5
210
100
AcDbEntity
8
0
100
AcDbLine
62
2
6
CONTINUOUS
10
35.8857531791
20
148.7251978290
11
19.0277997238
21
148.7251978290
0
LINE
5
211
100
AcDbEntity
8
0
100
AcDbLine
62
2
6
CONTINUOUS
10
20.5277997238
20
263.7251978290
11
20.5277997238
21
206.2251978290
0
LINE
5
212
100
AcDbEntity
8
0
100
AcDbLine
62
2
6
CONTINUOUS
10
20.5277997238
20
148.7251978290
11
20.5277997238
21
206.2251978290
0
INSERT
5
213
100
AcDbEntity
8
0
100
AcDbBlockReference
62
2
6
CONTINUOUS
2
_FILLED
10
20.5277997238
20
263.7251978290
41
  3.500000
42
  3.500000
43
  3.500000
50
 90.000000
0
INSERT
5
214
100
AcDbEntity
8
0
100
AcDbBlockReference
62
2
6
CONTINUOUS
2
_FILLED
10
20.5277997238
20
148.7251978290
41
  3.500000
42
  3.500000
43
  3.500000
50
270.000000
0
ENDBLK
5
215
100
AcDbEntity
8
0
6
BYBLOCK
62
0
100
AcDbBlockEnd
0
BLOCK
5
216
100
AcDbEntity
8
0
100
AcDbBlockBegin
62
2
6
CONTINUOUS
2
*D1
70
65
10
0.0000000000
20
0.0000000000
3
*D1
1

0
TEXT
5
217
100
AcDbEntity
8
0
100
AcDbText
62
2
6
CONTINUOUS
10
55.1657732115
20
274.5333955324
7
STANDARD
40
3.5000000000
1
52.4
41
0.7143000000
72
0
100
AcDbText
0
LINE
5
218
100
AcDbEntity
8
0
100
AcDbLine
62
2
6
CONTINUOUS
10
34.9374876864
20
263.2254224207
11
34.9374876864
21
275.1583955324
0
LINE
5
219
100
AcDbEntity
8
0
100
AcDbLine
62
2
6
CONTINUOUS
10
87.3616070831
20
259.6111238257
11
87.3616070831
21
275.1583955324
0
LINE
5
21A
100
AcDbEntity
8
0
100
AcDbLine
62
2
6
CONTINUOUS
10
34.9374876864
20
273.6583955324
11
61.1495473848
21
273.6583955324
0
LINE
5
21B
100
AcDbEntity
8
0
100
AcDbLine
62
2
6
CONTINUOUS
10
87.3616070831
20
273.6583955324
11
61.1495473848
21
273.6583955324
0
INSERT
5
21C
100
AcDbEntity
8
0
100
AcDbBlockReference
62
2
6
CONTINUOUS
2
_FILLED
10
34.9374876864
20
273.6583955324
41
  3.500000
42
  3.500000
43
  3.500000
50
180.000000
0
INSERT
5
21D
100
AcDbEntity
8
0
100
AcDbBlockReference
62
2
6
CONTINUOUS
2
_FILLED
10
87.3616070831
20
273.6583955324
41
  3.500000
42
  3.500000
43
  3.500000
0
ENDBLK
5
21E
100
AcDbEntity
8
0
6
BYBLOCK
62
0
100
AcDbBlockEnd
0
BLOCK
5
21F
100
AcDbEntity
8
0
100
AcDbBlockBegin
62
2
6
CONTINUOUS
2
*D2
70
65
10
0.0000000000
20
0.0000000000
3
*D2
1

0
TEXT
5
220
100
AcDbEntity
8
0
100
AcDbText
62
2
6
CONTINUOUS
10
156.6388515556
20
278.6204725989
7
STANDARD
40
3.5000000000
1
21.4
41
0.7143000000
72
0
100
AcDbText
0
LINE
5
221
100
AcDbEntity
8
0
100
AcDbLine
62
2
6
CONTINUOUS
10
151.0327589786
20
263.2251978290
11
151.0327589786
21
279.2454725989
0
LINE
5
222
100
AcDbEntity
8
0
100
AcDbLine
62
2
6
CONTINUOUS
10
172.4327589786
20
260.7251978282
11
172.4327589786
21
279.2454725989
0
LINE
5
223
100
AcDbEntity
8
0
100
AcDbLine
62
2
6
CONTINUOUS
10
151.0327589786
20
277.7454725989
11
161.7327589786
21
277.7454725989
0
LINE
5
224
100
AcDbEntity
8
0
100
AcDbLine
62
2
6
CONTINUOUS
10
172.4327589786
20
277.7454725989
11
161.7327589786
21
277.7454725989
0
INSERT
5
225
100
AcDbEntity
8
0
100
AcDbBlockReference
62
2
6
CONTINUOUS
2
_FILLED
10
151.0327589786
20
277.7454725989
41
  3.500000
42
  3.500000
43
  3.500000
50
180.000000
0
INSERT
5
226
100
AcDbEntity
8
0
100
AcDbBlockReference
62
2
6
CONTINUOUS
2
_FILLED
10
172.4327589786
20
277.7454725989
41
  3.500000
42
  3.500000
43
  3.500000
0
ENDBLK
5
227
100
AcDbEntity
8
0
6
BYBLOCK
62
0
100
AcDbBlockEnd
0
BLOCK
5
228
100
AcDbEntity
8
0
100
AcDbBlockBegin
62
2
6
CONTINUOUS
2
*D3
70
65
10
0.0000000000
20
0.0000000000
3
*D3
1

0
TEXT
5
229
100
AcDbEntity
8
0
100
AcDbText
62
2
6
CONTINUOUS
10
96.2854393113
20
102.5271267673
7
STANDARD
40
3.5000000000
1
22.25
50
90.0000000000
41
0.7143000000
72
0
100
AcDbText
0
LINE
5
22A
100
AcDbEntity
8
0
100
AcDbLine
62
2
6
CONTINUOUS
10
87.3616070831
20
96.6018448329
11
98.6604393113
21
96.6018448329
0
LINE
5
22B
100
AcDbEntity
8
0
100
AcDbLine
62
2
6
CONTINUOUS
10
80.7616070831
20
118.8518448329
11
98.6604393113
21
118.8518448329
0
LINE
5
22C
100
AcDbEntity
8
0
100
AcDbLine
62
2
6
CONTINUOUS
10
97.1604393113
20
96.6018448329
11
97.1604393113
21
107.7268448329
0
LINE
5
22D
100
AcDbEntity
8
0
100
AcDbLine
62
2
6
CONTINUOUS
10
97.1604393113
20
118.8518448329
11
97.1604393113
21
107.7268448329
0
INSERT
5
22E
100
AcDbEntity
8
0
100
AcDbBlockReference
62
2
6
CONTINUOUS
2
_FILLED
10
97.1604393113
20
96.6018448329
41
  3.500000
42
  3.500000
43
  3.500000
50
270.000000
0
INSERT
5
22F
100
AcDbEntity
8
0
100
AcDbBlockReference
62
2
6
CONTINUOUS
2
_FILLED
10
97.1604393113
20
118.8518448329
41
  3.500000
42
  3.500000
43
  3.500000
50
 90.000000
0
ENDBLK
5
230
100
AcDbEntity
8
0
6
BYBLOCK
62
0
100
AcDbBlockEnd
0
BLOCK
5
231
100
AcDbEntity
8
0
100
AcDbBlockBegin
2
_FILLED
70
64
10
0.0000000000
20
0.0000000000
3
_FILLED
1

0
SOLID
5
232
100
AcDbEntity
8
0
6
BYBLOCK
62
0
100
AcDbTrace
10
0.0000000000
20
0.0000000000
11
-1.0000000000
21
0.1857142857
12
-1.0000000000
22
-0.1857142857
13
-1.0000000000
23
-0.1857142857
0
ENDBLK
5
233
100
AcDbEntity
8
0
6
BYBLOCK
62
0
100
AcDbBlockEnd
0
ENDSEC
0
SECTION
2
ENTITIES
0
DIMENSION
5
234
100
AcDbEntity
8
0
100
AcDbDimension
62
2
6
CONTINUOUS
2
*D0
10
20.5277997238
20
148.7251978290
11
17.9027997238
21
210.9006255193
70
160
42
115.000000
3
DIMSTYLE_1
100
AcDbAlignedDimension
13
35.8857895349
23
263.7251978290
14
35.8857531791
24
148.7251978290
50
270.000000
100
AcDbRotatedDimension
0
DIMENSION
5
235
100
AcDbEntity
8
0
100
AcDbDimension
62
2
6
CONTINUOUS
2
*D1
10
87.3616070831
20
273.6583955324
11
60.1658732115
21
276.2833955324
70
160
42
52.424119
3
DIMSTYLE_2
100
AcDbAlignedDimension
13
34.9374876864
23
263.2254224207
14
87.3616070831
24
259.6111238257
100
AcDbRotatedDimension
0
DIMENSION
5
236
100
AcDbEntity
8
0
100
AcDbDimension
62
2
6
CONTINUOUS
2
*D2
10
172.4327589786
20
277.7454725989
11
161.6389515556
21
280.3704725989
70
160
42
21.400000
3
DIMSTYLE_3
100
AcDbAlignedDimension
13
151.0327589786
23
263.2251978290
14
172.4327589786
24
260.7251978282
100
AcDbRotatedDimension
0
DIMENSION
5
237
100
AcDbEntity
8
0
100
AcDbDimension
62
2
6
CONTINUOUS
2
*D3
10
97.1604393113
20
118.8518448329
11
94.5354393113
21
108.7772517673
70
160
42
22.250000
3
DIMSTYLE_3
100
AcDbAlignedDimension
13
87.3616070831
23
96.6018448329
14
80.7616070831
24
118.8518448329
50
90.000000
100
AcDbRotatedDimension
0
LINE
5
238
100
AcDbEntity
8
0
100
AcDbLine
62
7
6
CONTINUOUS
10
0.0000000000
20
0.0000000000
11
210.0000000000
21
0.0000000000
0
LINE
5
239
100
AcDbEntity
8
0
100
AcDbLine
62
7
6
CONTINUOUS
10
0.0000000000
20
0.0000000000
11
0.0000000000
21
297.0000000000
0
LINE
5
23A
100
AcDbEntity
8
0
100
AcDbLine
62
7
6
CONTINUOUS
10
210.0000000000
20
0.0000000000
11
210.0000000000
21
297.0000000000
0
LINE
5
23B
100
AcDbEntity
8
0
100
AcDbLine
62
7
6
CONTINUOUS
10
0.0000000000
20
297.0000000000
11
210.0000000000
21
297.0000000000
0
LINE
5
23C
100
AcDbEntity
8
0
100
AcDbLine
62
7
6
CONTINUOUS
10
36.3857895120
20
114.6720771911
11
36.2155981576
21
114.2019336993
0
LINE
5
23D
100
AcDbEntity
8
0
100
AcDbLine
62
7
6
CONTINUOUS
10
63.3457668872
20
96.6018448329
11
88.0616070831
21
96.6018448329
0
LINE
5
23E
100
AcDbEntity
8
0
100
AcDbLine
62
7
6
CONTINUOUS
10
63.3457668872
20
97.1018448329
11
70.7116070831
21
97.1018448329
0
LINE
5
23F
100
AcDbEntity
8
0
100
AcDbLine
62
7
6
CONTINUOUS
10
77.2116070831
20
97.1018448329
11
88.5616070831
21
97.1018448329
0
LINE
5
240
100
AcDbEntity
8
0
100
AcDbLine
62
7
6
CONTINUOUS
10
68.7116070831
20
100.1018448329
11
79.2116070831
21
100.1018448329
0
LINE
5
241
100
AcDbEntity
8
DEFAULT_1
100
AcDbLine
62
2
6
CENTER
10
55.0616070831
20
113.6018448329
11
55.0616070831
21
108.7268448329
0
LINE
5
242
100
AcDbEntity
8
DEFAULT_1
100
AcDbLine
62
2
6
CENTER
10
55.0616070831
20
113.6018448329
11
55.0616070831
21
118.4768448329
0
LINE
5
243
100
AcDbEntity
8
0
100
AcDbLine
62
7
6
CONTINUOUS
10
68.2116070831
20
100.6018448329
11
79.7116070831
21
100.6018448329
0
LINE
5
244
100
AcDbEntity
8
0
100
AcDbLine
62
7
6
CONTINUOUS
10
68.2116070831
20
103.6018448329
11
79.7116070831
21
103.6018448329
0
LINE
5
245
100
AcDbEntity
8
0
100
AcDbLine
62
7
6
CONTINUOUS
10
79.2116070831
20
104.1018448329
11
68.7116070831
21
104.1018448329
0
LINE
5
246
100
AcDbEntity
8
0
100
AcDbLine
62
7
6
CONTINUOUS
10
62.6316070831
20
117.0018448329
11
62.6316070831
21
118.0018448329
0
LINE
5
247
100
AcDbEntity
8
0
100
AcDbLine
62
7
6
CONTINUOUS
10
63.3457668872
20
97.1018448329
11
63.3457668872
21
96.6018448329
0
LINE
5
248
100
AcDbEntity
8
DEFAULT_1
100
AcDbLine
62
2
6
CENTER
10
67.6616070831
20
113.6018448329
11
67.6616070831
21
108.7268448329
0
LINE
5
249
100
AcDbEntity
8
DEFAULT_1
100
AcDbLine
62
2
6
CENTER
10
67.6616070831
20
113.6018448329
11
67.6616070831
21
118.4768448329
0
LINE
5
24A
100
AcDbEntity
8
DEFAULT_1
100
AcDbLine
62
2
6
CENTER
10
80.2616070831
20
113.6018448329
11
75.3866070831
21
113.6018448329
0
LINE
5
24B
100
AcDbEntity
8
DEFAULT_1
100
AcDbLine
62
2
6
CENTER
10
67.6616070831
20
113.6018448329
11
62.7866070831
21
113.6018448329
0
LINE
5
24C
100
AcDbEntity
8
DEFAULT_1
100
AcDbLine
62
2
6
CENTER
10
55.0616070831
20
113.6018448329
11
50.1866070831
21
113.6018448329
0
LINE
5
24D
100
AcDbEntity
8
DEFAULT_1
100
AcDbLine
62
2
6
CENTER
10
55.0616070831
20
113.6018448329
11
59.9366070831
21
113.6018448329
0
LINE
5
24E
100
AcDbEntity
8
DEFAULT_1
100
AcDbLine
62
2
6
CENTER
10
67.6616070831
20
113.6018448329
11
72.5366070831
21
113.6018448329
0
LINE
5
24F
100
AcDbEntity
8
DEFAULT_1
100
AcDbLine
62
2
6
CENTER
10
80.2616070831
20
113.6018448329
11
85.1366070831
21
113.6018448329
0
LINE
5
250
100
AcDbEntity
8
0
100
AcDbLine
62
7
6
CONTINUOUS
10
68.2116070831
20
103.6018448329
11
68.2116070831
21
100.6018448329
0
LINE
5
251
100
AcDbEntity
8
0
100
AcDbLine
62
7
6
CONTINUOUS
10
68.4616070831
20
100.6018448329
11
68.4616070831
21
103.6018448329
0
LINE
5
252
100
AcDbEntity
8
0
100
AcDbLine
62
7
6
CONTINUOUS
10
70.7116070831
20
96.6018448329
11
70.7116070831
21
100.1018448329
0
LINE
5
253
100
AcDbEntity
8
0
100
AcDbLine
62
7
6
CONTINUOUS
10
62.9843700198
20
96.7563129180
11
63.3457668872
21
97.1018448329
0
LINE
5
254
100
AcDbEntity
8
0
100
AcDbLine
62
7
6
CONTINUOUS
10
86.8616070831
20
116.1124770139
11
87.3616070831
21
116.1124770139
0
LINE
5
255
100
AcDbEntity
8
0
100
AcDbLine
62
7
6
CONTINUOUS
10
88.5616070831
20
116.5018448329
11
87.3616070831
21
116.5018448329
0
LINE
5
256
100
AcDbEntity
8
0
100
AcDbLine
62
7
6
CONTINUOUS
10
88.0616070831
20
117.0018448329
11
87.2017943138
21
117.0018448329
0
LINE
5
257
100
AcDbEntity
8
0
100
AcDbLine
62
7
6
CONTINUOUS
10
81.1166090847
20
117.0018448329
11
62.6316070831
21
117.0018448329
0
LINE
5
258
100
AcDbEntity
8
0
100
AcDbLine
62
7
6
CONTINUOUS
10
81.1166090847
20
118.0018448329
11
62.6316070831
21
118.0018448329
0
LINE
5
259
100
AcDbEntity
8
DEFAULT_1
100
AcDbLine
62
2
6
CENTER
10
73.9616070831
20
106.9593595749
11
73.9616070831
21
103.6018448329
0
LINE
5
25A
100
AcDbEntity
8
DEFAULT_1
100
AcDbLine
62
2
6
CENTER
10
73.9616070831
20
100.6018448329
11
73.9616070831
21
93.6018448329
0
LINE
5
25B
100
AcDbEntity
8
0
100
AcDbLine
62
7
6
CONTINUOUS
10
73.9616070831
20
100.6018448329
11
73.9616070831
21
103.6018448329
0
LINE
5
25C
100
AcDbEntity
8
0
100
AcDbLine
62
7
6
CONTINUOUS
10
77.2116070831
20
96.6018448329
11
77.2116070831
21
100.1018448329
0
LINE
5
25D
100
AcDbEntity
8
0
100
AcDbLine
62
7
6
CONTINUOUS
10
79.4616070831
20
103.6018448329
11
79.4616070831
21
100.6018448329
0
LINE
5
25E
100
AcDbEntity
8
0
100
AcDbLine
62
7
6
CONTINUOUS
10
79.7116070831
20
103.6018448329
11
79.7116070831
21
100.6018448329
0
LINE
5
25F
100
AcDbEntity
8
DEFAULT_1
100
AcDbLine
62
2
6
CENTER
10
80.2616070831
20
113.6018448329
11
80.2616070831
21
108.7268448329
0
LINE
5
260
100
AcDbEntity
8
DEFAULT_1
100
AcDbLine
62
2
6
CENTER
10
80.2616070831
20
113.6018448329
11
80.2616070831
21
118.4768448329
0
LINE
5
261
100
AcDbEntity
8
0
100
AcDbLine
62
7
6
CONTINUOUS
10
81.1166090847
20
117.0018448329
11
81.1166090847
21
118.0018448329
0
LINE
5
262
100
AcDbEntity
8
0
100
AcDbLine
62
7
6
CONTINUOUS
10
86.8616070831
20
96.6018448329
11
86.8616070831
21
116.1124770139
0
LINE
5
263
100
AcDbEntity
8
0
100
AcDbLine
62
7
6
CONTINUOUS
10
87.3616070831
20
97.1018448329
11
87.3616070831
21
116.6363557735
0
LINE
5
264
100
AcDbEntity
8
0
100
AcDbLine
62
7
6
CONTINUOUS
10
87.8905970114
20
116.5018448329
11
87.8905970114
21
97.1018448329
0
LINE
5
265
100
AcDbEntity
8
0
100
AcDbLine
62
7
6
CONTINUOUS
10
88.5616070831
20
116.5018448329
11
88.5616070831
21
97.1018448329
0
LINE
5
266
100
AcDbEntity
8
0
100
AcDbLine
62
7
6
CONTINUOUS
10
36.2155981579
20
149.2251978290
11
70.7116070831
21
149.2251978290
0
LINE
5
267
100
AcDbEntity
8
0
100
AcDbLine
62
7
6
CONTINUOUS
10
77.2116070831
20
149.2251978290
11
85.7616070831
21
149.2251978290
0
LINE
5
268
100
AcDbEntity
8
0
100
AcDbLine
62
7
6
CONTINUOUS
10
34.9374876864
20
149.7251978289
11
35.2740218771
21
149.7251978290
0
LINE
5
269
100
AcDbEntity
8
0
100
AcDbLine
62
7
6
CONTINUOUS
10
88.0616070831
20
150.9201551765
11
88.5616070831
21
150.9201551765
0
LINE
5
26A
100
AcDbEntity
8
0
100
AcDbLine
62
7
6
CONTINUOUS
10
85.2616070831
20
150.9395682277
11
85.7616070831
21
150.9395682283
0
LINE
5
26B
100
AcDbEntity
8
0
100
AcDbLine
62
7
6
CONTINUOUS
10
62.0026244116
20
151.2251978290
11
58.2981167009
21
151.2251978290
0
LINE
5
26C
100
AcDbEntity
8
0
100
AcDbLine
62
7
6
CONTINUOUS
10
39.2090035638
20
151.2251978290
11
42.8440695050
21
151.2251978290
0
LINE
5
26D
100
AcDbEntity
8
0
100
AcDbLine
62
7
6
CONTINUOUS
10
62.9843410979
20
151.6221437648
11
63.3457640560
21
151.6221728938
0
LINE
5
26E
100
AcDbEntity
8
0
100
AcDbLine
62
7
6
CONTINUOUS
10
62.3570088104
20
151.7251978290
11
58.6260403303
21
151.7251978290
0
LINE
5
26F
100
AcDbEntity
8
0
100
AcDbLine
62
7
6
CONTINUOUS
10
43.0616070831
20
151.7251978290
11
39.4005763852
21
151.7251978290
0
LINE
5
270
100
AcDbEntity
8
0
100
AcDbLine
62
7
6
CONTINUOUS
10
85.2616070831
20
148.7251978290
11
36.3847393919
21
148.7251983472
0
LINE
5
271
100
AcDbEntity
8
0
100
AcDbLine
62
7
6
CONTINUOUS
10
57.1296527787
20
152.2251978290
11
63.5511568987
21
152.2251978290
0
LINE
5
272
100
AcDbEntity
8
0
100
AcDbLine
62
7
6
CONTINUOUS
10
43.8369773065
20
152.2251978290
11
36.6774441891
21
152.2251977953
0
LINE
5
273
100
AcDbEntity
8
0
100
AcDbLine
62
7
6
CONTINUOUS
10
85.2616070831
20
152.9108274304
11
85.7616070831
21
152.9108274304
0
LINE
5
274
100
AcDbEntity
8
0
100
AcDbLine
62
7
6
CONTINUOUS
10
88.0616070831
20
152.9302404816
11
88.5616070831
21
152.9302404816
0
LINE
5
275
100
AcDbEntity
8
0
100
AcDbLine
62
7
6
CONTINUOUS
10
51.0616070831
20
153.6251978290
11
48.5616070831
21
153.6251978290
0
LINE
5
276
100
AcDbEntity
8
0
100
AcDbLine
62
7
6
CONTINUOUS
10
52.0616070831
20
155.1251978290
11
53.4112609682
21
155.1251978290
0
LINE
5
277
100
AcDbEntity
8
0
100
AcDbLine
62
7
6
CONTINUOUS
10
50.5616070831
20
255.6751978290
11
51.1616070831
21
256.0251978290
0
LINE
5
278
100
AcDbEntity
8
0
100
AcDbLine
62
7
6
CONTINUOUS
10
51.1616070831
20
156.4251978290
11
53.4112609682
21
156.4251978290
0
LINE
5
279
100
AcDbEntity
8
0
100
AcDbLine
62
7
6
CONTINUOUS
10
71.0089197787
20
156.4251978290
11
71.5616070831
21
156.4251978290
0
LINE
5
27A
100
AcDbEntity
8
0
100
AcDbLine
62
7
6
CONTINUOUS
10
76.3616070831
20
156.4251978290
11
76.9142943875
21
156.4251978290
0
LINE
5
27B
100
AcDbEntity
8
0
100
AcDbLine
62
7
6
CONTINUOUS
10
49.8116070831
20
156.7751978290
11
53.4112609682
21
156.7751978290
0
LINE
5
27C
100
AcDbEntity
8
0
100
AcDbLine
62
7
6
CONTINUOUS
10
70.9716464255
20
156.7751978290
11
72.9116070831
21
156.7751978290
0
LINE
5
27D
100
AcDbEntity
8
0
100
AcDbLine
62
7
6
CONTINUOUS
10
75.0116070831
20
156.7751978290
11
76.9515677407
21
156.7751978290
0
LINE
5
27E
100
AcDbEntity
8
DEFAULT_1
100
AcDbLine
62
2
6
CENTER
10
73.9616070831
20
156.9251978290
11
70.9615070831
21
156.9251978290
0
LINE
5
27F
100
AcDbEntity
8
DEFAULT_1
100
AcDbLine
62
2
6
CENTER
10
73.9616070831
20
156.9251978290
11
76.9617070831
21
156.9251978290
0
LINE
5
280
100
AcDbEntity
8
DEFAULT_1
100
AcDbLine
62
2
6
CENTER
10
73.9616070831
20
157.9251978290
11
70.9615070831
21
157.9251978290
0
LINE
5
281
100
AcDbEntity
8
DEFAULT_1
100
AcDbLine
62
2
6
CENTER
10
73.9616070831
20
157.9251978290
11
76.9617070831
21
157.9251978290
0
LINE
5
282
100
AcDbEntity
8
0
100
AcDbLine
62
7
6
CONTINUOUS
10
51.1616070831
20
156.4251978290
11
50.5616070831
21
156.7751978290
0
LINE
5
283
100
AcDbEntity
8
0
100
AcDbLine
62
7
6
CONTINUOUS
10
62.9529630692
20
260.5267037144
11
63.3457666611
21
260.8282118976
0
LINE
5
284
100
AcDbEntity
8
0
100
AcDbLine
62
7
6
CONTINUOUS
10
85.2616070831
20
161.9219206025
11
85.7616070831
21
161.9219205982
0
LINE
5
285
100
AcDbEntity
8
0
100
AcDbLine
62
7
6
CONTINUOUS
10
86.8616070831
20
162.3392718324
11
87.3616070831
21
162.3392718324
0
LINE
5
286
100
AcDbEntity
8
0
100
AcDbLine
62
7
6
CONTINUOUS
10
49.8116070831
20
164.3751978290
11
53.4112609682
21
164.3751978290
0
LINE
5
287
100
AcDbEntity
8
0
100
AcDbLine
62
7
6
CONTINUOUS
10
86.0300111117
20
151.1275067518
11
87.8905970114
21
150.4503088661
0
LINE
5
288
100
AcDbEntity
8
0
100
AcDbLine
62
7
6
CONTINUOUS
10
86.2010211834
20
151.5973530622
11
88.0616070831
21
150.9201551765
0
LINE
5
289
100
AcDbEntity
8
0
100
AcDbLine
62
7
6
CONTINUOUS
10
62.9529687608
20
151.9236958715
11
63.3457618612
21
151.6221731609
0
LINE
5
28A
100
AcDbEntity
8
0
100
AcDbLine
62
7
6
CONTINUOUS
10
50.5616070831
20
247.3751978290
11
51.1616070831
21
247.7251978290
0
LINE
5
28B
100
AcDbEntity
8
0
100
AcDbLine
62
7
6
CONTINUOUS
10
86.6905970114
20
259.5809701361
11
85.0326171547
21
258.9775148192
0
LINE
5
28C
100
AcDbEntity
8
0
100
AcDbLine
62
7
6
CONTINUOUS
10
86.8616070831
20
259.1111238257
11
85.2036272264
21
258.5076685088
0
LINE
5
28D
100
AcDbEntity
8
0
100
AcDbLine
62
7
6
CONTINUOUS
10
51.1616070831
20
164.7251978290
11
53.4112609682
21
164.7251978290
0
LINE
5
28E
100
AcDbEntity
8
0
100
AcDbLine
62
7
6
CONTINUOUS
10
49.8116070831
20
165.0751978290
11
53.4112609682
21
165.0751978290
0
LINE
5
28F
100
AcDbEntity
8
0
100
AcDbLine
62
7
6
CONTINUOUS
10
79.7616070831
20
165.8213625708
11
82.2616070831
21
165.8213625708
0
LINE
5
290
100
AcDbEntity
8
0
100
AcDbLine
62
7
6
CONTINUOUS
10
66.6316070831
20
166.4314013443
11
69.1316070831
21
166.4314013443
0
LINE
5
291
100
AcDbEntity
8
0
100
AcDbLine
62
7
6
CONTINUOUS
10
51.1616070831
20
164.7251978290
11
50.5616070831
21
165.0751978290
0
LWPOLYLINE
5
292
100
AcDbEntity
8
0
100
AcDbPolyline
62
7
6
CONTINUOUS
90
12
70
0
10
34.9463616784
20
149.6093176309
10
34.9827528888
20
149.4656361743
10
35.0475632766
20
149.3268430383
10
35.1394537377
20
149.1977562582
10
35.2583942885
20
149.0797471476
10
35.3983528449
20
148.9783537980
10
35.5570345379
20
148.8934947185
10
35.7315628453
20
148.8254858467
10
35.9201099988
20
148.7744019796
10
36.1231917849
20
148.7405333744
10
36.3409818711
20
148.7256391439
10
36.3846980080
20
148.7251974325
0
LINE
5
293
100
AcDbEntity
8
0
100
AcDbLine
62
7
6
CONTINUOUS
10
75.7616070831
20
255.6751978290
11
76.3616070831
21
256.0251978290
0
LINE
5
294
100
AcDbEntity
8
0
100
AcDbLine
62
7
6
CONTINUOUS
10
50.5616070831
20
239.0751978290
11
51.1616070831
21
239.4251978290
0
LINE
5
295
100
AcDbEntity
8
0
100
AcDbLine
62
7
6
CONTINUOUS
10
49.8116070831
20
172.6751978290
11
53.4112609682
21
172.6751978290
0
LINE
5
296
100
AcDbEntity
8
0
100
AcDbLine
62
7
6
CONTINUOUS
10
76.3616070831
20
156.4251978290
11
75.7616070831
21
156.7751978290
0
LINE
5
297
100
AcDbEntity
8
0
100
AcDbLine
62
7
6
CONTINUOUS
10
51.1616070831
20
173.0251978290
11
50.5616070831
21
173.3751978290
0
LINE
5
298
100
AcDbEntity
8
0
100
AcDbLine
62
7
6
CONTINUOUS
10
34.9374887809
20
149.7251978289
11
34.9463616784
21
149.6093176309
0
LINE
5
299
100
AcDbEntity
8
0
100
AcDbLine
62
7
6
CONTINUOUS
10
51.1616070831
20
173.0251978290
11
53.4112609682
21
173.0251978290
0
LINE
5
29A
100
AcDbEntity
8
0
100
AcDbLine
62
7
6
CONTINUOUS
10
49.8116070831
20
173.3751978290
11
53.4112609682
21
173.3751978290
0
LINE
5
29B
100
AcDbEntity
8
0
100
AcDbLine
62
7
6
CONTINUOUS
10
86.0300111117
20
162.1098591267
11
86.6905970114
21
161.8694255220
0
LINE
5
29C
100
AcDbEntity
8
0
100
AcDbLine
62
7
6
CONTINUOUS
10
86.2010211834
20
162.5797054371
11
86.8616070831
21
162.3392718324
0
LINE
5
29D
100
AcDbEntity
8
0
100
AcDbLine
62
7
6
CONTINUOUS
10
34.9374876864
20
149.7251978289
11
34.9374876864
21
262.7254175208
0
LINE
5
29E
100
AcDbEntity
8
0
100
AcDbLine
62
7
6
CONTINUOUS
10
35.2740218771
20
149.7251978290
11
35.2740218771
21
262.7251978290
0
LINE
5
29F
100
AcDbEntity
8
0
100
AcDbLine
62
7
6
CONTINUOUS
10
36.6774441527
20
260.2251978290
11
36.6774441891
21
152.2251977953
0
LINE
5
2A0
100
AcDbEntity
8
0
100
AcDbLine
62
7
6
CONTINUOUS
10
36.8509344067
20
260.2251978290
11
36.8509344067
21
152.2251978290
0
LINE
5
2A1
100
AcDbEntity
8
0
100
AcDbLine
62
7
6
CONTINUOUS
10
50.5616070831
20
230.7751978290
11
51.1616070831
21
231.1251978290
0
LINE
5
2A2
100
AcDbEntity
8
0
100
AcDbLine
62
7
6
CONTINUOUS
10
49.8116070831
20
180.9751978290
11
53.4112609682
21
180.9751978290
0
LINE
5
2A3
100
AcDbEntity
8
0
100
AcDbLine
62
7
6
CONTINUOUS
10
51.1616070831
20
181.3251978290
11
53.4112609682
21
181.3251978290
0
LINE
5
2A4
100
AcDbEntity
8
0
100
AcDbLine
62
7
6
CONTINUOUS
10
51.1616070831
20
181.3251978290
11
50.5616070831
21
181.6751978290
0
LINE
5
2A5
100
AcDbEntity
8
0
100
AcDbLine
62
7
6
CONTINUOUS
10
49.8116070831
20
181.6751978290
11
53.4112609682
21
181.6751978290
0
LINE
5
2A6
100
AcDbEntity
8
0
100
AcDbLine
62
7
6
CONTINUOUS
10
86.8616070831
20
184.5111238257
11
87.3616070831
21
184.5111238257
0
LINE
5
2A7
100
AcDbEntity
8
0
100
AcDbLine
62
7
6
CONTINUOUS
10
85.2616070831
20
184.9284750556
11
85.7616070831
21
184.9284750556
0
LINE
5
2A8
100
AcDbEntity
8
0
100
AcDbLine
62
7
6
CONTINUOUS
10
42.5616070831
20
151.7251978290
11
42.5616070831
21
260.7251978290
0
LINE
5
2A9
100
AcDbEntity
8
0
100
AcDbLine
62
7
6
CONTINUOUS
10
43.5616070831
20
152.2251978290
11
43.5616070831
21
260.2251978290
0
LINE
5
2AA
100
AcDbEntity
8
0
100
AcDbLine
62
7
6
CONTINUOUS
10
43.8369773065
20
152.2251978290
11
43.8369772988
21
260.2251977644
0
LINE
5
2AB
100
AcDbEntity
8
0
100
AcDbLine
62
7
6
CONTINUOUS
10
50.5616070831
20
222.4751978290
11
51.1616070831
21
222.8251978290
0
LINE
5
2AC
100
AcDbEntity
8
0
100
AcDbLine
62
7
6
CONTINUOUS
10
49.8116070831
20
189.2751978290
11
53.4112609682
21
189.2751978290
0
LINE
5
2AD
100
AcDbEntity
8
0
100
AcDbLine
62
7
6
CONTINUOUS
10
51.1616070831
20
189.6251978290
11
53.4112609682
21
189.6251978290
0
LINE
5
2AE
100
AcDbEntity
8
0
100
AcDbLine
62
7
6
CONTINUOUS
10
51.1616070831
20
189.6251978290
11
50.5616070831
21
189.9751978290
0
LINE
5
2AF
100
AcDbEntity
8
0
100
AcDbLine
62
7
6
CONTINUOUS
10
47.5616070831
20
154.6251978290
11
47.5616070831
21
257.8251978290
0
LINE
5
2B0
100
AcDbEntity
8
0
100
AcDbLine
62
7
6
CONTINUOUS
10
69.1316070831
20
246.0189943138
11
70.3391070831
21
248.2080451926
0
LINE
5
2B1
100
AcDbEntity
8
0
100
AcDbLine
62
7
6
CONTINUOUS
10
50.5616070831
20
214.1751978290
11
51.1616070831
21
214.5251978290
0
LINE
5
2B2
100
AcDbEntity
8
0
100
AcDbLine
62
7
6
CONTINUOUS
10
49.8116070831
20
189.9751978290
11
53.4112609682
21
189.9751978290
0
LINE
5
2B3
100
AcDbEntity
8
0
100
AcDbLine
62
7
6
CONTINUOUS
10
51.1616070831
20
197.9251978290
11
50.5616070831
21
198.2751978290
0
LINE
5
2B4
100
AcDbEntity
8
0
100
AcDbLine
62
7
6
CONTINUOUS
10
70.3391070812
20
164.2423504682
11
69.1316070831
21
166.4314013443
0
LINE
5
2B5
100
AcDbEntity
8
0
100
AcDbLine
62
7
6
CONTINUOUS
10
49.8116070831
20
156.7751978290
11
49.8116070831
21
164.3751978290
0
LINE
5
2B6
100
AcDbEntity
8
0
100
AcDbLine
62
7
6
CONTINUOUS
10
49.8116070831
20
165.0751978290
11
49.8116070831
21
172.6751978290
0
LINE
5
2B7
100
AcDbEntity
8
0
100
AcDbLine
62
7
6
CONTINUOUS
10
49.8116070831
20
173.3751978290
11
49.8116070831
21
180.9751978290
0
LINE
5
2B8
100
AcDbEntity
8
0
100
AcDbLine
62
7
6
CONTINUOUS
10
49.8116070831
20
181.6751978290
11
49.8116070831
21
189.2751978290
0
LINE
5
2B9
100
AcDbEntity
8
0
100
AcDbLine
62
7
6
CONTINUOUS
10
49.8116070831
20
189.9751978290
11
49.8116070831
21
197.5751978290
0
LINE
5
2BA
100
AcDbEntity
8
0
100
AcDbLine
62
7
6
CONTINUOUS
10
49.8116070831
20
198.2751978290
11
49.8116070831
21
205.8751978290
0
LINE
5
2BB
100
AcDbEntity
8
0
100
AcDbLine
62
7
6
CONTINUOUS
10
49.8116070831
20
206.5751978290
11
49.8116070831
21
214.1751978290
0
LINE
5
2BC
100
AcDbEntity
8
0
100
AcDbLine
62
7
6
CONTINUOUS
10
49.8116070831
20
214.8751978290
11
49.8116070831
21
222.4751978290
0
LINE
5
2BD
100
AcDbEntity
8
0
100
AcDbLine
62
7
6
CONTINUOUS
10
49.8116070831
20
223.1751978290
11
49.8116070831
21
230.7751978290
0
LINE
5
2BE
100
AcDbEntity
8
0
100
AcDbLine
62
7
6
CONTINUOUS
10
49.8116070831
20
231.4751978290
11
49.8116070831
21
239.0751978290
0
LINE
5
2BF
100
AcDbEntity
8
0
100
AcDbLine
62
7
6
CONTINUOUS
10
49.8116070831
20
239.7751978290
11
49.8116070831
21
247.3751978290
0
LINE
5
2C0
100
AcDbEntity
8
0
100
AcDbLine
62
7
6
CONTINUOUS
10
49.8116070831
20
248.0751978290
11
49.8116070831
21
255.6751978290
0
LINE
5
2C1
100
AcDbEntity
8
0
100
AcDbLine
62
7
6
CONTINUOUS
10
51.5616070831
20
258.3251978290
11
51.5616070831
21
257.8251978290
0
LINE
5
2C2
100
AcDbEntity
8
0
100
AcDbLine
62
7
6
CONTINUOUS
10
51.5616070831
20
154.1251978290
11
51.5616070831
21
154.6251978290
0
LINE
5
2C3
100
AcDbEntity
8
0
100
AcDbLine
62
7
6
CONTINUOUS
10
53.0616070831
20
257.3251978290
11
53.0616070831
21
256.0251978290
0
LINE
5
2C4
100
AcDbEntity
8
0
100
AcDbLine
62
7
6
CONTINUOUS
10
53.0616070831
20
156.4251978290
11
53.0616070831
21
155.1251978290
0
LINE
5
2C5
100
AcDbEntity
8
0
100
AcDbLine
62
7
6
CONTINUOUS
10
53.4112609682
20
155.1251978290
11
53.4112609682
21
257.3251978290
0
LINE
5
2C6
100
AcDbEntity
8
0
100
AcDbLine
62
7
6
CONTINUOUS
10
86.6905970114
20
227.4809701361
11
86.0300111117
21
227.2405365314
0
LINE
5
2C7
100
AcDbEntity
8
0
100
AcDbLine
62
7
6
CONTINUOUS
10
86.8616070831
20
227.0111238257
11
86.2010211834
21
226.7706902210
0
LINE
5
2C8
100
AcDbEntity
8
0
100
AcDbLine
62
7
6
CONTINUOUS
10
49.8116070831
20
197.5751978290
11
53.4112609682
21
197.5751978290
0
LINE
5
2C9
100
AcDbEntity
8
0
100
AcDbLine
62
7
6
CONTINUOUS
10
51.1616070831
20
197.9251978290
11
53.4112609682
21
197.9251978290
0
LINE
5
2CA
100
AcDbEntity
8
0
100
AcDbLine
62
7
6
CONTINUOUS
10
49.8116070831
20
198.2751978290
11
53.4112609682
21
198.2751978290
0
LINE
5
2CB
100
AcDbEntity
8
0
100
AcDbLine
62
7
6
CONTINUOUS
10
57.1296527787
20
152.2251978290
11
57.1296527787
21
260.2251978290
0
LINE
5
2CC
100
AcDbEntity
8
0
100
AcDbLine
62
7
6
CONTINUOUS
10
57.4492302373
20
152.2251978290
11
57.4492302373
21
260.2251978290
0
LINE
5
2CD
100
AcDbEntity
8
0
100
AcDbLine
62
7
6
CONTINUOUS
10
50.5616070831
20
205.8751978290
11
51.1616070831
21
206.2251978290
0
LINE
5
2CE
100
AcDbEntity
8
0
100
AcDbLine
62
7
6
CONTINUOUS
10
51.1616070831
20
206.2251978290
11
50.5616070831
21
206.5751978290
0
LINE
5
2CF
100
AcDbEntity
8
0
100
AcDbLine
62
7
6
CONTINUOUS
10
61.3227090580
20
151.7251978290
11
61.3227090580
21
260.7251978290
0
LINE
5
2D0
100
AcDbEntity
8
0
100
AcDbLine
62
7
6
CONTINUOUS
10
62.3075168110
20
260.2251978290
11
62.3075168110
21
152.2251978290
0
LINE
5
2D1
100
AcDbEntity
8
0
100
AcDbLine
62
7
6
CONTINUOUS
10
49.8116070831
20
205.8751978290
11
53.4112609682
21
205.8751978290
0
LINE
5
2D2
100
AcDbEntity
8
0
100
AcDbLine
62
7
6
CONTINUOUS
10
85.2616070831
20
206.0251978290
11
85.7616070831
21
206.0251978291
0
LINE
5
2D3
100
AcDbEntity
8
0
100
AcDbLine
62
7
6
CONTINUOUS
10
51.1616070831
20
206.2251978290
11
53.4112609682
21
206.2251978290
0
LINE
5
2D4
100
AcDbEntity
8
0
100
AcDbLine
62
7
6
CONTINUOUS
10
85.9616070831
20
206.2251978290
11
86.8616070831
21
206.2251978290
0
LINE
5
2D5
100
AcDbEntity
8
0
100
AcDbLine
62
7
6
CONTINUOUS
10
49.8116070831
20
206.5751978290
11
53.4112609682
21
206.5751978290
0
LINE
5
2D6
100
AcDbEntity
8
0
100
AcDbLine
62
7
6
CONTINUOUS
10
85.9616070831
20
206.7251978290
11
87.3616070831
21
206.7251978290
0
LINE
5
2D7
100
AcDbEntity
8
0
100
AcDbLine
62
7
6
CONTINUOUS
10
62.9843700198
20
149.2251978290
11
62.9843410952
21
151.6222659155
0
LINE
5
2D8
100
AcDbEntity
8
0
100
AcDbLine
62
7
6
CONTINUOUS
10
62.9843601273
20
260.8282004321
11
62.9843700198
21
263.2251978290
0
LINE
5
2D9
100
AcDbEntity
8
0
100
AcDbLine
62
7
6
CONTINUOUS
10
63.0587530222
20
152.2252415301
11
63.0587530222
21
260.2253841917
0
LINE
5
2DA
100
AcDbEntity
8
0
100
AcDbLine
62
7
6
CONTINUOUS
10
63.3457668872
20
263.7251978290
11
63.3457666397
21
260.8282121999
0
LINE
5
2DB
100
AcDbEntity
8
0
100
AcDbLine
62
7
6
CONTINUOUS
10
63.3457668872
20
148.7251978290
11
63.3457640559
21
151.6221804508
0
LINE
5
2DC
100
AcDbEntity
8
0
100
AcDbLine
62
7
6
CONTINUOUS
10
63.5511568987
20
152.2251978290
11
63.5511568987
21
260.2251978290
0
LINE
5
2DD
100
AcDbEntity
8
0
100
AcDbLine
62
7
6
CONTINUOUS
10
85.2036272264
20
262.5427271492
11
85.0326171547
21
262.0728808389
0
LINE
5
2DE
100
AcDbEntity
8
0
100
AcDbLine
62
7
6
CONTINUOUS
10
86.8616070831
20
261.9392718324
11
86.6905970114
21
261.4694255220
0
LINE
5
2DF
100
AcDbEntity
8
0
100
AcDbLine
62
7
6
CONTINUOUS
10
50.5616070831
20
197.5751978290
11
51.1616070831
21
197.9251978290
0
LINE
5
2E0
100
AcDbEntity
8
0
100
AcDbLine
62
7
6
CONTINUOUS
10
51.1616070831
20
214.5251978290
11
50.5616070831
21
214.8751978290
0
LINE
5
2E1
100
AcDbEntity
8
0
100
AcDbLine
62
7
6
CONTINUOUS
10
86.2010211834
20
152.2530425958
11
86.0300111158
21
152.7228889077
0
LINE
5
2E2
100
AcDbEntity
8
0
100
AcDbLine
62
7
6
CONTINUOUS
10
66.6316070831
20
166.4314013443
11
66.6316070831
21
246.0189943138
0
LINE
5
2E3
100
AcDbEntity
8
0
100
AcDbLine
62
7
6
CONTINUOUS
10
67.1316070831
20
166.4314013443
11
67.1316070831
21
246.0189943138
0
LINE
5
2E4
100
AcDbEntity
8
0
100
AcDbLine
62
7
6
CONTINUOUS
10
69.1316070831
20
166.4318183553
11
69.1316070831
21
246.0181633150
0
LINE
5
2E5
100
AcDbEntity
8
0
100
AcDbLine
62
7
6
CONTINUOUS
10
70.7116070831
20
263.7251978290
11
70.7116070831
21
254.7751978290
0
LINE
5
2E6
100
AcDbEntity
8
0
100
AcDbLine
62
7
6
CONTINUOUS
10
70.7116070831
20
148.7251978290
11
70.7116070831
21
157.6751978290
0
LINE
5
2E7
100
AcDbEntity
8
0
100
AcDbLine
62
7
6
CONTINUOUS
10
86.2010211834
20
251.2797054371
11
86.0300111117
21
250.8098591267
0
LINE
5
2E8
100
AcDbEntity
8
0
100
AcDbLine
62
7
6
CONTINUOUS
10
86.8616070831
20
251.0392718324
11
86.6905970114
21
250.5694255220
0
LINE
5
2E9
100
AcDbEntity
8
0
100
AcDbLine
62
7
6
CONTINUOUS
10
50.5616070831
20
189.2751978290
11
51.1616070831
21
189.6251978290
0
LINE
5
2EA
100
AcDbEntity
8
0
100
AcDbLine
62
7
6
CONTINUOUS
10
49.8116070831
20
214.1751978290
11
53.4112609682
21
214.1751978290
0
LINE
5
2EB
100
AcDbEntity
8
0
100
AcDbLine
62
7
6
CONTINUOUS
10
51.1616070831
20
214.5251978290
11
53.4112609682
21
214.5251978290
0
LINE
5
2EC
100
AcDbEntity
8
0
100
AcDbLine
62
7
6
CONTINUOUS
10
49.8116070831
20
214.8751978290
11
53.4112609682
21
214.8751978290
0
LINE
5
2ED
100
AcDbEntity
8
0
100
AcDbLine
62
7
6
CONTINUOUS
10
51.1616070831
20
222.8251978290
11
50.5616070831
21
223.1751978290
0
LINE
5
2EE
100
AcDbEntity
8
0
100
AcDbLine
62
7
6
CONTINUOUS
10
88.0616070831
20
152.9302404816
11
87.8905970114
21
153.4000867920
0
LINE
5
2EF
100
AcDbEntity
8
0
100
AcDbLine
62
7
6
CONTINUOUS
10
70.9616070831
20
255.5251978290
11
70.9616070831
21
254.5251978290
0
LINE
5
2F0
100
AcDbEntity
8
0
100
AcDbLine
62
7
6
CONTINUOUS
10
70.9616070831
20
156.9251978290
11
70.9616070831
21
157.9251978290
0
LINE
5
2F1
100
AcDbEntity
8
0
100
AcDbLine
62
7
6
CONTINUOUS
10
72.9116070831
20
156.7751978290
11
72.9116070831
21
160.7298651690
0
LINE
5
2F2
100
AcDbEntity
8
0
100
AcDbLine
62
7
6
CONTINUOUS
10
72.9116070831
20
251.7205304891
11
72.9116070831
21
255.6751978290
0
LINE
5
2F3
100
AcDbEntity
8
DEFAULT_1
100
AcDbLine
62
2
6
CENTER
10
73.9616070831
20
255.5251978290
11
73.9616070831
21
252.5250978290
0
LINE
5
2F4
100
AcDbEntity
8
DEFAULT_1
100
AcDbLine
62
2
6
CENTER
10
73.9616070831
20
252.5250978290
11
73.9616070831
21
251.5250978290
0
LINE
5
2F5
100
AcDbEntity
8
DEFAULT_1
100
AcDbLine
62
2
6
CENTER
10
73.9616070831
20
157.9251978290
11
73.9616070831
21
154.9250978290
0
LINE
5
2F6
100
AcDbEntity
8
DEFAULT_1
100
AcDbLine
62
2
6
CENTER
10
73.9616070831
20
154.9250978290
11
73.9616070831
21
153.9250978290
0
LINE
5
2F7
100
AcDbEntity
8
DEFAULT_1
100
AcDbLine
62
2
6
CENTER
10
73.9616070831
20
157.9251978290
11
73.9616070831
21
159.9252978290
0
LINE
5
2F8
100
AcDbEntity
8
DEFAULT_1
100
AcDbLine
62
2
6
CENTER
10
73.9616070831
20
159.9252978290
11
73.9616070831
21
160.9252978290
0
LINE
5
2F9
100
AcDbEntity
8
DEFAULT_1
100
AcDbLine
62
2
6
CENTER
10
73.9616070831
20
255.5251978290
11
73.9616070831
21
257.5252978290
0
LINE
5
2FA
100
AcDbEntity
8
DEFAULT_1
100
AcDbLine
62
2
6
CENTER
10
73.9616070831
20
257.5252978290
11
73.9616070831
21
258.5252978290
0
LINE
5
2FB
100
AcDbEntity
8
0
100
AcDbLine
62
7
6
CONTINUOUS
10
75.0116070831
20
156.7751978290
11
75.0116070831
21
160.7298651690
0
LINE
5
2FC
100
AcDbEntity
8
0
100
AcDbLine
62
7
6
CONTINUOUS
10
75.0116070831
20
251.7205304891
11
75.0116070831
21
255.6751978290
0
LINE
5
2FD
100
AcDbEntity
8
0
100
AcDbLine
62
7
6
CONTINUOUS
10
76.9616070831
20
157.9251978290
11
76.9616070831
21
156.9251978290
0
LINE
5
2FE
100
AcDbEntity
8
0
100
AcDbLine
62
7
6
CONTINUOUS
10
76.9616070831
20
254.5251978290
11
76.9616070831
21
255.5251978290
0
LINE
5
2FF
100
AcDbEntity
8
0
100
AcDbLine
62
7
6
CONTINUOUS
10
77.2116070831
20
148.7251978290
11
77.2116070831
21
157.6751978290
0
LINE
5
300
100
AcDbEntity
8
0
100
AcDbLine
62
7
6
CONTINUOUS
10
77.2116070831
20
254.7751978290
11
77.2116070831
21
263.7251978290
0
LINE
5
301
100
AcDbEntity
8
0
100
AcDbLine
62
7
6
CONTINUOUS
10
50.5616070831
20
180.9751978290
11
51.1616070831
21
181.3251978290
0
LINE
5
302
100
AcDbEntity
8
0
100
AcDbLine
62
7
6
CONTINUOUS
10
49.8116070831
20
222.4751978290
11
53.4112609682
21
222.4751978290
0
LINE
5
303
100
AcDbEntity
8
0
100
AcDbLine
62
7
6
CONTINUOUS
10
51.1616070831
20
222.8251978290
11
53.4112609682
21
222.8251978290
0
LINE
5
304
100
AcDbEntity
8
0
100
AcDbLine
62
7
6
CONTINUOUS
10
49.8116070831
20
223.1751978290
11
53.4112609682
21
223.1751978290
0
LINE
5
305
100
AcDbEntity
8
0
100
AcDbLine
62
7
6
CONTINUOUS
10
51.1616070831
20
231.1251978290
11
50.5616070831
21
231.4751978290
0
LINE
5
306
100
AcDbEntity
8
0
100
AcDbLine
62
7
6
CONTINUOUS
10
86.2010211834
20
184.2706902210
11
86.0300111158
21
184.7405365329
0
LINE
5
307
100
AcDbEntity
8
0
100
AcDbLine
62
7
6
CONTINUOUS
10
86.8616070831
20
184.5111238257
11
86.6905970114
21
184.9809701361
0
LINE
5
308
100
AcDbEntity
8
0
100
AcDbLine
62
7
6
CONTINUOUS
10
79.7616070831
20
246.6283017429
11
79.7616070831
21
165.8216764207
0
LINE
5
309
100
AcDbEntity
8
0
100
AcDbLine
62
7
6
CONTINUOUS
10
81.7616070831
20
246.6290330873
11
81.7616070831
21
165.8213625708
0
LINE
5
30A
100
AcDbEntity
8
0
100
AcDbLine
62
7
6
CONTINUOUS
10
82.2616070831
20
246.6290330873
11
82.2616070831
21
165.8213625708
0
LINE
5
30B
100
AcDbEntity
8
0
100
AcDbLine
62
7
6
CONTINUOUS
10
86.8616070831
20
227.0111238257
11
87.3616070831
21
227.0111238257
0
LINE
5
30C
100
AcDbEntity
8
0
100
AcDbLine
62
7
6
CONTINUOUS
10
85.2616070831
20
227.4284750556
11
85.7616070831
21
227.4284750556
0
LINE
5
30D
100
AcDbEntity
8
0
100
AcDbLine
62
7
6
CONTINUOUS
10
83.8616070831
20
259.4473611296
11
83.8616070831
21
261.6030345285
0
LINE
5
30E
100
AcDbEntity
8
0
100
AcDbLine
62
7
6
CONTINUOUS
10
84.3616070831
20
259.4473611296
11
84.3616070831
21
261.6030345285
0
LINE
5
30F
100
AcDbEntity
8
0
100
AcDbLine
62
7
6
CONTINUOUS
10
85.2616070831
20
148.7251978290
11
85.2616070831
21
150.9395682277
0
LINE
5
310
100
AcDbEntity
8
0
100
AcDbLine
62
7
6
CONTINUOUS
10
85.2616070831
20
152.9108274304
11
85.2616070831
21
161.9219206025
0
LINE
5
311
100
AcDbEntity
8
0
100
AcDbLine
62
7
6
CONTINUOUS
10
85.2616070831
20
184.9284750556
11
85.2616070831
21
206.0251978290
0
LINE
5
312
100
AcDbEntity
8
0
100
AcDbLine
62
7
6
CONTINUOUS
10
85.2616070831
20
227.4284750556
11
85.2616070831
21
250.6219206025
0
LINE
5
313
100
AcDbEntity
8
0
100
AcDbLine
62
7
6
CONTINUOUS
10
85.7616070831
20
149.2251978290
11
85.7616070831
21
150.9395682277
0
LINE
5
314
100
AcDbEntity
8
0
100
AcDbLine
62
7
6
CONTINUOUS
10
85.7616070831
20
152.9108274304
11
85.7616070831
21
161.9219206025
0
LINE
5
315
100
AcDbEntity
8
0
100
AcDbLine
62
7
6
CONTINUOUS
10
85.7616070831
20
184.9284750556
11
85.7616070831
21
206.0251978290
0
LINE
5
316
100
AcDbEntity
8
0
100
AcDbLine
62
7
6
CONTINUOUS
10
85.7616070831
20
227.4284750556
11
85.7616070831
21
250.6219206025
0
LINE
5
317
100
AcDbEntity
8
0
100
AcDbLine
62
7
6
CONTINUOUS
10
85.9616070831
20
206.7251978290
11
85.9616070831
21
206.2251978290
0
LINE
5
318
100
AcDbEntity
8
0
100
AcDbLine
62
7
6
CONTINUOUS
10
86.8616070831
20
162.3392718324
11
86.8616070831
21
184.5111238257
0
LINE
5
319
100
AcDbEntity
8
0
100
AcDbLine
62
7
6
CONTINUOUS
10
86.8616070831
20
206.2251978290
11
86.8616070831
21
227.0111238257
0
LINE
5
31A
100
AcDbEntity
8
0
100
AcDbLine
62
7
6
CONTINUOUS
10
86.8616070831
20
251.0392718324
11
86.8616070831
21
259.1111238257
0
LINE
5
31B
100
AcDbEntity
8
0
100
AcDbLine
62
7
6
CONTINUOUS
10
86.8616070831
20
261.9392718324
11
86.8616070831
21
263.7251978290
0
LINE
5
31C
100
AcDbEntity
8
0
100
AcDbLine
62
7
6
CONTINUOUS
10
87.3616070831
20
162.3392718324
11
87.3616070831
21
184.5111238257
0
LINE
5
31D
100
AcDbEntity
8
0
100
AcDbLine
62
7
6
CONTINUOUS
10
87.3616070831
20
206.7251978290
11
87.3616070831
21
227.0111238257
0
LINE
5
31E
100
AcDbEntity
8
0
100
AcDbLine
62
7
6
CONTINUOUS
10
87.3616070831
20
251.0392718324
11
87.3616070831
21
259.1111238257
0
LINE
5
31F
100
AcDbEntity
8
0
100
AcDbLine
62
7
6
CONTINUOUS
10
87.3616070831
20
261.9392718324
11
87.3616070831
21
263.2251978290
0
LINE
5
320
100
AcDbEntity
8
0
100
AcDbLine
62
7
6
CONTINUOUS
10
50.5616070831
20
172.6751978290
11
51.1616070831
21
173.0251978290
0
LINE
5
321
100
AcDbEntity
8
0
100
AcDbLine
62
7
6
CONTINUOUS
10
49.8116070831
20
230.7751978290
11
53.4112609682
21
230.7751978290
0
LINE
5
322
100
AcDbEntity
8
0
100
AcDbLine
62
7
6
CONTINUOUS
10
51.1616070831
20
231.1251978290
11
53.4112609682
21
231.1251978290
0
LINE
5
323
100
AcDbEntity
8
0
100
AcDbLine
62
7
6
CONTINUOUS
10
49.8116070831
20
231.4751978290
11
53.4112609682
21
231.4751978290
0
LINE
5
324
100
AcDbEntity
8
0
100
AcDbLine
62
7
6
CONTINUOUS
10
51.1616070831
20
239.4251978290
11
50.5616070831
21
239.7751978290
0
LINE
5
325
100
AcDbEntity
8
0
100
AcDbLine
62
7
6
CONTINUOUS
10
88.0616070831
20
150.9201551765
11
88.0616070831
21
152.9302404816
0
LINE
5
326
100
AcDbEntity
8
0
100
AcDbLine
62
7
6
CONTINUOUS
10
88.5616070831
20
150.9201551765
11
88.5616070831
21
152.9302404816
0
LINE
5
327
100
AcDbEntity
8
0
100
AcDbLine
62
7
6
CONTINUOUS
10
86.6905970114
20
184.9809701361
11
86.0300111117
21
184.7405365314
0
LINE
5
328
100
AcDbEntity
8
0
100
AcDbLine
62
7
6
CONTINUOUS
10
86.8616070831
20
184.5111238257
11
86.2010211834
21
184.2706902210
0
LINE
5
329
100
AcDbEntity
8
0
100
AcDbLine
62
7
6
CONTINUOUS
10
86.2010211834
20
226.7706902210
11
86.0300111158
21
227.2405365329
0
LINE
5
32A
100
AcDbEntity
8
0
100
AcDbLine
62
7
6
CONTINUOUS
10
50.5616070831
20
164.3751978290
11
51.1616070831
21
164.7251978290
0
LINE
5
32B
100
AcDbEntity
8
0
100
AcDbLine
62
7
6
CONTINUOUS
10
49.8116070831
20
239.0751978290
11
53.4112609682
21
239.0751978290
0
LINE
5
32C
100
AcDbEntity
8
0
100
AcDbLine
62
7
6
CONTINUOUS
10
51.1616070831
20
239.4251978290
11
53.4112609682
21
239.4251978290
0
LINE
5
32D
100
AcDbEntity
8
0
100
AcDbLine
62
7
6
CONTINUOUS
10
49.8116070831
20
239.7751978290
11
53.4112609682
21
239.7751978290
0
LINE
5
32E
100
AcDbEntity
8
0
100
AcDbLine
62
7
6
CONTINUOUS
10
51.1616070831
20
247.7251978290
11
50.5616070831
21
248.0751978290
0
LINE
5
32F
100
AcDbEntity
8
0
100
AcDbLine
62
7
6
CONTINUOUS
10
86.8616070831
20
227.0111238257
11
86.6905970114
21
227.4809701361
0
LINE
5
330
100
AcDbEntity
8
0
100
AcDbLine
62
7
6
CONTINUOUS
10
86.2010211834
20
162.5797054371
11
86.0300111117
21
162.1098591267
0
LINE
5
331
100
AcDbEntity
8
0
100
AcDbLine
62
7
6
CONTINUOUS
10
86.8616070831
20
162.3392718324
11
86.6905970114
21
161.8694255220
0
LINE
5
332
100
AcDbEntity
8
0
100
AcDbLine
62
7
6
CONTINUOUS
10
78.3116070831
20
163.7848213854
11
79.7616070831
21
165.8213625708
0
LINE
5
333
100
AcDbEntity
8
0
100
AcDbLine
62
7
6
CONTINUOUS
10
79.7616070831
20
246.6290330873
11
78.3116070860
21
248.6655742686
0
LINE
5
334
100
AcDbEntity
8
0
100
AcDbLine
62
7
6
CONTINUOUS
10
86.2010211834
20
151.5973530622
11
86.0300111117
21
151.1275067518
0
LINE
5
335
100
AcDbEntity
8
0
100
AcDbLine
62
7
6
CONTINUOUS
10
66.6316070831
20
246.0189943138
11
69.1316070831
21
246.0189943138
0
LINE
5
336
100
AcDbEntity
8
0
100
AcDbLine
62
7
6
CONTINUOUS
10
79.7616070831
20
246.6290330873
11
82.2616070831
21
246.6290330873
0
LINE
5
337
100
AcDbEntity
8
0
100
AcDbLine
62
7
6
CONTINUOUS
10
49.8116070831
20
247.3751978290
11
53.4112609682
21
247.3751978290
0
LINE
5
338
100
AcDbEntity
8
0
100
AcDbLine
62
7
6
CONTINUOUS
10
51.1616070831
20
247.7251978290
11
53.4112609682
21
247.7251978290
0
LINE
5
339
100
AcDbEntity
8
0
100
AcDbLine
62
7
6
CONTINUOUS
10
49.8116070831
20
248.0751978290
11
53.4112609682
21
248.0751978290
0
LINE
5
33A
100
AcDbEntity
8
0
100
AcDbLine
62
7
6
CONTINUOUS
10
85.2036272264
20
258.5076685088
11
85.0326171545
21
258.9775148191
0
LINE
5
33B
100
AcDbEntity
8
0
100
AcDbLine
62
7
6
CONTINUOUS
10
86.8616070831
20
259.1111238257
11
86.6905970114
21
259.5809701361
0
LINE
5
33C
100
AcDbEntity
8
0
100
AcDbLine
62
7
6
CONTINUOUS
10
88.0616070831
20
150.9201551765
11
87.8905970114
21
150.4503088661
0
LINE
5
33D
100
AcDbEntity
8
0
100
AcDbLine
62
7
6
CONTINUOUS
10
85.2616070831
20
250.6219206025
11
85.7616070831
21
250.6219205982
0
LINE
5
33E
100
AcDbEntity
8
0
100
AcDbLine
62
7
6
CONTINUOUS
10
86.8616070831
20
251.0392718324
11
87.3616070831
21
251.0392718324
0
LINE
5
33F
100
AcDbEntity
8
0
100
AcDbLine
62
7
6
CONTINUOUS
10
71.5616070831
20
156.4251978290
11
72.1616070831
21
156.7751978290
0
LINE
5
340
100
AcDbEntity
8
DEFAULT_1
100
AcDbLine
62
2
6
CENTER
10
73.9616070831
20
254.5251978290
11
70.9615070831
21
254.5251978290
0
LINE
5
341
100
AcDbEntity
8
DEFAULT_1
100
AcDbLine
62
2
6
CENTER
10
73.9616070831
20
254.5251978290
11
76.9617070831
21
254.5251978290
0
LINE
5
342
100
AcDbEntity
8
DEFAULT_1
100
AcDbLine
62
2
6
CENTER
10
73.9616070831
20
255.5251978290
11
70.9615070831
21
255.5251978290
0
LINE
5
343
100
AcDbEntity
8
DEFAULT_1
100
AcDbLine
62
2
6
CENTER
10
73.9616070831
20
255.5251978290
11
76.9617070831
21
255.5251978290
0
LINE
5
344
100
AcDbEntity
8
0
100
AcDbLine
62
7
6
CONTINUOUS
10
49.8116070831
20
255.6751978290
11
53.4112609682
21
255.6751978290
0
LINE
5
345
100
AcDbEntity
8
0
100
AcDbLine
62
7
6
CONTINUOUS
10
70.9716464255
20
255.6751978290
11
72.9116070831
21
255.6751978290
0
LINE
5
346
100
AcDbEntity
8
0
100
AcDbLine
62
7
6
CONTINUOUS
10
75.0116070831
20
255.6751978290
11
76.9515677407
21
255.6751978290
0
LINE
5
347
100
AcDbEntity
8
0
100
AcDbLine
62
7
6
CONTINUOUS
10
51.1616070831
20
256.0251978290
11
53.4112609682
21
256.0251978290
0
LINE
5
348
100
AcDbEntity
8
0
100
AcDbLine
62
7
6
CONTINUOUS
10
71.0089197787
20
256.0251978290
11
71.5616070831
21
256.0251978290
0
LINE
5
349
100
AcDbEntity
8
0
100
AcDbLine
62
7
6
CONTINUOUS
10
76.3616070831
20
256.0251978290
11
76.9142943875
21
256.0251978290
0
LINE
5
34A
100
AcDbEntity
8
0
100
AcDbLine
62
7
6
CONTINUOUS
10
52.0616070831
20
257.3251978290
11
53.4112609682
21
257.3251978290
0
LINE
5
34B
100
AcDbEntity
8
0
100
AcDbLine
62
7
6
CONTINUOUS
10
86.0300111117
20
250.8098591267
11
86.6905970114
21
250.5694255220
0
LINE
5
34C
100
AcDbEntity
8
0
100
AcDbLine
62
7
6
CONTINUOUS
10
86.2010211834
20
251.2797054371
11
86.8616070831
21
251.0392718324
0
LINE
5
34D
100
AcDbEntity
8
0
100
AcDbLine
62
7
6
CONTINUOUS
10
72.1616070831
20
255.6751978290
11
71.5616070831
21
256.0251978290
0
LINE
5
34E
100
AcDbEntity
8
0
100
AcDbLine
62
7
6
CONTINUOUS
10
51.0616070831
20
258.8251978290
11
48.5616070831
21
258.8251978290
0
LINE
5
34F
100
AcDbEntity
8
0
100
AcDbLine
62
7
6
CONTINUOUS
10
86.8616070831
20
259.1111238257
11
87.3616070831
21
259.1111238257
0
LINE
5
350
100
AcDbEntity
8
0
100
AcDbLine
62
7
6
CONTINUOUS
10
83.8616070831
20
259.4473611296
11
84.3616070831
21
259.4473611296
0
LINE
5
351
100
AcDbEntity
8
0
100
AcDbLine
62
7
6
CONTINUOUS
10
36.6774441527
20
260.2251978290
11
43.8369772988
21
260.2251977644
0
LINE
5
352
100
AcDbEntity
8
0
100
AcDbLine
62
7
6
CONTINUOUS
10
57.1296527787
20
260.2251978290
11
63.5511568987
21
260.2251978282
0
LINE
5
353
100
AcDbEntity
8
0
100
AcDbLine
62
7
6
CONTINUOUS
10
43.0616070831
20
260.7251978290
11
39.4005763852
21
260.7251978290
0
LINE
5
354
100
AcDbEntity
8
0
100
AcDbLine
62
7
6
CONTINUOUS
10
58.6260403303
20
260.7251978290
11
62.3570088104
21
260.7251978290
0
LINE
5
355
100
AcDbEntity
8
0
100
AcDbLine
62
7
6
CONTINUOUS
10
62.9843601275
20
260.8282227475
11
63.3457666397
21
260.8282123644
0
LINE
5
356
100
AcDbEntity
8
0
100
AcDbLine
62
7
6
CONTINUOUS
10
42.8440695050
20
261.2251978290
11
39.2090035638
21
261.2251978290
0
LINE
5
357
100
AcDbEntity
8
0
100
AcDbLine
62
7
6
CONTINUOUS
10
58.2981167009
20
261.2251978290
11
62.0026244116
21
261.2251978290
0
LINE
5
358
100
AcDbEntity
8
0
100
AcDbLine
62
7
6
CONTINUOUS
10
83.8616070831
20
261.6030345285
11
84.3616070831
21
261.6030345291
0
LINE
5
359
100
AcDbEntity
8
0
100
AcDbLine
62
7
6
CONTINUOUS
10
87.8905970114
20
153.4000867920
11
86.0300111117
21
152.7228889062
0
LINE
5
35A
100
AcDbEntity
8
0
100
AcDbLine
62
7
6
CONTINUOUS
10
88.0616070831
20
152.9302404816
11
86.2010211834
21
152.2530425958
0
LWPOLYLINE
5
35B
100
AcDbEntity
8
0
100
AcDbPolyline
62
7
6
CONTINUOUS
90
15
70
0
10
36.3860167998
20
263.7252155334
10
36.3634450453
20
263.7251001364
10
36.1764613980
20
263.7155012409
10
35.9966317765
20
263.6911494199
10
35.8252499992
20
263.6528955276
10
35.6629812809
20
263.6008805283
10
35.5114878229
20
263.5351696223
10
35.3729891498
20
263.4558990410
10
35.2488481063
20
263.3624045559
10
35.1423395073
20
263.2568647081
10
35.0564210715
20
263.1390887581
10
34.9936557003
20
263.0120769232
10
34.9540174823
20
262.8814283766
10
34.9380125664
20
262.7521171336
10
34.9376491162
20
262.7254219810
0
LINE
5
35C
100
AcDbEntity
8
0
100
AcDbLine
62
7
6
CONTINUOUS
10
86.8616070831
20
261.9392718324
11
87.3616070831
21
261.9392718324
0
LINE
5
35D
100
AcDbEntity
8
0
100
AcDbLine
62
7
6
CONTINUOUS
10
36.2155981579
20
263.2251978290
11
70.7116070831
21
263.2251978290
0
LINE
5
35E
100
AcDbEntity
8
0
100
AcDbLine
62
7
6
CONTINUOUS
10
77.2116070831
20
263.2251978290
11
87.3616070831
21
263.2251978290
0
LINE
5
35F
100
AcDbEntity
8
0
100
AcDbLine
62
7
6
CONTINUOUS
10
36.3857895345
20
263.7251978290
11
86.8616070831
21
263.7251978290
0
LINE
5
360
100
AcDbEntity
8
0
100
AcDbLine
62
7
6
CONTINUOUS
10
85.0326171547
20
262.0728808389
11
86.6905970114
21
261.4694255220
0
LINE
5
361
100
AcDbEntity
8
0
100
AcDbLine
62
7
6
CONTINUOUS
10
85.2036272264
20
262.5427271492
11
86.8616070831
21
261.9392718324
0
LINE
5
362
100
AcDbEntity
8
0
100
AcDbLine
62
7
6
CONTINUOUS
10
172.2782606411
20
151.6221437648
11
172.4327589786
21
151.6221728938
0
LINE
5
363
100
AcDbEntity
8
0
100
AcDbLine
62
7
6
CONTINUOUS
10
171.9327589786
20
148.7251978290
11
152.0327589786
21
148.7251978290
0
LINE
5
364
100
AcDbEntity
8
0
100
AcDbLine
62
7
6
CONTINUOUS
10
154.8326701122
20
149.2251978290
11
172.4327589786
21
149.2251978290
0
LINE
5
365
100
AcDbEntity
8
0
100
AcDbLine
62
7
6
CONTINUOUS
10
151.0327589786
20
149.7251978290
11
154.4993991825
21
149.7251978290
0
LINE
5
366
100
AcDbEntity
8
0
100
AcDbLine
62
7
6
CONTINUOUS
10
171.2718995434
20
151.2251978290
11
167.8102057871
21
151.2251978290
0
LINE
5
367
100
AcDbEntity
8
0
100
AcDbLine
62
7
6
CONTINUOUS
10
155.9946029502
20
151.2251978290
11
157.6251691314
21
151.2251978290
0
LINE
5
368
100
AcDbEntity
8
0
100
AcDbLine
62
7
6
CONTINUOUS
10
170.9191791189
20
151.7251978290
11
167.4327589786
21
151.7251978290
0
LINE
5
369
100
AcDbEntity
8
0
100
AcDbLine
62
7
6
CONTINUOUS
10
157.1749720611
20
151.7251978290
11
155.5327589786
21
151.7251978290
0
LINE
5
36A
100
AcDbEntity
8
0
100
AcDbLine
62
7
6
CONTINUOUS
10
166.8172979857
20
152.2251978290
11
172.4327589786
21
152.2251978290
0
LINE
5
36B
100
AcDbEntity
8
0
100
AcDbLine
62
7
6
CONTINUOUS
10
158.1146691156
20
152.2251978290
11
155.0016951623
21
152.2251977953
0
LINE
5
36C
100
AcDbEntity
8
0
100
AcDbLine
62
7
6
CONTINUOUS
10
151.8150325488
20
153.1251978290
11
151.3226827134
21
153.1251978290
0
LINE
5
36D
100
AcDbEntity
8
0
100
AcDbLine
62
7
6
CONTINUOUS
10
151.1631918849
20
153.1251978290
11
151.0327589786
21
153.1251978290
0
LINE
5
36E
100
AcDbEntity
8
0
100
AcDbLine
62
7
6
CONTINUOUS
10
162.3053969484
20
153.6251978290
11
160.7233951541
21
153.6251978290
0
LINE
5
36F
100
AcDbEntity
8
0
100
AcDbLine
62
7
6
CONTINUOUS
10
151.9842217920
20
153.6251978290
11
151.8217163012
21
153.6251978290
0
LINE
5
370
100
AcDbEntity
8
0
100
AcDbLine
62
7
6
CONTINUOUS
10
160.2112978472
20
154.1251978290
11
162.6398995647
21
154.1251978290
0
LINE
5
371
100
AcDbEntity
8
0
100
AcDbLine
62
7
6
CONTINUOUS
10
151.0401052543
20
154.1251977815
11
152.0791957623
21
154.1251978290
0
LINE
5
372
100
AcDbEntity
8
0
100
AcDbLine
62
7
6
CONTINUOUS
10
151.0401046388
20
154.6251978290
11
152.1703676311
21
154.6251978290
0
LINE
5
373
100
AcDbEntity
8
0
100
AcDbLine
62
7
6
CONTINUOUS
10
160.1310748859
20
154.6251978290
11
162.6398995647
21
154.6251978290
0
LINE
5
374
100
AcDbEntity
8
0
100
AcDbLine
62
7
6
CONTINUOUS
10
151.5401046388
20
155.1251978290
11
152.1476154581
21
155.1251978290
0
LINE
5
375
100
AcDbEntity
8
0
100
AcDbLine
62
7
6
CONTINUOUS
10
160.1310748859
20
155.1251978290
11
163.9327589786
21
155.1251978290
0
LINE
5
376
100
AcDbEntity
8
0
100
AcDbLine
62
7
6
CONTINUOUS
10
150.9327589786
20
255.6751978290
11
151.5327589786
21
256.0251978290
0
LWPOLYLINE
5
377
100
AcDbEntity
8
0
100
AcDbPolyline
62
7
6
CONTINUOUS
90
3
70
0
10
151.4827598441
20
153.6276943298
10
151.3959327519
20
153.6111150753
10
151.3087481624
20
153.5772125662
0
LINE
5
378
100
AcDbEntity
8
0
100
AcDbLine
62
7
6
CONTINUOUS
10
152.1476154581
20
156.4251978290
11
151.5327907465
21
156.4251978290
0
LINE
5
379
100
AcDbEntity
8
0
100
AcDbLine
62
7
6
CONTINUOUS
10
152.1476154581
20
156.7751978290
11
150.1827896221
21
156.7751978290
0
LINE
5
37A
100
AcDbEntity
8
0
100
AcDbLine
62
7
6
CONTINUOUS
10
160.1310748859
20
156.7751978290
11
160.6827283351
21
156.7751978290
0
LINE
5
37B
100
AcDbEntity
8
0
100
AcDbLine
62
7
6
CONTINUOUS
10
151.5327589786
20
156.4251978290
11
150.9327589786
21
156.7751978290
0
LINE
5
37C
100
AcDbEntity
8
0
100
AcDbLine
62
7
6
CONTINUOUS
10
150.9327589786
20
247.3751978290
11
151.5327589786
21
247.7251978290
0
LINE
5
37D
100
AcDbEntity
8
0
100
AcDbLine
62
7
6
CONTINUOUS
10
152.1476154581
20
164.3751978290
11
150.1827896221
21
164.3751978290
0
LINE
5
37E
100
AcDbEntity
8
0
100
AcDbLine
62
7
6
CONTINUOUS
10
160.1310748859
20
164.3751978290
11
160.6827283351
21
164.3751978290
0
LINE
5
37F
100
AcDbEntity
8
0
100
AcDbLine
62
7
6
CONTINUOUS
10
152.1476154581
20
164.7251978290
11
151.5327907465
21
164.7251978290
0
LINE
5
380
100
AcDbEntity
8
0
100
AcDbLine
62
7
6
CONTINUOUS
10
152.1476154581
20
165.0751978290
11
150.1827896221
21
165.0751978290
0
LINE
5
381
100
AcDbEntity
8
0
100
AcDbLine
62
7
6
CONTINUOUS
10
160.1310748859
20
165.0751978290
11
160.6827283351
21
165.0751978290
0
LINE
5
382
100
AcDbEntity
8
0
100
AcDbLine
62
7
6
CONTINUOUS
10
151.5327589786
20
164.7251978290
11
150.9327589786
21
165.0751978290
0
LINE
5
383
100
AcDbEntity
8
0
100
AcDbLine
62
7
6
CONTINUOUS
10
150.9327589786
20
239.0751978290
11
151.5327589786
21
239.4251978290
0
LINE
5
384
100
AcDbEntity
8
0
100
AcDbLine
62
7
6
CONTINUOUS
10
152.1476154581
20
172.6751978290
11
150.1827896221
21
172.6751978290
0
LINE
5
385
100
AcDbEntity
8
0
100
AcDbLine
62
7
6
CONTINUOUS
10
160.1310748859
20
172.6751978290
11
160.6827283351
21
172.6751978290
0
LINE
5
386
100
AcDbEntity
8
0
100
AcDbLine
62
7
6
CONTINUOUS
10
152.1476154581
20
173.0251978290
11
151.5327907465
21
173.0251978290
0
LINE
5
387
100
AcDbEntity
8
0
100
AcDbLine
62
7
6
CONTINUOUS
10
152.1476154581
20
173.3751978290
11
150.1827896221
21
173.3751978290
0
LINE
5
388
100
AcDbEntity
8
0
100
AcDbLine
62
7
6
CONTINUOUS
10
160.1310748859
20
173.3751978290
11
160.6827283351
21
173.3751978290
0
LINE
5
389
100
AcDbEntity
8
0
100
AcDbLine
62
7
6
CONTINUOUS
10
151.5327589786
20
173.0251978290
11
150.9327589786
21
173.3751978290
0
LINE
5
38A
100
AcDbEntity
8
0
100
AcDbLine
62
7
6
CONTINUOUS
10
150.9327589786
20
230.7751978290
11
151.5327589786
21
231.1251978290
0
LINE
5
38B
100
AcDbEntity
8
0
100
AcDbLine
62
7
6
CONTINUOUS
10
152.1476154581
20
180.9751978290
11
150.1827896221
21
180.9751978290
0
LINE
5
38C
100
AcDbEntity
8
0
100
AcDbLine
62
7
6
CONTINUOUS
10
160.1310748859
20
180.9751978290
11
160.6827283351
21
180.9751978290
0
LINE
5
38D
100
AcDbEntity
8
0
100
AcDbLine
62
7
6
CONTINUOUS
10
152.1476154581
20
181.3251978290
11
151.5327907465
21
181.3251978290
0
LINE
5
38E
100
AcDbEntity
8
0
100
AcDbLine
62
7
6
CONTINUOUS
10
152.1476154581
20
181.6751978290
11
150.1827896221
21
181.6751978290
0
LINE
5
38F
100
AcDbEntity
8
0
100
AcDbLine
62
7
6
CONTINUOUS
10
160.1310748859
20
181.6751978290
11
160.6827283351
21
181.6751978290
0
LINE
5
390
100
AcDbEntity
8
0
100
AcDbLine
62
7
6
CONTINUOUS
10
151.5327589786
20
181.3251978290
11
150.9327589786
21
181.6751978290
0
LINE
5
391
100
AcDbEntity
8
0
100
AcDbLine
62
7
6
CONTINUOUS
10
150.9327589786
20
222.4751978290
11
151.5327589786
21
222.8251978290
0
LINE
5
392
100
AcDbEntity
8
0
100
AcDbLine
62
7
6
CONTINUOUS
10
151.5327589786
20
189.6251978290
11
150.9327589786
21
189.9751978290
0
LINE
5
393
100
AcDbEntity
8
0
100
AcDbLine
62
7
6
CONTINUOUS
10
152.1476154581
20
189.2751978290
11
150.1827896221
21
189.2751978290
0
LINE
5
394
100
AcDbEntity
8
0
100
AcDbLine
62
7
6
CONTINUOUS
10
160.1310748859
20
189.2751978290
11
160.6827283351
21
189.2751978290
0
LINE
5
395
100
AcDbEntity
8
0
100
AcDbLine
62
7
6
CONTINUOUS
10
152.1476154581
20
189.6251978290
11
151.5327907465
21
189.6251978290
0
LINE
5
396
100
AcDbEntity
8
0
100
AcDbLine
62
7
6
CONTINUOUS
10
152.1476154581
20
189.9751978290
11
150.1827896221
21
189.9751978290
0
LINE
5
397
100
AcDbEntity
8
0
100
AcDbLine
62
7
6
CONTINUOUS
10
160.1310748859
20
189.9751978290
11
160.6827283351
21
189.9751978290
0
LINE
5
398
100
AcDbEntity
8
0
100
AcDbLine
62
7
6
CONTINUOUS
10
150.9327589786
20
214.1751978290
11
151.5327589786
21
214.5251978290
0
LINE
5
399
100
AcDbEntity
8
0
100
AcDbLine
62
7
6
CONTINUOUS
10
151.5327589786
20
197.9251978290
11
150.9327589786
21
198.2751978290
0
LINE
5
39A
100
AcDbEntity
8
0
100
AcDbLine
62
7
6
CONTINUOUS
10
150.1827589786
20
156.7751978290
11
150.1827589786
21
164.3751978290
0
LINE
5
39B
100
AcDbEntity
8
0
100
AcDbLine
62
7
6
CONTINUOUS
10
150.1827589786
20
165.0751978290
11
150.1827589786
21
172.6751978290
0
LINE
5
39C
100
AcDbEntity
8
0
100
AcDbLine
62
7
6
CONTINUOUS
10
150.1827589786
20
173.3751978290
11
150.1827589786
21
180.9751978290
0
LINE
5
39D
100
AcDbEntity
8
0
100
AcDbLine
62
7
6
CONTINUOUS
10
150.1827589786
20
181.6751978290
11
150.1827589786
21
189.2751978290
0
LINE
5
39E
100
AcDbEntity
8
0
100
AcDbLine
62
7
6
CONTINUOUS
10
150.1827589786
20
189.9751978290
11
150.1827589786
21
197.5751978290
0
LINE
5
39F
100
AcDbEntity
8
0
100
AcDbLine
62
7
6
CONTINUOUS
10
150.1827589786
20
198.2751978290
11
150.1827589786
21
205.8751978290
0
LINE
5
3A0
100
AcDbEntity
8
0
100
AcDbLine
62
7
6
CONTINUOUS
10
150.1827589786
20
206.5751978290
11
150.1827589786
21
214.1751978290
0
LINE
5
3A1
100
AcDbEntity
8
0
100
AcDbLine
62
7
6
CONTINUOUS
10
150.1827589786
20
214.8751978290
11
150.1827589786
21
222.4751978290
0
LINE
5
3A2
100
AcDbEntity
8
0
100
AcDbLine
62
7
6
CONTINUOUS
10
150.1827589786
20
223.1751978290
11
150.1827589786
21
230.7751978290
0
LINE
5
3A3
100
AcDbEntity
8
0
100
AcDbLine
62
7
6
CONTINUOUS
10
150.1827589786
20
231.4751978290
11
150.1827589786
21
239.0751978290
0
LINE
5
3A4
100
AcDbEntity
8
0
100
AcDbLine
62
7
6
CONTINUOUS
10
150.1827589786
20
239.7751978290
11
150.1827589786
21
247.3751978290
0
LINE
5
3A5
100
AcDbEntity
8
0
100
AcDbLine
62
7
6
CONTINUOUS
10
150.1827589786
20
248.0751978290
11
150.1827589786
21
255.6751978290
0
LINE
5
3A6
100
AcDbEntity
8
0
100
AcDbLine
62
7
6
CONTINUOUS
10
151.0327589786
20
149.7251978290
11
151.0327589786
21
153.1251978290
0
LINE
5
3A7
100
AcDbEntity
8
0
100
AcDbLine
62
7
6
CONTINUOUS
10
151.0327589786
20
257.8251978290
11
151.0327589786
21
262.7251978290
0
LINE
5
3A8
100
AcDbEntity
8
0
100
AcDbLine
62
7
6
CONTINUOUS
10
151.0401046388
20
154.1251977883
11
151.0401046388
21
154.6251978290
0
LINE
5
3A9
100
AcDbEntity
8
0
100
AcDbLine
62
7
6
CONTINUOUS
10
151.0413289155
20
154.1251978290
11
151.0413289155
21
154.6251978290
0
LINE
5
3AA
100
AcDbEntity
8
0
100
AcDbLine
62
7
6
CONTINUOUS
10
151.9327589786
20
154.1251978290
11
151.9327589786
21
154.6251978290
0
LINE
5
3AB
100
AcDbEntity
8
0
100
AcDbLine
62
7
6
CONTINUOUS
10
151.9327589786
20
257.8251978290
11
151.9327589786
21
258.3251978290
0
LINE
5
3AC
100
AcDbEntity
8
0
100
AcDbLine
62
7
6
CONTINUOUS
10
152.1476154581
20
154.6251978290
11
152.1476154581
21
257.8251978290
0
LINE
5
3AD
100
AcDbEntity
8
0
100
AcDbLine
62
7
6
CONTINUOUS
10
152.1703676311
20
154.6251978290
11
152.1703676311
21
257.8251978290
0
LINE
5
3AE
100
AcDbEntity
8
0
100
AcDbLine
62
7
6
CONTINUOUS
10
153.5352167097
20
149.7251490909
11
153.5352167097
21
262.7251978290
0
LINE
5
3AF
100
AcDbEntity
8
0
100
AcDbLine
62
7
6
CONTINUOUS
10
151.0328241411
20
153.7359783769
11
151.0327589786
21
153.1302673652
0
LWPOLYLINE
5
3B0
100
AcDbEntity
8
0
100
AcDbPolyline
62
7
6
CONTINUOUS
90
3
70
0
10
151.0401416083
20
154.1251984355
10
151.0398316542
20
154.0854338681
10
151.0394554449
20
154.0600181940
0
LINE
5
3B1
100
AcDbEntity
8
0
100
AcDbLine
62
7
6
CONTINUOUS
10
151.0331883244
20
153.7813231831
11
151.0328241411
21
153.7359783769
0
LINE
5
3B2
100
AcDbEntity
8
0
100
AcDbLine
62
7
6
CONTINUOUS
10
151.0338146203
20
153.8249273302
11
151.0331883244
21
153.7813231831
0
LINE
5
3B3
100
AcDbEntity
8
0
100
AcDbLine
62
7
6
CONTINUOUS
10
151.0350989338
20
153.8873880999
11
151.0338146203
21
153.8249273302
0
LINE
5
3B4
100
AcDbEntity
8
0
100
AcDbLine
62
7
6
CONTINUOUS
10
151.0394554449
20
154.0600181940
11
151.0350989338
21
153.8873880999
0
LINE
5
3B5
100
AcDbEntity
8
0
100
AcDbLine
62
7
6
CONTINUOUS
10
152.1476154581
20
197.5751978290
11
150.1827896221
21
197.5751978290
0
LINE
5
3B6
100
AcDbEntity
8
0
100
AcDbLine
62
7
6
CONTINUOUS
10
160.1310748859
20
197.5751978290
11
160.6827283351
21
197.5751978290
0
LINE
5
3B7
100
AcDbEntity
8
0
100
AcDbLine
62
7
6
CONTINUOUS
10
152.1476154581
20
197.9251978290
11
151.5327907465
21
197.9251978290
0
LINE
5
3B8
100
AcDbEntity
8
0
100
AcDbLine
62
7
6
CONTINUOUS
10
152.1476154581
20
198.2751978290
11
150.1827896221
21
198.2751978290
0
LINE
5
3B9
100
AcDbEntity
8
0
100
AcDbLine
62
7
6
CONTINUOUS
10
160.1310748859
20
198.2751978290
11
160.6827283351
21
198.2751978290
0
LWPOLYLINE
5
3BA
100
AcDbEntity
8
0
100
AcDbPolyline
62
7
6
CONTINUOUS
90
6
70
0
10
151.0327854635
20
259.3150216116
10
151.0425450228
20
259.2217455454
10
151.0695571108
20
259.1319193714
10
151.1128793540
20
259.0487059116
10
151.1709920601
20
258.9750409933
10
151.2418531491
20
258.9135237167
0
LINE
5
3BB
100
AcDbEntity
8
0
100
AcDbLine
62
7
6
CONTINUOUS
10
152.1350400439
20
257.9832885858
11
152.1476154581
21
257.8251978290
0
LINE
5
3BC
100
AcDbEntity
8
0
100
AcDbLine
62
7
6
CONTINUOUS
10
154.4993991825
20
149.7251978290
11
154.4993991825
21
262.7251978290
0
LINE
5
3BD
100
AcDbEntity
8
0
100
AcDbLine
62
7
6
CONTINUOUS
10
155.0016951488
20
260.2251978290
11
155.0016951623
21
152.2251977953
0
LINE
5
3BE
100
AcDbEntity
8
0
100
AcDbLine
62
7
6
CONTINUOUS
10
155.0327589786
20
260.2251978290
11
155.0327589786
21
152.2251978290
0
LINE
5
3BF
100
AcDbEntity
8
0
100
AcDbLine
62
7
6
CONTINUOUS
10
156.0327589786
20
151.7251978290
11
156.0327589786
21
260.7251978290
0
LINE
5
3C0
100
AcDbEntity
8
0
100
AcDbLine
62
7
6
CONTINUOUS
10
157.6679684738
20
152.2251978290
11
157.6679684738
21
260.2251978290
0
LINE
5
3C1
100
AcDbEntity
8
0
100
AcDbLine
62
7
6
CONTINUOUS
10
152.1476154581
20
154.6251978290
11
152.1347071777
21
154.4650418521
0
LWPOLYLINE
5
3C2
100
AcDbEntity
8
0
100
AcDbPolyline
62
7
6
CONTINUOUS
90
9
70
0
10
151.0401046388
20
154.6251978290
10
151.0497126984
20
154.7227465072
10
151.0781661105
20
154.8165425339
10
151.1243711144
20
154.9029848638
10
151.1865522484
20
154.9787522199
10
151.2623191189
20
155.0409323656
10
151.3487617831
20
155.0871371233
10
151.4425588845
20
155.1155903498
10
151.5401046388
20
155.1251978290
0
LINE
5
3C3
100
AcDbEntity
8
0
100
AcDbLine
62
7
6
CONTINUOUS
10
150.9327589786
20
205.8751978290
11
151.5327589786
21
206.2251978290
0
LINE
5
3C4
100
AcDbEntity
8
0
100
AcDbLine
62
7
6
CONTINUOUS
10
151.5327589786
20
206.2251978290
11
150.9327589786
21
206.5751978290
0
LINE
5
3C5
100
AcDbEntity
8
0
100
AcDbLine
62
7
6
CONTINUOUS
10
158.1146691156
20
152.2251978290
11
158.1146691118
21
260.2251977644
0
LINE
5
3C6
100
AcDbEntity
8
0
100
AcDbLine
62
7
6
CONTINUOUS
10
160.1310748859
20
154.6251978290
11
160.1310748859
21
257.8251978290
0
LINE
5
3C7
100
AcDbEntity
8
0
100
AcDbLine
62
7
6
CONTINUOUS
10
160.6827589786
20
156.7751978290
11
160.6827589786
21
164.3751978290
0
LINE
5
3C8
100
AcDbEntity
8
0
100
AcDbLine
62
7
6
CONTINUOUS
10
160.6827589786
20
165.0751978290
11
160.6827589786
21
172.6751978290
0
LINE
5
3C9
100
AcDbEntity
8
0
100
AcDbLine
62
7
6
CONTINUOUS
10
160.6827589786
20
173.3751978290
11
160.6827589786
21
180.9751978290
0
LINE
5
3CA
100
AcDbEntity
8
0
100
AcDbLine
62
7
6
CONTINUOUS
10
160.6827589786
20
181.6751978290
11
160.6827589786
21
189.2751978290
0
LINE
5
3CB
100
AcDbEntity
8
0
100
AcDbLine
62
7
6
CONTINUOUS
10
160.6827589786
20
189.9751978290
11
160.6827589786
21
197.5751978290
0
LINE
5
3CC
100
AcDbEntity
8
0
100
AcDbLine
62
7
6
CONTINUOUS
10
160.6827589786
20
198.2751978290
11
160.6827589786
21
205.8751978290
0
LINE
5
3CD
100
AcDbEntity
8
0
100
AcDbLine
62
7
6
CONTINUOUS
10
160.6827589786
20
206.5751978290
11
160.6827589786
21
214.1751978290
0
LINE
5
3CE
100
AcDbEntity
8
0
100
AcDbLine
62
7
6
CONTINUOUS
10
160.6827589786
20
214.8751978290
11
160.6827589786
21
222.4751978290
0
LINE
5
3CF
100
AcDbEntity
8
0
100
AcDbLine
62
7
6
CONTINUOUS
10
160.6827589786
20
223.1751978290
11
160.6827589786
21
230.7751978290
0
LINE
5
3D0
100
AcDbEntity
8
0
100
AcDbLine
62
7
6
CONTINUOUS
10
160.6827589786
20
231.4751978290
11
160.6827589786
21
239.0751978290
0
LINE
5
3D1
100
AcDbEntity
8
0
100
AcDbLine
62
7
6
CONTINUOUS
10
160.6827589786
20
239.7751978290
11
160.6827589786
21
247.3751978290
0
LINE
5
3D2
100
AcDbEntity
8
0
100
AcDbLine
62
7
6
CONTINUOUS
10
160.6827589786
20
248.0751978290
11
160.6827589786
21
255.6751978290
0
LINE
5
3D3
100
AcDbEntity
8
0
100
AcDbLine
62
7
6
CONTINUOUS
10
152.1350992241
20
154.4676658583
11
152.1026023394
21
154.2657333974
0
LWPOLYLINE
5
3D4
100
AcDbEntity
8
0
100
AcDbPolyline
62
7
6
CONTINUOUS
90
13
70
0
10
152.1026023394
20
154.2657333974
10
152.0693843060
20
154.0672654060
10
152.0531222612
20
153.9739610882
10
152.0371040186
20
153.8855014756
10
152.0213721603
20
153.8025446927
10
152.0059977530
20
153.7256589714
10
151.9910577414
20
153.6552870611
10
151.9767162405
20
153.5921612641
10
151.9631443362
20
153.5368499239
10
151.9507001360
20
153.4903748492
10
151.9396911503
20
153.4531647420
10
151.9309651126
20
153.4268650710
10
151.9265976724
20
153.4151296280
0
LINE
5
3D5
100
AcDbEntity
8
0
100
AcDbLine
62
7
6
CONTINUOUS
10
152.1476154581
20
205.8751978290
11
150.1827896221
21
205.8751978290
0
LINE
5
3D6
100
AcDbEntity
8
0
100
AcDbLine
62
7
6
CONTINUOUS
10
160.1310748859
20
205.8751978290
11
160.6827283351
21
205.8751978290
0
LINE
5
3D7
100
AcDbEntity
8
0
100
AcDbLine
62
7
6
CONTINUOUS
10
152.1476154581
20
206.2251978290
11
151.5327907465
21
206.2251978290
0
LINE
5
3D8
100
AcDbEntity
8
0
100
AcDbLine
62
7
6
CONTINUOUS
10
152.1476154581
20
206.5751978290
11
150.1827896221
21
206.5751978290
0
LINE
5
3D9
100
AcDbEntity
8
0
100
AcDbLine
62
7
6
CONTINUOUS
10
160.1310748859
20
206.5751978290
11
160.6827283351
21
206.5751978290
0
LINE
5
3DA
100
AcDbEntity
8
0
100
AcDbLine
62
7
6
CONTINUOUS
10
152.0560232856
20
258.4598790279
11
152.0835286846
21
258.2998155854
0
LINE
5
3DB
100
AcDbEntity
8
0
100
AcDbLine
62
7
6
CONTINUOUS
10
152.0835286846
20
258.2998155854
11
152.1115831638
21
258.1292495343
0
LINE
5
3DC
100
AcDbEntity
8
0
100
AcDbLine
62
7
6
CONTINUOUS
10
152.1353057095
20
257.9816263486
11
152.1115831638
21
258.1292495343
0
LINE
5
3DD
100
AcDbEntity
8
0
100
AcDbLine
62
7
6
CONTINUOUS
10
162.6398995647
20
258.3251978290
11
162.6398995647
21
257.8251978290
0
LINE
5
3DE
100
AcDbEntity
8
0
100
AcDbLine
62
7
6
CONTINUOUS
10
162.6398995647
20
154.1251978290
11
162.6398995647
21
154.6251978290
0
LINE
5
3DF
100
AcDbEntity
8
0
100
AcDbLine
62
7
6
CONTINUOUS
10
163.9327589786
20
155.1251978290
11
163.9327589786
21
257.3251978290
0
LINE
5
3E0
100
AcDbEntity
8
0
100
AcDbLine
62
7
6
CONTINUOUS
10
152.1703676311
20
154.6251978290
11
152.1352461952
21
154.4683984437
0
LINE
5
3E1
100
AcDbEntity
8
0
100
AcDbLine
62
7
6
CONTINUOUS
10
150.9327589786
20
197.5751978290
11
151.5327589786
21
197.9251978290
0
LINE
5
3E2
100
AcDbEntity
8
0
100
AcDbLine
62
7
6
CONTINUOUS
10
151.5327589786
20
214.5251978290
11
150.9327589786
21
214.8751978290
0
LINE
5
3E3
100
AcDbEntity
8
0
100
AcDbLine
62
7
6
CONTINUOUS
10
166.8172979857
20
152.2251978290
11
166.8172979857
21
260.2251978290
0
LINE
5
3E4
100
AcDbEntity
8
0
100
AcDbLine
62
7
6
CONTINUOUS
10
166.9327589786
20
152.2251978290
11
166.9327589786
21
260.2251978290
0
LINE
5
3E5
100
AcDbEntity
8
0
100
AcDbLine
62
7
6
CONTINUOUS
10
167.7591108009
20
260.2251978290
11
167.7591108009
21
152.2251978290
0
LINE
5
3E6
100
AcDbEntity
8
0
100
AcDbLine
62
7
6
CONTINUOUS
10
152.1476154581
20
214.1751978290
11
150.1827896221
21
214.1751978290
0
LINE
5
3E7
100
AcDbEntity
8
0
100
AcDbLine
62
7
6
CONTINUOUS
10
160.1310748859
20
214.1751978290
11
160.6827283351
21
214.1751978290
0
LINE
5
3E8
100
AcDbEntity
8
0
100
AcDbLine
62
7
6
CONTINUOUS
10
152.1476154581
20
214.5251978290
11
151.5327907465
21
214.5251978290
0
LINE
5
3E9
100
AcDbEntity
8
0
100
AcDbLine
62
7
6
CONTINUOUS
10
172.0195830674
20
152.2252415301
11
172.0195830674
21
260.2253841917
0
LINE
5
3EA
100
AcDbEntity
8
0
100
AcDbLine
62
7
6
CONTINUOUS
10
172.2782908935
20
149.2251978290
11
172.2782606408
21
151.6222659155
0
LINE
5
3EB
100
AcDbEntity
8
0
100
AcDbLine
62
7
6
CONTINUOUS
10
172.2782805467
20
260.8282004321
11
172.2782908935
21
263.2251978290
0
LINE
5
3EC
100
AcDbEntity
8
0
100
AcDbLine
62
7
6
CONTINUOUS
10
172.4327589786
20
149.2251978290
11
172.4327589786
21
263.2251978290
0
LINE
5
3ED
100
AcDbEntity
8
0
100
AcDbLine
62
7
6
CONTINUOUS
10
150.9327589786
20
189.2751978290
11
151.5327589786
21
189.6251978290
0
LINE
5
3EE
100
AcDbEntity
8
0
100
AcDbLine
62
7
6
CONTINUOUS
10
152.1476154581
20
214.8751978290
11
150.1827896221
21
214.8751978290
0
LINE
5
3EF
100
AcDbEntity
8
0
100
AcDbLine
62
7
6
CONTINUOUS
10
160.1310748859
20
214.8751978290
11
160.6827283351
21
214.8751978290
0
LINE
5
3F0
100
AcDbEntity
8
0
100
AcDbLine
62
7
6
CONTINUOUS
10
151.5327589786
20
222.8251978290
11
150.9327589786
21
223.1751978290
0
LINE
5
3F1
100
AcDbEntity
8
0
100
AcDbLine
62
7
6
CONTINUOUS
10
150.9327589786
20
180.9751978290
11
151.5327589786
21
181.3251978290
0
LINE
5
3F2
100
AcDbEntity
8
0
100
AcDbLine
62
7
6
CONTINUOUS
10
152.1476154581
20
222.4751978290
11
150.1827896221
21
222.4751978290
0
LINE
5
3F3
100
AcDbEntity
8
0
100
AcDbLine
62
7
6
CONTINUOUS
10
160.1310748859
20
222.4751978290
11
160.6827283351
21
222.4751978290
0
LINE
5
3F4
100
AcDbEntity
8
0
100
AcDbLine
62
7
6
CONTINUOUS
10
152.1476154581
20
222.8251978290
11
151.5327907465
21
222.8251978290
0
LINE
5
3F5
100
AcDbEntity
8
0
100
AcDbLine
62
7
6
CONTINUOUS
10
152.1476154581
20
223.1751978290
11
150.1827896221
21
223.1751978290
0
LINE
5
3F6
100
AcDbEntity
8
0
100
AcDbLine
62
7
6
CONTINUOUS
10
160.1310748859
20
223.1751978290
11
160.6827283351
21
223.1751978290
0
LINE
5
3F7
100
AcDbEntity
8
0
100
AcDbLine
62
7
6
CONTINUOUS
10
151.5327589786
20
231.1251978290
11
150.9327589786
21
231.4751978290
0
LWPOLYLINE
5
3F8
100
AcDbEntity
8
0
100
AcDbPolyline
62
7
6
CONTINUOUS
90
15
70
0
10
151.9282344512
20
259.0331942637
10
151.9250428687
20
259.0392932097
10
151.9248145620
20
259.0396580403
10
151.9291887942
20
259.0284282807
10
151.9361385393
20
259.0083289741
10
151.9450520349
20
258.9796753496
10
151.9552027095
20
258.9438124686
10
151.9663271668
20
258.9010840502
10
151.9781502538
20
258.8521866182
10
151.9904881423
20
258.7976919011
10
152.0031382886
20
258.7384564839
10
152.0160599873
20
258.6747326790
10
152.0291890491
20
258.6069240829
10
152.0425111845
20
258.5352347199
10
152.0560232856
20
258.4598790279
0
LINE
5
3F9
100
AcDbEntity
8
0
100
AcDbLine
62
7
6
CONTINUOUS
10
150.9327589786
20
172.6751978290
11
151.5327589786
21
173.0251978290
0
LINE
5
3FA
100
AcDbEntity
8
0
100
AcDbLine
62
7
6
CONTINUOUS
10
151.5327589786
20
239.4251978290
11
150.9327589786
21
239.7751978290
0
LINE
5
3FB
100
AcDbEntity
8
0
100
AcDbLine
62
7
6
CONTINUOUS
10
152.1476154581
20
230.7751978290
11
150.1827896221
21
230.7751978290
0
LINE
5
3FC
100
AcDbEntity
8
0
100
AcDbLine
62
7
6
CONTINUOUS
10
160.1310748859
20
230.7751978290
11
160.6827283351
21
230.7751978290
0
LINE
5
3FD
100
AcDbEntity
8
0
100
AcDbLine
62
7
6
CONTINUOUS
10
152.1476154581
20
231.1251978290
11
151.5327907465
21
231.1251978290
0
LINE
5
3FE
100
AcDbEntity
8
0
100
AcDbLine
62
7
6
CONTINUOUS
10
152.1476154581
20
231.4751978290
11
150.1827896221
21
231.4751978290
0
LINE
5
3FF
100
AcDbEntity
8
0
100
AcDbLine
62
7
6
CONTINUOUS
10
160.1310748859
20
231.4751978290
11
160.6827283351
21
231.4751978290
0
LINE
5
400
100
AcDbEntity
8
0
100
AcDbLine
62
7
6
CONTINUOUS
10
150.9327589786
20
164.3751978290
11
151.5327589786
21
164.7251978290
0
LINE
5
401
100
AcDbEntity
8
0
100
AcDbLine
62
7
6
CONTINUOUS
10
151.5327589786
20
247.7251978290
11
150.9327589786
21
248.0751978290
0
LWPOLYLINE
5
402
100
AcDbEntity
8
0
100
AcDbPolyline
62
7
6
CONTINUOUS
90
7
70
0
10
151.3412377429
20
258.9488190924
10
151.3418345688
20
258.9482017133
10
151.3561090441
20
258.9344857422
10
151.3852053253
20
258.9087507677
10
151.4320553716
20
258.8735634053
10
151.4976330589
20
258.8355083661
10
151.5787395752
20
258.8034160642
0
LWPOLYLINE
5
403
100
AcDbEntity
8
0
100
AcDbPolyline
62
7
6
CONTINUOUS
90
6
70
0
10
151.2294476755
20
153.5276969652
10
151.1608484936
20
153.4643928233
10
151.1053436660
20
153.3896595261
10
151.0647469244
20
153.3061797831
10
151.0403355489
20
153.2169440111
10
151.0327526258
20
153.1301946894
0
LINE
5
404
100
AcDbEntity
8
0
100
AcDbLine
62
7
6
CONTINUOUS
10
152.1476154581
20
239.0751978290
11
150.1827896221
21
239.0751978290
0
LINE
5
405
100
AcDbEntity
8
0
100
AcDbLine
62
7
6
CONTINUOUS
10
160.1310748859
20
239.0751978290
11
160.6827283351
21
239.0751978290
0
LINE
5
406
100
AcDbEntity
8
0
100
AcDbLine
62
7
6
CONTINUOUS
10
152.1476154581
20
239.4251978290
11
151.5327907465
21
239.4251978290
0
LINE
5
407
100
AcDbEntity
8
0
100
AcDbLine
62
7
6
CONTINUOUS
10
152.1476154581
20
239.7751978290
11
150.1827896221
21
239.7751978290
0
LINE
5
408
100
AcDbEntity
8
0
100
AcDbLine
62
7
6
CONTINUOUS
10
160.1310748859
20
239.7751978290
11
160.6827283351
21
239.7751978290
0
LINE
5
409
100
AcDbEntity
8
0
100
AcDbLine
62
7
6
CONTINUOUS
10
151.3087481624
20
153.5772125662
11
151.2294476755
21
153.5276969652
0
LINE
5
40A
100
AcDbEntity
8
0
100
AcDbLine
62
7
6
CONTINUOUS
10
152.1476154581
20
247.3751978290
11
150.1827896221
21
247.3751978290
0
LINE
5
40B
100
AcDbEntity
8
0
100
AcDbLine
62
7
6
CONTINUOUS
10
160.1310748859
20
247.3751978290
11
160.6827283351
21
247.3751978290
0
LINE
5
40C
100
AcDbEntity
8
0
100
AcDbLine
62
7
6
CONTINUOUS
10
152.1476154581
20
247.7251978290
11
151.5327907465
21
247.7251978290
0
LINE
5
40D
100
AcDbEntity
8
0
100
AcDbLine
62
7
6
CONTINUOUS
10
152.1476154581
20
248.0751978290
11
150.1827896221
21
248.0751978290
0
LINE
5
40E
100
AcDbEntity
8
0
100
AcDbLine
62
7
6
CONTINUOUS
10
160.1310748859
20
248.0751978290
11
160.6827283351
21
248.0751978290
0
LINE
5
40F
100
AcDbEntity
8
0
100
AcDbLine
62
7
6
CONTINUOUS
10
151.2418531491
20
258.9135237167
11
151.3229666371
21
258.8663274151
0
LWPOLYLINE
5
410
100
AcDbEntity
8
0
100
AcDbPolyline
62
7
6
CONTINUOUS
90
7
70
0
10
151.5787042357
20
153.6469716478
10
151.5636059899
20
153.6421232894
10
151.4769773891
20
153.6041734899
10
151.4150174577
20
153.5648796939
10
151.3738652287
20
153.5319840927
10
151.3503523430
20
153.5104541130
10
151.3468097851
20
153.5070432294
0
LINE
5
411
100
AcDbEntity
8
0
100
AcDbLine
62
7
6
CONTINUOUS
10
151.3229666371
20
258.8663274151
11
151.4114731016
21
258.8351187927
0
LINE
5
412
100
AcDbEntity
8
0
100
AcDbLine
62
7
6
CONTINUOUS
10
151.5786234773
20
153.6469470618
11
151.5784822057
21
153.6469038386
0
LINE
5
413
100
AcDbEntity
8
0
100
AcDbLine
62
7
6
CONTINUOUS
10
152.1476154581
20
255.6751978290
11
150.1827896221
21
255.6751978290
0
LINE
5
414
100
AcDbEntity
8
0
100
AcDbLine
62
7
6
CONTINUOUS
10
160.1310748859
20
255.6751978290
11
160.6827283351
21
255.6751978290
0
LINE
5
415
100
AcDbEntity
8
0
100
AcDbLine
62
7
6
CONTINUOUS
10
152.1476154581
20
256.0251978290
11
151.5327907465
21
256.0251978290
0
LINE
5
416
100
AcDbEntity
8
0
100
AcDbLine
62
7
6
CONTINUOUS
10
152.1322149586
20
257.3251978290
11
151.5327589786
21
257.3251978290
0
LINE
5
417
100
AcDbEntity
8
0
100
AcDbLine
62
7
6
CONTINUOUS
10
160.1310748859
20
257.3251978290
11
163.9327589786
21
257.3251978290
0
LINE
5
418
100
AcDbEntity
8
0
100
AcDbLine
62
7
6
CONTINUOUS
10
151.4114731016
20
258.8351187927
11
151.4827590046
21
258.8226918103
0
LINE
5
419
100
AcDbEntity
8
0
100
AcDbLine
62
7
6
CONTINUOUS
10
151.5787156519
20
258.8034206964
11
151.5786450240
21
258.8034417804
0
LINE
5
41A
100
AcDbEntity
8
0
100
AcDbLine
62
7
6
CONTINUOUS
10
162.6398995647
20
257.8251978290
11
160.1310748859
21
257.8251978290
0
LINE
5
41B
100
AcDbEntity
8
0
100
AcDbLine
62
7
6
CONTINUOUS
10
151.0327589786
20
257.8251978290
11
152.1703676311
21
257.8251978290
0
LINE
5
41C
100
AcDbEntity
8
0
100
AcDbLine
62
7
6
CONTINUOUS
10
162.6398995647
20
258.3251978290
11
160.2112978472
21
258.3251978290
0
LINE
5
41D
100
AcDbEntity
8
0
100
AcDbLine
62
7
6
CONTINUOUS
10
152.0792212240
20
258.3251978290
11
151.0327589786
21
258.3251978290
0
LINE
5
41E
100
AcDbEntity
8
0
100
AcDbLine
62
7
6
CONTINUOUS
10
162.3053969484
20
258.8251978290
11
160.7233951541
21
258.8251978290
0
LINE
5
41F
100
AcDbEntity
8
0
100
AcDbLine
62
7
6
CONTINUOUS
10
151.9842606566
20
258.8251978290
11
151.8217163010
21
258.8251978290
0
LINE
5
420
100
AcDbEntity
8
0
100
AcDbLine
62
7
6
CONTINUOUS
10
151.8150325488
20
259.3251978290
11
151.3226827134
21
259.3251978290
0
LINE
5
421
100
AcDbEntity
8
0
100
AcDbLine
62
7
6
CONTINUOUS
10
151.1631918849
20
259.3251978290
11
151.0327589786
21
259.3251978290
0
LINE
5
422
100
AcDbEntity
8
0
100
AcDbLine
62
7
6
CONTINUOUS
10
155.0016951488
20
260.2251978290
11
158.1146691118
21
260.2251977644
0
LINE
5
423
100
AcDbEntity
8
0
100
AcDbLine
62
7
6
CONTINUOUS
10
166.8172979857
20
260.2251978290
11
172.4327589786
21
260.2251978282
0
LINE
5
424
100
AcDbEntity
8
0
100
AcDbLine
62
7
6
CONTINUOUS
10
157.1749720611
20
260.7251978290
11
155.5327589786
21
260.7251978290
0
LINE
5
425
100
AcDbEntity
8
0
100
AcDbLine
62
7
6
CONTINUOUS
10
167.4327589786
20
260.7251978290
11
170.9191791189
21
260.7251978290
0
LINE
5
426
100
AcDbEntity
8
0
100
AcDbLine
62
7
6
CONTINUOUS
10
157.6251691314
20
261.2251978290
11
155.9946029502
21
261.2251978290
0
LINE
5
427
100
AcDbEntity
8
0
100
AcDbLine
62
7
6
CONTINUOUS
10
167.8102057871
20
261.2251978290
11
171.2718995434
21
261.2251978290
0
LINE
5
428
100
AcDbEntity
8
0
100
AcDbLine
62
7
6
CONTINUOUS
10
151.0327589786
20
262.7251978290
11
153.5352167097
21
262.7251978290
0
LINE
5
429
100
AcDbEntity
8
0
100
AcDbLine
62
7
6
CONTINUOUS
10
154.8326701122
20
263.2251978290
11
172.4327589786
21
263.2251978290
0
LINE
5
42A
100
AcDbEntity
8
0
100
AcDbLine
62
7
6
CONTINUOUS
10
152.0327589786
20
263.7251978290
11
171.9327589786
21
263.7251978290
0
LINE
5
42B
100
AcDbEntity
8
0
100
AcDbLine
62
7
6
CONTINUOUS
10
172.2782805467
20
260.8282227475
11
172.4327589786
21
260.8282123644
0
ARC
5
42C
100
AcDbEntity
8
0
100
AcDbCircle
62
7
6
CONTINUOUS
10
80.2616070831
20
113.6018448329
40
5.2500000000
100
AcDbArc
50
54.5591290217
51
123.0340909396
0
ARC
5
42D
100
AcDbEntity
8
0
100
AcDbCircle
62
7
6
CONTINUOUS
10
80.2616070831
20
113.6018448329
40
4.5000000000
100
AcDbArc
50
77.8185452469
51
102.0542924536
0
ARC
5
42E
100
AcDbEntity
8
0
100
AcDbCircle
62
7
6
CONTINUOUS
10
67.6616070831
20
113.6018448329
40
5.2500000000
100
AcDbArc
50
56.9659090604
51
123.0340909396
0
ARC
5
42F
100
AcDbEntity
8
0
100
AcDbCircle
62
7
6
CONTINUOUS
10
67.6616070831
20
113.6018448329
40
4.5000000000
100
AcDbArc
50
78.5827707835
51
101.4172292165
0
ARC
5
430
100
AcDbEntity
8
0
100
AcDbCircle
62
7
6
CONTINUOUS
10
55.0616070831
20
113.6018448329
40
5.2500000000
100
AcDbArc
50
55.5846849080
51
130.3839790786
0
ARC
5
431
100
AcDbEntity
8
0
100
AcDbCircle
62
7
6
CONTINUOUS
10
55.0616070831
20
113.6018448329
40
4.5000000000
100
AcDbArc
50
71.8059012189
51
114.1740594124
0
CIRCLE
5
432
100
AcDbEntity
8
0
100
AcDbCircle
62
7
6
CONTINUOUS
10
80.2616070831
20
113.6018448329
40
2.0500000000
0
CIRCLE
5
433
100
AcDbEntity
8
0
100
AcDbCircle
62
7
6
CONTINUOUS
10
67.6616070831
20
113.6018448329
40
2.0500000000
0
CIRCLE
5
434
100
AcDbEntity
8
0
100
AcDbCircle
62
7
6
CONTINUOUS
10
55.0616070831
20
113.6018448329
40
2.0500000000
0
ARC
5
435
100
AcDbEntity
8
0
100
AcDbCircle
62
7
6
CONTINUOUS
10
12.3888085793
20
48.3818448329
40
70.0000000000
100
AcDbArc
50
43.7143793161
51
70.9173573413
0
ARC
5
436
100
AcDbEntity
8
0
100
AcDbCircle
62
7
6
CONTINUOUS
10
63.3457668872
20
97.1018448329
40
0.5000000000
100
AcDbArc
50
223.7143793161
51
270.0000000000
0
ARC
5
437
100
AcDbEntity
8
0
100
AcDbCircle
62
7
6
CONTINUOUS
10
35.4374876864
20
115.0077286275
40
0.5000000000
100
AcDbArc
50
100.4804760775
51
250.9173573416
0
ARC
5
438
100
AcDbEntity
8
0
100
AcDbCircle
62
7
6
CONTINUOUS
10
62.6316070831
20
-31.9981551671
40
150.0000000000
100
AcDbArc
50
90.0000000000
51
100.4804760776
0
ARC
5
439
100
AcDbEntity
8
0
100
AcDbCircle
62
7
6
CONTINUOUS
10
79.2116070831
20
103.6018448329
40
0.5000000000
100
AcDbArc
50
0.0000000000
51
90.0000000000
0
ARC
5
43A
100
AcDbEntity
8
0
100
AcDbCircle
62
7
6
CONTINUOUS
10
79.2116070831
20
100.6018448329
40
0.5000000000
100
AcDbArc
50
270.0000000000
51
360.0000000000
0
ARC
5
43B
100
AcDbEntity
8
0
100
AcDbCircle
62
7
6
CONTINUOUS
10
68.7116070831
20
100.6018448329
40
0.5000000000
100
AcDbArc
50
180.0000000000
51
270.0000000000
0
ARC
5
43C
100
AcDbEntity
8
0
100
AcDbCircle
62
7
6
CONTINUOUS
10
68.7116070831
20
103.6018448329
40
0.5000000000
100
AcDbArc
50
90.0000000000
51
180.0000000000
0
ARC
5
43D
100
AcDbEntity
8
0
100
AcDbCircle
62
7
6
CONTINUOUS
10
88.0616070831
20
116.5018448329
40
0.5000000000
100
AcDbArc
50
0.0000000000
51
90.0000000000
0
ARC
5
43E
100
AcDbEntity
8
0
100
AcDbCircle
62
7
6
CONTINUOUS
10
81.1166090847
20
98.0018448329
40
20.0000000000
100
AcDbArc
50
72.8655305650
51
90.0000000000
0
ARC
5
43F
100
AcDbEntity
8
0
100
AcDbCircle
62
7
6
CONTINUOUS
10
86.8616070831
20
116.6363557735
40
0.5000000000
100
AcDbArc
50
0.0000000000
51
72.8655305650
0
ARC
5
440
100
AcDbEntity
8
0
100
AcDbCircle
62
7
6
CONTINUOUS
10
88.0616070831
20
97.1018448329
40
0.5000000000
100
AcDbArc
50
270.0000000000
51
360.0000000000
0
ARC
5
441
100
AcDbEntity
8
0
100
AcDbCircle
62
7
6
CONTINUOUS
10
86.8616070831
20
97.1018448329
40
0.5000000000
100
AcDbArc
50
270.0000000000
51
360.0000000000
0
ARC
5
442
100
AcDbEntity
8
0
100
AcDbCircle
62
7
6
CONTINUOUS
10
12.3888085793
20
48.3818448329
40
70.5000000000
100
AcDbArc
50
43.7143793161
51
70.0998075464
0
ARC
5
443
100
AcDbEntity
8
0
100
AcDbCircle
62
7
6
CONTINUOUS
10
62.6316070831
20
-31.9981551671
40
149.0000000000
100
AcDbArc
50
90.0000000000
51
100.1453799446
0
ARC
5
444
100
AcDbEntity
8
0
100
AcDbCircle
62
7
6
CONTINUOUS
10
81.1166090847
20
98.0018448329
40
19.0000000000
100
AcDbArc
50
72.4000946751
51
90.0000000000
0
ARC
5
445
100
AcDbEntity
8
0
100
AcDbCircle
62
7
6
CONTINUOUS
10
73.9616070831
20
254.7751978290
40
3.2500000000
100
AcDbArc
50
180.0000000000
51
360.0000000000
0
ARC
5
446
100
AcDbEntity
8
0
100
AcDbCircle
62
7
6
CONTINUOUS
10
73.9616070831
20
157.6751978290
40
3.2500000000
100
AcDbArc
50
0.0000000000
51
180.0000000000
0
ARC
5
447
100
AcDbEntity
8
0
100
AcDbCircle
62
7
6
CONTINUOUS
10
73.9616070831
20
255.5251978290
40
3.0000000000
100
AcDbArc
50
0.0000000000
51
180.0000000000
0
ARC
5
448
100
AcDbEntity
8
0
100
AcDbCircle
62
7
6
CONTINUOUS
10
73.9616070831
20
157.9251978290
40
3.0000000000
100
AcDbArc
50
97.5000000000
51
180.0000000000
0
ARC
5
449
100
AcDbEntity
8
0
100
AcDbCircle
62
7
6
CONTINUOUS
10
73.9616070831
20
157.9251978290
40
3.0000000000
100
AcDbArc
50
0.0000000000
51
82.5000000000
0
ARC
5
44A
100
AcDbEntity
8
0
100
AcDbCircle
62
7
6
CONTINUOUS
10
73.9616070831
20
156.9251978290
40
3.0000000000
100
AcDbArc
50
180.0000000000
51
360.0000000000
0
ARC
5
44B
100
AcDbEntity
8
0
100
AcDbCircle
62
7
6
CONTINUOUS
10
48.5616070831
20
257.8251978290
40
1.0000000000
100
AcDbArc
50
90.0000000000
51
180.0000000000
0
ARC
5
44C
100
AcDbEntity
8
0
100
AcDbCircle
62
7
6
CONTINUOUS
10
48.5616070831
20
154.6251978290
40
1.0000000000
100
AcDbArc
50
180.0000000000
51
270.0000000000
0
ARC
5
44D
100
AcDbEntity
8
0
100
AcDbCircle
62
7
6
CONTINUOUS
10
51.0616070831
20
154.1251978290
40
0.5000000000
100
AcDbArc
50
270.0000000000
51
360.0000000000
0
ARC
5
44E
100
AcDbEntity
8
0
100
AcDbCircle
62
7
6
CONTINUOUS
10
73.9616070831
20
254.7751978290
40
8.0000000000
100
AcDbArc
50
241.1184792511
51
305.4505426392
0
ARC
5
44F
100
AcDbEntity
8
0
100
AcDbCircle
62
7
6
CONTINUOUS
10
69.1316070831
20
246.0189943138
40
2.0000000000
100
AcDbArc
50
61.1184792511
51
180.0000000000
0
ARC
5
450
100
AcDbEntity
8
0
100
AcDbCircle
62
7
6
CONTINUOUS
10
69.1316070831
20
166.4314013443
40
2.0000000000
100
AcDbArc
50
180.0000000000
51
298.8815207489
0
ARC
5
451
100
AcDbEntity
8
0
100
AcDbCircle
62
7
6
CONTINUOUS
10
73.9616070831
20
157.6751978290
40
8.0000000000
100
AcDbArc
50
54.5494573608
51
118.8815207489
0
ARC
5
452
100
AcDbEntity
8
0
100
AcDbCircle
62
7
6
CONTINUOUS
10
79.7616070831
20
165.8213625708
40
2.0000000000
100
AcDbArc
50
234.5494573608
51
360.0000000000
0
ARC
5
453
100
AcDbEntity
8
0
100
AcDbCircle
62
7
6
CONTINUOUS
10
79.7616070831
20
246.6290330873
40
2.0000000000
100
AcDbArc
50
0.0000000000
51
125.4505426392
0
ARC
5
454
100
AcDbEntity
8
0
100
AcDbCircle
62
7
6
CONTINUOUS
10
51.0616070831
20
258.3251978290
40
0.5000000000
100
AcDbArc
50
0.0000000000
51
90.0000000000
0
ARC
5
455
100
AcDbEntity
8
0
100
AcDbCircle
62
7
6
CONTINUOUS
10
43.0616070831
20
260.2251978290
40
0.5000000000
100
AcDbArc
50
0.0000000000
51
90.0000000000
0
ARC
5
456
100
AcDbEntity
8
0
100
AcDbCircle
62
7
6
CONTINUOUS
10
43.0616070831
20
152.2251978290
40
0.5000000000
100
AcDbArc
50
270.0000000000
51
360.0000000000
0
ARC
5
457
100
AcDbEntity
8
0
100
AcDbCircle
62
7
6
CONTINUOUS
10
52.0616070831
20
154.6251978290
40
0.5000000000
100
AcDbArc
50
90.0000000000
51
180.0000000000
0
ARC
5
458
100
AcDbEntity
8
0
100
AcDbCircle
62
7
6
CONTINUOUS
10
52.0616070831
20
257.8251978290
40
0.5000000000
100
AcDbArc
50
180.0000000000
51
270.0000000000
0
ARC
5
459
100
AcDbEntity
8
0
100
AcDbCircle
62
7
6
CONTINUOUS
10
85.2616070831
20
149.2251978290
40
0.5000000000
100
AcDbArc
50
270.0000000000
51
360.0000000000
0
ARC
5
45A
100
AcDbEntity
8
0
100
AcDbCircle
62
7
6
CONTINUOUS
10
86.8616070831
20
263.2251741428
40
0.5000000000
100
AcDbArc
50
0.0000000000
51
90.0000000000
0
ARC
5
45B
100
AcDbEntity
8
0
100
AcDbCircle
62
7
6
CONTINUOUS
10
86.8616070831
20
261.9392718324
40
0.5000000000
100
AcDbArc
50
250.0000000000
51
360.0000000000
0
ARC
5
45C
100
AcDbEntity
8
0
100
AcDbCircle
62
7
6
CONTINUOUS
10
86.8616070831
20
259.1111238257
40
0.5000000000
100
AcDbArc
50
0.0000000000
51
110.0000000000
0
ARC
5
45D
100
AcDbEntity
8
0
100
AcDbCircle
62
7
6
CONTINUOUS
10
86.8616070831
20
227.0111238257
40
0.5000000000
100
AcDbArc
50
0.0000000000
51
110.0000000000
0
ARC
5
45E
100
AcDbEntity
8
0
100
AcDbCircle
62
7
6
CONTINUOUS
10
86.8616070831
20
206.7251978290
40
0.5000000000
100
AcDbArc
50
270.0000000000
51
360.0000000000
0
ARC
5
45F
100
AcDbEntity
8
0
100
AcDbCircle
62
7
6
CONTINUOUS
10
86.8616070831
20
184.5111238257
40
0.5000000000
100
AcDbArc
50
0.0000000000
51
110.0000000000
0
ARC
5
460
100
AcDbEntity
8
0
100
AcDbCircle
62
7
6
CONTINUOUS
10
86.8616070831
20
162.3392718324
40
0.5000000000
100
AcDbArc
50
250.0000000000
51
360.0000000000
0
ARC
5
461
100
AcDbEntity
8
0
100
AcDbCircle
62
7
6
CONTINUOUS
10
88.0616070831
20
152.9302404816
40
0.5000000000
100
AcDbArc
50
0.0000000000
51
110.0000000000
0
ARC
5
462
100
AcDbEntity
8
0
100
AcDbCircle
62
7
6
CONTINUOUS
10
88.0616070831
20
150.9201551765
40
0.5000000000
100
AcDbArc
50
250.0000000000
51
360.0000000000
0
ARC
5
463
100
AcDbEntity
8
0
100
AcDbCircle
62
7
6
CONTINUOUS
10
85.9616070831
20
150.9395682277
40
0.2000000000
100
AcDbArc
50
70.0000000000
51
180.0000000000
0
ARC
5
464
100
AcDbEntity
8
0
100
AcDbCircle
62
7
6
CONTINUOUS
10
86.8616070831
20
251.0392718324
40
0.5000000000
100
AcDbArc
50
250.0000000000
51
360.0000000000
0
ARC
5
465
100
AcDbEntity
8
0
100
AcDbCircle
62
7
6
CONTINUOUS
10
84.8616070831
20
261.6030345285
40
0.5000000000
100
AcDbArc
50
70.0000000000
51
180.0000000000
0
ARC
5
466
100
AcDbEntity
8
0
100
AcDbCircle
62
7
6
CONTINUOUS
10
84.8616070831
20
259.4473611296
40
0.5000000000
100
AcDbArc
50
180.0000000000
51
290.0000000000
0
ARC
5
467
100
AcDbEntity
8
0
100
AcDbCircle
62
7
6
CONTINUOUS
10
85.9616070831
20
250.6219206025
40
0.2000000000
100
AcDbArc
50
70.0000000000
51
180.0000000000
0
ARC
5
468
100
AcDbEntity
8
0
100
AcDbCircle
62
7
6
CONTINUOUS
10
85.9616070831
20
227.4284750556
40
0.2000000000
100
AcDbArc
50
180.0000000000
51
290.0000000000
0
ARC
5
469
100
AcDbEntity
8
0
100
AcDbCircle
62
7
6
CONTINUOUS
10
85.9616070831
20
206.0251978290
40
0.2000000000
100
AcDbArc
50
90.0000000000
51
180.0000000000
0
ARC
5
46A
100
AcDbEntity
8
0
100
AcDbCircle
62
7
6
CONTINUOUS
10
85.9616070831
20
184.9284750556
40
0.2000000000
100
AcDbArc
50
180.0000000000
51
290.0000000000
0
ARC
5
46B
100
AcDbEntity
8
0
100
AcDbCircle
62
7
6
CONTINUOUS
10
85.9616070831
20
161.9219206025
40
0.2000000000
100
AcDbArc
50
70.0000000000
51
180.0000000000
0
ARC
5
46C
100
AcDbEntity
8
0
100
AcDbCircle
62
7
6
CONTINUOUS
10
85.9616070831
20
152.9108274304
40
0.2000000000
100
AcDbArc
50
180.0000000000
51
290.0000000000
0
ARC
5
46D
100
AcDbEntity
8
0
100
AcDbCircle
62
7
6
CONTINUOUS
10
73.9616070831
20
157.6751978290
40
10.0000000000
100
AcDbArc
50
54.5505003062
51
118.8803667604
0
ARC
5
46E
100
AcDbEntity
8
0
100
AcDbCircle
62
7
6
CONTINUOUS
10
73.9616070831
20
254.7751978290
40
10.0000000000
100
AcDbArc
50
241.1207787785
51
305.4481124131
0
ARC
5
46F
100
AcDbEntity
8
0
100
AcDbCircle
62
7
6
CONTINUOUS
10
85.9616070831
20
150.9395682277
40
0.6999815489
100
AcDbArc
50
70.0000000000
51
180.0000000000
0
ARC
5
470
100
AcDbEntity
8
0
100
AcDbCircle
62
7
6
CONTINUOUS
10
73.9616070831
20
254.7751978290
40
7.4999988074
100
AcDbArc
50
241.1184792511
51
305.4505426392
0
ARC
5
471
100
AcDbEntity
8
0
100
AcDbCircle
62
7
6
CONTINUOUS
10
69.1316070831
20
246.0189943138
40
2.4999913632
100
AcDbArc
50
61.1184792511
51
180.0000000000
0
ARC
5
472
100
AcDbEntity
8
0
100
AcDbCircle
62
7
6
CONTINUOUS
10
84.8616070831
20
261.6030345285
40
0.9999867884
100
AcDbArc
50
70.0000000000
51
180.0000000000
0
ARC
5
473
100
AcDbEntity
8
0
100
AcDbCircle
62
7
6
CONTINUOUS
10
84.8616070831
20
259.4473611296
40
0.9999867884
100
AcDbArc
50
180.0000000000
51
290.0000000000
0
ARC
5
474
100
AcDbEntity
8
0
100
AcDbCircle
62
7
6
CONTINUOUS
10
69.1316070831
20
166.4314013443
40
2.4999913632
100
AcDbArc
50
180.0000000000
51
298.8815207489
0
ARC
5
475
100
AcDbEntity
8
0
100
AcDbCircle
62
7
6
CONTINUOUS
10
85.9616070831
20
250.6219206025
40
0.6999815685
100
AcDbArc
50
70.0000000000
51
180.0000000000
0
ARC
5
476
100
AcDbEntity
8
0
100
AcDbCircle
62
7
6
CONTINUOUS
10
73.9616070831
20
157.6751978290
40
7.4999988074
100
AcDbArc
50
54.5494573608
51
118.8815207489
0
ARC
5
477
100
AcDbEntity
8
0
100
AcDbCircle
62
7
6
CONTINUOUS
10
85.9616070831
20
227.4284750556
40
0.6999815685
100
AcDbArc
50
180.0000000000
51
290.0000000000
0
ARC
5
478
100
AcDbEntity
8
0
100
AcDbCircle
62
7
6
CONTINUOUS
10
79.7616070831
20
165.8213625708
40
2.4999903042
100
AcDbArc
50
234.5494573608
51
360.0000000000
0
ARC
5
479
100
AcDbEntity
8
0
100
AcDbCircle
62
7
6
CONTINUOUS
10
85.9616070831
20
206.0251978290
40
0.6999985960
100
AcDbArc
50
90.0000000000
51
180.0000000000
0
ARC
5
47A
100
AcDbEntity
8
0
100
AcDbCircle
62
7
6
CONTINUOUS
10
85.9616070831
20
184.9284750556
40
0.6999815685
100
AcDbArc
50
180.0000000000
51
290.0000000000
0
ARC
5
47B
100
AcDbEntity
8
0
100
AcDbCircle
62
7
6
CONTINUOUS
10
85.9616070831
20
161.9219206025
40
0.6999815685
100
AcDbArc
50
70.0000000000
51
180.0000000000
0
ARC
5
47C
100
AcDbEntity
8
0
100
AcDbCircle
62
7
6
CONTINUOUS
10
79.7616070831
20
246.6290330873
40
2.4999903042
100
AcDbArc
50
0.0000000000
51
125.4505426392
0
ARC
5
47D
100
AcDbEntity
8
0
100
AcDbCircle
62
7
6
CONTINUOUS
10
85.9616070831
20
152.9108274304
40
0.6999815685
100
AcDbArc
50
180.0000000000
51
290.0000000000
0
ARC
5
47E
100
AcDbEntity
8
0
100
AcDbCircle
62
7
6
CONTINUOUS
10
151.5327589786
20
257.8251978290
40
0.5000000000
100
AcDbArc
50
180.0000000000
51
270.0000000000
0
ARC
5
47F
100
AcDbEntity
8
0
100
AcDbCircle
62
7
6
CONTINUOUS
10
152.4327589786
20
257.8251978290
40
0.5000000000
100
AcDbArc
50
180.0000000000
51
235.1573130138
0
ARC
5
480
100
AcDbEntity
8
0
100
AcDbCircle
62
7
6
CONTINUOUS
10
152.4327589786
20
154.6251978290
40
0.5000000000
100
AcDbArc
50
124.8426869839
51
180.0000000000
0
ARC
5
481
100
AcDbEntity
8
0
100
AcDbCircle
62
7
6
CONTINUOUS
10
151.4327589786
20
258.3251978290
40
0.5000000000
100
AcDbArc
50
0.0000000000
51
84.3839923436
0
ARC
5
482
100
AcDbEntity
8
0
100
AcDbCircle
62
7
6
CONTINUOUS
10
151.4327589786
20
154.1251978290
40
0.5000000000
100
AcDbArc
50
275.7345919928
51
281.2499999838
0
ARC
5
483
100
AcDbEntity
8
0
100
AcDbCircle
62
7
6
CONTINUOUS
10
151.4327589786
20
154.1251978290
40
0.5000000000
100
AcDbArc
50
286.8068980251
51
360.0000000000
0
ARC
5
484
100
AcDbEntity
8
0
100
AcDbCircle
62
7
6
CONTINUOUS
10
152.0327589786
20
262.7251978290
40
1.0000000000
100
AcDbArc
50
90.0000000000
51
180.0000000000
0
ARC
5
485
100
AcDbEntity
8
0
100
AcDbCircle
62
7
6
CONTINUOUS
10
152.0327589786
20
149.7251978290
40
1.0000000000
100
AcDbArc
50
180.0000000000
51
270.0000000000
0
ARC
5
486
100
AcDbEntity
8
0
100
AcDbCircle
62
7
6
CONTINUOUS
10
171.9327589786
20
149.2251978290
40
0.5000000000
100
AcDbArc
50
270.0000000000
51
360.0000000000
0
ARC
5
487
100
AcDbEntity
8
0
100
AcDbCircle
62
7
6
CONTINUOUS
10
171.9327589786
20
263.2251978290
40
0.5000000000
100
AcDbArc
50
0.0000000000
51
90.0000000000
0
ARC
5
488
100
AcDbEntity
8
0
100
AcDbCircle
62
7
6
CONTINUOUS
10
151.5327589786
20
153.1251978290
40
0.5000000000
100
AcDbArc
50
90.0000000000
51
180.0000000000
0
ARC
5
489
100
AcDbEntity
8
0
100
AcDbCircle
62
7
6
CONTINUOUS
10
151.5327589786
20
259.3251978290
40
0.5000000000
100
AcDbArc
50
180.0000000000
51
270.0000000000
0
ARC
5
48A
100
AcDbEntity
8
0
100
AcDbCircle
62
7
6
CONTINUOUS
10
155.5327589786
20
152.2251978290
40
0.5000000000
100
AcDbArc
50
180.0000000000
51
270.0000000000
0
ARC
5
48B
100
AcDbEntity
8
0
100
AcDbCircle
62
7
6
CONTINUOUS
10
155.5327589786
20
260.2251978290
40
0.5000000000
100
AcDbArc
50
90.0000000000
51
180.0000000000
0
ARC
5
48C
100
AcDbEntity
8
0
100
AcDbCircle
62
7
6
CONTINUOUS
10
167.4327589786
20
260.2251978290
40
0.5000000000
100
AcDbArc
50
90.0000000000
51
180.0000000000
0
ARC
5
48D
100
AcDbEntity
8
0
100
AcDbCircle
62
7
6
CONTINUOUS
10
167.4327589786
20
152.2251978290
40
0.5000000000
100
AcDbArc
50
180.0000000000
51
270.0000000000
0
SPLINE
5
48E
100
AcDbEntity
8
0
100
AcDbSpline
62
7
6
CONTINUOUS
70
0
71
3
72
11
73
7
74
5
42
0.0000001000
43
0.0000001000
44
0.0000000001
12
0.0000000000
22
0.6016468973
32
0.0000000000
13
-0.6016468973
23
-0.0000000000
33
0.0000000000
40
0.0000000000
40
0.0000000000
40
0.0000000000
40
0.0000000000
40
0.3195989538
40
0.6038602660
40
0.8288638079
40
1.0000000000
40
1.0000000000
40
1.0000000000
40
1.0000000000
10
79.4616070831
20
103.6018448329
30
0.0000000000
10
79.4616070831
20
103.6659400725
30
0.0000000000
10
79.4503749031
20
103.7875584818
30
0.0000000000
10
79.3999673711
20
103.9471966947
30
0.0000000000
10
79.3243697232
20
104.0644698728
30
0.0000000000
10
79.2459282694
20
104.1018448329
30
0.0000000000
10
79.2116070831
20
104.1018448329
30
0.0000000000
11
79.4616070831
21
103.6018448329
31
0.0000000000
11
79.4425769662
21
103.7931865490
31
0.0000000000
11
79.3883837784
21
103.9553982235
31
0.0000000000
11
79.3072779412
21
104.0637845991
31
0.0000000000
11
79.2116070831
21
104.1018448329
31
0.0000000000
0
SPLINE
5
48F
100
AcDbEntity
8
0
100
AcDbSpline
62
7
6
CONTINUOUS
70
0
71
3
72
14
73
10
74
8
42
0.0000001000
43
0.0000001000
44
0.0000000001
12
-1.3283570236
22
-0.0056290500
32
0.0000000000
13
1.0318572460
23
-0.8365612303
33
0.0000000000
40
0.0000000000
40
0.0000000000
40
0.0000000000
40
0.0000000000
40
0.0241324835
40
0.0951419346
40
0.2107379041
40
0.3623111022
40
0.5455874399
40
0.7585503220
40
1.0000000000
40
1.0000000000
40
1.0000000000
40
1.0000000000
10
35.3465374543
20
115.4993871017
30
0.0000000000
10
35.3358519363
20
115.4993418207
30
0.0000000000
10
35.4158772380
20
115.4587600154
30
0.0000000000
10
35.4434613980
20
115.4132593148
30
0.0000000000
10
35.5870117443
20
115.3150173492
30
0.0000000000
10
35.7328648954
20
115.1936042919
30
0.0000000000
10
35.9266742615
20
115.0419919635
30
0.0000000000
10
36.1457875891
20
114.8657968684
30
0.0000000000
10
36.3027423121
20
114.7394063377
30
0.0000000000
10
36.3857895120
20
114.6720771911
30
0.0000000000
11
35.3465374543
21
115.4993871017
31
0.0000000000
11
35.3721009566
21
115.4800441843
31
0.0000000000
11
35.4455584785
21
115.4208704718
31
0.0000000000
11
35.5667044390
21
115.3265173220
31
0.0000000000
11
35.7246571660
21
115.2016542073
31
0.0000000000
11
35.9153083299
21
115.0502467379
31
0.0000000000
11
36.1361786259
21
114.8734844105
31
0.0000000000
11
36.3857895120
21
114.6720771911
31
0.0000000000
0
SPLINE
5
490
100
AcDbEntity
8
0
100
AcDbSpline
62
7
6
CONTINUOUS
70
0
71
3
72
11
73
7
74
5
42
0.0000001000
43
0.0000001000
44
0.0000000001
12
0.0000000000
22
-0.5000000000
32
0.0000000000
13
0.0000000000
23
-0.5000000000
33
0.0000000000
40
0.0000000000
40
0.0000000000
40
0.0000000000
40
0.0000000000
40
0.0659139139
40
0.2655420826
40
0.5882202146
40
1.0000000000
40
1.0000000000
40
1.0000000000
40
1.0000000000
10
73.9616070831
20
104.1018448329
30
0.0000000000
10
73.9616070831
20
104.0908591805
30
0.0000000000
10
73.9616070831
20
104.0466021668
30
0.0000000000
10
73.9616070831
20
103.9485654643
30
0.0000000000
10
73.9616070831
20
103.7928844500
30
0.0000000000
10
73.9616070831
20
103.6704747971
30
0.0000000000
10
73.9616070831
20
103.6018448329
30
0.0000000000
11
73.9616070831
21
104.1018448329
31
0.0000000000
11
73.9616070831
21
104.0688878759
31
0.0000000000
11
73.9616070831
21
103.9690737915
31
0.0000000000
11
73.9616070831
21
103.8077347256
31
0.0000000000
11
73.9616070831
21
103.6018448329
31
0.0000000000
0
SPLINE
5
491
100
AcDbEntity
8
0
100
AcDbSpline
62
7
6
CONTINUOUS
70
0
71
3
72
11
73
7
74
5
42
0.0000001000
43
0.0000001000
44
0.0000000001
12
-0.6016468973
22
0.0000000000
32
0.0000000000
13
0.0000000000
23
-0.6016468973
33
0.0000000000
40
0.0000000000
40
0.0000000000
40
0.0000000000
40
0.0000000000
40
0.1711361921
40
0.3961397340
40
0.6804010462
40
1.0000000000
40
1.0000000000
40
1.0000000000
40
1.0000000000
10
68.7116070831
20
104.1018448329
30
0.0000000000
10
68.6772858968
20
104.1018448329
30
0.0000000000
10
68.5988444430
20
104.0644698728
30
0.0000000000
10
68.5232467950
20
103.9471966947
30
0.0000000000
10
68.4728392631
20
103.7875584818
30
0.0000000000
10
68.4616070831
20
103.6659400725
30
0.0000000000
10
68.4616070831
20
103.6018448329
30
0.0000000000
11
68.7116070831
21
104.1018448329
31
0.0000000000
11
68.6159362250
21
104.0637845991
31
0.0000000000
11
68.5348303878
21
103.9553982235
31
0.0000000000
11
68.4806372000
21
103.7931865490
31
0.0000000000
11
68.4616070831
21
103.6018448329
31
0.0000000000
0
SPLINE
5
492
100
AcDbEntity
8
0
100
AcDbSpline
62
7
6
CONTINUOUS
70
0
71
3
72
11
73
7
74
5
42
0.0000001000
43
0.0000001000
44
0.0000000001
12
0.0000000000
22
-0.6016468973
32
0.0000000000
13
0.6016468973
23
-0.0000000000
33
0.0000000000
40
0.0000000000
40
0.0000000000
40
0.0000000000
40
0.0000000000
40
0.3195989538
40
0.6038602660
40
0.8288638079
40
1.0000000000
40
1.0000000000
40
1.0000000000
40
1.0000000000
10
68.4616070831
20
100.6018448329
30
0.0000000000
10
68.4616070831
20
100.5377495932
30
0.0000000000
10
68.4728392631
20
100.4161311839
30
0.0000000000
10
68.5232467950
20
100.2564929710
30
0.0000000000
10
68.5988444430
20
100.1392197930
30
0.0000000000
10
68.6772858968
20
100.1018448329
30
0.0000000000
10
68.7116070831
20
100.1018448329
30
0.0000000000
11
68.4616070831
21
100.6018448329
31
0.0000000000
11
68.4806372000
21
100.4105031167
31
0.0000000000
11
68.5348303878
21
100.2482914423
31
0.0000000000
11
68.6159362250
21
100.1399050666
31
0.0000000000
11
68.7116070831
21
100.1018448329
31
0.0000000000
0
SPLINE
5
493
100
AcDbEntity
8
0
100
AcDbSpline
62
7
6
CONTINUOUS
70
0
71
3
72
11
73
7
74
5
42
0.0000001000
43
0.0000001000
44
0.0000000001
12
0.0000000000
22
0.5556435948
32
0.0000000000
13
0.5556435948
23
0.0000000000
33
0.0000000000
40
0.0000000000
40
0.0000000000
40
0.0000000000
40
0.0000000000
40
0.3451565100
40
0.6446175672
40
0.8637515913
40
1.0000000000
40
1.0000000000
40
1.0000000000
40
1.0000000000
10
87.8905970114
20
116.5018448329
30
0.0000000000
10
87.8905970114
20
116.5657728342
30
0.0000000000
10
87.8976370640
20
116.6853413716
30
0.0000000000
10
87.9326739737
20
116.8426085719
30
0.0000000000
10
87.9772336208
20
116.9548866848
30
0.0000000000
10
88.0363718979
20
117.0018448329
30
0.0000000000
10
88.0616070831
20
117.0018448329
30
0.0000000000
11
87.8905970114
21
116.5018448329
31
0.0000000000
11
87.9036143780
21
116.6931865490
31
0.0000000000
11
87.9406847018
21
116.8553982235
31
0.0000000000
11
87.9961643619
21
116.9637845991
31
0.0000000000
11
88.0616070831
21
117.0018448329
31
0.0000000000
0
SPLINE
5
494
100
AcDbEntity
8
0
100
AcDbSpline
62
7
6
CONTINUOUS
70
0
71
3
72
11
73
7
74
5
42
0.0000001000
43
0.0000001000
44
0.0000000001
12
-0.5556435948
22
0.0000000000
32
0.0000000000
13
0.0000000000
23
0.5556435948
33
0.0000000000
40
0.0000000000
40
0.0000000000
40
0.0000000000
40
0.0000000000
40
0.1362484087
40
0.3553824328
40
0.6548434900
40
1.0000000000
40
1.0000000000
40
1.0000000000
40
1.0000000000
10
88.0616070831
20
96.6018448329
30
0.0000000000
10
88.0363718979
20
96.6018448329
30
0.0000000000
10
87.9772336208
20
96.6488029809
30
0.0000000000
10
87.9326739737
20
96.7610810938
30
0.0000000000
10
87.8976370640
20
96.9183482941
30
0.0000000000
10
87.8905970114
20
97.0379168315
30
0.0000000000
10
87.8905970114
20
97.1018448329
30
0.0000000000
11
88.0616070831
21
96.6018448329
31
0.0000000000
11
87.9961643619
21
96.6399050666
31
0.0000000000
11
87.9406847018
21
96.7482914423
31
0.0000000000
11
87.9036143780
21
96.9105031167
31
0.0000000000
11
87.8905970114
21
97.1018448329
31
0.0000000000
0
SPLINE
5
495
100
AcDbEntity
8
0
100
AcDbSpline
62
7
6
CONTINUOUS
70
0
71
3
72
13
73
9
74
7
42
0.0000001000
43
0.0000001000
44
0.0000000001
12
0.1508774019
22
1.0011576487
32
0.0000000000
13
0.1433869013
23
1.0022578466
33
0.0000000000
40
0.0000000000
40
0.0000000000
40
0.0000000000
40
0.0000000000
40
0.2867768473
40
0.5482638539
40
0.7567546904
40
0.8992158303
40
0.9770465147
40
1.0000000000
40
1.0000000000
40
1.0000000000
40
1.0000000000
10
86.8616070831
20
116.1124770139
30
0.0000000000
10
86.8760297983
20
116.2081799586
30
0.0000000000
10
86.9034862746
20
116.3911638923
30
0.0000000000
10
86.9407933286
20
116.6438198683
30
0.0000000000
10
86.9706296403
20
116.8483456575
30
0.0000000000
10
86.9913378852
20
116.9915651371
30
0.0000000000
10
87.0029982280
20
117.0728250737
30
0.0000000000
10
87.0078176477
20
117.1064953095
30
0.0000000000
10
87.0089147241
20
117.1141637464
30
0.0000000000
11
86.8616070831
21
116.1124770139
31
0.0000000000
11
86.9046357304
21
116.3996218390
31
0.0000000000
11
86.9433213664
21
116.6615259733
31
0.0000000000
11
86.9737941830
21
116.8704040522
31
0.0000000000
11
86.9944261783
21
117.0131573811
31
0.0000000000
11
87.0056217991
21
117.0911586779
31
0.0000000000
11
87.0089147241
21
117.1141637464
31
0.0000000000
0
SPLINE
5
496
100
AcDbEntity
8
0
100
AcDbSpline
62
7
6
CONTINUOUS
70
0
71
3
72
11
73
7
74
5
42
0.0000001000
43
0.0000001000
44
0.0000000001
12
0.6016468973
22
0.0000000000
32
0.0000000000
13
-0.0000000000
23
0.6016468973
33
0.0000000000
40
0.0000000000
40
0.0000000000
40
0.0000000000
40
0.0000000000
40
0.1711361921
40
0.3961397340
40
0.6804010462
40
1.0000000000
40
1.0000000000
40
1.0000000000
40
1.0000000000
10
79.2116070831
20
100.1018448329
30
0.0000000000
10
79.2459282694
20
100.1018448329
30
0.0000000000
10
79.3243697232
20
100.1392197930
30
0.0000000000
10
79.3999673711
20
100.2564929710
30
0.0000000000
10
79.4503749031
20
100.4161311839
30
0.0000000000
10
79.4616070831
20
100.5377495932
30
0.0000000000
10
79.4616070831
20
100.6018448329
30
0.0000000000
11
79.2116070831
21
100.1018448329
31
0.0000000000
11
79.3072779412
21
100.1399050666
31
0.0000000000
11
79.3883837784
21
100.2482914423
31
0.0000000000
11
79.4425769662
21
100.4105031167
31
0.0000000000
11
79.4616070831
21
100.6018448329
31
0.0000000000
0
SPLINE
5
497
100
AcDbEntity
8
0
100
AcDbSpline
62
7
6
CONTINUOUS
70
0
71
3
72
11
73
7
74
5
42
0.0000001000
43
0.0000001000
44
0.0000000001
12
0.0000000000
22
0.5000000000
32
0.0000000000
13
0.0000000000
23
0.5000000000
33
0.0000000000
40
0.0000000000
40
0.0000000000
40
0.0000000000
40
0.0000000000
40
0.0659139139
40
0.2655420826
40
0.5882202146
40
1.0000000000
40
1.0000000000
40
1.0000000000
40
1.0000000000
10
73.9616070831
20
100.1018448329
30
0.0000000000
10
73.9616070831
20
100.1128304852
30
0.0000000000
10
73.9616070831
20
100.1570874990
30
0.0000000000
10
73.9616070831
20
100.2551242014
30
0.0000000000
10
73.9616070831
20
100.4108052157
30
0.0000000000
10
73.9616070831
20
100.5332148686
30
0.0000000000
10
73.9616070831
20
100.6018448329
30
0.0000000000
11
73.9616070831
21
100.1018448329
31
0.0000000000
11
73.9616070831
21
100.1348017898
31
0.0000000000
11
73.9616070831
21
100.2346158742
31
0.0000000000
11
73.9616070831
21
100.3959549401
31
0.0000000000
11
73.9616070831
21
100.6018448329
31
0.0000000000
0
SPLINE
5
498
100
AcDbEntity
8
0
100
AcDbSpline
62
7
6
CONTINUOUS
70
0
71
3
72
11
73
7
74
5
42
0.0000001000
43
0.0000001000
44
0.0000000001
12
0.0000000002
22
0.6715790803
32
0.0000000000
13
0.6715790803
23
0.0000000000
33
0.0000000000
40
0.0000000000
40
0.0000000000
40
0.0000000000
40
0.0000000000
40
0.2877306765
40
0.5549855586
40
0.7902606514
40
1.0000000000
40
1.0000000000
40
1.0000000000
40
1.0000000000
10
62.0026244116
20
151.2251978290
30
0.0000000000
10
62.0026244116
20
151.2896091301
30
0.0000000000
10
62.0195104975
20
151.4146329563
30
0.0000000000
10
62.0937065521
20
151.5783222839
30
0.0000000000
10
62.2092509202
20
151.6948107968
30
0.0000000000
10
62.3100566241
20
151.7251978290
30
0.0000000000
10
62.3570088104
20
151.7251978290
30
0.0000000000
11
62.0026244116
21
151.2251978290
31
0.0000000000
11
62.0296003100
21
151.4165395187
31
0.0000000000
11
62.1064211765
21
151.5787511880
31
0.0000000000
11
62.2213917478
21
151.6871375809
31
0.0000000000
11
62.3570088104
21
151.7251978290
31
0.0000000000
0
SPLINE
5
499
100
AcDbEntity
8
0
100
AcDbSpline
62
7
6
CONTINUOUS
70
0
71
3
72
11
73
7
74
5
42
0.0000001000
43
0.0000001000
44
0.0000000001
12
-0.5552084066
22
0.0000000000
32
0.0000000000
13
-0.0000002144
23
0.5552084066
33
0.0000000000
40
0.0000000000
40
0.0000000000
40
0.0000000000
40
0.0000000000
40
0.1358674339
40
0.3549554438
40
0.6545802023
40
1.0000000000
40
1.0000000000
40
1.0000000000
40
1.0000000000
10
36.3857895120
20
148.7251978290
30
0.0000000000
10
36.3606445982
20
148.7251978290
30
0.0000000000
10
36.3017319764
20
148.7722831521
30
0.0000000000
10
36.2574824073
20
148.8844654436
30
0.0000000000
10
36.2225952332
20
149.0417240564
30
0.0000000000
10
36.2155981823
20
149.1612711705
30
0.0000000000
10
36.2155981576
20
149.2251978290
30
0.0000000000
11
36.3857895120
21
148.7251978290
31
0.0000000000
11
36.3206602245
21
148.7632579936
31
0.0000000000
11
36.2654462009
21
148.8716442508
31
0.0000000000
11
36.2285532886
21
149.0338559267
31
0.0000000000
11
36.2155981576
21
149.2251978290
31
0.0000000000
0
SPLINE
5
49A
100
AcDbEntity
8
0
100
AcDbSpline
62
7
6
CONTINUOUS
70
0
71
3
72
11
73
7
74
5
42
0.0000001000
43
0.0000001000
44
0.0000000001
12
-0.5552083615
22
-0.0000000000
32
0.0000000000
13
-0.0000000028
23
-0.5552083615
33
0.0000000000
40
0.0000000000
40
0.0000000000
40
0.0000000000
40
0.0000000000
40
0.1358711250
40
0.3549622848
40
0.6545857499
40
1.0000000000
40
1.0000000000
40
1.0000000000
40
1.0000000000
10
36.3857895120
20
263.7251978290
30
0.0000000000
10
36.3606439171
20
263.7251978290
30
0.0000000000
10
36.3017305534
20
263.6781106614
30
0.0000000000
10
36.2574815067
20
263.5659273775
30
0.0000000000
10
36.2225949774
20
263.4086692609
30
0.0000000000
10
36.2155981579
20
263.2891234556
30
0.0000000000
10
36.2155981576
20
263.2251978290
30
0.0000000000
11
36.3857895120
21
263.7251978290
31
0.0000000000
11
36.3206588125
21
263.6871360311
31
0.0000000000
11
36.2654448792
21
263.5787477763
31
0.0000000000
11
36.2285527970
21
263.4165366619
31
0.0000000000
11
36.2155981576
21
263.2251978290
31
0.0000000000
0
SPLINE
5
49B
100
AcDbEntity
8
0
100
AcDbSpline
62
7
6
CONTINUOUS
70
0
71
3
72
11
73
7
74
5
42
0.0000001000
43
0.0000001000
44
0.0000000001
12
0.0000000697
22
0.6530758969
32
0.0000000000
13
0.6530758969
23
0.0000000000
33
0.0000000000
40
0.0000000000
40
0.0000000000
40
0.0000000000
40
0.0000000000
40
0.2954622750
40
0.5666455916
40
0.7991995964
40
1.0000000000
40
1.0000000000
40
1.0000000000
40
1.0000000000
10
58.2981167009
20
151.2251978290
30
0.0000000000
10
58.2981167077
20
151.2895175925
30
0.0000000000
10
58.3135300865
20
151.4135704597
30
0.0000000000
10
58.3813705748
20
151.5763452352
30
0.0000000000
10
58.4870771933
20
151.6934652518
30
0.0000000000
10
58.5823276958
20
151.7251978290
30
0.0000000000
10
58.6260403303
20
151.7251978290
30
0.0000000000
11
58.2981167009
21
151.2251978290
31
0.0000000000
11
58.3230774212
21
151.4165358810
31
0.0000000000
11
58.3941610557
21
151.5787477530
31
0.0000000000
11
58.5005474120
21
151.6871363361
31
0.0000000000
11
58.6260403303
21
151.7251978290
31
0.0000000000
0
SPLINE
5
49C
100
AcDbEntity
8
0
100
AcDbSpline
62
7
6
CONTINUOUS
70
0
71
3
72
15
73
11
74
9
42
0.0000001000
43
0.0000001000
44
0.0000000001
12
-1.7001772088
22
-0.0000202494
32
0.0000000000
13
0.0055493935
23
1.7001681522
33
0.0000000000
40
0.0000000000
40
0.0000000000
40
0.0000000000
40
0.0000000000
40
0.1489684906
40
0.2863504073
40
0.4153095311
40
0.5384267514
40
0.6577730987
40
0.7741053233
40
0.8873344523
40
1.0000000000
40
1.0000000000
40
1.0000000000
40
1.0000000000
10
58.2981167009
20
151.2251978290
30
0.0000000000
10
58.2136924234
20
151.2251968235
30
0.0000000000
10
58.0509732632
20
151.2409694885
30
0.0000000000
10
57.8237133523
20
151.3065666499
30
0.0000000000
10
57.6246066950
20
151.4044272550
30
0.0000000000
10
57.4540622382
20
151.5297317230
30
0.0000000000
10
57.3143263979
20
151.6791331630
30
0.0000000000
10
57.2096340947
20
151.8486024879
30
0.0000000000
10
57.1447729886
20
152.0328882891
30
0.0000000000
10
57.1294443702
20
152.1613477037
30
0.0000000000
10
57.1296527787
20
152.2251978290
30
0.0000000000
11
58.2981167009
21
151.2251978290
31
0.0000000000
11
58.0460201790
21
151.2495796119
31
0.0000000000
11
57.8216530207
21
151.3145103953
31
0.0000000000
11
57.6250556449
21
151.4115748539
31
0.0000000000
11
57.4566886211
21
151.5359447251
31
0.0000000000
11
57.3185555666
21
151.6845775036
31
0.0000000000
11
57.2152190344
21
151.8532209865
31
0.0000000000
11
57.1515716117
21
152.0349046283
31
0.0000000000
11
57.1296527787
21
152.2251978290
31
0.0000000000
0
SPLINE
5
49D
100
AcDbEntity
8
0
100
AcDbSpline
62
7
6
CONTINUOUS
70
0
71
3
72
15
73
11
74
9
42
0.0000001000
43
0.0000001000
44
0.0000000001
12
-0.0035958619
22
1.3674771791
32
0.0000000000
13
1.3674819069
23
-0.0000020431
33
0.0000000000
40
0.0000000000
40
0.0000000000
40
0.0000000000
40
0.0000000000
40
0.0714119348
40
0.1527643465
40
0.2507367393
40
0.3660577870
40
0.4981215188
40
0.6471943934
40
0.8141289256
40
1.0000000000
40
1.0000000000
40
1.0000000000
40
1.0000000000
10
57.4492302373
20
260.2251978290
30
0.0000000000
10
57.4491446415
20
260.2577492261
30
0.0000000000
10
57.4670263215
20
260.3278742253
30
0.0000000000
10
57.5369882346
20
260.4206022577
30
0.0000000000
10
57.6438946002
20
260.5036178461
30
0.0000000000
10
57.7841679713
20
260.5763911645
30
0.0000000000
10
57.9546576103
20
260.6375780316
30
0.0000000000
10
58.1535620283
20
260.6854685361
30
0.0000000000
10
58.3803843029
20
260.7175506196
30
0.0000000000
10
58.5413152199
20
260.7251979556
30
0.0000000000
10
58.6260403303
20
260.7251978290
30
0.0000000000
11
57.4492302373
21
260.2251978290
31
0.0000000000
11
57.4712697669
21
260.3203328180
31
0.0000000000
11
57.5354437580
21
260.4112052862
31
0.0000000000
11
57.6395503178
21
260.4955335258
31
0.0000000000
11
57.7786504655
21
260.5698320065
31
0.0000000000
11
57.9482042103
21
260.6320091432
31
0.0000000000
11
58.1461979932
21
260.6805385396
31
0.0000000000
11
58.3721577071
21
260.7130030493
31
0.0000000000
11
58.6260403303
21
260.7251978290
31
0.0000000000
0
SPLINE
5
49E
100
AcDbEntity
8
0
100
AcDbSpline
62
7
6
CONTINUOUS
70
0
71
3
72
15
73
11
74
9
42
0.0000001000
43
0.0000001000
44
0.0000000001
12
-0.0055477674
22
1.7001681505
32
0.0000000000
13
1.7001772017
23
-0.0000203182
33
0.0000000000
40
0.0000000000
40
0.0000000000
40
0.0000000000
40
0.0000000000
40
0.1126655451
40
0.2258946768
40
0.3422269003
40
0.4615732489
40
0.5846904689
40
0.7136495951
40
0.8510315091
40
1.0000000000
40
1.0000000000
40
1.0000000000
40
1.0000000000
10
57.1296527787
20
260.2251978290
30
0.0000000000
10
57.1294444313
20
260.2890479528
30
0.0000000000
10
57.1447730013
20
260.4175073587
30
0.0000000000
10
57.2096340772
20
260.6017931809
30
0.0000000000
10
57.3143264085
20
260.7712624871
30
0.0000000000
10
57.4540622313
20
260.9206639428
30
0.0000000000
10
57.6246067030
20
261.0459683891
30
0.0000000000
10
57.8237133401
20
261.1438290399
30
0.0000000000
10
58.0509732750
20
261.2094261096
30
0.0000000000
10
58.2136924235
20
261.2251988380
30
0.0000000000
10
58.2981167009
20
261.2251978290
30
0.0000000000
11
57.1296527787
21
260.2251978290
31
0.0000000000
11
57.1515716310
21
260.4154910223
31
0.0000000000
11
57.2152190274
21
260.5971746772
31
0.0000000000
11
57.3185555689
21
260.7658181515
31
0.0000000000
11
57.4566886201
21
260.9144509350
31
0.0000000000
11
57.6250556462
21
261.0388208006
31
0.0000000000
11
57.8216530183
21
261.1358852734
31
0.0000000000
11
58.0460201822
21
261.2008160177
31
0.0000000000
11
58.2981167009
21
261.2251978290
31
0.0000000000
0
SPLINE
5
49F
100
AcDbEntity
8
0
100
AcDbSpline
62
7
6
CONTINUOUS
70
0
71
3
72
11
73
7
74
5
42
0.0000001000
43
0.0000001000
44
0.0000000001
12
0.0000000004
22
-0.6530759606
32
0.0000000000
13
0.6530759606
23
0.0000000000
33
0.0000000000
40
0.0000000000
40
0.0000000000
40
0.0000000000
40
0.0000000000
40
0.2954679758
40
0.5666517604
40
0.7992030473
40
1.0000000000
40
1.0000000000
40
1.0000000000
40
1.0000000000
10
58.2981167009
20
261.2251978290
30
0.0000000000
10
58.2981167009
20
261.1608768183
30
0.0000000000
10
58.3135305337
20
261.0368225536
30
0.0000000000
10
58.3813723771
20
260.8740474286
30
0.0000000000
10
58.4870792654
20
260.7569293353
30
0.0000000000
10
58.5823284427
20
260.7251978290
30
0.0000000000
10
58.6260403303
20
260.7251978290
30
0.0000000000
11
58.2981167009
21
261.2251978290
31
0.0000000000
11
58.3230783961
21
261.0338561306
31
0.0000000000
11
58.3941632942
21
260.8716444598
31
0.0000000000
11
58.5005493748
21
260.7632580725
31
0.0000000000
11
58.6260403303
21
260.7251978290
31
0.0000000000
0
SPLINE
5
4A0
100
AcDbEntity
8
0
100
AcDbSpline
62
7
6
CONTINUOUS
70
0
71
3
72
15
73
11
74
9
42
0.0000001000
43
0.0000001000
44
0.0000000001
12
-0.0000000003
22
0.6797086186
32
0.0000000000
13
0.6797086186
23
0.0000000012
33
0.0000000000
40
0.0000000000
40
0.0000000000
40
0.0000000000
40
0.0000000000
40
0.1122315665
40
0.2339541640
40
0.3623621738
40
0.4944664007
40
0.6271449635
40
0.7566751477
40
0.8808075866
40
1.0000000000
40
1.0000000000
40
1.0000000000
40
1.0000000000
10
62.9843700198
20
263.2251978290
30
0.0000000000
10
62.9843700198
20
263.2506260834
30
0.0000000000
10
62.9872790870
20
263.3036804279
30
0.0000000000
10
63.0014074015
20
263.3847612278
30
0.0000000000
10
63.0273207589
20
263.4676930773
30
0.0000000000
10
63.0666010969
20
263.5481019847
30
0.0000000000
10
63.1199623498
20
263.6204813336
30
0.0000000000
10
63.1865364351
20
263.6786112520
30
0.0000000000
10
63.2632934956
20
263.7163957053
30
0.0000000000
10
63.3187615170
20
263.7251978290
30
0.0000000000
10
63.3457668872
20
263.7251978290
30
0.0000000000
11
62.9843700198
21
263.2251978290
31
0.0000000000
11
62.9885907818
21
263.3013657372
31
0.0000000000
11
63.0028529851
21
263.3828630898
31
0.0000000000
11
63.0291023348
21
263.4661023560
31
0.0000000000
11
63.0688785859
21
263.5466040432
31
0.0000000000
11
63.1228719165
21
263.6188373521
31
0.0000000000
11
63.1896852540
21
263.6761741598
31
0.0000000000
11
63.2657097035
21
263.7127697353
31
0.0000000000
11
63.3457668872
21
263.7251978290
31
0.0000000000
0
SPLINE
5
4A1
100
AcDbEntity
8
0
100
AcDbSpline
62
7
6
CONTINUOUS
70
0
71
3
72
14
73
10
74
8
42
0.0000001000
43
0.0000001000
44
0.0000000001
12
1.0877501740
22
-0.0001060349
32
0.0000000000
13
0.7428349216
23
-0.7946047643
33
0.0000000000
40
0.0000000000
40
0.0000000000
40
0.0000000000
40
0.0000000000
40
0.1683058911
40
0.3248772175
40
0.4720397370
40
0.6117022403
40
0.7453624363
40
0.8743079056
40
1.0000000000
40
1.0000000000
40
1.0000000000
40
1.0000000000
10
62.0026244116
20
261.2251978290
30
0.0000000000
10
62.0636493324
20
261.2251918803
30
0.0000000000
10
62.1815761872
20
261.2180241695
30
0.0000000000
10
62.3503397879
20
261.1874418674
30
0.0000000000
10
62.5045921679
20
261.1409371015
30
0.0000000000
10
62.6450304678
20
261.0807885403
30
0.0000000000
10
62.7720660405
20
261.0084757385
30
0.0000000000
10
62.8858121875
20
260.9249786681
30
0.0000000000
10
62.9532373016
20
260.8614922778
30
0.0000000000
10
62.9843601273
20
260.8282004321
30
0.0000000000
11
62.0026244116
21
261.2251978290
31
0.0000000000
11
62.1853588409
21
261.2140399937
31
0.0000000000
11
62.3529262459
21
261.1835961566
31
0.0000000000
11
62.5061520233
21
261.1372690030
31
0.0000000000
11
62.6457368575
21
261.0773096308
31
0.0000000000
11
62.7719995842
21
261.0052287267
31
0.0000000000
11
62.8849273289
21
260.9220402639
31
0.0000000000
11
62.9843601273
21
260.8282004321
31
0.0000000000
0
SPLINE
5
4A2
100
AcDbEntity
8
0
100
AcDbSpline
62
7
6
CONTINUOUS
70
0
71
3
72
11
73
7
74
5
42
0.0000001000
43
0.0000001000
44
0.0000000001
12
0.0000000019
22
-0.6715790639
32
0.0000000000
13
0.6715790639
23
0.0000000000
33
0.0000000000
40
0.0000000000
40
0.0000000000
40
0.0000000000
40
0.0000000000
40
0.2877284782
40
0.5549831512
40
0.7902592690
40
1.0000000000
40
1.0000000000
40
1.0000000000
40
1.0000000000
10
62.0026244116
20
261.2251978290
30
0.0000000000
10
62.0026244118
20
261.1607870217
30
0.0000000000
10
62.0195102961
20
261.0357637565
30
0.0000000000
10
62.0937057675
20
260.8720745429
30
0.0000000000
10
62.2092500682
20
260.7555852507
30
0.0000000000
10
62.3100563160
20
260.7251978290
30
0.0000000000
10
62.3570088105
20
260.7251978290
30
0.0000000000
11
62.0026244116
21
261.2251978290
31
0.0000000000
11
62.0295998886
21
261.0338575757
31
0.0000000000
11
62.1064202236
21
260.8716458149
31
0.0000000000
11
62.2213909226
21
260.7632585595
31
0.0000000000
11
62.3570088105
21
260.7251978290
31
0.0000000000
0
SPLINE
5
4A3
100
AcDbEntity
8
0
100
AcDbSpline
62
7
6
CONTINUOUS
70
0
71
3
72
14
73
10
74
8
42
0.0000001000
43
0.0000001000
44
0.0000000001
12
0.6409173529
22
-0.0000287207
32
0.0000000000
13
0.4815539418
23
-0.4229430875
33
0.0000000000
40
0.0000000000
40
0.0000000000
40
0.0000000000
40
0.0000000000
40
0.1728525934
40
0.3331206480
40
0.4826368219
40
0.6229477200
40
0.7552404924
40
0.8805349267
40
1.0000000000
40
1.0000000000
40
1.0000000000
40
1.0000000000
10
62.3570088104
20
260.7251978290
30
0.0000000000
10
62.3939368860
20
260.7251961742
30
0.0000000000
10
62.4651586579
20
260.7216198228
30
0.0000000000
10
62.5672879411
20
260.7063898642
30
0.0000000000
10
62.6607624483
20
260.6832180639
30
0.0000000000
10
62.7459601307
20
260.6532328939
30
0.0000000000
10
62.8231063647
20
260.6171808930
30
0.0000000000
10
62.8922467325
20
260.5755575804
30
0.0000000000
10
62.9337848655
20
260.5435480906
30
0.0000000000
10
62.9529611578
20
260.5267057817
30
0.0000000000
11
62.3570088104
21
260.7251978290
31
0.0000000000
11
62.4676523970
21
260.7196173592
31
0.0000000000
11
62.5692372830
21
260.7043983879
31
0.0000000000
11
62.6622233888
21
260.6812360073
31
0.0000000000
11
62.7470044183
21
260.6512499041
31
0.0000000000
11
62.8237489008
21
260.6152025221
31
0.0000000000
11
62.8924394742
21
260.5736063982
31
0.0000000000
11
62.9529611578
21
260.5267057817
31
0.0000000000
0
SPLINE
5
4A4
100
AcDbEntity
8
0
100
AcDbSpline
62
7
6
CONTINUOUS
70
0
71
3
72
13
73
9
74
7
42
0.0000001000
43
0.0000001000
44
0.0000000001
12
-0.1410615362
22
0.2801323870
32
0.0000000000
13
0.1418804122
23
0.2797185369
33
0.0000000000
40
0.0000000000
40
0.0000000000
40
0.0000000000
40
0.0000000000
40
0.1258608582
40
0.2563244544
40
0.3994068364
40
0.5641238332
40
0.7608713415
40
1.0000000000
40
1.0000000000
40
1.0000000000
40
1.0000000000
10
62.9529630692
20
260.5267037144
30
0.0000000000
10
62.9470450272
20
260.5384562820
30
0.0000000000
10
62.9375539396
20
260.5637473592
30
0.0000000000
10
62.9304005004
20
260.6050838947
30
0.0000000000
10
62.9300451848
20
260.6510864949
30
0.0000000000
10
62.9374319122
20
260.7034909633
30
0.0000000000
10
62.9546707721
20
260.7640633092
30
0.0000000000
10
62.9730410391
20
260.8059368861
30
0.0000000000
10
62.9843502633
20
260.8282331255
30
0.0000000000
11
62.9529630692
21
260.5267037144
31
0.0000000000
11
62.9389058358
21
260.5635915007
31
0.0000000000
11
62.9316904758
21
260.6038694412
31
0.0000000000
11
62.9310904162
21
260.6487423491
31
0.0000000000
11
62.9380185308
21
260.6999381850
31
0.0000000000
11
62.9546481187
21
260.7593638999
31
0.0000000000
11
62.9843502633
21
260.8282331255
31
0.0000000000
0
SPLINE
5
4A5
100
AcDbEntity
8
0
100
AcDbSpline
62
7
6
CONTINUOUS
70
0
71
3
72
10
73
6
74
4
42
0.0000001000
43
0.0000001000
44
0.0000000001
12
0.3941740850
22
0.5134092196
32
0.0000000000
13
0.0001095579
23
0.6472729131
33
0.0000000000
40
0.0000000000
40
0.0000000000
40
0.0000000000
40
0.0000000000
40
0.3344783055
40
0.6663413983
40
1.0000000000
40
1.0000000000
40
1.0000000000
40
1.0000000000
10
63.3457640559
20
151.6221804508
30
0.0000000000
10
63.3897116159
20
151.6794218660
30
0.0000000000
10
63.4650466108
20
151.8034644048
30
0.0000000000
10
63.5352957916
20
152.0090939413
30
0.0000000000
10
63.5511447137
20
152.1532084373
30
0.0000000000
10
63.5511568987
20
152.2251978290
30
0.0000000000
11
63.3457640559
21
151.6221804508
31
0.0000000000
11
63.4581549298
21
151.8072209878
31
0.0000000000
11
63.5274854315
21
152.0105308413
31
0.0000000000
11
63.5511568987
21
152.2251978290
31
0.0000000000
0
SPLINE
5
4A6
100
AcDbEntity
8
0
100
AcDbSpline
62
7
6
CONTINUOUS
70
0
71
3
72
11
73
7
74
5
42
0.0000001000
43
0.0000001000
44
0.0000000001
12
-0.5668835361
22
0.0000000000
32
0.0000000000
13
0.0000000138
23
0.5668835361
33
0.0000000000
40
0.0000000000
40
0.0000000000
40
0.0000000000
40
0.0000000000
40
0.1457139615
40
0.3661146498
40
0.6614893860
40
1.0000000000
40
1.0000000000
40
1.0000000000
40
1.0000000000
10
39.4005763852
20
260.7251978290
30
0.0000000000
10
39.3730421032
20
260.7251978290
30
0.0000000000
10
39.3084624616
20
260.7691698881
30
0.0000000000
10
39.2559734299
20
260.8835041709
30
0.0000000000
10
39.2171318508
20
261.0411356170
30
0.0000000000
10
39.2090035623
20
261.1612324644
30
0.0000000000
10
39.2090035638
20
261.2251978290
30
0.0000000000
11
39.4005763852
21
260.7251978290
31
0.0000000000
11
39.3272644783
21
260.7632582341
31
0.0000000000
11
39.2651137581
21
260.8716449112
31
0.0000000000
11
39.2235860934
21
261.0338566137
31
0.0000000000
11
39.2090035638
21
261.2251978290
31
0.0000000000
0
SPLINE
5
4A7
100
AcDbEntity
8
0
100
AcDbSpline
62
7
6
CONTINUOUS
70
0
71
3
72
23
73
19
74
17
42
0.0000001000
43
0.0000001000
44
0.0000000001
12
-2.8965139161
22
-0.0000148434
32
0.0000000000
13
-0.0212430454
23
-2.8964360168
33
0.0000000000
40
0.0000000000
40
0.0000000000
40
0.0000000000
40
0.0000000000
40
0.1041068717
40
0.2000870334
40
0.2883007341
40
0.3694003591
40
0.4443263940
40
0.5140271916
40
0.5790495313
40
0.6392089249
40
0.6947786292
40
0.7465971335
40
0.7953344752
40
0.8407621768
40
0.8828867165
40
0.9227338923
40
0.9611885931
40
1.0000000000
40
1.0000000000
40
1.0000000000
40
1.0000000000
10
39.2090035638
20
261.2251978290
30
0.0000000000
10
39.1084878963
20
261.2251973139
30
0.0000000000
10
38.9152654436
20
261.2201318446
30
0.0000000000
10
38.6376079480
20
261.1990858031
30
0.0000000000
10
38.3832795838
20
261.1679179135
30
0.0000000000
10
38.1506563309
20
261.1287894517
30
0.0000000000
10
37.9374851641
20
261.0830978059
30
0.0000000000
10
37.7416389156
20
261.0316495741
30
0.0000000000
10
37.5621088649
20
260.9750534609
30
0.0000000000
10
37.3985760264
20
260.9138667028
30
0.0000000000
10
37.2505349460
20
260.8483987694
30
0.0000000000
10
37.1169236079
20
260.7783324939
30
0.0000000000
10
36.9974983023
20
260.7031380936
30
0.0000000000
10
36.8932479933
20
260.6224373491
30
0.0000000000
10
36.8055089250
20
260.5356691301
30
0.0000000000
10
36.7363743554
20
260.4414635727
30
0.0000000000
10
36.6887223283
20
260.3377207709
30
0.0000000000
10
36.6777189768
20
260.2626694146
30
0.0000000000
10
36.6774441527
20
260.2251978290
30
0.0000000000
11
39.2090035638
21
261.2251978290
31
0.0000000000
11
38.9075588769
21
261.2173431781
31
0.0000000000
11
38.6303490079
21
261.1962940327
31
0.0000000000
11
38.3767458004
21
261.1651186661
31
0.0000000000
11
38.1451161799
21
261.1260208648
31
0.0000000000
11
37.9329471321
21
261.0803717334
31
0.0000000000
11
37.7377351008
21
261.0288783889
31
0.0000000000
11
37.5581857142
21
260.9720166080
31
0.0000000000
11
37.3950853653
21
260.9106796933
31
0.0000000000
11
37.2480193592
21
260.8452640725
31
0.0000000000
11
37.1152940215
21
260.7751791306
31
0.0000000000
11
36.9961316432
21
260.6994900200
31
0.0000000000
11
36.8925180259
21
260.6183849457
31
0.0000000000
11
36.8064215633
21
260.5319274861
31
0.0000000000
11
36.7389652862
21
260.4382741779
31
0.0000000000
11
36.6939292373
21
260.3364003438
31
0.0000000000
11
36.6774441527
21
260.2251978290
31
0.0000000000
0
SPLINE
5
4A8
100
AcDbEntity
8
0
100
AcDbSpline
62
7
6
CONTINUOUS
70
0
71
3
72
11
73
7
74
5
42
0.0000001000
43
0.0000001000
44
0.0000000001
12
-0.5818578511
22
0.0000000000
32
0.0000000000
13
0.0000000189
23
0.5818578511
33
0.0000000000
40
0.0000000000
40
0.0000000000
40
0.0000000000
40
0.0000000000
40
0.1573165540
40
0.3796011925
40
0.6699247037
40
1.0000000000
40
1.0000000000
40
1.0000000000
40
1.0000000000
10
43.0616070831
20
260.7251978290
30
0.0000000000
10
43.0310951257
20
260.7251978290
30
0.0000000000
10
42.9601300369
20
260.7659250536
30
0.0000000000
10
42.8974009036
20
260.8820207559
30
0.0000000000
10
42.8535784832
20
261.0404219282
30
0.0000000000
10
42.8440695030
20
261.1611788615
30
0.0000000000
10
42.8440695050
20
261.2251978290
30
0.0000000000
11
43.0616070831
21
260.7251978290
31
0.0000000000
11
42.9783590540
21
260.7632580644
31
0.0000000000
11
42.9077847847
21
260.8716444419
31
0.0000000000
11
42.8606285635
21
261.0338561153
31
0.0000000000
11
42.8440695050
21
261.2251978290
31
0.0000000000
0
SPLINE
5
4A9
100
AcDbEntity
8
0
100
AcDbSpline
62
7
6
CONTINUOUS
70
0
71
3
72
12
73
8
74
6
42
0.0000001000
43
0.0000001000
44
0.0000000001
12
-0.0012336352
22
1.5587550435
32
0.0000000000
13
-1.5587554916
23
-0.0003534248
33
0.0000000000
40
0.0000000000
40
0.0000000000
40
0.0000000000
40
0.0000000000
40
0.1892972793
40
0.3814820129
40
0.5803142161
40
0.7866128044
40
1.0000000000
40
1.0000000000
40
1.0000000000
40
1.0000000000
10
43.8369773065
20
260.2251978290
30
0.0000000000
10
43.8368994652
20
260.3235538587
30
0.0000000000
10
43.8075485448
20
260.5229822993
30
0.0000000000
10
43.6761852340
20
260.7992171119
30
0.0000000000
10
43.4612187364
20
261.0301859807
30
0.0000000000
10
43.1748102114
20
261.1876442378
30
0.0000000000
10
42.9549423260
20
261.2252229678
30
0.0000000000
10
42.8440695050
20
261.2251978290
30
0.0000000000
11
43.8369773065
21
260.2251978290
31
0.0000000000
11
43.7937347248
21
260.5170801868
31
0.0000000000
11
43.6650776871
21
260.7876147729
31
0.0000000000
11
43.4538382191
21
261.0144075988
31
0.0000000000
11
43.1719239602
21
261.1691041231
31
0.0000000000
11
42.8440695050
21
261.2251978290
31
0.0000000000
0
SPLINE
5
4AA
100
AcDbEntity
8
0
100
AcDbSpline
62
7
6
CONTINUOUS
70
0
71
3
72
10
73
6
74
4
42
0.0000001000
43
0.0000001000
44
0.0000000001
12
-0.0000943489
22
0.6472686631
32
0.0000000000
13
-0.3941629565
23
0.5134124023
33
0.0000000000
40
0.0000000000
40
0.0000000000
40
0.0000000000
40
0.0000000000
40
0.3326703528
40
0.6652748046
40
1.0000000000
40
1.0000000000
40
1.0000000000
40
1.0000000000
10
63.5511568987
20
260.2251978290
30
0.0000000000
10
63.5511464363
20
260.2969735272
30
0.0000000000
10
63.5353515793
20
260.4410296428
30
0.0000000000
10
63.4651794207
20
260.6466940737
30
0.0000000000
10
63.3897453973
20
260.7709281777
30
0.0000000000
10
63.3457666397
20
260.8282121999
30
0.0000000000
11
63.5511568987
21
260.2251978290
31
0.0000000000
11
63.5276262567
21
260.4392353666
31
0.0000000000
11
63.4582221046
21
260.6430255879
31
0.0000000000
11
63.3457666397
21
260.8282121999
31
0.0000000000
0
SPLINE
5
4AB
100
AcDbEntity
8
0
100
AcDbSpline
62
7
6
CONTINUOUS
70
0
71
3
72
12
73
8
74
6
42
0.0000001000
43
0.0000001000
44
0.0000000001
12
1.5587554946
22
-0.0003530964
32
0.0000000000
13
0.0012341427
23
1.5587550460
33
0.0000000000
40
0.0000000000
40
0.0000000000
40
0.0000000000
40
0.0000000000
40
0.2133871948
40
0.4196857819
40
0.6185179847
40
0.8107027183
40
1.0000000000
40
1.0000000000
40
1.0000000000
40
1.0000000000
10
42.8440695050
20
151.2251978290
30
0.0000000000
10
42.9549423258
20
151.2251727136
30
0.0000000000
10
43.1748102066
20
151.2627514199
30
0.0000000000
10
43.4612187428
20
151.4202096760
30
0.0000000000
10
43.6761852153
20
151.6511785538
30
0.0000000000
10
43.8075485963
20
151.9274133475
30
0.0000000000
10
43.8368994332
20
152.1268417980
30
0.0000000000
10
43.8369773065
20
152.2251978290
30
0.0000000000
11
42.8440695050
21
151.2251978290
31
0.0000000000
11
43.1719239587
21
151.2812915403
31
0.0000000000
11
43.4538382190
21
151.4359880593
31
0.0000000000
11
43.6650776843
21
151.6627808875
31
0.0000000000
11
43.7937347433
21
151.9333154643
31
0.0000000000
11
43.8369773065
21
152.2251978290
31
0.0000000000
0
SPLINE
5
4AC
100
AcDbEntity
8
0
100
AcDbSpline
62
7
6
CONTINUOUS
70
0
71
3
72
11
73
7
74
5
42
0.0000001000
43
0.0000001000
44
0.0000000001
12
-0.5668835436
22
0.0000000000
32
0.0000000000
13
0.0000000000
23
-0.5668835436
33
0.0000000000
40
0.0000000000
40
0.0000000000
40
0.0000000000
40
0.0000000000
40
0.1457135794
40
0.3661137925
40
0.6614885171
40
1.0000000000
40
1.0000000000
40
1.0000000000
40
1.0000000000
10
39.4005763852
20
151.7251978290
30
0.0000000000
10
39.3730421751
20
151.7251978290
30
0.0000000000
10
39.3084626494
20
151.6812259705
30
0.0000000000
10
39.2559735618
20
151.5668918694
30
0.0000000000
10
39.2171318873
20
151.4092603733
30
0.0000000000
10
39.2090035638
20
151.2891633587
30
0.0000000000
10
39.2090035638
20
151.2251978290
30
0.0000000000
11
39.4005763852
21
151.7251978290
31
0.0000000000
11
39.3272646351
21
151.6871375896
31
0.0000000000
11
39.2651139393
21
151.5787512071
31
0.0000000000
11
39.2235861749
21
151.4165395347
31
0.0000000000
11
39.2090035638
21
151.2251978290
31
0.0000000000
0
SPLINE
5
4AD
100
AcDbEntity
8
0
100
AcDbSpline
62
7
6
CONTINUOUS
70
0
71
3
72
22
73
18
74
16
42
0.0000001000
43
0.0000001000
44
0.0000000001
12
-0.0073309341
22
-2.8963603344
32
0.0000000000
13
2.8963696120
23
-0.0000080288
33
0.0000000000
40
0.0000000000
40
0.0000000000
40
0.0000000000
40
0.0000000000
40
0.0391776205
40
0.0803148789
40
0.1229563395
40
0.1683954284
40
0.2180007048
40
0.2716728561
40
0.3293448176
40
0.3917547319
40
0.4595151601
40
0.5324788629
40
0.6108825232
40
0.6958530793
40
0.7885860223
40
0.8898792771
40
1.0000000000
40
1.0000000000
40
1.0000000000
40
1.0000000000
10
36.6774441527
20
152.2251978290
30
0.0000000000
10
36.6773484165
20
152.1873736603
30
0.0000000000
10
36.6898831563
20
152.1094672248
30
0.0000000000
10
36.7403374812
20
152.0007263329
30
0.0000000000
10
36.8170043163
20
151.9013653208
30
0.0000000000
10
36.9139669313
20
151.8098580909
30
0.0000000000
10
37.0300615033
20
151.7248730259
30
0.0000000000
10
37.1639427719
20
151.6456153256
30
0.0000000000
10
37.3148003635
20
151.5719070284
30
0.0000000000
10
37.4828567177
20
151.5034290546
30
0.0000000000
10
37.6686482254
20
151.4403091895
30
0.0000000000
10
37.8724136557
20
151.3830732799
30
0.0000000000
10
38.0949697437
20
151.3323508914
30
0.0000000000
10
38.3384841504
20
151.2889493296
30
0.0000000000
10
38.6057131702
20
151.2543140305
30
0.0000000000
10
38.8985315483
20
151.2308576398
30
0.0000000000
10
39.1026867920
20
151.2251981237
30
0.0000000000
10
39.2090035638
20
151.2251978290
30
0.0000000000
11
36.6774441527
21
152.2251978290
31
0.0000000000
11
36.6944366988
21
152.1130044892
31
0.0000000000
11
36.7434161407
21
152.0043885225
31
0.0000000000
11
36.8176341436
21
151.9056703405
31
0.0000000000
11
36.9126929322
21
151.8146505809
31
0.0000000000
11
37.0281061063
21
151.7290797521
31
0.0000000000
11
37.1615574571
21
151.6493501864
31
0.0000000000
11
37.3114191571
21
151.5755694014
31
0.0000000000
11
37.4786669753
21
151.5069900114
31
0.0000000000
11
37.6643873357
21
151.4435420872
31
0.0000000000
11
37.8677698369
21
151.3861324676
31
0.0000000000
11
38.0891298524
21
151.3354591465
31
0.0000000000
11
38.3313874838
21
151.2921062872
31
0.0000000000
11
38.5977325034
21
151.2574607094
31
0.0000000000
11
38.8901742364
21
151.2339821134
31
0.0000000000
11
39.2090035638
21
151.2251978290
31
0.0000000000
0
SPLINE
5
4AE
100
AcDbEntity
8
0
100
AcDbSpline
62
7
6
CONTINUOUS
70
0
71
3
72
22
73
18
74
16
42
0.0000001000
43
0.0000001000
44
0.0000000001
12
-0.0051956383
22
-2.6694941769
32
0.0000000000
13
2.6694992331
23
-0.0000023762
33
0.0000000000
40
0.0000000000
40
0.0000000000
40
0.0000000000
40
0.0000000000
40
0.0220006102
40
0.0494938464
40
0.0830024556
40
0.1227212306
40
0.1691205314
40
0.2216329147
40
0.2798357362
40
0.3442296905
40
0.4152988730
40
0.4927790132
40
0.5768304421
40
0.6685885893
40
0.7692836173
40
0.8797022971
40
1.0000000000
40
1.0000000000
40
1.0000000000
40
1.0000000000
10
36.8509344067
20
152.2251978290
30
0.0000000000
10
36.8508963043
20
152.2056209954
30
0.0000000000
10
36.8666238399
20
152.1616497416
30
0.0000000000
10
36.9199965257
20
152.1090411204
30
0.0000000000
10
36.9959626808
20
152.0608865862
30
0.0000000000
10
37.0927764629
20
152.0161265311
30
0.0000000000
10
37.2088709154
20
151.9741394673
30
0.0000000000
10
37.3431111105
20
151.9348372107
30
0.0000000000
10
37.4945991087
20
151.8981704961
30
0.0000000000
10
37.6635537733
20
151.8640503166
30
0.0000000000
10
37.8504335867
20
151.8325704569
30
0.0000000000
10
38.0554547992
20
151.8040103148
30
0.0000000000
10
38.2794370904
20
151.7786906903
30
0.0000000000
10
38.5245475522
20
151.7570213960
30
0.0000000000
10
38.7935241797
20
151.7397292386
30
0.0000000000
10
39.0882214409
20
151.7280218679
30
0.0000000000
10
39.2935315099
20
151.7251979243
30
0.0000000000
10
39.4005763852
20
151.7251978290
30
0.0000000000
11
36.8509344067
21
152.2251978290
31
0.0000000000
11
36.8680593331
21
152.1690193483
31
0.0000000000
11
36.9175063881
21
152.1147833216
31
0.0000000000
11
36.9921232639
21
152.0654493558
31
0.0000000000
11
37.0878853929
21
152.0199321692
31
0.0000000000
11
37.2041209886
21
151.9771384339
31
0.0000000000
11
37.3385155490
21
151.9372757968
31
0.0000000000
11
37.4894447349
21
151.9003846107
31
0.0000000000
11
37.6578894995
21
151.8660941192
31
0.0000000000
11
37.8449373937
21
151.8343697928
31
0.0000000000
11
38.0497690770
21
151.8056653742
31
0.0000000000
11
38.2727092046
21
151.7803288178
31
0.0000000000
11
38.5166965178
21
151.7586525050
31
0.0000000000
11
38.7849430769
21
151.7413298950
31
0.0000000000
11
39.0794718082
21
151.7295908344
31
0.0000000000
11
39.4005763852
21
151.7251978290
31
0.0000000000
0
SPLINE
5
4AF
100
AcDbEntity
8
0
100
AcDbSpline
62
7
6
CONTINUOUS
70
0
71
3
72
15
73
11
74
9
42
0.0000001000
43
0.0000001000
44
0.0000000001
12
-1.3674819134
22
-0.0000020172
32
0.0000000000
13
0.0035973903
23
1.3674771816
33
0.0000000000
40
0.0000000000
40
0.0000000000
40
0.0000000000
40
0.0000000000
40
0.1858710736
40
0.3528056046
40
0.5018784791
40
0.6339422098
40
0.7492632575
40
0.8472356486
40
0.9285880625
40
1.0000000000
40
1.0000000000
40
1.0000000000
40
1.0000000000
10
58.6260403303
20
151.7251978290
30
0.0000000000
10
58.5413152199
20
151.7251977041
30
0.0000000000
10
58.3803843028
20
151.7328450371
30
0.0000000000
10
58.1535620289
20
151.7649271238
30
0.0000000000
10
57.9546576091
20
151.8128176237
30
0.0000000000
10
57.7841679741
20
151.8740044982
30
0.0000000000
10
57.6438945932
20
151.9467778024
30
0.0000000000
10
57.5369882496
20
152.0297934179
30
0.0000000000
10
57.4670263013
20
152.1225214152
30
0.0000000000
10
57.4491446051
20
152.1926464307
30
0.0000000000
10
57.4492302373
20
152.2251978290
30
0.0000000000
11
58.6260403303
21
151.7251978290
31
0.0000000000
11
58.3721577070
21
151.7373926087
31
0.0000000000
11
58.1461979937
21
151.7698571189
31
0.0000000000
11
57.9482042099
21
151.8183865144
31
0.0000000000
11
57.7786504660
21
151.8805636522
31
0.0000000000
11
57.6395503163
21
151.9548621306
31
0.0000000000
11
57.5354437641
21
152.0391903770
31
0.0000000000
11
57.4712697472
21
152.1300628312
31
0.0000000000
11
57.4492302373
21
152.2251978290
31
0.0000000000
0
SPLINE
5
4B0
100
AcDbEntity
8
0
100
AcDbSpline
62
7
6
CONTINUOUS
70
0
71
3
72
9
73
5
74
3
42
0.0000001000
43
0.0000001000
44
0.0000000001
12
0.2885814114
22
0.0000000000
32
0.0000000000
13
0.2402982030
23
0.1631006194
33
0.0000000000
40
0.0000000000
40
0.0000000000
40
0.0000000000
40
0.0000000000
40
0.6661555311
40
1.0000000000
40
1.0000000000
40
1.0000000000
40
1.0000000000
10
61.8151129345
20
151.7251978290
30
0.0000000000
10
61.8791929690
20
151.7251978290
30
0.0000000000
10
61.9764611700
20
151.7447920990
30
0.0000000000
10
62.0619286422
20
151.7913254467
30
0.0000000000
10
62.0886693842
20
151.8094755265
30
0.0000000000
11
61.8151129345
21
151.7251978290
31
0.0000000000
11
62.0035477401
21
151.7632580628
31
0.0000000000
11
62.0886693842
21
151.8094755265
31
0.0000000000
0
SPLINE
5
4B1
100
AcDbEntity
8
0
100
AcDbSpline
62
7
6
CONTINUOUS
70
0
71
3
72
10
73
6
74
4
42
0.0000001000
43
0.0000001000
44
0.0000000001
12
0.4045725785
22
0.2746006310
32
0.0000000000
13
0.0000000000
23
0.4858634991
33
0.0000000000
40
0.0000000000
40
0.0000000000
40
0.0000000000
40
0.0000000000
40
0.1990370320
40
0.5986972845
40
1.0000000000
40
1.0000000000
40
1.0000000000
40
1.0000000000
10
62.0886693842
20
151.8094755265
30
0.0000000000
10
62.1155110259
20
151.8276940914
30
0.0000000000
10
62.1908185192
20
151.8904208299
30
0.0000000000
10
62.2820271581
20
152.0290951996
30
0.0000000000
10
62.3075168110
20
152.1602050485
30
0.0000000000
10
62.3075168110
20
152.2251978290
30
0.0000000000
11
62.0886693842
21
151.8094755265
31
0.0000000000
11
62.1632950547
21
151.8716444384
31
0.0000000000
11
62.2700347978
21
152.0338561129
31
0.0000000000
11
62.3075168110
21
152.2251978290
31
0.0000000000
0
SPLINE
5
4B2
100
AcDbEntity
8
0
100
AcDbSpline
62
7
6
CONTINUOUS
70
0
71
3
72
10
73
6
74
4
42
0.0000001000
43
0.0000001000
44
0.0000000001
12
0.2015741434
22
0.2548796278
32
0.0000000000
13
0.0000179201
23
0.3249550118
33
0.0000000000
40
0.0000000000
40
0.0000000000
40
0.0000000000
40
0.0000000000
40
0.3363601167
40
0.6678220376
40
1.0000000000
40
1.0000000000
40
1.0000000000
40
1.0000000000
10
62.9529613820
20
151.9236883682
30
0.0000000000
10
62.9755618828
20
151.9522654820
30
0.0000000000
10
63.0143639655
20
152.0141501419
30
0.0000000000
10
63.0505647941
20
152.1171041195
30
0.0000000000
10
63.0587513241
20
152.1892605656
30
0.0000000000
10
63.0587533083
20
152.2252415301
30
0.0000000000
11
62.9529613820
21
151.9236883682
31
0.0000000000
11
63.0109381338
21
152.0163468966
31
0.0000000000
11
63.0465879665
21
152.1179863541
31
0.0000000000
11
63.0587533083
21
152.2252415301
31
0.0000000000
0
SPLINE
5
4B3
100
AcDbEntity
8
0
100
AcDbSpline
62
7
6
CONTINUOUS
70
0
71
3
72
11
73
7
74
5
42
0.0000001000
43
0.0000001000
44
0.0000000001
12
-0.5818577038
22
0.0000000000
32
0.0000000000
13
-0.0000000955
23
-0.5818577038
33
0.0000000000
40
0.0000000000
40
0.0000000000
40
0.0000000000
40
0.0000000000
40
0.1573215896
40
0.3796117299
40
0.6699349941
40
1.0000000000
40
1.0000000000
40
1.0000000000
40
1.0000000000
10
43.0616070831
20
151.7251978290
30
0.0000000000
10
43.0310941568
20
151.7251978290
30
0.0000000000
10
42.9601274642
20
151.6844682016
30
0.0000000000
10
42.8973991189
20
151.5683700740
30
0.0000000000
10
42.8535780291
20
151.4099695947
30
0.0000000000
10
42.8440695022
20
151.2892147845
30
0.0000000000
10
42.8440694917
20
151.2251978290
30
0.0000000000
11
43.0616070831
21
151.7251978290
31
0.0000000000
11
42.9783568339
21
151.6871354585
31
0.0000000000
11
42.9077823116
21
151.5787454648
31
0.0000000000
11
42.8606275045
21
151.4165335745
31
0.0000000000
11
42.8440694917
21
151.2251978290
31
0.0000000000
0
SPLINE
5
4B4
100
AcDbEntity
8
0
100
AcDbSpline
62
7
6
CONTINUOUS
70
0
71
3
72
10
73
6
74
4
42
0.0000001000
43
0.0000001000
44
0.0000000001
12
-0.0000891185
22
0.3247250983
32
0.0000000000
13
-0.2014281176
23
0.2547020040
33
0.0000000000
40
0.0000000000
40
0.0000000000
40
0.0000000000
40
0.0000000000
40
0.3306864525
40
0.6631769069
40
1.0000000000
40
1.0000000000
40
1.0000000000
40
1.0000000000
10
63.0587517635
20
260.2253841914
30
0.0000000000
10
63.0587419400
20
260.2611782550
30
0.0000000000
10
63.0505644729
20
260.3332257471
30
0.0000000000
10
63.0144362350
20
260.4361283964
30
0.0000000000
10
62.9755763717
20
260.4981092761
30
0.0000000000
10
62.9529611578
20
260.5267057817
30
0.0000000000
11
63.0587517635
21
260.2253841914
31
0.0000000000
11
63.0466626673
21
260.3320837206
31
0.0000000000
11
63.0109704354
21
260.4339814807
31
0.0000000000
11
62.9529611578
21
260.5267057817
31
0.0000000000
0
SPLINE
5
4B5
100
AcDbEntity
8
0
100
AcDbSpline
62
7
6
CONTINUOUS
70
0
71
3
72
22
73
18
74
16
42
0.0000001000
43
0.0000001000
44
0.0000000001
12
-1.1577657918
22
-0.0000294497
32
0.0000000000
13
0.0000446467
23
1.1577657913
33
0.0000000000
40
0.0000000000
40
0.0000000000
40
0.0000000000
40
0.0000000000
40
0.1178727946
40
0.2246676754
40
0.3213625125
40
0.4087521948
40
0.4878198793
40
0.5597635947
40
0.6257837155
40
0.6862638516
40
0.7406540605
40
0.7889574150
40
0.8328554066
40
0.8745459575
40
0.9159049793
40
0.9575381151
40
1.0000000000
40
1.0000000000
40
1.0000000000
40
1.0000000000
10
36.2155981579
20
149.2251978290
30
0.0000000000
10
36.1701084614
20
149.2251966719
30
0.0000000000
10
36.0833635472
20
149.2285914845
30
0.0000000000
10
35.9600540089
20
149.2428026117
30
0.0000000000
10
35.8496604808
20
149.2636998249
30
0.0000000000
10
35.7513932551
20
149.2896745719
30
0.0000000000
10
35.6642928240
20
149.3195640961
30
0.0000000000
10
35.5872487581
20
149.3526283674
30
0.0000000000
10
35.5194197385
20
149.3883732285
30
0.0000000000
10
35.4606226784
20
149.4261835109
30
0.0000000000
10
35.4110197219
20
149.4651430513
30
0.0000000000
10
35.3702345175
20
149.5044983199
30
0.0000000000
10
35.3371342661
20
149.5443224339
30
0.0000000000
10
35.3105369312
20
149.5856242151
30
0.0000000000
10
35.2902480951
20
149.6294544579
30
0.0000000000
10
35.2770950617
20
149.6762780676
30
0.0000000000
10
35.2740212452
20
149.7088108564
30
0.0000000000
10
35.2740218771
20
149.7251978290
30
0.0000000000
11
36.2155981579
21
149.2251978290
31
0.0000000000
11
36.0792344226
21
149.2305591778
31
0.0000000000
11
35.9564134908
21
149.2447972913
31
0.0000000000
11
35.8464384902
21
149.2657328126
31
0.0000000000
11
35.7486559191
21
149.2917195508
31
0.0000000000
11
35.6621190508
21
149.3215739077
31
0.0000000000
11
35.5856406241
21
149.3545729399
31
0.0000000000
11
35.5181036956
21
149.3903668017
31
0.0000000000
11
35.4593136116
21
149.4284034035
31
0.0000000000
11
35.4099116069
21
149.4674521462
31
0.0000000000
11
35.3697934990
21
149.5064140250
31
0.0000000000
11
35.3374374126
21
149.5456074081
31
0.0000000000
11
35.3114467277
21
149.5862801737
31
0.0000000000
11
35.2914856828
21
149.6298053383
31
0.0000000000
11
35.2785895404
21
149.6762495677
31
0.0000000000
11
35.2740218771
21
149.7251978290
31
0.0000000000
0
SPLINE
5
4B6
100
AcDbEntity
8
0
100
AcDbSpline
62
7
6
CONTINUOUS
70
0
71
3
72
14
73
10
74
8
42
0.0000001000
43
0.0000001000
44
0.0000000001
12
-0.0018887882
22
1.1558606507
32
0.0000000000
13
1.1558621893
23
0.0001033539
33
0.0000000000
40
0.0000000000
40
0.0000000000
40
0.0000000000
40
0.0000000000
40
0.0957259641
40
0.2035375850
40
0.3277861558
40
0.4687454078
40
0.6269778949
40
0.8036270772
40
1.0000000000
40
1.0000000000
40
1.0000000000
40
1.0000000000
10
35.2740218771
20
262.7251978290
30
0.0000000000
10
35.2739616085
20
262.7620797874
30
0.0000000000
10
35.2916434134
20
262.8411187377
30
0.0000000000
10
35.3641509178
20
262.9471583835
30
0.0000000000
10
35.4758016831
20
263.0397695615
30
0.0000000000
10
35.6205675100
20
263.1167933146
30
0.0000000000
10
35.7946259824
20
263.1764034563
30
0.0000000000
10
35.9960233165
20
263.2159069335
30
0.0000000000
10
36.1399381457
20
263.2251910637
30
0.0000000000
10
36.2155981579
20
263.2251978290
30
0.0000000000
11
35.2740218771
21
262.7251978290
31
0.0000000000
11
35.2966412266
21
262.8335071426
31
0.0000000000
11
35.3644274754
21
262.9380729906
31
0.0000000000
11
35.4732775447
21
263.0317570781
31
0.0000000000
11
35.6162500906
21
263.1098907034
31
0.0000000000
11
35.7888841631
21
263.1702897069
31
0.0000000000
11
35.9891074308
21
263.2103019260
31
0.0000000000
11
36.2155981579
21
263.2251978290
31
0.0000000000
0
SPLINE
5
4B7
100
AcDbEntity
8
0
100
AcDbSpline
62
7
6
CONTINUOUS
70
0
71
3
72
9
73
5
74
3
42
0.0000001000
43
0.0000001000
44
0.0000000001
12
0.2885813307
22
0.0000000000
32
0.0000000000
13
0.2402981629
23
-0.1631005334
33
0.0000000000
40
0.0000000000
40
0.0000000000
40
0.0000000000
40
0.0000000000
40
0.6661554887
40
1.0000000000
40
1.0000000000
40
1.0000000000
40
1.0000000000
10
61.8151129345
20
260.7251978290
30
0.0000000000
10
61.8791929470
20
260.7251978290
30
0.0000000000
10
61.9764611200
20
260.7056035717
30
0.0000000000
10
62.0619285751
20
260.6590702503
30
0.0000000000
10
62.0886693160
20
260.6409201777
30
0.0000000000
11
61.8151129345
21
260.7251978290
31
0.0000000000
11
62.0035476781
21
260.6871376214
31
0.0000000000
11
62.0886693160
21
260.6409201777
31
0.0000000000
0
SPLINE
5
4B8
100
AcDbEntity
8
0
100
AcDbSpline
62
7
6
CONTINUOUS
70
0
71
3
72
10
73
6
74
4
42
0.0000001000
43
0.0000001000
44
0.0000000001
12
0.4045726913
22
-0.2746006086
32
0.0000000000
13
-0.0000000001
23
-0.4858635798
33
0.0000000000
40
0.0000000000
40
0.0000000000
40
0.0000000000
40
0.0000000000
40
0.1990369921
40
0.5986972311
40
1.0000000000
40
1.0000000000
40
1.0000000000
40
1.0000000000
10
62.0886693160
20
260.6409201777
30
0.0000000000
10
62.1155109599
20
260.6227016180
30
0.0000000000
10
62.1908184697
20
260.5599748875
30
0.0000000000
10
62.2820271446
20
260.4213005071
30
0.0000000000
10
62.3075168110
20
260.2901906290
30
0.0000000000
10
62.3075168110
20
260.2251978290
30
0.0000000000
11
62.0886693160
21
260.6409201777
31
0.0000000000
11
62.1632949946
21
260.5787512807
31
0.0000000000
11
62.2700347753
21
260.4165396003
31
0.0000000000
11
62.3075168110
21
260.2251978290
31
0.0000000000
0
SPLINE
5
4B9
100
AcDbEntity
8
0
100
AcDbSpline
62
7
6
CONTINUOUS
70
0
71
3
72
23
73
19
74
17
42
0.0000001000
43
0.0000001000
44
0.0000000001
12
-2.6695918253
22
-0.0000039622
32
0.0000000000
13
-0.0148077413
23
-2.6695507570
33
0.0000000000
40
0.0000000000
40
0.0000000000
40
0.0000000000
40
0.0000000000
40
0.1137363922
40
0.2183943081
40
0.3142497670
40
0.4019432144
40
0.4824433765
40
0.5567190910
40
0.6252896635
40
0.6878852352
40
0.7447040279
40
0.7964681164
40
0.8436068161
40
0.8855455642
40
0.9218449444
40
0.9527544233
40
0.9782774783
40
1.0000000000
40
1.0000000000
40
1.0000000000
40
1.0000000000
10
39.4005763852
20
260.7251978290
30
0.0000000000
10
39.2993664708
20
260.7251976788
30
0.0000000000
10
39.1050159314
20
260.7226691658
30
0.0000000000
10
38.8255493140
20
260.7121625251
30
0.0000000000
10
38.5695346972
20
260.6965982653
30
0.0000000000
10
38.3353611476
20
260.6770578229
30
0.0000000000
10
38.1207869872
20
260.6542421515
30
0.0000000000
10
37.9236856732
20
260.6285585497
30
0.0000000000
10
37.7430430026
20
260.6003154832
30
0.0000000000
10
37.5785438751
20
260.5697973275
30
0.0000000000
10
37.4297202325
20
260.5371767530
30
0.0000000000
10
37.2955621022
20
260.5023275083
30
0.0000000000
10
37.1758389387
20
260.4650403111
30
0.0000000000
10
37.0715448975
20
260.4251745513
30
0.0000000000
10
36.9839760773
20
260.3826846154
30
0.0000000000
10
36.9149970923
20
260.3368777222
30
0.0000000000
10
36.8655496723
20
260.2865735474
30
0.0000000000
10
36.8510416272
20
260.2445276204
30
0.0000000000
10
36.8509344067
20
260.2251978290
30
0.0000000000
11
39.4005763852
21
260.7251978290
31
0.0000000000
11
39.0969720559
21
260.7212694615
31
0.0000000000
11
38.8177764480
21
260.7107445770
31
0.0000000000
11
38.5623567306
21
260.6951563421
31
0.0000000000
11
38.3290687167
21
260.6756067573
31
0.0000000000
11
38.1153817392
21
260.6527815043
31
0.0000000000
11
37.9187746318
21
260.6270342762
31
0.0000000000
11
37.7379406372
21
260.5986025947
31
0.0000000000
11
37.5736744997
21
260.5679335179
31
0.0000000000
11
37.4255599511
21
260.5352255946
31
0.0000000000
11
37.2918879571
21
260.5001828453
31
0.0000000000
11
37.1718729712
21
260.4623360167
31
0.0000000000
11
37.0675180704
21
260.4217780546
31
0.0000000000
11
36.9807975712
21
260.3785340646
31
0.0000000000
11
36.9128724785
21
260.3316830108
31
0.0000000000
11
36.8676346261
21
260.2807313653
31
0.0000000000
11
36.8509344067
21
260.2251978290
31
0.0000000000
0
SPLINE
5
4BA
100
AcDbEntity
8
0
100
AcDbSpline
62
7
6
CONTINUOUS
70
0
71
3
72
11
73
7
74
5
42
0.0000001000
43
0.0000001000
44
0.0000000001
12
0.0000003887
22
-0.0000869193
32
0.0000000000
13
0.3400781858
23
-0.0002207941
33
0.0000000000
40
0.0000000000
40
0.0000000000
40
0.0000000000
40
0.0000000000
40
0.0145576062
40
0.1060238568
40
0.4565547358
40
1.0000000000
40
1.0000000000
40
1.0000000000
40
1.0000000000
10
34.9381010454
20
262.7254242341
30
0.0000000000
10
34.9381010473
20
262.7254238123
30
0.0000000000
10
34.9399643624
20
262.7254194515
30
0.0000000000
10
35.0123289050
20
262.7253562907
30
0.0000000000
10
35.1025736579
20
262.7253090606
30
0.0000000000
10
35.2124172506
20
262.7252378255
30
0.0000000000
10
35.2740218771
20
262.7251978290
30
0.0000000000
11
34.9381010454
21
262.7254242341
31
0.0000000000
11
34.9388944214
21
262.7254224205
31
0.0000000000
11
34.9700000914
21
262.7253938417
31
0.0000000000
11
35.0892079952
21
262.7253139419
31
0.0000000000
11
35.2740218771
21
262.7251978290
31
0.0000000000
0
SPLINE
5
4BB
100
AcDbEntity
8
0
100
AcDbSpline
62
7
6
CONTINUOUS
70
0
71
3
72
15
73
11
74
9
42
0.0000001000
43
0.0000001000
44
0.0000000001
12
-0.6798563732
22
-0.0000000000
32
0.0000000000
13
-0.0000000213
23
0.6798563732
33
0.0000000000
40
0.0000000000
40
0.0000000000
40
0.0000000000
40
0.0000000000
40
0.0815895857
40
0.1728273749
40
0.2760915400
40
0.3938462155
40
0.5277812589
40
0.6765671679
40
0.8357969930
40
1.0000000000
40
1.0000000000
40
1.0000000000
40
1.0000000000
10
63.3457668872
20
148.7251978290
30
0.0000000000
10
63.3272771540
20
148.7251978290
30
0.0000000000
10
63.2879933816
20
148.7294037963
30
0.0000000000
10
63.2282572351
20
148.7496348556
30
0.0000000000
10
63.1674212840
20
148.7869039754
30
0.0000000000
10
63.1089823080
20
148.8430305148
30
0.0000000000
10
63.0571097056
20
148.9181872878
30
0.0000000000
10
63.0161578117
20
149.0102003749
30
0.0000000000
10
62.9903890796
20
149.1145643587
30
0.0000000000
10
62.9843700210
20
149.1879863421
30
0.0000000000
10
62.9843700198
20
149.2251978290
30
0.0000000000
11
63.3457668872
21
148.7251978290
31
0.0000000000
11
63.2906076924
21
148.7310540523
31
0.0000000000
11
63.2317810401
21
148.7507256374
31
0.0000000000
11
63.1717009292
21
148.7870449757
31
0.0000000000
11
63.1135805457
21
148.8420997379
31
0.0000000000
11
63.0613724312
21
148.9167027934
31
0.0000000000
11
63.0198632666
21
149.0089466467
31
0.0000000000
11
62.9934793601
21
149.1139356488
31
0.0000000000
11
62.9843700198
21
149.2251978290
31
0.0000000000
0
SPLINE
5
4BC
100
AcDbEntity
8
0
100
AcDbSpline
62
7
6
CONTINUOUS
70
0
71
3
72
14
73
10
74
8
42
0.0000001000
43
0.0000001000
44
0.0000000001
12
-0.4815365906
22
-0.4229615008
32
0.0000000000
13
-0.6409164676
23
-0.0000287964
33
0.0000000000
40
0.0000000000
40
0.0000000000
40
0.0000000000
40
0.0000000000
40
0.1189402530
40
0.2436553059
40
0.3753759632
40
0.5154093500
40
0.6651291764
40
0.8260604998
40
1.0000000000
40
1.0000000000
40
1.0000000000
40
1.0000000000
10
62.9529613820
20
151.9236883682
30
0.0000000000
10
62.9338700207
20
151.9069193189
30
0.0000000000
10
62.8925268257
20
151.8750463889
30
0.0000000000
10
62.8237258336
20
151.8335578324
30
0.0000000000
10
62.7468962718
20
151.7975529002
30
0.0000000000
10
62.6618669794
20
151.7675068170
30
0.0000000000
10
62.5682965907
20
151.7441955064
30
0.0000000000
10
62.4657656638
20
151.7288171674
30
0.0000000000
10
62.3941690404
20
151.7251994986
30
0.0000000000
10
62.3570088104
20
151.7251978290
30
0.0000000000
11
62.9529613820
21
151.9236883682
31
0.0000000000
11
62.8927166842
21
151.8769796302
31
0.0000000000
11
62.8243730576
21
151.8355277023
31
0.0000000000
11
62.7479990498
21
151.7995544535
31
0.0000000000
11
62.6634235088
21
151.7695213523
31
0.0000000000
11
62.5703382551
21
151.7462178209
31
0.0000000000
11
62.4683461831
21
151.7308488209
31
0.0000000000
11
62.3570088104
21
151.7251978290
31
0.0000000000
0
SPLINE
5
4BD
100
AcDbEntity
8
0
100
AcDbSpline
62
7
6
CONTINUOUS
70
0
71
3
72
14
73
10
74
8
42
0.0000001000
43
0.0000001000
44
0.0000000001
12
-0.7431375361
22
-0.7943682689
32
0.0000000000
13
-1.0877841389
23
-0.0001064910
33
0.0000000000
40
0.0000000000
40
0.0000000000
40
0.0000000000
40
0.0000000000
40
0.1252657017
40
0.2536246734
40
0.3867084865
40
0.5260949443
40
0.6734576723
40
0.8306640096
40
1.0000000000
40
1.0000000000
40
1.0000000000
40
1.0000000000
10
62.9843410952
20
151.6222659155
30
0.0000000000
10
62.9533112135
20
151.5890968827
30
0.0000000000
10
62.8862543893
20
151.5257574450
30
0.0000000000
10
62.7729907207
20
151.4425645146
30
0.0000000000
10
62.6465005553
20
151.3703540815
30
0.0000000000
10
62.5063591171
20
151.3101005949
30
0.0000000000
10
62.3519698675
20
151.2633256230
30
0.0000000000
10
62.1825613811
20
151.2324535837
30
0.0000000000
10
62.0640247465
20
151.2252038400
30
0.0000000000
10
62.0026244116
20
151.2251978290
30
0.0000000000
11
62.9843410952
21
151.6222659155
31
0.0000000000
11
62.8853091096
21
151.5286709879
31
0.0000000000
11
62.7729453274
21
151.4457852903
31
0.0000000000
11
62.6473043842
21
151.3738708839
31
0.0000000000
11
62.5080760653
21
151.3138307231
31
0.0000000000
11
62.3547003783
21
151.2672301179
31
0.0000000000
11
62.1864787339
21
151.2364937829
31
0.0000000000
11
62.0026244116
21
151.2251978290
31
0.0000000000
0
SPLINE
5
4BE
100
AcDbEntity
8
0
100
AcDbSpline
62
7
6
CONTINUOUS
70
0
71
3
72
11
73
7
74
5
42
0.0000001000
43
0.0000001000
44
0.0000000001
12
-0.1415851856
22
0.2793953326
32
0.0000000000
13
0.1408768710
23
0.2797531481
33
0.0000000000
40
0.0000000000
40
0.0000000000
40
0.0000000000
40
0.0000000000
40
0.2735812474
40
0.5334860349
40
0.7749458351
40
1.0000000000
40
1.0000000000
40
1.0000000000
40
1.0000000000
10
62.9843095008
20
151.6221142332
30
0.0000000000
10
62.9713978169
20
151.6475933411
30
0.0000000000
10
62.9497211170
20
151.6991581058
30
0.0000000000
10
62.9305431254
20
151.7782156790
30
0.0000000000
10
62.9287665732
20
151.8547949827
30
0.0000000000
10
62.9424004519
20
151.9027093345
30
0.0000000000
10
62.9529687608
20
151.9236958715
30
0.0000000000
11
62.9843095008
21
151.6221142332
31
0.0000000000
11
62.9513939881
21
151.7012321054
31
0.0000000000
11
62.9330914651
21
151.7805559344
31
0.0000000000
11
62.9326845075
21
151.8561853978
31
0.0000000000
11
62.9529687608
21
151.9236958715
31
0.0000000000
0
SPLINE
5
4BF
100
AcDbEntity
8
0
100
AcDbSpline
62
7
6
CONTINUOUS
70
0
71
3
72
12
73
8
74
6
42
0.0000001000
43
0.0000001000
44
0.0000000001
12
0.0000000000
22
1.2673883850
32
0.0000000000
13
1.2673883850
23
0.0000000000
33
0.0000000000
40
0.0000000000
40
0.0000000000
40
0.0000000000
40
0.0000000000
40
0.2319152068
40
0.4585103707
40
0.6617970650
40
0.8400415761
40
1.0000000000
40
1.0000000000
40
1.0000000000
40
1.0000000000
10
160.1310748859
20
257.8251978290
30
0.0000000000
10
160.1310748859
20
257.9231733755
30
0.0000000000
10
160.1474562218
20
258.1172976163
30
0.0000000000
10
160.2214436305
20
258.3888387882
30
0.0000000000
10
160.3438576402
20
258.6177632194
30
0.0000000000
10
160.5114214773
20
258.7814538130
30
0.0000000000
10
160.6558186713
20
258.8251978290
30
0.0000000000
10
160.7233951541
20
258.8251978290
30
0.0000000000
11
160.1310748859
21
257.8251978290
31
0.0000000000
11
160.1565695860
21
258.1180166974
31
0.0000000000
11
160.2347393147
21
258.3943574084
31
0.0000000000
11
160.3606131031
21
258.6191591109
31
0.0000000000
11
160.5281185899
21
258.7707341462
31
0.0000000000
11
160.7233951541
21
258.8251978290
31
0.0000000000
0
SPLINE
5
4C0
100
AcDbEntity
8
0
100
AcDbSpline
62
7
6
CONTINUOUS
70
0
71
3
72
12
73
8
74
6
42
0.0000001000
43
0.0000001000
44
0.0000000001
12
-1.2673883850
22
0.0000000000
32
0.0000000000
13
-0.0000000000
23
1.2673883850
33
0.0000000000
40
0.0000000000
40
0.0000000000
40
0.0000000000
40
0.0000000000
40
0.1599584239
40
0.3382029350
40
0.5414896293
40
0.7680847932
40
1.0000000000
40
1.0000000000
40
1.0000000000
40
1.0000000000
10
160.7233951541
20
153.6251978290
30
0.0000000000
10
160.6558186713
20
153.6251978290
30
0.0000000000
10
160.5114214773
20
153.6689418451
30
0.0000000000
10
160.3438576402
20
153.8326324387
30
0.0000000000
10
160.2214436305
20
154.0615568699
30
0.0000000000
10
160.1474562218
20
154.3330980418
30
0.0000000000
10
160.1310748859
20
154.5272222825
30
0.0000000000
10
160.1310748859
20
154.6251978290
30
0.0000000000
11
160.7233951541
21
153.6251978290
31
0.0000000000
11
160.5281185899
21
153.6796615119
31
0.0000000000
11
160.3606131031
21
153.8312365472
31
0.0000000000
11
160.2347393147
21
154.0560382497
31
0.0000000000
11
160.1565695860
21
154.3323789607
31
0.0000000000
11
160.1310748859
21
154.6251978290
31
0.0000000000
0
SPLINE
5
4C1
100
AcDbEntity
8
0
100
AcDbSpline
62
7
6
CONTINUOUS
70
0
71
3
72
14
73
10
74
8
42
0.0000001000
43
0.0000001000
44
0.0000000001
12
-0.0003709027
22
0.6602009921
32
0.0000000000
13
0.6602010762
23
0.0001630747
33
0.0000000000
40
0.0000000000
40
0.0000000000
40
0.0000000000
40
0.0000000000
40
0.1644830983
40
0.3268234593
40
0.4799110228
40
0.6205127268
40
0.7505145626
40
0.8744345478
40
1.0000000000
40
1.0000000000
40
1.0000000000
40
1.0000000000
10
154.4993991825
20
262.7251978290
30
0.0000000000
10
154.4993788467
20
262.7613951306
30
0.0000000000
10
154.5045563407
20
262.8334258391
30
0.0000000000
10
154.5274536969
20
262.9369300206
30
0.0000000000
10
154.5647578694
20
263.0306299698
30
0.0000000000
10
154.6147461804
20
263.1100483724
30
0.0000000000
10
154.6763408012
20
263.1724180653
30
0.0000000000
10
154.7496747369
20
263.2147936611
30
0.0000000000
10
154.8050372967
20
263.2251910035
30
0.0000000000
10
154.8326701122
20
263.2251978290
30
0.0000000000
11
154.4993991825
21
262.7251978290
31
0.0000000000
11
154.5072284916
21
262.8335071426
31
0.0000000000
11
154.5307434593
21
262.9380729906
31
0.0000000000
11
154.5686663951
21
263.0317570781
31
0.0000000000
11
154.6187831719
21
263.1098907034
31
0.0000000000
11
154.6797609971
21
263.1702897069
31
0.0000000000
11
154.7511209555
21
263.2103019260
31
0.0000000000
11
154.8326701122
21
263.2251978290
31
0.0000000000
0
SPLINE
5
4C2
100
AcDbEntity
8
0
100
AcDbSpline
62
7
6
CONTINUOUS
70
0
71
3
72
11
73
7
74
5
42
0.0000001000
43
0.0000001000
44
0.0000000001
12
0.7508811255
22
0.0000000000
32
0.0000000000
13
0.0000000000
23
-0.7508811255
33
0.0000000000
40
0.0000000000
40
0.0000000000
40
0.0000000000
40
0.0000000000
40
0.2407726876
40
0.4870509924
40
0.7409116699
40
1.0000000000
40
1.0000000000
40
1.0000000000
40
1.0000000000
10
155.5327589786
20
151.7251978290
30
0.0000000000
10
155.5930228675
20
151.7251978290
30
0.0000000000
10
155.7163948755
20
151.6983967645
30
0.0000000000
10
155.8698265534
20
151.5856543116
30
0.0000000000
10
155.9711799940
20
151.4196845013
30
0.0000000000
10
155.9946029502
20
151.2900460080
30
0.0000000000
10
155.9946029502
20
151.2251978290
30
0.0000000000
11
155.5327589786
21
151.7251978290
31
0.0000000000
11
155.7094990276
21
151.6871375896
31
0.0000000000
11
155.8593319944
21
151.5787512071
31
0.0000000000
11
155.9594471752
21
151.4165395347
31
0.0000000000
11
155.9946029502
21
151.2251978290
31
0.0000000000
0
SPLINE
5
4C3
100
AcDbEntity
8
0
100
AcDbSpline
62
7
6
CONTINUOUS
70
0
71
3
72
11
73
7
74
5
42
0.0000001000
43
0.0000001000
44
0.0000000001
12
0.7420063306
22
0.0000000000
32
0.0000000000
13
-0.0000000589
23
-0.7420063306
33
0.0000000000
40
0.0000000000
40
0.0000000000
40
0.0000000000
40
0.0000000000
40
0.2377903749
40
0.4829099994
40
0.7380345507
40
1.0000000000
40
1.0000000000
40
1.0000000000
40
1.0000000000
10
157.1749720611
20
151.7251978290
30
0.0000000000
10
157.2337860489
20
151.7251978290
30
0.0000000000
10
157.3546982570
20
151.6981164151
30
0.0000000000
10
157.5041699747
20
151.5849229085
30
0.0000000000
10
157.6025085972
20
151.4190817948
30
0.0000000000
10
157.6251691301
20
151.2899911696
30
0.0000000000
10
157.6251691249
20
151.2251978290
30
0.0000000000
11
157.1749720611
21
151.7251978290
31
0.0000000000
11
157.3472596765
21
151.6871354585
31
0.0000000000
11
157.4933146578
21
151.5787454648
31
0.0000000000
11
157.5909021531
21
151.4165335745
31
0.0000000000
11
157.6251691249
21
151.2251978290
31
0.0000000000
0
SPLINE
5
4C4
100
AcDbEntity
8
0
100
AcDbSpline
62
7
6
CONTINUOUS
70
0
71
3
72
11
73
7
74
5
42
0.0000001000
43
0.0000001000
44
0.0000000001
12
0.0000000000
22
-0.6570107062
32
0.0000000000
13
-0.6570107061
23
0.0000000000
33
0.0000000000
40
0.0000000000
40
0.0000000000
40
0.0000000000
40
0.0000000000
40
0.2753127353
40
0.5449982382
40
0.7847761463
40
1.0000000000
40
1.0000000000
40
1.0000000000
40
1.0000000000
10
162.6398995647
20
154.1251978290
30
0.0000000000
10
162.6398995647
20
154.0649033575
30
0.0000000000
10
162.6254726182
20
153.9449537373
30
0.0000000000
10
162.5600549605
20
153.7835303332
30
0.0000000000
10
162.4530193298
20
153.6606346665
30
0.0000000000
10
162.3525317404
20
153.6251978290
30
0.0000000000
10
162.3053969484
20
153.6251978290
30
0.0000000000
11
162.6398995647
21
154.1251978290
31
0.0000000000
11
162.6174119685
21
153.9457176973
31
0.0000000000
11
162.5483767260
21
153.7825334242
31
0.0000000000
11
162.4401493344
21
153.6680579741
31
0.0000000000
11
162.3053969484
21
153.6251978290
31
0.0000000000
0
SPLINE
5
4C5
100
AcDbEntity
8
0
100
AcDbSpline
62
7
6
CONTINUOUS
70
0
71
3
72
12
73
8
74
6
42
0.0000001000
43
0.0000001000
44
0.0000000001
12
0.7755128126
22
-0.0001313098
32
0.0000000000
13
0.0006225793
23
0.7755125738
33
0.0000000000
40
0.0000000000
40
0.0000000000
40
0.0000000000
40
0.0000000000
40
0.2102558531
40
0.4162497934
40
0.6161615072
40
0.8096167136
40
1.0000000000
40
1.0000000000
40
1.0000000000
40
1.0000000000
10
157.1749720611
20
151.7251978290
30
0.0000000000
10
157.2293240971
20
151.7251886261
30
0.0000000000
10
157.3377641978
20
151.7443960565
30
0.0000000000
10
157.4792653088
20
151.8230801903
30
0.0000000000
10
157.5866303800
20
151.9382132684
30
0.0000000000
10
157.6530616082
20
152.0761273056
30
0.0000000000
10
157.6679289642
20
152.1759829515
30
0.0000000000
10
157.6679684738
20
152.2251978290
30
0.0000000000
11
157.1749720611
21
151.7251978290
31
0.0000000000
11
157.3355962361
21
151.7532543706
31
0.0000000000
11
157.4753810483
21
151.8305885146
31
0.0000000000
11
157.5811494678
21
151.9439402366
31
0.0000000000
11
157.6460919923
21
152.0791828603
31
0.0000000000
11
157.6679684738
21
152.2251978290
31
0.0000000000
0
SPLINE
5
4C6
100
AcDbEntity
8
0
100
AcDbSpline
62
7
6
CONTINUOUS
70
0
71
3
72
11
73
7
74
5
42
0.0000001000
43
0.0000001000
44
0.0000000001
12
-0.5172653172
22
0.0000000000
32
0.0000000000
13
-0.0000000004
23
-0.5172653172
33
0.0000000000
40
0.0000000000
40
0.0000000000
40
0.0000000000
40
0.0000000000
40
0.0976729266
40
0.3141705331
40
0.6298690972
40
1.0000000000
40
1.0000000000
40
1.0000000000
40
1.0000000000
10
167.8459348897
20
260.7251978290
30
0.0000000000
10
167.8290939506
20
260.7251978290
30
0.0000000000
10
167.7996286535
20
260.6614872714
30
0.0000000000
10
167.7807092100
20
260.5659890443
30
0.0000000000
10
167.7623358209
20
260.4058405732
30
0.0000000000
10
167.7591108010
20
260.2890164553
30
0.0000000000
10
167.7591108009
20
260.2251978290
30
0.0000000000
11
167.8459348897
21
260.7251978290
31
0.0000000000
11
167.8127087605
21
260.6871376214
31
0.0000000000
11
167.7845409985
21
260.5787512807
31
0.0000000000
11
167.7657198952
21
260.4165396003
31
0.0000000000
11
167.7591108009
21
260.2251978290
31
0.0000000000
0
SPLINE
5
4C7
100
AcDbEntity
8
0
100
AcDbSpline
62
7
6
CONTINUOUS
70
0
71
3
72
11
73
7
74
5
42
0.0000001000
43
0.0000001000
44
0.0000000001
12
-0.6622605928
22
0.0000000000
32
0.0000000000
13
0.0000000000
23
-0.6622605928
33
0.0000000000
40
0.0000000000
40
0.0000000000
40
0.0000000000
40
0.0000000000
40
0.2196949981
40
0.4594047374
40
0.7272015360
40
1.0000000000
40
1.0000000000
40
1.0000000000
40
1.0000000000
10
162.9806768341
20
155.1251978290
30
0.0000000000
10
162.9321783876
20
155.1251978290
30
0.0000000000
10
162.8295699464
20
155.0906481003
30
0.0000000000
10
162.7200044287
20
154.9671462643
30
0.0000000000
10
162.6543011471
20
154.8053440123
30
0.0000000000
10
162.6398995647
20
154.6854190532
30
0.0000000000
10
162.6398995647
20
154.6251978290
30
0.0000000000
11
162.9806768341
21
155.1251978290
31
0.0000000000
11
162.8416765180
21
155.0822117153
31
0.0000000000
11
162.7317615443
21
154.9676675719
31
0.0000000000
11
162.6623584229
21
154.8044601012
31
0.0000000000
11
162.6398995647
21
154.6251978290
31
0.0000000000
0
SPLINE
5
4C8
100
AcDbEntity
8
0
100
AcDbSpline
62
7
6
CONTINUOUS
70
0
71
3
72
11
73
7
74
5
42
0.0000001000
43
0.0000001000
44
0.0000000001
12
0.6570107061
22
0.0000000000
32
0.0000000000
13
-0.0000000000
23
-0.6570107061
33
0.0000000000
40
0.0000000000
40
0.0000000000
40
0.0000000000
40
0.0000000000
40
0.2152238537
40
0.4550017618
40
0.7246872647
40
1.0000000000
40
1.0000000000
40
1.0000000000
40
1.0000000000
10
162.3053969484
20
258.8251978290
30
0.0000000000
10
162.3525317404
20
258.8251978290
30
0.0000000000
10
162.4530193298
20
258.7897609915
30
0.0000000000
10
162.5600549605
20
258.6668653248
30
0.0000000000
10
162.6254726182
20
258.5054419207
30
0.0000000000
10
162.6398995647
20
258.3854923006
30
0.0000000000
10
162.6398995647
20
258.3251978290
30
0.0000000000
11
162.3053969484
21
258.8251978290
31
0.0000000000
11
162.4401493344
21
258.7823376840
31
0.0000000000
11
162.5483767260
21
258.6678622339
31
0.0000000000
11
162.6174119685
21
258.5046779608
31
0.0000000000
11
162.6398995647
21
258.3251978290
31
0.0000000000
0
SPLINE
5
4C9
100
AcDbEntity
8
0
100
AcDbSpline
62
7
6
CONTINUOUS
70
0
71
3
72
11
73
7
74
5
42
0.0000001000
43
0.0000001000
44
0.0000000001
12
-0.7796073215
22
0.0000000000
32
0.0000000000
13
0.0000000114
23
0.7796073215
33
0.0000000000
40
0.0000000000
40
0.0000000000
40
0.0000000000
40
0.0000000000
40
0.2497766991
40
0.4996842704
40
0.7497768079
40
1.0000000000
40
1.0000000000
40
1.0000000000
40
1.0000000000
10
151.8217163010
20
258.8251978290
30
0.0000000000
10
151.7568070532
20
258.8251978290
30
0.0000000000
10
151.6255295301
20
258.8512348180
30
0.0000000000
10
151.4596564022
20
258.9625459893
30
0.0000000000
10
151.3486343095
20
259.1287365588
30
0.0000000000
10
151.3226827125
20
259.2601725515
30
0.0000000000
10
151.3226827134
20
259.3251978290
30
0.0000000000
11
151.8217163010
21
258.8251978290
31
0.0000000000
11
151.6307442905
21
258.8632581135
31
0.0000000000
11
151.4688461278
21
258.9716445752
31
0.0000000000
11
151.3606693225
21
259.1338562549
31
0.0000000000
11
151.3226827134
21
259.3251978290
31
0.0000000000
0
SPLINE
5
4CA
100
AcDbEntity
8
0
100
AcDbSpline
62
7
6
CONTINUOUS
70
0
71
3
72
22
73
18
74
16
42
0.0000001000
43
0.0000001000
44
0.0000000001
12
-1.4381726161
22
-0.0000206341
32
0.0000000000
13
-0.0000462688
23
1.4381726155
33
0.0000000000
40
0.0000000000
40
0.0000000000
40
0.0000000000
40
0.0000000000
40
0.0847596495
40
0.1630203384
40
0.2365634710
40
0.3064697762
40
0.3736348873
40
0.4389905504
40
0.5034757649
40
0.5672398715
40
0.6292143755
40
0.6885657630
40
0.7464610035
40
0.8051542961
40
0.8668646888
40
0.9319152562
40
1.0000000000
40
1.0000000000
40
1.0000000000
40
1.0000000000
10
154.3625067228
20
148.7251978293
30
0.0000000000
10
154.3218737205
20
148.7251972463
30
0.0000000000
10
154.2435431233
20
148.7321372528
30
0.0000000000
10
154.1334191266
20
148.7610516316
30
0.0000000000
10
154.0355242880
20
148.8033872796
30
0.0000000000
10
153.9489216372
20
148.8558341295
30
0.0000000000
10
153.8725361118
20
148.9160450042
30
0.0000000000
10
153.8052345544
20
148.9825584662
30
0.0000000000
10
153.7462027977
20
149.0543771105
30
0.0000000000
10
153.6952657144
20
149.1301755813
30
0.0000000000
10
153.6525010989
20
149.2080455990
30
0.0000000000
10
153.6174431576
20
149.2865818889
30
0.0000000000
10
153.5890238312
20
149.3660759174
30
0.0000000000
10
153.5662276831
20
149.4485332099
30
0.0000000000
10
153.5489235522
20
149.5358243917
30
0.0000000000
10
153.5377893634
20
149.6286553950
30
0.0000000000
10
153.5352173761
20
149.6925098862
30
0.0000000000
10
153.5352163261
20
149.7251490909
30
0.0000000000
11
154.3625067228
21
148.7251978293
31
0.0000000000
11
154.2410805676
21
148.7359242795
31
0.0000000000
11
154.1321901882
21
148.7644009967
31
0.0000000000
11
154.0350629304
21
148.8062711087
31
0.0000000000
11
153.9490010217
21
148.8582432490
31
0.0000000000
11
153.8730694876
21
148.9179508759
31
0.0000000000
11
153.8061449550
21
148.9839489008
31
0.0000000000
11
153.7471869479
21
149.0555367649
31
0.0000000000
11
153.6959740952
21
149.1316079762
31
0.0000000000
11
153.6530168045
21
149.2097030096
31
0.0000000000
11
153.6181823504
21
149.2876290673
31
0.0000000000
11
153.5901208794
21
149.3660212814
31
0.0000000000
11
153.5676018579
21
149.4473731415
31
0.0000000000
11
153.5503216310
21
149.5344247998
31
0.0000000000
11
153.5391649788
21
149.6273111264
31
0.0000000000
11
153.5352163261
21
149.7251490909
31
0.0000000000
0
SPLINE
5
4CB
100
AcDbEntity
8
0
100
AcDbSpline
62
7
6
CONTINUOUS
70
0
71
3
72
8
73
4
74
2
42
0.0000001000
43
0.0000001000
44
0.0000000001
12
-0.0679450953
22
0.0483975927
32
0.0000000000
13
-0.0589330802
23
0.0589840772
33
0.0000000000
40
0.0000000000
40
0.0000000000
40
0.0000000000
40
0.0000000000
40
1.0000000000
40
1.0000000000
40
1.0000000000
40
1.0000000000
10
151.3731029271
20
258.9178421323
30
0.0000000000
10
151.3504545620
20
258.9339746632
30
0.0000000000
10
151.3291554591
20
258.9519831316
30
0.0000000000
10
151.3095110991
20
258.9716444907
30
0.0000000000
11
151.3731029271
21
258.9178421323
31
0.0000000000
11
151.3095110991
21
258.9716444907
31
0.0000000000
0
SPLINE
5
4CC
100
AcDbEntity
8
0
100
AcDbSpline
62
7
6
CONTINUOUS
70
0
71
3
72
9
73
5
74
3
42
0.0000001000
43
0.0000001000
44
0.0000000001
12
-0.2773048333
22
0.2775447958
32
0.0000000000
13
0.0000000000
23
0.3901217722
33
0.0000000000
40
0.0000000000
40
0.0000000000
40
0.0000000000
40
0.0000000000
40
0.4999412093
40
1.0000000000
40
1.0000000000
40
1.0000000000
40
1.0000000000
10
151.3095110991
20
258.9716444907
30
0.0000000000
10
151.2632990612
20
259.0178965177
30
0.0000000000
10
151.1891807662
20
259.1287075969
30
0.0000000000
10
151.1631918849
20
259.2601698885
30
0.0000000000
10
151.1631918849
20
259.3251978290
30
0.0000000000
11
151.3095110991
21
258.9716444907
31
0.0000000000
11
151.2012190052
21
259.1338561566
31
0.0000000000
11
151.1631918849
21
259.3251978290
31
0.0000000000
0
SPLINE
5
4CD
100
AcDbEntity
8
0
100
AcDbSpline
62
7
6
CONTINUOUS
70
0
71
3
72
14
73
10
74
8
42
0.0000001000
43
0.0000001000
44
0.0000000001
12
0.0000362946
22
1.4359231198
32
0.0000000000
13
1.4359231030
23
0.0002227465
33
0.0000000000
40
0.0000000000
40
0.0000000000
40
0.0000000000
40
0.0000000000
40
0.1512222158
40
0.3028613230
40
0.4488388614
40
0.5881993474
40
0.7230795502
40
0.8582080199
40
1.0000000000
40
1.0000000000
40
1.0000000000
40
1.0000000000
10
153.5352167097
20
262.7251978290
30
0.0000000000
10
153.5352185392
20
262.7975789876
30
0.0000000000
10
153.5478690609
20
262.9429352026
30
0.0000000000
10
153.6064915271
20
263.1508799960
30
0.0000000000
10
153.7003407424
20
263.3393167875
30
0.0000000000
10
153.8261780476
20
263.4981953964
30
0.0000000000
10
153.9801542503
20
263.6222696289
30
0.0000000000
10
154.1613025027
20
263.7052723519
30
0.0000000000
10
154.2946591603
20
263.7251873011
30
0.0000000000
10
154.3625266203
20
263.7251978290
30
0.0000000000
11
153.5352167097
21
262.7251978290
31
0.0000000000
11
153.5545596272
21
262.9414780655
31
0.0000000000
11
153.6137333396
21
263.1510254202
31
0.0000000000
11
153.7080864894
21
263.3382015209
31
0.0000000000
11
153.8329496041
21
263.4945779656
31
0.0000000000
11
153.9843570736
21
263.6153537562
31
0.0000000000
11
154.1611194009
21
263.6953806841
31
0.0000000000
11
154.3625266203
21
263.7251978290
31
0.0000000000
0
SPLINE
5
4CE
100
AcDbEntity
8
0
100
AcDbSpline
62
7
6
CONTINUOUS
70
0
71
3
72
10
73
6
74
4
42
0.0000001000
43
0.0000001000
44
0.0000000001
12
0.0000051561
22
0.2190931670
32
0.0000000000
13
0.1131689568
23
0.1876021089
33
0.0000000000
40
0.0000000000
40
0.0000000000
40
0.0000000000
40
0.0000000000
40
0.3302493554
40
0.6629038058
40
1.0000000000
40
1.0000000000
40
1.0000000000
40
1.0000000000
10
151.0327585793
20
153.7081482221
30
0.0000000000
10
151.0327591469
20
153.7322666811
30
0.0000000000
10
151.0372654913
20
153.7807999126
30
0.0000000000
10
151.0573036955
20
153.8514102083
30
0.0000000000
10
151.0789986384
20
153.8955891085
30
0.0000000000
10
151.0917149133
20
153.9166690941
30
0.0000000000
11
151.0327585793
21
153.7081482221
31
0.0000000000
11
151.0394275129
21
153.7801956030
31
0.0000000000
11
151.0592559301
21
153.8503287641
31
0.0000000000
11
151.0917149133
21
153.9166690941
31
0.0000000000
0
SPLINE
5
4CF
100
AcDbEntity
8
0
100
AcDbSpline
62
7
6
CONTINUOUS
70
0
71
3
72
10
73
6
74
4
42
0.0000001000
43
0.0000001000
44
0.0000000001
12
0.5609168336
22
-0.0756608193
32
0.0000000000
13
-0.0000037991
23
-0.5659966906
33
0.0000000000
40
0.0000000000
40
0.0000000000
40
0.0000000000
40
0.0000000000
40
0.3993495928
40
0.7339187236
40
1.0000000000
40
1.0000000000
40
1.0000000000
40
1.0000000000
10
172.0020406807
20
151.9236958715
30
0.0000000000
10
172.0767079837
20
151.9136241658
30
0.0000000000
10
172.2143388853
20
151.8875130396
30
0.0000000000
10
172.3800739642
20
151.7848010716
30
0.0000000000
10
172.4327593155
20
151.6723735348
30
0.0000000000
10
172.4327589786
20
151.6221731609
30
0.0000000000
11
172.0020406807
21
151.9236958715
31
0.0000000000
11
172.2217513243
21
151.8706200608
31
0.0000000000
11
172.3768848571
21
151.7620258708
31
0.0000000000
11
172.4327589786
21
151.6221731609
31
0.0000000000
0
SPLINE
5
4D0
100
AcDbEntity
8
0
100
AcDbSpline
62
7
6
CONTINUOUS
70
0
71
3
72
10
73
6
74
4
42
0.0000001000
43
0.0000001000
44
0.0000000001
12
0.5609296181
22
0.0756236565
32
0.0000000000
13
0.0000005844
23
0.5660043939
33
0.0000000000
40
0.0000000000
40
0.0000000000
40
0.0000000000
40
0.0000000000
40
0.3993628321
40
0.7339288175
40
1.0000000000
40
1.0000000000
40
1.0000000000
40
1.0000000000
10
172.0020253318
20
260.5267037144
30
0.0000000000
10
172.0766968121
20
260.5367708070
30
0.0000000000
10
172.2143341254
20
260.5628741298
30
0.0000000000
10
172.3800719522
20
260.6655873629
30
0.0000000000
10
172.4327589267
20
260.7780127448
30
0.0000000000
10
172.4327589786
20
260.8282118976
30
0.0000000000
11
172.0020253318
21
260.5267037144
31
0.0000000000
11
172.2217490462
21
260.5797704293
31
0.0000000000
11
172.3768844897
21
260.6883632796
31
0.0000000000
11
172.4327589786
21
260.8282118976
31
0.0000000000
0
SPLINE
5
4D1
100
AcDbEntity
8
0
100
AcDbSpline
62
7
6
CONTINUOUS
70
0
71
3
72
15
73
11
74
9
42
0.0000001000
43
0.0000001000
44
0.0000000001
12
0.6686223110
22
-0.0000000000
32
0.0000000000
13
0.0000000299
23
0.6686223110
33
0.0000000000
40
0.0000000000
40
0.0000000000
40
0.0000000000
40
0.0000000000
40
0.0793335706
40
0.1685157282
40
0.2702217605
40
0.3872369146
40
0.5214275235
40
0.6715319381
40
0.8330969989
40
1.0000000000
40
1.0000000000
40
1.0000000000
40
1.0000000000
10
171.9327589786
20
148.7251978290
30
0.0000000000
10
171.9504403770
20
148.7251978290
30
0.0000000000
10
171.9881193784
20
148.7294337341
30
0.0000000000
10
172.0453673762
20
148.7497405302
30
0.0000000000
10
172.1036202385
20
148.7871138747
30
0.0000000000
10
172.1594766305
20
148.8433025430
30
0.0000000000
10
172.2089594558
20
148.9184746420
30
0.0000000000
10
172.2477477496
20
149.0105025949
30
0.0000000000
10
172.2727806148
20
149.1146420243
30
0.0000000000
10
172.2782908918
20
149.1879994723
30
0.0000000000
10
172.2782908935
20
149.2251978290
30
0.0000000000
11
171.9327589786
21
148.7251978290
31
0.0000000000
11
171.9854789113
21
148.7310540523
31
0.0000000000
11
172.0417698331
21
148.7507256374
31
0.0000000000
11
172.0992615988
21
148.7870449757
31
0.0000000000
11
172.1548521134
21
148.8420997379
31
0.0000000000
11
172.2046975871
21
148.9167027934
31
0.0000000000
11
172.2442429475
21
149.0089466467
31
0.0000000000
11
172.2696777082
21
149.1139356488
31
0.0000000000
11
172.2782908935
21
149.2251978290
31
0.0000000000
0
SPLINE
5
4D2
100
AcDbEntity
8
0
100
AcDbSpline
62
7
6
CONTINUOUS
70
0
71
3
72
11
73
7
74
5
42
0.0000001000
43
0.0000001000
44
0.0000000001
12
0.7572417139
22
0.0000000000
32
0.0000000000
13
-0.0000001059
23
0.7572417139
33
0.0000000000
40
0.0000000000
40
0.0000000000
40
0.0000000000
40
0.0000000000
40
0.2428519621
40
0.4899512703
40
0.7429355869
40
1.0000000000
40
1.0000000000
40
1.0000000000
40
1.0000000000
10
154.3625266203
20
148.7251978290
30
0.0000000000
10
154.4238258323
20
148.7251978290
30
0.0000000000
10
154.5489562186
20
148.7518123827
30
0.0000000000
10
154.7051906272
20
148.8642347153
30
0.0000000000
10
154.8086959203
20
149.0302786168
30
0.0000000000
10
154.8326701212
20
149.1603111968
30
0.0000000000
10
154.8326701121
20
149.2251978290
30
0.0000000000
11
154.3625266203
21
148.7251978290
31
0.0000000000
11
154.5424426129
21
148.7632579936
31
0.0000000000
11
154.6949681262
21
148.8716442508
31
0.0000000000
11
154.7968825187
21
149.0338559267
31
0.0000000000
11
154.8326701121
21
149.2251978290
31
0.0000000000
0
SPLINE
5
4D3
100
AcDbEntity
8
0
100
AcDbSpline
62
7
6
CONTINUOUS
70
0
71
3
72
13
73
9
74
7
42
0.0000001000
43
0.0000001000
44
0.0000000001
12
0.9641771329
22
0.0032626473
32
0.0000000000
13
0.9641809550
23
-0.0018095232
33
0.0000000000
40
0.0000000000
40
0.0000000000
40
0.0000000000
40
0.0000000000
40
0.0880152569
40
0.2555556286
40
0.4710502705
40
0.6938676330
40
0.8819990344
40
1.0000000000
40
1.0000000000
40
1.0000000000
40
1.0000000000
10
153.5352167097
20
262.7251978290
30
0.0000000000
10
153.5635041424
20
262.7252935499
30
0.0000000000
10
153.6456384035
20
262.7253184649
30
0.0000000000
10
153.7970310973
20
262.7254190850
30
0.0000000000
10
153.9917485981
20
262.7254267530
30
0.0000000000
10
154.1930838813
20
262.7254096124
30
0.0000000000
10
154.3630852319
20
262.7253302459
30
0.0000000000
10
154.4614744213
20
262.7252690042
30
0.0000000000
10
154.4993991825
20
262.7251978290
30
0.0000000000
11
153.5352167097
21
262.7251978290
31
0.0000000000
11
153.6200794138
21
262.7253142315
31
0.0000000000
11
153.7816189141
21
262.7253941153
31
0.0000000000
11
153.9893951078
21
262.7254224205
31
0.0000000000
11
154.2042317416
21
262.7253938417
31
0.0000000000
11
154.3856247577
21
262.7253139419
31
0.0000000000
11
154.4993991825
21
262.7251978290
31
0.0000000000
0
SPLINE
5
4D4
100
AcDbEntity
8
0
100
AcDbSpline
62
7
6
CONTINUOUS
70
0
71
3
72
11
73
7
74
5
42
0.0000001000
43
0.0000001000
44
0.0000000001
12
0.7572416842
22
-0.0000000000
32
0.0000000000
13
-0.0000000014
23
-0.7572416842
33
0.0000000000
40
0.0000000000
40
0.0000000000
40
0.0000000000
40
0.0000000000
40
0.2428571756
40
0.4899576993
40
0.7429398462
40
1.0000000000
40
1.0000000000
40
1.0000000000
40
1.0000000000
10
154.3625266203
20
263.7251978290
30
0.0000000000
10
154.4238271459
20
263.7251978290
30
0.0000000000
10
154.5489592353
20
263.6985822975
30
0.0000000000
10
154.7051934414
20
263.5861577770
30
0.0000000000
10
154.8086966162
20
263.4201142669
30
0.0000000000
10
154.8326701122
20
263.2900833836
30
0.0000000000
10
154.8326701121
20
263.2251978290
30
0.0000000000
11
154.3625266203
21
263.7251978290
31
0.0000000000
11
154.5424462952
21
263.6871360311
31
0.0000000000
11
154.6949715092
21
263.5787477763
31
0.0000000000
11
154.7968836929
21
263.4165366619
31
0.0000000000
11
154.8326701121
21
263.2251978290
31
0.0000000000
0
SPLINE
5
4D5
100
AcDbEntity
8
0
100
AcDbSpline
62
7
6
CONTINUOUS
70
0
71
3
72
15
73
11
74
9
42
0.0000001000
43
0.0000001000
44
0.0000000001
12
0.0000000003
22
0.6684059275
32
0.0000000000
13
-0.6684059275
23
0.0000000012
33
0.0000000000
40
0.0000000000
40
0.0000000000
40
0.0000000000
40
0.0000000000
40
0.1141139443
40
0.2377159578
40
0.3678099651
40
0.5010994421
40
0.6339445804
40
0.7622756477
40
0.8839300549
40
1.0000000000
40
1.0000000000
40
1.0000000000
40
1.0000000000
10
172.2782908935
20
263.2251978290
30
0.0000000000
10
172.2782908935
20
263.2506226413
30
0.0000000000
10
172.2754906145
20
263.3036249838
30
0.0000000000
10
172.2621517907
20
263.3846686236
30
0.0000000000
10
172.2373378510
20
263.4675270588
30
0.0000000000
10
172.1997062930
20
263.5477983897
30
0.0000000000
10
172.1488193877
20
263.6201231753
30
0.0000000000
10
172.0853504753
20
263.6783405128
30
0.0000000000
10
172.0119356136
20
263.7163279768
30
0.0000000000
10
171.9586195917
20
263.7251978290
30
0.0000000000
10
171.9327589786
20
263.7251978290
30
0.0000000000
11
172.2782908935
21
263.2251978290
31
0.0000000000
11
172.2742610715
21
263.3013657372
31
0.0000000000
11
172.2607097761
21
263.3828630898
31
0.0000000000
11
172.2355601855
21
263.4661023560
31
0.0000000000
11
172.1973925351
21
263.5466040432
31
0.0000000000
11
172.1457513850
21
263.6188373521
31
0.0000000000
11
172.0819530587
21
263.6761741598
31
0.0000000000
11
172.0093388994
21
263.7127697353
31
0.0000000000
11
171.9327589786
21
263.7251978290
31
0.0000000000
0
SPLINE
5
4D6
100
AcDbEntity
8
0
100
AcDbSpline
62
7
6
CONTINUOUS
70
0
71
3
72
11
73
7
74
5
42
0.0000001000
43
0.0000001000
44
0.0000000001
12
0.0000000000
22
0.7794062025
32
0.0000000000
13
0.7794062025
23
0.0000000000
33
0.0000000000
40
0.0000000000
40
0.0000000000
40
0.0000000000
40
0.0000000000
40
0.2502779989
40
0.5003967616
40
0.7502843541
40
1.0000000000
40
1.0000000000
40
1.0000000000
40
1.0000000000
10
151.0413289155
20
154.6251978290
30
0.0000000000
10
151.0413289155
20
154.6902205706
30
0.0000000000
10
151.0672617367
20
154.8216428725
30
0.0000000000
10
151.1782157209
20
154.9878339836
30
0.0000000000
10
151.3440046691
20
155.0991561199
30
0.0000000000
10
151.4752279977
20
155.1251978290
30
0.0000000000
10
151.5401046388
20
155.1251978290
30
0.0000000000
11
151.0413289155
21
154.6251978290
31
0.0000000000
11
151.0792944236
21
154.8165358349
31
0.0000000000
11
151.1874149070
21
154.9787491791
31
0.0000000000
11
151.3492322919
21
155.0871379519
31
0.0000000000
11
151.5401046388
21
155.1251978290
31
0.0000000000
0
SPLINE
5
4D7
100
AcDbEntity
8
0
100
AcDbSpline
62
7
6
CONTINUOUS
70
0
71
3
72
15
73
11
74
9
42
0.0000001000
43
0.0000001000
44
0.0000000001
12
-0.1084678562
22
0.1882290203
32
0.0000000000
13
-0.0050294970
23
0.2171868874
33
0.0000000000
40
0.0000000000
40
0.0000000000
40
0.0000000000
40
0.0000000000
40
0.1111382081
40
0.2273448831
40
0.3460443332
40
0.4652865707
40
0.5848311629
40
0.7062996317
40
0.8374047964
40
1.0000000000
40
1.0000000000
40
1.0000000000
40
1.0000000000
10
151.0917148707
20
153.9166691142
30
0.0000000000
10
151.0876965630
20
153.9236422596
30
0.0000000000
10
151.0799070691
20
153.9381599718
30
0.0000000000
10
151.0695160802
20
153.9609839781
30
0.0000000000
10
151.0605700635
20
153.9850426549
30
0.0000000000
10
151.0533180817
20
154.0099180887
30
0.0000000000
10
151.0479078710
20
154.0354631084
30
0.0000000000
10
151.0441243837
20
154.0621578750
30
0.0000000000
10
151.0416444486
20
154.0921464460
30
0.0000000000
10
151.0416015062
20
154.1134266470
30
0.0000000000
10
151.0413289155
20
154.1251978290
30
0.0000000000
11
151.0917148707
21
153.9166691142
31
0.0000000000
11
151.0803108171
21
153.9379503627
31
0.0000000000
11
151.0698649877
21
153.9609332141
31
0.0000000000
11
151.0608783426
21
153.9851035093
31
0.0000000000
11
151.0536379212
21
154.0099758760
31
0.0000000000
11
151.0482243614
21
154.0353758589
31
0.0000000000
11
151.0444673718
21
154.0614954750
31
0.0000000000
11
151.0421735750
21
154.0898849157
31
0.0000000000
11
151.0413289155
21
154.1251978290
31
0.0000000000
0
SPLINE
5
4D8
100
AcDbEntity
8
0
100
AcDbSpline
62
7
6
CONTINUOUS
70
0
71
3
72
9
73
5
74
3
42
0.0000001000
43
0.0000001000
44
0.0000000001
12
-0.0975470655
22
0.0140877465
32
0.0000000000
13
-0.0912698361
23
0.0366882240
33
0.0000000000
40
0.0000000000
40
0.0000000000
40
0.0000000000
40
0.0000000000
40
0.4830063082
40
1.0000000000
40
1.0000000000
40
1.0000000000
40
1.0000000000
10
151.4888214470
20
153.6284554294
30
0.0000000000
10
151.4731161644
20
153.6307235862
30
0.0000000000
10
151.4408650968
20
153.6377092579
30
0.0000000000
10
151.4098057858
20
153.6483648654
30
0.0000000000
10
151.3940771426
20
153.6546873922
30
0.0000000000
11
151.4888214470
21
153.6284554294
31
0.0000000000
11
151.4422392572
21
153.6383280112
31
0.0000000000
11
151.3940771426
21
153.6546873922
31
0.0000000000
0
SPLINE
5
4D9
100
AcDbEntity
8
0
100
AcDbSpline
62
7
6
CONTINUOUS
70
0
71
3
72
9
73
5
74
3
42
0.0000001000
43
0.0000001000
44
0.0000000001
12
-0.1053313343
22
0.0423405997
32
0.0000000000
13
-0.0950596327
23
0.0620307328
33
0.0000000000
40
0.0000000000
40
0.0000000000
40
0.0000000000
40
0.0000000000
40
0.4808097992
40
1.0000000000
40
1.0000000000
40
1.0000000000
40
1.0000000000
10
151.3940771426
20
153.6546873922
30
0.0000000000
10
151.3771956967
20
153.6614733173
30
0.0000000000
10
151.3428730736
20
153.6775362389
30
0.0000000000
10
151.3102440097
20
153.6967589799
30
0.0000000000
10
151.2937926664
20
153.7074942294
30
0.0000000000
11
151.3940771426
21
153.6546873922
31
0.0000000000
11
151.3445819034
21
153.6776502184
31
0.0000000000
11
151.2937926664
21
153.7074942294
31
0.0000000000
0
SPLINE
5
4DA
100
AcDbEntity
8
0
100
AcDbSpline
62
7
6
CONTINUOUS
70
0
71
3
72
8
73
4
74
2
42
0.0000001000
43
0.0000001000
44
0.0000000001
12
-0.0509906034
22
0.0332736873
32
0.0000000000
13
-0.0477479443
23
0.0377888953
33
0.0000000000
40
0.0000000000
40
0.0000000000
40
0.0000000000
40
0.0000000000
40
1.0000000000
40
1.0000000000
40
1.0000000000
40
1.0000000000
10
151.2937926664
20
153.7074942294
30
0.0000000000
10
151.2767957986
20
153.7185854585
30
0.0000000000
10
151.2603212692
20
153.7304825794
30
0.0000000000
10
151.2444052878
20
153.7430788778
30
0.0000000000
11
151.2937926664
21
153.7074942294
31
0.0000000000
11
151.2444052878
21
153.7430788778
31
0.0000000000
0
SPLINE
5
4DB
100
AcDbEntity
8
0
100
AcDbSpline
62
7
6
CONTINUOUS
70
0
71
3
72
8
73
4
74
2
42
0.0000001000
43
0.0000001000
44
0.0000000001
12
-0.0956778416
22
0.0757217926
32
0.0000000000
13
-0.0801987369
23
0.0920433134
33
0.0000000000
40
0.0000000000
40
0.0000000000
40
0.0000000000
40
0.0000000000
40
1.0000000000
40
1.0000000000
40
1.0000000000
40
1.0000000000
10
151.2444052878
20
153.7430788778
30
0.0000000000
10
151.2125126740
20
153.7683194753
30
0.0000000000
10
151.1828627739
20
153.7963674507
30
0.0000000000
10
151.1561298616
20
153.8270485552
30
0.0000000000
11
151.2444052878
21
153.7430788778
31
0.0000000000
11
151.1561298616
21
153.8270485552
31
0.0000000000
0
SPLINE
5
4DC
100
AcDbEntity
8
0
100
AcDbSpline
62
7
6
CONTINUOUS
70
0
71
3
72
8
73
4
74
2
42
0.0000001000
43
0.0000001000
44
0.0000000001
12
-0.0372911662
22
0.0427987102
32
0.0000000000
13
-0.0330790490
23
0.0461158718
33
0.0000000000
40
0.0000000000
40
0.0000000000
40
0.0000000000
40
0.0000000000
40
1.0000000000
40
1.0000000000
40
1.0000000000
40
1.0000000000
10
151.1561298616
20
153.8270485552
30
0.0000000000
10
151.1436994729
20
153.8413147919
30
0.0000000000
10
151.1318997677
20
153.8561503389
30
0.0000000000
10
151.1208734180
20
153.8715222962
30
0.0000000000
11
151.1561298616
21
153.8270485552
31
0.0000000000
11
151.1208734180
21
153.8715222962
31
0.0000000000
0
SPLINE
5
4DD
100
AcDbEntity
8
0
100
AcDbSpline
62
7
6
CONTINUOUS
70
0
71
3
72
8
73
4
74
2
42
0.0000001000
43
0.0000001000
44
0.0000000001
12
-0.0313662037
22
0.0437279750
32
0.0000000000
13
-0.0268292539
23
0.0465376118
33
0.0000000000
40
0.0000000000
40
0.0000000000
40
0.0000000000
40
0.0000000000
40
1.0000000000
40
1.0000000000
40
1.0000000000
40
1.0000000000
10
151.1208734180
20
153.8715222962
30
0.0000000000
10
151.1104180168
20
153.8860982879
30
0.0000000000
10
151.1006579553
20
153.9011565770
30
0.0000000000
10
151.0917148707
20
153.9166691142
30
0.0000000000
11
151.1208734180
21
153.8715222962
31
0.0000000000
11
151.0917148707
21
153.9166691142
31
0.0000000000
0
SPLINE
5
4DE
100
AcDbEntity
8
0
100
AcDbSpline
62
7
6
CONTINUOUS
70
0
71
3
72
9
73
5
74
3
42
0.0000001000
43
0.0000001000
44
0.0000000001
12
-0.2350112854
22
0.2706250202
32
0.0000000000
13
0.0000000000
23
0.3563763229
33
0.0000000000
40
0.0000000000
40
0.0000000000
40
0.0000000000
40
0.0000000000
40
0.4526804130
40
1.0000000000
40
1.0000000000
40
1.0000000000
40
1.0000000000
10
151.9378149630
20
258.9962812699
30
0.0000000000
10
151.9023532944
20
259.0371168185
30
0.0000000000
10
151.8386522400
20
259.1400974186
30
0.0000000000
10
151.8150325488
20
259.2601805817
30
0.0000000000
10
151.8150325488
20
259.3251978290
30
0.0000000000
11
151.9378149630
21
258.9962812699
31
0.0000000000
11
151.8528943103
21
259.1338560693
31
0.0000000000
11
151.8150325488
21
259.3251978290
31
0.0000000000
0
SPLINE
5
4DF
100
AcDbEntity
8
0
100
AcDbSpline
62
7
6
CONTINUOUS
70
0
71
3
72
9
73
5
74
3
42
0.0000001000
43
0.0000001000
44
0.0000000001
12
-0.0325946636
22
0.0002209890
32
0.0000000000
13
-0.0375483905
23
0.0032948654
33
0.0000000000
40
0.0000000000
40
0.0000000000
40
0.0000000000
40
0.0000000000
40
0.7797338268
40
1.0000000000
40
1.0000000000
40
1.0000000000
40
1.0000000000
10
151.5253448736
20
153.6252147684
30
0.0000000000
10
151.5168731530
20
153.6252722059
30
0.0000000000
10
151.5071909559
20
153.6255864029
30
0.0000000000
10
151.4888299188
20
153.6271676416
30
0.0000000000
10
151.4860730387
20
153.6274095574
30
0.0000000000
11
151.5253448736
21
153.6252147684
31
0.0000000000
11
151.4964974767
21
153.6265325281
31
0.0000000000
11
151.4860730387
21
153.6274095574
31
0.0000000000
0
SPLINE
5
4E0
100
AcDbEntity
8
0
100
AcDbSpline
62
7
6
CONTINUOUS
70
0
71
3
72
8
73
4
74
2
42
0.0000001000
43
0.0000001000
44
0.0000000001
12
-0.0059833294
22
0.0005250362
32
0.0000000000
13
0.0000000229
23
0.0000003421
33
0.0000000000
40
0.0000000000
40
0.0000000000
40
0.0000000000
40
0.0000000000
40
1.0000000000
40
1.0000000000
40
1.0000000000
40
1.0000000000
10
151.4860730387
20
153.6274095574
30
0.0000000000
10
151.4840785956
20
153.6275845695
30
0.0000000000
10
151.4827579976
20
153.6277039027
30
0.0000000000
10
151.4827580052
20
153.6277040168
30
0.0000000000
11
151.4860730387
21
153.6274095574
31
0.0000000000
11
151.4827580052
21
153.6277040168
31
0.0000000000
0
SPLINE
5
4E1
100
AcDbEntity
8
0
100
AcDbSpline
62
7
6
CONTINUOUS
70
0
71
3
72
9
73
5
74
3
42
0.0000001000
43
0.0000001000
44
0.0000000001
12
-0.0000000000
22
0.3901217719
32
0.0000000000
13
0.2773048329
23
0.2775447958
33
0.0000000000
40
0.0000000000
40
0.0000000000
40
0.0000000000
40
0.0000000000
40
0.5000587906
40
1.0000000000
40
1.0000000000
40
1.0000000000
40
1.0000000000
10
151.1631918849
20
153.1251978290
30
0.0000000000
10
151.1631918849
20
153.1902257695
30
0.0000000000
10
151.1891807662
20
153.3216880610
30
0.0000000000
10
151.2632990610
20
153.4324991402
30
0.0000000000
10
151.3095110989
20
153.4787511672
30
0.0000000000
11
151.1631918849
21
153.1251978290
31
0.0000000000
11
151.2012190051
21
153.3165395013
31
0.0000000000
11
151.3095110989
21
153.4787511672
31
0.0000000000
0
SPLINE
5
4E2
100
AcDbEntity
8
0
100
AcDbSpline
62
7
6
CONTINUOUS
70
0
71
3
72
8
73
4
74
2
42
0.0000001000
43
0.0000001000
44
0.0000000001
12
0.0553669706
22
0.0554148818
32
0.0000000000
13
0.0633702757
23
0.0461065734
33
0.0000000000
40
0.0000000000
40
0.0000000000
40
0.0000000000
40
0.0000000000
40
1.0000000000
40
1.0000000000
40
1.0000000000
40
1.0000000000
10
151.3095110989
20
153.4787511672
30
0.0000000000
10
151.3279667557
20
153.4972227944
30
0.0000000000
10
151.3478829536
20
153.5142355155
30
0.0000000000
10
151.3690063788
20
153.5296043733
30
0.0000000000
11
151.3095110989
21
153.4787511672
31
0.0000000000
11
151.3690063788
21
153.5296043733
31
0.0000000000
0
SPLINE
5
4E3
100
AcDbEntity
8
0
100
AcDbSpline
62
7
6
CONTINUOUS
70
0
71
3
72
11
73
7
74
5
42
0.0000001000
43
0.0000001000
44
0.0000000001
12
-0.0000001168
22
0.7796073391
32
0.0000000000
13
0.7796073391
23
-0.0000000000
33
0.0000000000
40
0.0000000000
40
0.0000000000
40
0.0000000000
40
0.0000000000
40
0.2502210902
40
0.5003130814
40
0.7502214842
40
1.0000000000
40
1.0000000000
40
1.0000000000
40
1.0000000000
10
151.3226827134
20
153.1251978290
30
0.0000000000
10
151.3226827037
20
153.1902225618
30
0.0000000000
10
151.3486339194
20
153.3216578385
30
0.0000000000
10
151.4596551028
20
153.4878484189
30
0.0000000000
10
151.6255283350
20
153.5991605069
30
0.0000000000
10
151.7568065796
20
153.6251978290
30
0.0000000000
10
151.8217163010
20
153.6251978290
30
0.0000000000
11
151.3226827134
21
153.1251978290
31
0.0000000000
11
151.3606686674
21
153.3165378671
31
0.0000000000
11
151.4688446257
21
153.4787496050
31
0.0000000000
11
151.6307429510
21
153.5871369970
31
0.0000000000
11
151.8217163010
21
153.6251978290
31
0.0000000000
0
SPLINE
5
4E4
100
AcDbEntity
8
0
100
AcDbSpline
62
7
6
CONTINUOUS
70
0
71
3
72
12
73
8
74
6
42
0.0000001000
43
0.0000001000
44
0.0000000001
12
-0.2428626319
22
0.0000122334
32
0.0000000000
13
-0.1607193867
23
-0.0800068909
33
0.0000000000
40
0.0000000000
40
0.0000000000
40
0.0000000000
40
0.0000000000
40
0.3199762504
40
0.6060768461
40
0.8252283242
40
0.9593508524
40
1.0000000000
40
1.0000000000
40
1.0000000000
40
1.0000000000
10
151.8217163010
20
153.6251978290
30
0.0000000000
10
151.7958128762
20
153.6251991338
30
0.0000000000
10
151.7462672542
20
153.6278533815
30
0.0000000000
10
151.6816905138
20
153.6352424014
30
0.0000000000
10
151.6261685672
20
153.6444241612
30
0.0000000000
10
151.6023363044
20
153.6458908252
30
0.0000000000
10
151.5803716502
20
153.6488939788
30
0.0000000000
10
151.5781939482
20
153.6478099081
30
0.0000000000
11
151.8217163010
21
153.6251978290
31
0.0000000000
11
151.7440883801
21
153.6287745114
31
0.0000000000
11
151.6750607620
21
153.6367177597
31
0.0000000000
11
151.6223654823
21
153.6441990870
31
0.0000000000
11
151.5899727159
21
153.6476242623
31
0.0000000000
11
151.5781939482
21
153.6478099081
31
0.0000000000
0
SPLINE
5
4E5
100
AcDbEntity
8
0
100
AcDbSpline
62
7
6
CONTINUOUS
70
0
71
3
72
17
73
13
74
11
42
0.0000001000
43
0.0000001000
44
0.0000000001
12
-0.1863724093
22
0.0001247485
32
0.0000000000
13
-0.1863724420
23
0.0000581717
33
0.0000000000
40
0.0000000000
40
0.0000000000
40
0.0000000000
40
0.0000000000
40
0.1230984078
40
0.2686644417
40
0.4075404145
40
0.5179587167
40
0.6111849693
40
0.7046437795
40
0.7975210534
40
0.8813887047
40
0.9492897731
40
1.0000000000
40
1.0000000000
40
1.0000000000
40
1.0000000000
10
151.3226827134
20
153.1251978290
30
0.0000000000
10
151.3150353311
20
153.1252029478
30
0.0000000000
10
151.2988261758
20
153.1322050756
30
0.0000000000
10
151.2792785840
20
153.1480028173
30
0.0000000000
10
151.2599571769
20
153.1630829830
30
0.0000000000
10
151.2396829399
20
153.1718215591
30
0.0000000000
10
151.2206176026
20
153.1684013571
30
0.0000000000
10
151.2061812277
20
153.1583458072
30
0.0000000000
10
151.1940105461
20
153.1468106561
30
0.0000000000
10
151.1832043049
20
153.1360930030
30
0.0000000000
10
151.1735584154
20
153.1280437297
30
0.0000000000
10
151.1663422146
20
153.1251968457
30
0.0000000000
10
151.1631918849
20
153.1251978290
30
0.0000000000
11
151.3226827134
21
153.1251978290
31
0.0000000000
11
151.3008792551
21
153.1323358641
31
0.0000000000
11
151.2788856253
21
153.1482195015
31
0.0000000000
11
151.2577709925
21
153.1631889415
31
0.0000000000
11
151.2383672024
21
153.1700435219
31
0.0000000000
11
151.2212159318
21
153.1672654336
31
0.0000000000
11
151.2064604143
21
153.1580098102
31
0.0000000000
11
151.1936472722
21
153.1463714528
31
0.0000000000
11
151.1823383181
21
153.1355814653
31
0.0000000000
11
151.1722263587
21
153.1279726230
31
0.0000000000
11
151.1631918849
21
153.1251978290
31
0.0000000000
0
SPLINE
5
4E6
100
AcDbEntity
8
0
100
AcDbSpline
62
7
6
CONTINUOUS
70
0
71
3
72
9
73
5
74
3
42
0.0000001000
43
0.0000001000
44
0.0000000001
12
-0.0000000001
22
0.3566171960
32
0.0000000000
13
0.2353013117
23
0.2706934019
33
0.0000000000
40
0.0000000000
40
0.0000000000
40
0.0000000000
40
0.0000000000
40
0.5469499038
40
1.0000000000
40
1.0000000000
40
1.0000000000
40
1.0000000000
10
151.8150325488
20
153.1251978290
30
0.0000000000
10
151.8150325487
20
153.1902150760
30
0.0000000000
10
151.8386682043
20
153.3103794028
30
0.0000000000
10
151.9024394230
20
153.4134180397
30
0.0000000000
10
151.9379738504
20
153.4542972637
30
0.0000000000
11
151.8150325488
21
153.1251978290
31
0.0000000000
11
151.8528943100
21
153.3165395879
31
0.0000000000
11
151.9379738504
21
153.4542972637
31
0.0000000000
0
SPLINE
5
4E7
100
AcDbEntity
8
0
100
AcDbSpline
62
7
6
CONTINUOUS
70
0
71
3
72
8
73
4
74
2
42
0.0000001000
43
0.0000001000
44
0.0000000001
12
-0.0425856350
22
-0.2636124426
32
0.0000000000
13
-0.0423681170
23
-0.2638900236
33
0.0000000000
40
0.0000000000
40
0.0000000000
40
0.0000000000
40
0.0000000000
40
1.0000000000
40
1.0000000000
40
1.0000000000
40
1.0000000000
10
152.1703676311
20
154.6251978198
30
0.0000000000
10
152.1561724194
20
154.5373270056
30
0.0000000000
10
152.1421195612
20
154.4492491013
30
0.0000000000
10
152.1279968555
20
154.3612857601
30
0.0000000000
11
152.1703676311
21
154.6251978198
31
0.0000000000
11
152.1279968555
21
154.3612857601
31
0.0000000000
0
SPLINE
5
4E8
100
AcDbEntity
8
0
100
AcDbSpline
62
7
6
CONTINUOUS
70
0
71
3
72
9
73
5
74
3
42
0.0000001000
43
0.0000001000
44
0.0000000001
12
-0.1069157212
22
-0.6659250915
32
0.0000000000
13
-0.1329960602
23
-0.6706519134
33
0.0000000000
40
0.0000000000
40
0.0000000000
40
0.0000000000
40
0.0000000000
40
0.3652985434
40
1.0000000000
40
1.0000000000
40
1.0000000000
40
1.0000000000
10
152.1279968555
20
154.3612857601
30
0.0000000000
10
152.1149781365
20
154.2801986048
30
0.0000000000
10
152.0791770815
20
154.0584900745
30
0.0000000000
10
152.0416855685
20
153.8393992634
30
0.0000000000
10
152.0135479708
20
153.6975113480
30
0.0000000000
11
152.1279968555
21
154.3612857601
31
0.0000000000
11
152.0885964102
21
154.1185683148
31
0.0000000000
11
152.0135479708
21
153.6975113480
31
0.0000000000
0
SPLINE
5
4E9
100
AcDbEntity
8
0
100
AcDbSpline
62
7
6
CONTINUOUS
70
0
71
3
72
8
73
4
74
2
42
0.0000001000
43
0.0000001000
44
0.0000000001
12
-0.0340665938
22
-0.1717857375
32
0.0000000000
13
-0.0381873570
23
-0.1694156100
33
0.0000000000
40
0.0000000000
40
0.0000000000
40
0.0000000000
40
0.0000000000
40
1.0000000000
40
1.0000000000
40
1.0000000000
40
1.0000000000
10
152.0135479708
20
153.6975113480
30
0.0000000000
10
152.0021924395
20
153.6402494355
30
0.0000000000
10
151.9901297793
20
153.5825264939
30
0.0000000000
10
151.9774006603
20
153.5260546239
30
0.0000000000
11
152.0135479708
21
153.6975113480
31
0.0000000000
11
151.9774006603
21
153.5260546239
31
0.0000000000
0
SPLINE
5
4EA
100
AcDbEntity
8
0
100
AcDbSpline
62
7
6
CONTINUOUS
70
0
71
3
72
10
73
6
74
4
42
0.0000001000
43
0.0000001000
44
0.0000000001
12
-0.0980346180
22
-0.4349239101
32
0.0000000000
13
-0.4431070332
23
0.0018346720
33
0.0000000000
40
0.0000000000
40
0.0000000000
40
0.0000000000
40
0.0000000000
40
0.3381113201
40
0.7997547480
40
1.0000000000
40
1.0000000000
40
1.0000000000
40
1.0000000000
10
151.9774006603
20
153.5260546239
30
0.0000000000
10
151.9663517889
20
153.4770370581
30
0.0000000000
10
151.9390295310
20
153.3633224603
30
0.0000000000
10
151.9015395336
20
153.2355627231
30
0.0000000000
10
151.8446092419
20
153.1250753676
30
0.0000000000
10
151.8150325488
20
153.1251978290
30
0.0000000000
11
151.9774006603
21
153.5260546239
31
0.0000000000
11
151.9427742665
21
153.3829493514
31
0.0000000000
11
151.8761166592
21
153.1895553728
31
0.0000000000
11
151.8150325488
21
153.1251978290
31
0.0000000000
0
SPLINE
5
4EB
100
AcDbEntity
8
0
100
AcDbSpline
62
7
6
CONTINUOUS
70
0
71
3
72
8
73
4
74
2
42
0.0000001000
43
0.0000001000
44
0.0000000001
12
-0.0187077099
22
-0.0025101637
32
0.0000000000
13
-0.0185868214
23
-0.0035349491
33
0.0000000000
40
0.0000000000
40
0.0000000000
40
0.0000000000
40
0.0000000000
40
1.0000000000
40
1.0000000000
40
1.0000000000
40
1.0000000000
10
151.4921417640
20
258.8224161006
30
0.0000000000
10
151.4859058607
20
258.8215793794
30
0.0000000000
10
151.4796863702
20
258.8205645524
30
0.0000000000
10
151.4734907631
20
258.8193862360
30
0.0000000000
11
151.4921417640
21
258.8224161006
31
0.0000000000
11
151.4734907631
21
258.8193862360
31
0.0000000000
0
SPLINE
5
4EC
100
AcDbEntity
8
0
100
AcDbSpline
62
7
6
CONTINUOUS
70
0
71
3
72
8
73
4
74
2
42
0.0000001000
43
0.0000001000
44
0.0000000001
12
-0.0635641362
22
-0.0120889949
32
0.0000000000
13
-0.0609918193
23
-0.0218075837
33
0.0000000000
40
0.0000000000
40
0.0000000000
40
0.0000000000
40
0.0000000000
40
1.0000000000
40
1.0000000000
40
1.0000000000
40
1.0000000000
10
151.4734907631
20
258.8193862360
30
0.0000000000
10
151.4523027177
20
258.8153565710
30
0.0000000000
10
151.4313939965
20
258.8094148375
30
0.0000000000
10
151.4110633900
20
258.8021456429
30
0.0000000000
11
151.4734907631
21
258.8193862360
31
0.0000000000
11
151.4110633900
21
258.8021456429
31
0.0000000000
0
SPLINE
5
4ED
100
AcDbEntity
8
0
100
AcDbSpline
62
7
6
CONTINUOUS
70
0
71
3
72
8
73
4
74
2
42
0.0000001000
43
0.0000001000
44
0.0000000001
12
-0.1365311534
22
-0.0488166215
32
0.0000000000
13
-0.1192397052
23
-0.0813513253
33
0.0000000000
40
0.0000000000
40
0.0000000000
40
0.0000000000
40
0.0000000000
40
1.0000000000
40
1.0000000000
40
1.0000000000
40
1.0000000000
10
151.4110633900
20
258.8021456429
30
0.0000000000
10
151.3655530056
20
258.7858734358
30
0.0000000000
10
151.3229395274
20
258.7629493834
30
0.0000000000
10
151.2831929590
20
258.7358322750
30
0.0000000000
11
151.4110633900
21
258.8021456429
31
0.0000000000
11
151.2831929590
21
258.7358322750
31
0.0000000000
0
SPLINE
5
4EE
100
AcDbEntity
8
0
100
AcDbSpline
62
7
6
CONTINUOUS
70
0
71
3
72
8
73
4
74
2
42
0.0000001000
43
0.0000001000
44
0.0000000001
12
-0.0651861171
22
-0.0444732483
32
0.0000000000
13
-0.0595968381
23
-0.0517352152
33
0.0000000000
40
0.0000000000
40
0.0000000000
40
0.0000000000
40
0.0000000000
40
1.0000000000
40
1.0000000000
40
1.0000000000
40
1.0000000000
10
151.2831929590
20
258.7358322750
30
0.0000000000
10
151.2614642533
20
258.7210078589
30
0.0000000000
10
151.2405923535
20
258.7049303042
30
0.0000000000
10
151.2207267408
20
258.6876852324
30
0.0000000000
11
151.2831929590
21
258.7358322750
31
0.0000000000
11
151.2207267408
21
258.6876852324
31
0.0000000000
0
SPLINE
5
4EF
100
AcDbEntity
8
0
100
AcDbSpline
62
7
6
CONTINUOUS
70
0
71
3
72
10
73
6
74
4
42
0.0000001000
43
0.0000001000
44
0.0000000001
12
-0.3169858500
22
-0.2751711617
32
0.0000000000
13
0.0001683782
23
-0.4188342650
33
0.0000000000
40
0.0000000000
40
0.0000000000
40
0.0000000000
40
0.0000000000
40
0.1944586049
40
0.5915295717
40
1.0000000000
40
1.0000000000
40
1.0000000000
40
1.0000000000
10
151.2207267408
20
258.6876852324
30
0.0000000000
10
151.2001798654
20
258.6698487657
30
0.0000000000
10
151.1409523018
20
258.6117922026
30
0.0000000000
10
151.0602530332
20
258.4955899736
30
0.0000000000
10
151.0327360527
20
258.3822249662
30
0.0000000000
10
151.0327589786
20
258.3251978290
30
0.0000000000
11
151.2207267408
21
258.6876852324
31
0.0000000000
11
151.1624809746
21
258.6305236680
31
0.0000000000
11
151.0702819800
21
258.4921136117
31
0.0000000000
11
151.0327589786
21
258.3251978290
31
0.0000000000
0
SPLINE
5
4F0
100
AcDbEntity
8
0
100
AcDbSpline
62
7
6
CONTINUOUS
70
0
71
3
72
10
73
6
74
4
42
0.0000001000
43
0.0000001000
44
0.0000000001
12
-0.0416604542
22
-0.0008481031
32
0.0000000000
13
0.0010463017
23
0.0001002922
33
0.0000000000
40
0.0000000000
40
0.0000000000
40
0.0000000000
40
0.0000000000
40
0.3657687186
40
0.7806586481
40
1.0000000000
40
1.0000000000
40
1.0000000000
40
1.0000000000
10
151.5239795901
20
258.8251014799
30
0.0000000000
10
151.5189002265
20
258.8249980767
30
0.0000000000
10
151.5081317554
20
258.8246258475
30
0.0000000000
10
151.4980730814
20
258.8240912306
30
0.0000000000
10
151.4838799203
20
258.8228002568
30
0.0000000000
10
151.4839564194
20
258.8228075896
30
0.0000000000
11
151.5239795901
21
258.8251014799
31
0.0000000000
11
151.5094495000
21
258.8246393632
31
0.0000000000
11
151.4927624504
21
258.8235793413
31
0.0000000000
11
151.4839564194
21
258.8228075896
31
0.0000000000
0
SPLINE
5
4F1
100
AcDbEntity
8
0
100
AcDbSpline
62
7
6
CONTINUOUS
70
0
71
3
72
19
73
15
74
13
42
0.0000001000
43
0.0000001000
44
0.0000000001
12
-0.1866751678
22
0.0000001350
32
0.0000000000
13
-0.1866751608
23
-0.0000511626
33
0.0000000000
40
0.0000000000
40
0.0000000000
40
0.0000000000
40
0.0000000000
40
0.0641102482
40
0.1391182142
40
0.2259617789
40
0.3195619226
40
0.4109311480
40
0.4935857728
40
0.5703485185
40
0.6529897733
40
0.7489700312
40
0.8518065589
40
0.9392507998
40
1.0000000000
40
1.0000000000
40
1.0000000000
40
1.0000000000
10
151.3226827134
20
259.3251978290
30
0.0000000000
10
151.3186934496
20
259.3251978319
30
0.0000000000
10
151.3100326201
20
259.3232655691
30
0.0000000000
10
151.2976429408
20
259.3164565988
30
0.0000000000
10
151.2848700308
20
259.3069691066
30
0.0000000000
10
151.2716819193
20
259.2963809777
30
0.0000000000
10
151.2580629351
20
259.2867679586
30
0.0000000000
10
151.2436434490
20
259.2802311314
30
0.0000000000
10
151.2280758191
20
259.2797408803
30
0.0000000000
10
151.2132547742
20
259.2865146345
30
0.0000000000
10
151.1997984426
20
259.2977968984
30
0.0000000000
10
151.1871953534
20
259.3104386692
30
0.0000000000
10
151.1758519755
20
259.3210152809
30
0.0000000000
10
151.1669720072
20
259.3251988651
30
0.0000000000
10
151.1631918849
20
259.3251978290
30
0.0000000000
11
151.3226827134
21
259.3251978290
31
0.0000000000
11
151.3109304044
21
259.3229370191
31
0.0000000000
11
151.2984597803
21
259.3165696782
31
0.0000000000
11
151.2852698184
21
259.3071442425
31
0.0000000000
11
151.2714614503
21
259.2964377727
31
0.0000000000
11
151.2573024351
21
259.2869276784
31
0.0000000000
11
151.2430125671
21
259.2811077835
31
0.0000000000
11
151.2286860020
21
259.2808081312
31
0.0000000000
11
151.2144198428
21
259.2866793485
31
0.0000000000
11
151.2003015135
21
259.2977109555
31
0.0000000000
11
151.1864531704
21
259.3110056613
31
0.0000000000
11
151.1738854453
21
259.3214226875
31
0.0000000000
11
151.1631918849
21
259.3251978290
31
0.0000000000
0
SPLINE
5
4F2
100
AcDbEntity
8
0
100
AcDbSpline
62
7
6
CONTINUOUS
70
0
71
3
72
15
73
11
74
9
42
0.0000001000
43
0.0000001000
44
0.0000000001
12
-0.2439243908
22
-0.0000000447
32
0.0000000000
13
-0.2464151079
23
0.1359809356
33
0.0000000000
40
0.0000000000
40
0.0000000000
40
0.0000000000
40
0.0000000000
40
0.1750070090
40
0.3520038027
40
0.5257325836
40
0.6875502433
40
0.8257956488
40
0.9300867978
40
0.9930979037
40
1.0000000000
40
1.0000000000
40
1.0000000000
40
1.0000000000
10
151.8217163010
20
258.8251978290
30
0.0000000000
10
151.8074868083
20
258.8251978264
30
0.0000000000
10
151.7788631237
20
258.8243926743
30
0.0000000000
10
151.7362204639
20
258.8211947094
30
0.0000000000
10
151.6948263209
20
258.8164021928
30
0.0000000000
10
151.6566061715
20
258.8113343819
30
0.0000000000
10
151.6242726364
20
258.8057787372
30
0.0000000000
10
151.5991579169
20
258.8044879897
30
0.0000000000
10
151.5857623712
20
258.8006398452
30
0.0000000000
10
151.5795152430
20
258.8035294630
30
0.0000000000
10
151.5789483161
20
258.8038423141
30
0.0000000000
11
151.8217163010
21
258.8251978290
31
0.0000000000
11
151.7790428040
21
258.8240669804
31
0.0000000000
11
151.7359865380
21
258.8208829595
31
0.0000000000
11
151.6938727707
21
258.8161697648
31
0.0000000000
11
151.6547661738
21
258.8108166761
31
0.0000000000
11
151.6213816298
21
258.8060620134
31
0.0000000000
11
151.5961094467
21
258.8031521394
31
0.0000000000
11
151.5807402331
21
258.8030021303
31
0.0000000000
11
151.5789483161
21
258.8038423141
31
0.0000000000
0
SPLINE
5
4F3
100
AcDbEntity
8
0
100
AcDbSpline
62
7
6
CONTINUOUS
70
0
71
3
72
8
73
4
74
2
42
0.0000001000
43
0.0000001000
44
0.0000000001
12
-0.0229027314
22
0.1426812863
32
0.0000000000
13
-0.0228137717
23
0.1427010354
33
0.0000000000
40
0.0000000000
40
0.0000000000
40
0.0000000000
40
0.0000000000
40
1.0000000000
40
1.0000000000
40
1.0000000000
40
1.0000000000
10
152.1703676311
20
257.8251978290
30
0.0000000000
10
152.1627333873
20
257.8727582578
30
0.0000000000
10
152.1551309523
20
257.9203272612
30
0.0000000000
10
152.1475263617
20
257.9678942730
30
0.0000000000
11
152.1703676311
21
257.8251978290
31
0.0000000000
11
152.1475263617
21
257.9678942730
31
0.0000000000
0
SPLINE
5
4F4
100
AcDbEntity
8
0
100
AcDbSpline
62
7
6
CONTINUOUS
70
0
71
3
72
8
73
4
74
2
42
0.0000001000
43
0.0000001000
44
0.0000000001
12
-0.0024477077
22
0.0153105076
32
0.0000000000
13
-0.0024479824
23
0.0153103309
33
0.0000000000
40
0.0000000000
40
0.0000000000
40
0.0000000000
40
0.0000000000
40
1.0000000000
40
1.0000000000
40
1.0000000000
40
1.0000000000
10
152.1475263617
20
257.9678942730
30
0.0000000000
10
152.1467104591
20
257.9729977756
30
0.0000000000
10
152.1458945318
20
257.9781012552
30
0.0000000000
10
152.1450785376
20
257.9832046988
30
0.0000000000
11
152.1475263617
21
257.9678942730
31
0.0000000000
11
152.1450785376
21
257.9832046988
31
0.0000000000
0
SPLINE
5
4F5
100
AcDbEntity
8
0
100
AcDbSpline
62
7
6
CONTINUOUS
70
0
71
3
72
9
73
5
74
3
42
0.0000001000
43
0.0000001000
44
0.0000000001
12
-0.0458620629
22
0.2868334953
32
0.0000000000
13
-0.0470310253
23
0.2866013924
33
0.0000000000
40
0.0000000000
40
0.0000000000
40
0.0000000000
40
0.0000000000
40
0.4618819292
40
1.0000000000
40
1.0000000000
40
1.0000000000
40
1.0000000000
10
152.1450785376
20
257.9832046988
30
0.0000000000
10
152.1380175849
20
258.0273657682
30
0.0000000000
10
152.1227194078
20
258.1229711010
30
0.0000000000
10
152.1072703965
20
258.2185241713
30
0.0000000000
10
152.0988343150
20
258.2699326341
30
0.0000000000
11
152.1450785376
21
257.9832046988
31
0.0000000000
11
152.1238535036
21
258.1156713699
31
0.0000000000
11
152.0988343150
21
258.2699326341
31
0.0000000000
0
SPLINE
5
4F6
100
AcDbEntity
8
0
100
AcDbSpline
62
7
6
CONTINUOUS
70
0
71
3
72
9
73
5
74
3
42
0.0000001000
43
0.0000001000
44
0.0000000001
12
-0.0761224637
22
0.4638811070
32
0.0000000000
13
-0.0884074901
23
0.4606694624
33
0.0000000000
40
0.0000000000
40
0.0000000000
40
0.0000000000
40
0.0000000000
40
0.3369940755
40
1.0000000000
40
1.0000000000
40
1.0000000000
40
1.0000000000
10
152.0988343150
20
258.2699326341
30
0.0000000000
10
152.0902833752
20
258.3220410290
30
0.0000000000
10
152.0645351695
20
258.4766364458
30
0.0000000000
10
152.0369524496
20
258.6311817099
30
0.0000000000
10
152.0174142198
20
258.7329905708
30
0.0000000000
11
152.0988343150
21
258.2699326341
31
0.0000000000
11
152.0727210530
21
258.4262308125
31
0.0000000000
11
152.0174142198
21
258.7329905708
31
0.0000000000
0
SPLINE
5
4F7
100
AcDbEntity
8
0
100
AcDbSpline
62
7
6
CONTINUOUS
70
0
71
3
72
8
73
4
74
2
42
0.0000001000
43
0.0000001000
44
0.0000000001
12
-0.0264217575
22
0.1376772131
32
0.0000000000
13
-0.0292571219
23
0.1372729289
33
0.0000000000
40
0.0000000000
40
0.0000000000
40
0.0000000000
40
0.0000000000
40
1.0000000000
40
1.0000000000
40
1.0000000000
40
1.0000000000
10
152.0174142198
20
258.7329905708
30
0.0000000000
10
152.0086069672
20
258.7788829752
30
0.0000000000
10
151.9995455755
20
258.8246421728
30
0.0000000000
10
151.9897932015
20
258.8703998158
30
0.0000000000
11
152.0174142198
21
258.7329905708
31
0.0000000000
11
151.9897932015
21
258.8703998158
31
0.0000000000
0
SPLINE
5
4F8
100
AcDbEntity
8
0
100
AcDbSpline
62
7
6
CONTINUOUS
70
0
71
3
72
11
73
7
74
5
42
0.0000001000
43
0.0000001000
44
0.0000000001
12
-0.1034956990
22
0.4855965586
32
0.0000000000
13
-0.4970388594
23
-0.0005063634
33
0.0000000000
40
0.0000000000
40
0.0000000000
40
0.0000000000
40
0.0000000000
40
0.2516758911
40
0.6428344601
40
0.8847669708
40
1.0000000000
40
1.0000000000
40
1.0000000000
40
1.0000000000
10
151.9897932015
20
258.8703998158
30
0.0000000000
10
151.9811107441
20
258.9111374647
30
0.0000000000
10
151.9575349692
20
259.0151870511
30
0.0000000000
10
151.9174005175
20
259.1592191178
30
0.0000000000
10
151.8781560302
20
259.2695314431
30
0.0000000000
10
151.8341243132
20
259.3252172790
30
0.0000000000
10
151.8150325488
20
259.3251978290
30
0.0000000000
11
151.9897932015
21
258.8703998158
31
0.0000000000
11
151.9617945080
21
258.9927019675
31
0.0000000000
11
151.9089199167
21
259.1797951142
31
0.0000000000
11
151.8599027960
21
259.2896011501
31
0.0000000000
11
151.8150325488
21
259.3251978290
31
0.0000000000
0
SPLINE
5
4F9
100
AcDbEntity
8
0
100
AcDbSpline
62
7
6
CONTINUOUS
70
0
71
3
72
8
73
4
74
2
42
0.0000001000
43
0.0000001000
44
0.0000000001
12
-0.0269742389
22
0.0936348313
32
0.0000000000
13
-0.0201068690
23
0.0954570775
33
0.0000000000
40
0.0000000000
40
0.0000000000
40
0.0000000000
40
0.0000000000
40
1.0000000000
40
1.0000000000
40
1.0000000000
40
1.0000000000
10
152.1703676032
20
257.8251978290
30
0.0000000000
10
152.1613761902
20
257.8564094395
30
0.0000000000
10
152.1535025015
20
257.8879734652
30
0.0000000000
10
152.1468002119
20
257.9197924910
30
0.0000000000
11
152.1703676032
21
257.8251978290
31
0.0000000000
11
152.1468002119
21
257.9197924910
31
0.0000000000
0
SPLINE
5
4FA
100
AcDbEntity
8
0
100
AcDbSpline
62
7
6
CONTINUOUS
70
0
71
3
72
8
73
4
74
2
42
0.0000001000
43
0.0000001000
44
0.0000000001
12
-0.0129632822
22
0.0615429997
32
0.0000000000
13
-0.0099986890
23
0.0621006463
33
0.0000000000
40
0.0000000000
40
0.0000000000
40
0.0000000000
40
0.0000000000
40
1.0000000000
40
1.0000000000
40
1.0000000000
40
1.0000000000
10
152.1468002119
20
257.9197924910
30
0.0000000000
10
152.1424791178
20
257.9403068242
30
0.0000000000
10
152.1386449306
20
257.9609271515
30
0.0000000000
10
152.1353120342
20
257.9816273669
30
0.0000000000
11
152.1468002119
21
257.9197924910
31
0.0000000000
11
152.1353120342
21
257.9816273669
31
0.0000000000
0
SPLINE
5
4FB
100
AcDbEntity
8
0
100
AcDbSpline
62
7
6
CONTINUOUS
70
0
71
3
72
11
73
7
74
5
42
0.0000001000
43
0.0000001000
44
0.0000000001
12
0.0000000000
22
-0.6622605928
32
0.0000000000
13
0.6622605928
23
0.0000000000
33
0.0000000000
40
0.0000000000
40
0.0000000000
40
0.0000000000
40
0.0000000000
40
0.2727984640
40
0.5405952626
40
0.7803050019
40
1.0000000000
40
1.0000000000
40
1.0000000000
40
1.0000000000
10
162.6398995647
20
257.8251978290
30
0.0000000000
10
162.6398995647
20
257.7649766049
30
0.0000000000
10
162.6543011471
20
257.6450516458
30
0.0000000000
10
162.7200044287
20
257.4832493937
30
0.0000000000
10
162.8295699464
20
257.3597475578
30
0.0000000000
10
162.9321783876
20
257.3251978290
30
0.0000000000
10
162.9806768341
20
257.3251978290
30
0.0000000000
11
162.6398995647
21
257.8251978290
31
0.0000000000
11
162.6623584229
21
257.6459355568
31
0.0000000000
11
162.7317615443
21
257.4827280861
31
0.0000000000
11
162.8416765180
21
257.3681839427
31
0.0000000000
11
162.9806768341
21
257.3251978290
31
0.0000000000
0
SPLINE
5
4FC
100
AcDbEntity
8
0
100
AcDbSpline
62
7
6
CONTINUOUS
70
0
71
3
72
10
73
6
74
4
42
0.0000001000
43
0.0000001000
44
0.0000000001
12
-0.0000156742
22
0.3020103604
32
0.0000000000
13
-0.0393591262
23
0.2994346627
33
0.0000000000
40
0.0000000000
40
0.0000000000
40
0.0000000000
40
0.0000000000
40
0.3533596338
40
0.6913303076
40
1.0000000000
40
1.0000000000
40
1.0000000000
40
1.0000000000
10
172.0195761289
20
260.2253841914
30
0.0000000000
10
172.0195742827
20
260.2609569482
30
0.0000000000
10
172.0183131705
20
260.3305624311
30
0.0000000000
10
172.0125639970
20
260.4310901166
30
0.0000000000
10
172.0060729090
20
260.4958969799
30
0.0000000000
10
172.0020232525
20
260.5267057817
30
0.0000000000
11
172.0195761289
21
260.2253841914
31
0.0000000000
11
172.0175761949
21
260.3320837206
31
0.0000000000
11
172.0116379209
21
260.4339814807
31
0.0000000000
11
172.0020232525
21
260.5267057817
31
0.0000000000
0
SPLINE
5
4FD
100
AcDbEntity
8
0
100
AcDbSpline
62
7
6
CONTINUOUS
70
0
71
3
72
10
73
6
74
4
42
0.0000001000
43
0.0000001000
44
0.0000000001
12
0.0393981752
22
0.2996624015
32
0.0000000000
13
0.0000183471
23
0.3022412460
33
0.0000000000
40
0.0000000000
40
0.0000000000
40
0.0000000000
40
0.0000000000
40
0.3082130254
40
0.6450708824
40
1.0000000000
40
1.0000000000
40
1.0000000000
40
1.0000000000
10
172.0020310892
20
151.9236883682
30
0.0000000000
10
172.0060787662
20
151.9544749867
30
0.0000000000
10
172.0125482974
20
152.0191751717
30
0.0000000000
10
172.0183116841
20
152.1197786126
30
0.0000000000
10
172.0195825307
20
152.1894834572
30
0.0000000000
10
172.0195847013
20
152.2252415301
30
0.0000000000
11
172.0020310892
21
151.9236883682
31
0.0000000000
11
172.0116328186
21
152.0163468966
31
0.0000000000
11
172.0175634987
21
152.1179863541
31
0.0000000000
11
172.0195847013
21
152.2252415301
31
0.0000000000
0
SPLINE
5
4FE
100
AcDbEntity
8
0
100
AcDbSpline
62
7
6
CONTINUOUS
70
0
71
3
72
11
73
7
74
5
42
0.0000001000
43
0.0000001000
44
0.0000000001
12
-0.5172653160
22
0.0000000000
32
0.0000000000
13
0.0000000000
23
0.5172653160
33
0.0000000000
40
0.0000000000
40
0.0000000000
40
0.0000000000
40
0.0000000000
40
0.0976729789
40
0.3141706511
40
0.6298692029
40
1.0000000000
40
1.0000000000
40
1.0000000000
40
1.0000000000
10
167.8459348897
20
151.7251978290
30
0.0000000000
10
167.8290939416
20
151.7251978290
30
0.0000000000
10
167.7996286454
20
151.7889084225
30
0.0000000000
10
167.7807092013
20
151.8844066599
30
0.0000000000
10
167.7623358200
20
152.0445551241
30
0.0000000000
10
167.7591108009
20
152.1613792211
30
0.0000000000
10
167.7591108009
20
152.2251978290
30
0.0000000000
11
167.8459348897
21
151.7251978290
31
0.0000000000
11
167.8127087494
21
151.7632580628
31
0.0000000000
11
167.7845409878
21
151.8716444384
31
0.0000000000
11
167.7657198911
21
152.0338561129
31
0.0000000000
11
167.7591108009
21
152.2251978290
31
0.0000000000
0
SPLINE
5
4FF
100
AcDbEntity
8
0
100
AcDbSpline
62
7
6
CONTINUOUS
70
0
71
3
72
8
73
4
74
2
42
0.0000001000
43
0.0000001000
44
0.0000000001
12
-0.0000714301
22
-0.1123694528
32
0.0000000000
13
0.0125026281
23
-0.1117528518
33
0.0000000000
40
0.0000000000
40
0.0000000000
40
0.0000000000
40
0.0000000000
40
1.0000000000
40
1.0000000000
40
1.0000000000
40
1.0000000000
10
155.0016951488
20
152.2251978290
30
0.0000000000
10
155.0016713388
20
152.1877413448
30
0.0000000000
10
155.0038167641
20
152.1502554398
30
0.0000000000
10
155.0079843067
20
152.1130044892
30
0.0000000000
11
155.0016951488
21
152.2251978290
31
0.0000000000
11
155.0079843067
21
152.1130044892
31
0.0000000000
0
SPLINE
5
500
100
AcDbEntity
8
0
100
AcDbSpline
62
7
6
CONTINUOUS
70
0
71
3
72
9
73
5
74
3
42
0.0000001000
43
0.0000001000
44
0.0000000001
12
0.0180405669
22
-0.1612528812
32
0.0000000000
13
0.0438133282
23
-0.1561867905
33
0.0000000000
40
0.0000000000
40
0.0000000000
40
0.0000000000
40
0.0000000000
40
0.6791733452
40
1.0000000000
40
1.0000000000
40
1.0000000000
40
1.0000000000
10
155.0079843067
20
152.1130044892
30
0.0000000000
10
155.0120685308
20
152.0764982696
30
0.0000000000
10
155.0209415178
20
152.0230795569
30
0.0000000000
10
155.0341916853
20
151.9706393996
30
0.0000000000
10
155.0388771798
20
151.9539364377
30
0.0000000000
11
155.0079843067
21
152.1130044892
31
0.0000000000
11
155.0261402135
21
152.0043885225
31
0.0000000000
11
155.0388771798
21
151.9539364377
31
0.0000000000
0
SPLINE
5
501
100
AcDbEntity
8
0
100
AcDbSpline
62
7
6
CONTINUOUS
70
0
71
3
72
12
73
8
74
6
42
0.0000001000
43
0.0000001000
44
0.0000000001
12
0.1166066284
22
-0.4156820715
32
0.0000000000
13
0.2792913233
23
-0.3291708022
33
0.0000000000
40
0.0000000000
40
0.0000000000
40
0.0000000000
40
0.0000000000
40
0.1169821268
40
0.3433603914
40
0.5655818951
40
0.7840863075
40
1.0000000000
40
1.0000000000
40
1.0000000000
40
1.0000000000
10
155.0388771798
20
151.9539364377
30
0.0000000000
10
155.0434241436
20
151.9377273135
30
0.0000000000
10
155.0579711683
20
151.8904861826
30
0.0000000000
10
155.0875312840
20
151.8145570857
30
0.0000000000
10
155.1309255158
20
151.7288033958
30
0.0000000000
10
155.1814186396
20
151.6488146106
30
0.0000000000
10
155.2196357722
20
151.5992602292
30
0.0000000000
10
155.2397367125
20
151.5755694014
30
0.0000000000
11
155.0388771798
21
151.9539364377
31
0.0000000000
11
155.0537309252
21
151.9056703405
31
0.0000000000
11
155.0892089203
21
151.8146505809
31
0.0000000000
11
155.1324948050
21
151.7290797521
31
0.0000000000
11
155.1828352499
21
151.6493501864
31
0.0000000000
11
155.2397367125
21
151.5755694014
31
0.0000000000
0
SPLINE
5
502
100
AcDbEntity
8
0
100
AcDbSpline
62
7
6
CONTINUOUS
70
0
71
3
72
15
73
11
74
9
42
0.0000001000
43
0.0000001000
44
0.0000000001
12
0.5555990257
22
-0.6548251296
32
0.0000000000
13
0.8584564086
23
-0.0000057369
33
0.0000000000
40
0.0000000000
40
0.0000000000
40
0.0000000000
40
0.0000000000
40
0.1092440760
40
0.2206918147
40
0.3345588507
40
0.4517799770
40
0.5746356380
40
0.7055505524
40
0.8466732138
40
1.0000000000
40
1.0000000000
40
1.0000000000
40
1.0000000000
10
155.2397367125
20
151.5755694014
30
0.0000000000
10
155.2599686799
20
151.5517241460
30
0.0000000000
10
155.3031049431
20
151.5054735648
30
0.0000000000
10
155.3748676895
20
151.4418844616
30
0.0000000000
10
155.4543252490
20
151.3842219515
30
0.0000000000
10
155.5419771858
20
151.3331293708
30
0.0000000000
10
155.6389342973
20
151.2894051670
30
0.0000000000
10
155.7466657592
20
151.2544914527
30
0.0000000000
10
155.8663579107
20
151.2308377832
30
0.0000000000
10
155.9507281628
20
151.2251981222
30
0.0000000000
10
155.9946029502
20
151.2251978290
30
0.0000000000
11
155.2397367125
21
151.5755694014
31
0.0000000000
11
155.3037038541
21
151.5069900114
31
0.0000000000
11
155.3753117359
21
151.4435420872
31
0.0000000000
11
155.4544266898
21
151.3861324676
31
0.0000000000
11
155.5413660703
21
151.3354591465
31
0.0000000000
11
155.6375099997
21
151.2921062872
31
0.0000000000
11
155.7444212496
21
151.2574607094
31
0.0000000000
11
155.8632720358
21
151.2339821134
31
0.0000000000
11
155.9946029502
21
151.2251978290
31
0.0000000000
0
SPLINE
5
503
100
AcDbEntity
8
0
100
AcDbSpline
62
7
6
CONTINUOUS
70
0
71
3
72
12
73
8
74
6
42
0.0000001000
43
0.0000001000
44
0.0000000001
12
1.1976376034
22
-0.0005610736
32
0.0000000000
13
0.0012244034
23
1.1976371089
33
0.0000000000
40
0.0000000000
40
0.0000000000
40
0.0000000000
40
0.0000000000
40
0.1411553908
40
0.3147080995
40
0.5234046226
40
0.7556106929
40
1.0000000000
40
1.0000000000
40
1.0000000000
40
1.0000000000
10
157.6251691314
20
151.2251978290
30
0.0000000000
10
157.6815201327
20
151.2251714295
30
0.0000000000
10
157.8065926194
20
151.2769067614
30
0.0000000000
10
157.9396026807
20
151.4432282181
30
0.0000000000
10
158.0395779855
20
151.6691082039
30
0.0000000000
10
158.1009201941
20
151.9370884057
30
0.0000000000
10
158.1145693719
20
152.1276345946
30
0.0000000000
10
158.1146691156
20
152.2251978290
30
0.0000000000
11
157.6251691314
21
151.2251978290
31
0.0000000000
11
157.7846445839
21
151.2812915403
31
0.0000000000
11
157.9234681052
21
151.4359880593
31
0.0000000000
11
158.0285225292
21
151.6627808875
31
0.0000000000
11
158.0929427014
21
151.9333154643
31
0.0000000000
11
158.1146691156
21
152.2251978290
31
0.0000000000
0
SPLINE
5
504
100
AcDbEntity
8
0
100
AcDbSpline
62
7
6
CONTINUOUS
70
0
71
3
72
12
73
8
74
6
42
0.0000001000
43
0.0000001000
44
0.0000000001
12
-0.0006222196
22
0.7755125753
32
0.0000000000
13
-0.7755128138
23
-0.0001313798
33
0.0000000000
40
0.0000000000
40
0.0000000000
40
0.0000000000
40
0.0000000000
40
0.1903832876
40
0.3838384958
40
0.5837502085
40
0.7897441348
40
1.0000000000
40
1.0000000000
40
1.0000000000
40
1.0000000000
10
157.6679684738
20
260.2251978290
30
0.0000000000
10
157.6679289870
20
260.2744127069
30
0.0000000000
10
157.6530616159
20
260.3742683583
30
0.0000000000
10
157.5866303702
20
260.5121823836
30
0.0000000000
10
157.4792653060
20
260.6273154609
30
0.0000000000
10
157.3377642040
20
260.7059996107
30
0.0000000000
10
157.2293241003
20
260.7252070368
30
0.0000000000
10
157.1749720611
20
260.7251978290
30
0.0000000000
11
157.6679684738
21
260.2251978290
31
0.0000000000
11
157.6460920010
21
260.3712128002
31
0.0000000000
11
157.5811494613
21
260.5064554185
31
0.0000000000
11
157.4753810436
21
260.6198071412
31
0.0000000000
11
157.3355962464
21
260.6971412906
31
0.0000000000
11
157.1749720611
21
260.7251978290
31
0.0000000000
0
SPLINE
5
505
100
AcDbEntity
8
0
100
AcDbSpline
62
7
6
CONTINUOUS
70
0
71
3
72
12
73
8
74
6
42
0.0000001000
43
0.0000001000
44
0.0000000001
12
-0.0012240126
22
1.1976371105
32
0.0000000000
13
-1.1976376043
23
-0.0005615955
33
0.0000000000
40
0.0000000000
40
0.0000000000
40
0.0000000000
40
0.0000000000
40
0.2443893016
40
0.4765953772
40
0.6852918989
40
0.8588446103
40
1.0000000000
40
1.0000000000
40
1.0000000000
40
1.0000000000
10
158.1146691156
20
260.2251978290
30
0.0000000000
10
158.1145694038
20
260.3227610614
30
0.0000000000
10
158.1009201601
20
260.5133072481
30
0.0000000000
10
158.0395779976
20
260.7812874545
30
0.0000000000
10
157.9396026759
20
261.0071674437
30
0.0000000000
10
157.8065926238
20
261.1734888909
30
0.0000000000
10
157.6815201323
20
261.2252242531
30
0.0000000000
10
157.6251691314
20
261.2251978290
30
0.0000000000
11
158.1146691156
21
260.2251978290
31
0.0000000000
11
158.0929426921
21
260.5170801868
31
0.0000000000
11
158.0285225306
21
260.7876147729
31
0.0000000000
11
157.9234681052
21
261.0144075988
31
0.0000000000
11
157.7846445847
21
261.1691041231
31
0.0000000000
11
157.6251691314
21
261.2251978290
31
0.0000000000
0
SPLINE
5
506
100
AcDbEntity
8
0
100
AcDbSpline
62
7
6
CONTINUOUS
70
0
71
3
72
22
73
18
74
16
42
0.0000001000
43
0.0000001000
44
0.0000000001
12
-0.6612542738
22
-0.0000464646
32
0.0000000000
13
0.0000086769
23
0.6612542754
33
0.0000000000
40
0.0000000000
40
0.0000000000
40
0.0000000000
40
0.0000000000
40
0.0748503029
40
0.1448513648
40
0.2120822201
40
0.2776390896
40
0.3422586628
40
0.4066530929
40
0.4715586129
40
0.5369401829
40
0.6014826141
40
0.6640703168
40
0.7257295299
40
0.7887302980
40
0.8553778664
40
0.9259380735
40
1.0000000000
40
1.0000000000
40
1.0000000000
40
1.0000000000
10
154.8326701122
20
149.2251978290
30
0.0000000000
10
154.8161717513
20
149.2251966697
30
0.0000000000
10
154.7841347045
20
149.2287197549
30
0.0000000000
10
154.7394437108
20
149.2433173716
30
0.0000000000
10
154.6999027296
20
149.2645972543
30
0.0000000000
10
154.6650472142
20
149.2908792590
30
0.0000000000
10
154.6343727655
20
149.3210004615
30
0.0000000000
10
154.6073851172
20
149.3542477649
30
0.0000000000
10
154.5837396163
20
149.3901316312
30
0.0000000000
10
154.5633580755
20
149.4279885091
30
0.0000000000
10
154.5462608847
20
149.4668685718
30
0.0000000000
10
154.5322495633
20
149.5060845923
30
0.0000000000
10
154.5208922262
20
149.5457914427
30
0.0000000000
10
154.5117834402
20
149.5869893088
30
0.0000000000
10
154.5048718436
20
149.6306023142
30
0.0000000000
10
154.5004257462
20
149.6769860407
30
0.0000000000
10
154.4993989683
20
149.7088732405
30
0.0000000000
10
154.4993991825
20
149.7251978290
30
0.0000000000
11
154.8326701122
21
149.2251978290
31
0.0000000000
11
154.7834662591
21
149.2305591778
31
0.0000000000
11
154.7394219463
21
149.2447972913
31
0.0000000000
11
154.7002033119
21
149.2657328126
31
0.0000000000
11
154.6655061773
21
149.2917195508
31
0.0000000000
11
154.6349354784
21
149.3215739077
31
0.0000000000
11
154.6080242673
21
149.3545729399
31
0.0000000000
11
154.5843421107
21
149.3903668017
31
0.0000000000
11
154.5637901748
21
149.4284034035
31
0.0000000000
11
154.5465655063
21
149.4674521462
31
0.0000000000
11
154.5326082519
21
149.5064140250
31
0.0000000000
11
154.5213713123
21
149.5456074081
31
0.0000000000
11
154.5123578586
21
149.5862801737
31
0.0000000000
11
154.5054432243
21
149.6298053383
31
0.0000000000
11
154.5009795048
21
149.6762495677
31
0.0000000000
11
154.4993991825
21
149.7251978290
31
0.0000000000
0
SPLINE
5
507
100
AcDbEntity
8
0
100
AcDbSpline
62
7
6
CONTINUOUS
70
0
71
3
72
11
73
7
74
5
42
0.0000001000
43
0.0000001000
44
0.0000000001
12
0.7420063475
22
0.0000000000
32
0.0000000000
13
0.0000000117
23
0.7420063475
33
0.0000000000
40
0.0000000000
40
0.0000000000
40
0.0000000000
40
0.0000000000
40
0.2377836270
40
0.4828997564
40
0.7380261070
40
1.0000000000
40
1.0000000000
40
1.0000000000
40
1.0000000000
10
157.1749720611
20
260.7251978290
30
0.0000000000
10
157.2337843813
20
260.7251978290
30
0.0000000000
10
157.3546939495
20
260.7522778354
30
0.0000000000
10
157.5041655426
20
260.8654678105
30
0.0000000000
10
157.6025073809
20
261.0313091178
30
0.0000000000
10
157.6251691304
20
261.1604023985
30
0.0000000000
10
157.6251691314
20
261.2251978290
30
0.0000000000
11
157.1749720611
21
260.7251978290
31
0.0000000000
11
157.3472550246
21
260.7632580644
31
0.0000000000
11
157.4933094653
21
260.8716444419
31
0.0000000000
11
157.5908999193
21
261.0338561153
31
0.0000000000
11
157.6251691314
21
261.2251978290
31
0.0000000000
0
SPLINE
5
508
100
AcDbEntity
8
0
100
AcDbSpline
62
7
6
CONTINUOUS
70
0
71
3
72
16
73
12
74
10
42
0.0000001000
43
0.0000001000
44
0.0000000001
12
-0.8536651800
22
-0.0000105464
32
0.0000000000
13
-0.5556031615
23
-0.6484610863
33
0.0000000000
40
0.0000000000
40
0.0000000000
40
0.0000000000
40
0.0000000000
40
0.1458010757
40
0.2802007737
40
0.4051121314
40
0.5223564225
40
0.6338918510
40
0.7416004194
40
0.8467633046
40
0.9494398941
40
1.0000000000
40
1.0000000000
40
1.0000000000
40
1.0000000000
10
155.9946029502
20
261.2251978290
30
0.0000000000
10
155.9531145163
20
261.2251973165
30
0.0000000000
10
155.8732864590
20
261.2201530510
30
0.0000000000
10
155.7597271591
20
261.1989519920
30
0.0000000000
10
155.6570559942
20
261.1675615116
30
0.0000000000
10
155.5642520899
20
261.1281760337
30
0.0000000000
10
155.4800964868
20
261.0821969198
30
0.0000000000
10
155.4035111784
20
261.0304231773
30
0.0000000000
10
155.3339351324
20
260.9734712311
30
0.0000000000
10
155.2813430012
20
260.9219490268
30
0.0000000000
10
155.2522471314
20
260.8894399711
30
0.0000000000
10
155.2428833465
20
260.8785112173
30
0.0000000000
11
155.9946029502
21
261.2251978290
31
0.0000000000
11
155.8703857382
21
261.2173431781
31
0.0000000000
11
155.7576007930
21
261.1962940327
31
0.0000000000
11
155.6556273573
21
261.1651186661
31
0.0000000000
11
155.5634924381
21
261.1260208648
31
0.0000000000
11
155.4799349981
21
261.0803717334
31
0.0000000000
11
155.4037595671
21
261.0288783889
31
0.0000000000
11
155.3342895030
21
260.9720166080
31
0.0000000000
11
155.2716751599
21
260.9106796933
31
0.0000000000
11
155.2428833465
21
260.8785112173
31
0.0000000000
0
SPLINE
5
509
100
AcDbEntity
8
0
100
AcDbSpline
62
7
6
CONTINUOUS
70
0
71
3
72
12
73
8
74
6
42
0.0000001000
43
0.0000001000
44
0.0000000001
12
-0.2599258432
22
-0.3033672346
32
0.0000000000
13
-0.1217214350
23
-0.3805121537
33
0.0000000000
40
0.0000000000
40
0.0000000000
40
0.0000000000
40
0.0000000000
40
0.1076414329
40
0.3236034813
40
0.5439247421
40
0.7690657879
40
1.0000000000
40
1.0000000000
40
1.0000000000
40
1.0000000000
10
155.2428833465
20
260.8785112173
30
0.0000000000
10
155.2335570831
20
260.8676262561
30
0.0000000000
10
155.2062242532
20
260.8342988925
30
0.0000000000
10
155.1639718441
20
260.7753859817
30
0.0000000000
10
155.1190151243
20
260.6995454856
30
0.0000000000
10
155.0800971134
20
260.6182135299
30
0.0000000000
10
155.0589263758
20
260.5612185776
30
0.0000000000
10
155.0495564945
20
260.5319274861
30
0.0000000000
11
155.2428833465
21
260.8785112173
31
0.0000000000
11
155.2156163194
21
260.8452640725
31
0.0000000000
11
155.1653486032
21
260.7751791306
31
0.0000000000
11
155.1204795155
21
260.6994900200
31
0.0000000000
11
155.0816660842
21
260.6183849457
31
0.0000000000
11
155.0495564945
21
260.5319274861
31
0.0000000000
0
SPLINE
5
50A
100
AcDbEntity
8
0
100
AcDbSpline
62
7
6
CONTINUOUS
70
0
71
3
72
10
73
6
74
4
42
0.0000001000
43
0.0000001000
44
0.0000000001
12
-0.0949567079
22
-0.2968432094
32
0.0000000000
13
-0.0005766528
23
-0.3115517265
33
0.0000000000
40
0.0000000000
40
0.0000000000
40
0.0000000000
40
0.0000000000
40
0.3111843643
40
0.6425326337
40
1.0000000000
40
1.0000000000
40
1.0000000000
40
1.0000000000
10
155.0495564945
20
260.5319274861
30
0.0000000000
10
155.0397068136
20
260.5011364976
30
0.0000000000
10
155.0224493538
20
260.4365744994
30
0.0000000000
10
155.0055285833
20
260.3339282410
30
0.0000000000
10
155.0017638603
20
260.2623210207
30
0.0000000000
10
155.0016951488
20
260.2251978290
30
0.0000000000
11
155.0495564945
21
260.5319274861
31
0.0000000000
11
155.0244886345
21
260.4382741779
31
0.0000000000
11
155.0077964163
21
260.3364003438
31
0.0000000000
11
155.0016951488
21
260.2251978290
31
0.0000000000
0
SPLINE
5
50B
100
AcDbEntity
8
0
100
AcDbSpline
62
7
6
CONTINUOUS
70
0
71
3
72
11
73
7
74
5
42
0.0000001000
43
0.0000001000
44
0.0000000001
12
0.7508811227
22
0.0000000000
32
0.0000000000
13
0.0000000076
23
0.7508811227
33
0.0000000000
40
0.0000000000
40
0.0000000000
40
0.0000000000
40
0.0000000000
40
0.2407732138
40
0.4870518091
40
0.7409123560
40
1.0000000000
40
1.0000000000
40
1.0000000000
40
1.0000000000
10
155.5327589786
20
260.7251978290
30
0.0000000000
10
155.5930229989
20
260.7251978290
30
0.0000000000
10
155.7163952196
20
260.7519990024
30
0.0000000000
10
155.8698269168
20
260.8647417402
30
0.0000000000
10
155.9711800947
20
261.0307115443
30
0.0000000000
10
155.9946029495
20
261.1603498220
30
0.0000000000
10
155.9946029502
20
261.2251978290
30
0.0000000000
11
155.5327589786
21
260.7251978290
31
0.0000000000
11
155.7094993953
21
260.7632582341
31
0.0000000000
11
155.8593324175
21
260.8716449112
31
0.0000000000
11
155.9594473613
21
261.0338566137
31
0.0000000000
11
155.9946029502
21
261.2251978290
31
0.0000000000
0
SPLINE
5
50C
100
AcDbEntity
8
0
100
AcDbSpline
62
7
6
CONTINUOUS
70
0
71
3
72
13
73
9
74
7
42
0.0000001000
43
0.0000001000
44
0.0000000001
12
0.3432607726
22
0.2292591508
32
0.0000000000
13
0.1934586458
23
0.3646388193
33
0.0000000000
40
0.0000000000
40
0.0000000000
40
0.0000000000
40
0.0000000000
40
0.1522875249
40
0.3037079685
40
0.4596091587
40
0.6252320088
40
0.8049253532
40
1.0000000000
40
1.0000000000
40
1.0000000000
40
1.0000000000
10
172.0020253318
20
260.5267037144
30
0.0000000000
10
172.0194501096
20
260.5383414840
30
0.0000000000
10
172.0533027687
20
260.5629222160
30
0.0000000000
10
172.1016809629
20
260.6037268343
30
0.0000000000
10
172.1483647040
20
260.6491411603
30
0.0000000000
10
172.1941447016
20
260.7008157156
30
0.0000000000
10
172.2387207940
20
260.7604277060
30
0.0000000000
10
172.2656907228
20
260.8045225293
30
0.0000000000
10
172.2782703485
20
260.8282331255
30
0.0000000000
11
172.0020253318
21
260.5267037144
31
0.0000000000
11
172.0529255900
21
260.5635915007
31
0.0000000000
11
172.1007205975
21
260.6038694412
31
0.0000000000
11
172.1468478827
21
260.6487423491
31
0.0000000000
11
172.1921565976
21
260.6999381850
31
0.0000000000
11
172.2365452483
21
260.7593638999
31
0.0000000000
11
172.2782703485
21
260.8282331255
31
0.0000000000
0
SPLINE
5
50D
100
AcDbEntity
8
0
100
AcDbSpline
62
7
6
CONTINUOUS
70
0
71
3
72
14
73
10
74
8
42
0.0000001000
43
0.0000001000
44
0.0000000001
12
1.1087179689
22
-0.0000277760
32
0.0000000000
13
1.0013609512
23
-0.4759535489
33
0.0000000000
40
0.0000000000
40
0.0000000000
40
0.0000000000
40
0.0000000000
40
0.1791047164
40
0.3449649960
40
0.4984533416
40
0.6403448516
40
0.7710876739
40
0.8908974474
40
1.0000000000
40
1.0000000000
40
1.0000000000
40
1.0000000000
10
170.9191791189
20
260.7251978290
30
0.0000000000
10
170.9853713247
20
260.7251961708
30
0.0000000000
10
171.1128905338
20
260.7216179762
30
0.0000000000
10
171.2965629679
20
260.7064602754
30
0.0000000000
10
171.4655425197
20
260.6834085634
30
0.0000000000
10
171.6202632060
20
260.6536010860
30
0.0000000000
10
171.7609093410
20
260.6177989524
30
0.0000000000
10
171.8873768689
20
260.5765585620
30
0.0000000000
10
171.9656062406
20
260.5440150307
30
0.0000000000
10
172.0020232525
20
260.5267057817
30
0.0000000000
11
170.9191791189
21
260.7251978290
31
0.0000000000
11
171.1176773087
21
260.7196173592
31
0.0000000000
11
171.3009387360
21
260.7043983879
31
0.0000000000
11
171.4695303502
21
260.6812360073
31
0.0000000000
11
171.6239637725
21
260.6512499041
31
0.0000000000
11
171.7643670982
21
260.6152025221
31
0.0000000000
11
171.8905216296
21
260.5736063982
31
0.0000000000
11
172.0020232525
21
260.5267057817
31
0.0000000000
0
SPLINE
5
50E
100
AcDbEntity
8
0
100
AcDbSpline
62
7
6
CONTINUOUS
70
0
71
3
72
11
73
7
74
5
42
0.0000001000
43
0.0000001000
44
0.0000000001
12
0.0000000019
22
-0.6704019835
32
0.0000000000
13
-0.6704019835
23
0.0000000000
33
0.0000000000
40
0.0000000000
40
0.0000000000
40
0.0000000000
40
0.0000000000
40
0.2882073524
40
0.5557014232
40
0.7908053668
40
1.0000000000
40
1.0000000000
40
1.0000000000
40
1.0000000000
10
171.2718995434
20
261.2251978290
30
0.0000000000
10
171.2718995436
20
261.1607929021
30
0.0000000000
10
171.2551074677
20
261.0358327479
30
0.0000000000
10
171.1813167676
20
260.8721974250
30
0.0000000000
10
171.0663848775
20
260.7556630572
30
0.0000000000
10
170.9659272847
20
260.7251978290
30
0.0000000000
10
170.9191791190
20
260.7251978290
30
0.0000000000
11
171.2718995434
21
261.2251978290
31
0.0000000000
11
171.2450507276
21
261.0338575757
31
0.0000000000
11
171.1685910943
21
260.8716458149
31
0.0000000000
11
171.0541602279
21
260.7632585595
31
0.0000000000
11
170.9191791190
21
260.7251978290
31
0.0000000000
0
SPLINE
5
50F
100
AcDbEntity
8
0
100
AcDbSpline
62
7
6
CONTINUOUS
70
0
71
3
72
14
73
10
74
8
42
0.0000001000
43
0.0000001000
44
0.0000000001
12
1.1093481346
22
-0.0001076397
32
0.0000000000
13
0.7756138417
23
-0.7931434069
33
0.0000000000
40
0.0000000000
40
0.0000000000
40
0.0000000000
40
0.0000000000
40
0.1664183827
40
0.3222686170
40
0.4695200719
40
0.6097617993
40
0.7442037496
40
0.8738732907
40
1.0000000000
40
1.0000000000
40
1.0000000000
40
1.0000000000
10
171.2718995434
20
261.2251978290
30
0.0000000000
10
171.3334381843
20
261.2251918580
30
0.0000000000
10
171.4527333424
20
261.2179493138
30
0.0000000000
10
171.6239833509
20
261.1873365947
30
0.0000000000
10
171.7815313355
20
261.1408386772
30
0.0000000000
10
171.9258356086
20
261.0807287563
30
0.0000000000
10
172.0570916339
20
261.0084809101
30
0.0000000000
10
172.1752149254
20
260.9250726342
30
0.0000000000
10
172.2456720062
20
260.8615459547
30
0.0000000000
10
172.2782805467
20
260.8282004321
30
0.0000000000
11
171.2718995434
21
261.2251978290
31
0.0000000000
11
171.4561779791
21
261.2140399937
31
0.0000000000
11
171.6263686791
21
261.1835961566
31
0.0000000000
11
171.7830149020
21
261.1372690030
31
0.0000000000
11
171.9265734103
21
261.0773096308
31
0.0000000000
11
172.0571412321
21
261.0052287267
31
0.0000000000
11
172.1744958989
21
260.9220402639
31
0.0000000000
11
172.2782805467
21
260.8282004321
31
0.0000000000
0
SPLINE
5
510
100
AcDbEntity
8
0
100
AcDbSpline
62
7
6
CONTINUOUS
70
0
71
3
72
11
73
7
74
5
42
0.0000001000
43
0.0000001000
44
0.0000000001
12
0.0000000003
22
-0.6880689827
32
0.0000000000
13
-0.6880689827
23
0.0000000000
33
0.0000000000
40
0.0000000000
40
0.0000000000
40
0.0000000000
40
0.0000000000
40
0.2812026129
40
0.5452440835
40
0.7829099919
40
1.0000000000
40
1.0000000000
40
1.0000000000
40
1.0000000000
10
167.8102057871
20
261.2251978290
30
0.0000000000
10
167.8102057871
20
261.1607022304
30
0.0000000000
10
167.7919999006
20
261.0347750067
30
0.0000000000
10
167.7121307091
20
260.8703933530
30
0.0000000000
10
167.5881835842
20
260.7545899355
30
0.0000000000
10
167.4825499456
20
260.7251978290
30
0.0000000000
10
167.4327589786
20
260.7251978290
30
0.0000000000
11
167.8102057871
21
261.2251978290
31
0.0000000000
11
167.7814743652
21
261.0338561306
31
0.0000000000
11
167.6996541926
21
260.8716444598
31
0.0000000000
11
167.5772016365
21
260.7632580725
31
0.0000000000
11
167.4327589786
21
260.7251978290
31
0.0000000000
0
SPLINE
5
511
100
AcDbEntity
8
0
100
AcDbSpline
62
7
6
CONTINUOUS
70
0
71
3
72
8
73
4
74
2
42
0.0000001000
43
0.0000001000
44
0.0000000001
12
-0.0001586268
22
0.0962907992
32
0.0000000000
13
0.0093087006
23
0.0960153282
33
0.0000000000
40
0.0000000000
40
0.0000000000
40
0.0000000000
40
0.0000000000
40
1.0000000000
40
1.0000000000
40
1.0000000000
40
1.0000000000
10
166.8172979857
20
260.2251978290
30
0.0000000000
10
166.8172451101
20
260.2572947621
30
0.0000000000
10
166.8188010611
20
260.2894313960
30
0.0000000000
10
166.8219039614
20
260.3214365054
30
0.0000000000
11
166.8172979857
21
260.2251978290
31
0.0000000000
11
166.8219039614
21
260.3214365054
31
0.0000000000
0
SPLINE
5
512
100
AcDbEntity
8
0
100
AcDbSpline
62
7
6
CONTINUOUS
70
0
71
3
72
9
73
5
74
3
42
0.0000001000
43
0.0000001000
44
0.0000000001
12
0.0183281194
22
0.1890468352
32
0.0000000000
13
0.0531454635
23
0.1822595000
33
0.0000000000
40
0.0000000000
40
0.0000000000
40
0.0000000000
40
0.0000000000
40
0.5004121104
40
1.0000000000
40
1.0000000000
40
1.0000000000
40
1.0000000000
10
166.8219039614
20
260.3214365054
30
0.0000000000
10
166.8249611657
20
260.3529702806
30
0.0000000000
10
166.8340715079
20
260.4157307444
30
0.0000000000
10
166.8489425001
20
260.4773273251
30
0.0000000000
10
166.8577927767
20
260.5076788715
30
0.0000000000
11
166.8219039614
21
260.3214365054
31
0.0000000000
11
166.8355215543
21
260.4154910223
31
0.0000000000
11
166.8577927767
21
260.5076788715
31
0.0000000000
0
SPLINE
5
513
100
AcDbEntity
8
0
100
AcDbSpline
62
7
6
CONTINUOUS
70
0
71
3
72
14
73
10
74
8
42
0.0000001000
43
0.0000001000
44
0.0000000001
12
0.3579188589
22
1.2274634182
32
0.0000000000
13
1.2768286063
23
-0.0000175638
33
0.0000000000
40
0.0000000000
40
0.0000000000
40
0.0000000000
40
0.0000000000
40
0.0740432063
40
0.2224218704
40
0.3700486255
40
0.5179574100
40
0.6693076075
40
0.8282239694
40
1.0000000000
40
1.0000000000
40
1.0000000000
40
1.0000000000
10
166.8577927767
20
260.5076788715
30
0.0000000000
10
166.8666265967
20
260.5379739805
30
0.0000000000
10
166.8974154008
20
260.6277178449
30
0.0000000000
10
166.9696402318
20
260.7687707550
30
0.0000000000
10
167.0865041075
20
260.9186464862
30
0.0000000000
10
167.2304785676
20
261.0446772705
30
0.0000000000
10
167.4001790992
20
261.1432696721
30
0.0000000000
10
167.5958285358
20
261.2094145586
30
0.0000000000
10
167.7370962705
20
261.2251988347
30
0.0000000000
10
167.8102057871
20
261.2251978290
30
0.0000000000
11
166.8577927767
21
260.5076788715
31
0.0000000000
11
166.8885243394
21
260.5971746772
31
0.0000000000
11
166.9748507160
21
260.7658181515
31
0.0000000000
11
167.0907744314
21
260.9144509350
31
0.0000000000
11
167.2328942156
21
261.0388208006
31
0.0000000000
11
167.3999971143
21
261.1358852734
31
0.0000000000
11
167.5922366607
21
261.2008160177
31
0.0000000000
11
167.8102057871
21
261.2251978290
31
0.0000000000
0
SPLINE
5
514
100
AcDbEntity
8
0
100
AcDbSpline
62
7
6
CONTINUOUS
70
0
71
3
72
14
73
10
74
8
42
0.0000001000
43
0.0000001000
44
0.0000000001
12
-1.2768286110
22
-0.0000175043
32
0.0000000000
13
-0.3579190438
23
1.2274633605
33
0.0000000000
40
0.0000000000
40
0.0000000000
40
0.0000000000
40
0.0000000000
40
0.1717760297
40
0.3306923972
40
0.4820425906
40
0.6299513764
40
0.7775781292
40
0.9259567961
40
1.0000000000
40
1.0000000000
40
1.0000000000
40
1.0000000000
10
167.8102057871
20
151.2251978290
30
0.0000000000
10
167.7370962706
20
151.2251968268
30
0.0000000000
10
167.5958285226
20
151.2409810405
30
0.0000000000
10
167.4001791130
20
151.3071260163
30
0.0000000000
10
167.2304785589
20
151.4057183747
30
0.0000000000
10
167.0865041146
20
151.5317491784
30
0.0000000000
10
166.9696402212
20
151.6816248971
30
0.0000000000
10
166.8974154138
20
151.8226778194
30
0.0000000000
10
166.8666265989
20
151.9124216801
30
0.0000000000
10
166.8577927746
20
151.9427167868
30
0.0000000000
11
167.8102057871
21
151.2251978290
31
0.0000000000
11
167.5922366580
21
151.2495796119
31
0.0000000000
11
167.3999971163
21
151.3145103953
31
0.0000000000
11
167.2328942145
21
151.4115748539
31
0.0000000000
11
167.0907744323
21
151.5359447251
31
0.0000000000
11
166.9748507141
21
151.6845775036
31
0.0000000000
11
166.8885243453
21
151.8532209865
31
0.0000000000
11
166.8577927746
21
151.9427167868
31
0.0000000000
0
SPLINE
5
515
100
AcDbEntity
8
0
100
AcDbSpline
62
7
6
CONTINUOUS
70
0
71
3
72
9
73
5
74
3
42
0.0000001000
43
0.0000001000
44
0.0000000001
12
-0.0801376477
22
0.2748275847
32
0.0000000000
13
0.0004710920
23
0.2858800174
33
0.0000000000
40
0.0000000000
40
0.0000000000
40
0.0000000000
40
0.0000000000
40
0.3313154708
40
1.0000000000
40
1.0000000000
40
1.0000000000
40
1.0000000000
10
166.8577927746
20
151.9427167868
30
0.0000000000
10
166.8489424938
20
151.9730683303
30
0.0000000000
10
166.8265186305
20
152.0659493020
30
0.0000000000
10
166.8171929817
20
152.1614766474
30
0.0000000000
10
166.8172979857
20
152.2251978290
30
0.0000000000
11
166.8577927746
21
151.9427167868
31
0.0000000000
11
166.8355215384
21
152.0349046283
31
0.0000000000
11
166.8172979857
21
152.2251978290
31
0.0000000000
0
SPLINE
5
516
100
AcDbEntity
8
0
100
AcDbSpline
62
7
6
CONTINUOUS
70
0
71
3
72
11
73
7
74
5
42
0.0000001000
43
0.0000001000
44
0.0000000001
12
0.0000000638
22
0.6880689598
32
0.0000000000
13
-0.6880689598
23
0.0000000000
33
0.0000000000
40
0.0000000000
40
0.0000000000
40
0.0000000000
40
0.0000000000
40
0.2811971326
40
0.5452379141
40
0.7829063028
40
1.0000000000
40
1.0000000000
40
1.0000000000
40
1.0000000000
10
167.8102057871
20
151.2251978290
30
0.0000000000
10
167.8102057931
20
151.2896921685
30
0.0000000000
10
167.7920004766
20
151.4156179203
30
0.0000000000
10
167.7121328917
20
151.5799993173
30
0.0000000000
10
167.5881858770
20
151.6958047705
30
0.0000000000
10
167.4825507901
20
151.7251978290
30
0.0000000000
10
167.4327589786
20
151.7251978290
30
0.0000000000
11
167.8102057871
21
151.2251978290
31
0.0000000000
11
167.7814755190
21
151.4165358810
31
0.0000000000
11
167.6996568116
21
151.5787477530
31
0.0000000000
11
167.5772039271
21
151.6871363361
31
0.0000000000
11
167.4327589786
21
151.7251978290
31
0.0000000000
0
SPLINE
5
517
100
AcDbEntity
8
0
100
AcDbSpline
62
7
6
CONTINUOUS
70
0
71
3
72
11
73
7
74
5
42
0.0000001000
43
0.0000001000
44
0.0000000001
12
0.0000000002
22
0.6704019998
32
0.0000000000
13
-0.6704019998
23
0.0000000000
33
0.0000000000
40
0.0000000000
40
0.0000000000
40
0.0000000000
40
0.0000000000
40
0.2882095541
40
0.5557038313
40
0.7908067468
40
1.0000000000
40
1.0000000000
40
1.0000000000
40
1.0000000000
10
171.2718995434
20
151.2251978290
30
0.0000000000
10
171.2718995435
20
151.2896032495
30
0.0000000000
10
171.2551072668
20
151.4145639636
30
0.0000000000
10
171.1813159869
20
151.5781994017
30
0.0000000000
10
171.0663840276
20
151.6947329918
30
0.0000000000
10
170.9659269773
20
151.7251978290
30
0.0000000000
10
170.9191791189
20
151.7251978290
30
0.0000000000
11
171.2718995434
21
151.2251978290
31
0.0000000000
11
171.2450503076
21
151.4165395187
31
0.0000000000
11
171.1685901453
21
151.5787511880
31
0.0000000000
11
171.0541594061
21
151.6871375809
31
0.0000000000
11
170.9191791189
21
151.7251978290
31
0.0000000000
0
SPLINE
5
518
100
AcDbEntity
8
0
100
AcDbSpline
62
7
6
CONTINUOUS
70
0
71
3
72
11
73
7
74
5
42
0.0000001000
43
0.0000001000
44
0.0000000001
12
-0.1933112082
22
0.3645932206
32
0.0000000000
13
-0.3431504645
23
0.2292273946
33
0.0000000000
40
0.0000000000
40
0.0000000000
40
0.0000000000
40
0.0000000000
40
0.2248115862
40
0.4707609285
40
0.7320259838
40
1.0000000000
40
1.0000000000
40
1.0000000000
40
1.0000000000
10
172.2782351716
20
151.6221142332
30
0.0000000000
10
172.2637489718
20
151.6494358266
30
0.0000000000
10
172.2297863869
20
151.7047998821
30
0.0000000000
10
172.1665804506
20
151.7835134523
30
0.0000000000
10
172.0903249857
20
151.8583491369
30
0.0000000000
10
172.0326924834
20
151.9032202097
30
0.0000000000
10
172.0020406807
20
151.9236958715
30
0.0000000000
11
172.2782351716
21
151.6221142332
31
0.0000000000
11
172.2297868759
21
151.7012321054
31
0.0000000000
11
172.1664685844
21
151.7805559344
31
0.0000000000
11
172.0896272526
21
151.8561853978
31
0.0000000000
11
172.0020406807
21
151.9236958715
31
0.0000000000
0
SPLINE
5
519
100
AcDbEntity
8
0
100
AcDbSpline
62
7
6
CONTINUOUS
70
0
71
3
72
14
73
10
74
8
42
0.0000001000
43
0.0000001000
44
0.0000000001
12
-0.7760103658
22
-0.7928001429
32
0.0000000000
13
-1.1093800713
23
-0.0001081024
33
0.0000000000
40
0.0000000000
40
0.0000000000
40
0.0000000000
40
0.0000000000
40
0.1256958510
40
0.2547752193
40
0.3886387377
40
0.5286081681
40
0.6760681344
40
0.8325589292
40
1.0000000000
40
1.0000000000
40
1.0000000000
40
1.0000000000
10
172.2782606408
20
151.6222659155
30
0.0000000000
10
172.2457468797
20
151.5890486860
30
0.0000000000
10
172.1756767700
20
151.5256600578
30
0.0000000000
10
172.0580504086
20
151.4425597204
30
0.0000000000
10
171.9273507347
20
151.3704127168
30
0.0000000000
10
171.7833417889
20
151.3101989252
30
0.0000000000
10
171.6256448085
20
151.2634317884
30
0.0000000000
10
171.4537339797
20
151.2325296757
30
0.0000000000
10
171.3338181391
20
151.2252038626
30
0.0000000000
10
171.2718995434
20
151.2251978290
30
0.0000000000
11
172.2782606408
21
151.6222659155
31
0.0000000000
11
172.1748935739
21
151.5286709879
31
0.0000000000
11
172.0581217832
21
151.4457852903
31
0.0000000000
11
171.9281902332
21
151.3738708839
31
0.0000000000
11
171.7849881407
21
151.3138307231
31
0.0000000000
11
171.6281768108
21
151.2672301179
31
0.0000000000
11
171.4573115554
21
151.2364937829
31
0.0000000000
11
171.2718995434
21
151.2251978290
31
0.0000000000
0
SPLINE
5
51A
100
AcDbEntity
8
0
100
AcDbSpline
62
7
6
CONTINUOUS
70
0
71
3
72
14
73
10
74
8
42
0.0000001000
43
0.0000001000
44
0.0000000001
12
-1.0012690617
22
-0.4761622530
32
0.0000000000
13
-1.1087245935
23
-0.0000278493
33
0.0000000000
40
0.0000000000
40
0.0000000000
40
0.0000000000
40
0.0000000000
40
0.1086192801
40
0.2278452609
40
0.3579811906
40
0.4995541196
40
0.6532309052
40
0.8197695512
40
1.0000000000
40
1.0000000000
40
1.0000000000
40
1.0000000000
10
172.0020310892
20
151.9236883682
30
0.0000000000
10
171.9657787144
20
151.9064482345
30
0.0000000000
10
171.8879130689
20
151.8740581746
30
0.0000000000
10
171.7620574491
20
151.8329410795
30
0.0000000000
10
171.6219749103
20
151.7971841999
30
0.0000000000
10
171.4675431875
20
151.7673135020
30
0.0000000000
10
171.2983763430
20
151.7441238803
30
0.0000000000
10
171.1139750660
20
151.7288188052
30
0.0000000000
10
170.9857877626
20
151.7251995021
30
0.0000000000
10
170.9191791189
20
151.7251978290
30
0.0000000000
11
172.0020310892
21
151.9236883682
31
0.0000000000
11
171.8910292611
21
151.8769796302
31
0.0000000000
11
171.7655079064
21
151.8355277023
31
0.0000000000
11
171.6257793861
21
151.7995544535
31
0.0000000000
11
171.4717139910
21
151.7695213523
31
0.0000000000
11
171.3029298905
21
151.7462178209
31
0.0000000000
11
171.1189251302
21
151.7308488209
31
0.0000000000
11
170.9191791189
21
151.7251978290
31
0.0000000000
0
ENDSEC
0
SECTION
2
OBJECTS
0
DICTIONARY
5
C
100
AcDbDictionary
280
0
281
1
3
ACAD_GROUP
350
D
3
ACAD_MLINESTYLE
350
17
3
ACAD_LAYOUT
350
1A
3
ACAD_PLOTSETTINGS
350
19
3
ACAD_PLOTSTYLENAME
350
E
0
DICTIONARY
5
D
102
{ACAD_REACTORS
330
C
102
}
100
AcDbDictionary
280
0
281
1
0
ACDBDICTIONARYWDFLT
5
E
102
{ACAD_REACTORS
330
C
102
}
100
AcDbDictionary
281
1
3
Normal
350
F
100
AcDbDictionaryWithDefault
340
F
0
DICTIONARY
5
17
102
{ACAD_REACTORS
330
C
102
}
100
AcDbDictionary
280
0
281
1
3
Standard
350
18
0
DICTIONARY
5
19
102
{ACAD_REACTORS
330
C
102
}
100
AcDbDictionary
281
1
0
DICTIONARY
5
1A
102
{ACAD_REACTORS
330
C
102
}
100
AcDbDictionary
281
1
3
Layout1
350
1E
3
Model
350
22
0
ACDBPLACEHOLDER
5
F
102
{ACAD_REACTORS
330
E
102
}
0
MLINESTYLE
5
18
102
{ACAD_REACTORS
330
17
102
}
100
AcDbMlineStyle
2
STANDARD
70
0
3

62
256
51
90.0
52
90.0
71
2
49
0.5
62
256
6
BYLAYER
49
-0.5
62
256
6
BYLAYER
0
LAYOUT
5
1E
102
{ACAD_REACTORS
330
1A
102
}
100
AcDbPlotSettings
1

2

4

6

40
0.0
41
0.0
42
0.0
43
0.0
44
0.0
45
0.0
46
0.0
47
0.0
48
0.0
49
0.0
140
0.0
141
0.0
142
1.0
143
1.0
70
0
72
0
73
0
74
0
7

75
0
147
1.0
148
0.0
149
0.0
100
AcDbLayout
1
Layout1
70
0
71
0
10
0.0
20
0.0
11
0.0
21
0.0
12
0.0
22
0.0
32
0.0
14
0.0
24
0.0
34
0.0
15
0.0
25
0.0
35
0.0
146
0.0
13
0.0
23
0.0
33
0.0
16
0.0
26
0.0
36
0.0
17
0.0
27
0.0
37
0.0
76
0
330
1B
331
0
345
0
346
0
0
LAYOUT
5
22
102
{ACAD_REACTORS
330
1A
102
}
100
AcDbPlotSettings
1

2

4

6

40
0.0
41
0.0
42
0.0
43
0.0
44
0.0
45
0.0
46
0.0
47
0.0
48
0.0
49
0.0
140
0.0
141
0.0
142
1.0
143
1.0
70
0
72
0
73
0
74
0
7

75
0
147
1.0
148
0.0
149
0.0
100
AcDbLayout
1
Model
70
0
71
0
10
0.0
20
0.0
11
0.0
21
0.0
12
0.0
22
0.0
32
0.0
14
0.0
24
0.0
34
0.0
15
0.0
25
0.0
35
0.0
146
0.0
13
0.0
23
0.0
33
0.0
16
0.0
26
0.0
36
0.0
17
0.0
27
0.0
37
0.0
76
0
330
1F
331
0
345
0
346
0
0
ENDSEC
0
EOF
