999
DXF file: s0567-687382.dxf
999
Pro/ENGINEER 2005310 by Parametric Technology Corporation
0
SECTION
2
HEADER
9
$ACADVER
1
AC1015
9
$DWGCODEPAGE
3
ANSI_1252
9
$EXTMAX
10
210.0000000000
20
297.0000000000
30
0.0000000000
9
$EXTMIN
10
0.0000000000
20
0.0000000000
30
0.0000000000
9
$LIMMIN
10
0.0000000000
20
0.0000000000
9
$LIMMAX
10
210.0000000000
20
297.0000000000
9
$VIEWCTR
10
105.0000000000
20
148.5000000000
9
$VIEWSIZE
40
297.0000000000
9
$CLAYER
8
0
9
$LTSCALE
40
19.3600000000
9
$CELTYPE
6
BYLAYER
9
$DIMSCALE
40
1
9
$DIMASZ
40
3.5000000000
9
$DIMEXO
40
2.2000000000
9
$DIMDLI
40
13.3760000000
9
$DIMEXE
40
6.3360000000
9
$DIMCEN
40
3.1680000000
9
$DIMLFAC
40
1.0000000000
9
$DIMBLK
1
_FILLED
9
$DIMTXT
40
3.5000000000
9
$DIMTOL
70
1
9
$DIMLIM
70
0
9
$DIMTFAC
40
1.0000000000
9
$DIMTP
40
0.0010000000
9
$DIMTM
40
0.0010000000
9
$PDMODE
70
3
9
$PDSIZE
40
0.3125000000
9
$HANDSEED
5
4FE
9
$MEASUREMENT
70
1
9
$INSUNITS
70
4
0
ENDSEC
0
SECTION
2
CLASSES
0
CLASS
1
ACDBDICTIONARYWDFLT
2
AcDbDictionaryWithDefault
3
AutoCAD 2000
90
0
280
0
281
0
0
CLASS
1
ACDBPLACEHOLDER
2
AcDbPlaceHolder
3
AutoCAD 2000
90
0
280
0
281
0
0
CLASS
1
LAYOUT
2
AcDbLayout
3
AutoCAD 2000
90
0
280
0
281
0
0
ENDSEC
0
SECTION
2
TABLES
0
TABLE
2
VPORT
5
8
100
AcDbSymbolTable
70
2
0
VPORT
5
1F4
100
AcDbSymbolTableRecord
100
AcDbViewportTableRecord
2
*ACTIVE
70
0
10
0.0
20
0.0
11
1.0
21
1.0
12
105.0000000000
22
148.5000000000
13
0.0
23
0.0
14
1.0
24
1.0
15
0.0
25
0.0
16
0.0
26
0.0
36
1.0
17
0.0
27
0.0
37
0.0
40
297.0000000000
41
0.7070707071
42
50.0
43
0.0
44
0.0
50
0.0
51
0.0
71
0
72
100
73
1
74
1
75
0
76
0
77
0
78
0
0
ENDTAB
0
TABLE
2
LTYPE
5
5
100
AcDbSymbolTable
70
6
0
LTYPE
5
14
100
AcDbSymbolTableRecord
100
AcDbLinetypeTableRecord
2
BYBLOCK
70
0
3

72
65
73
0
40
0.0
0
LTYPE
5
15
100
AcDbSymbolTableRecord
100
AcDbLinetypeTableRecord
2
BYLAYER
70
0
3

72
65
73
0
40
0.0
0
LTYPE
5
16
100
AcDbSymbolTableRecord
100
AcDbLinetypeTableRecord
2
CONTINUOUS
70
64
3
Solid line
72
65
73
0
40
0
0
LTYPE
5
1F5
100
AcDbSymbolTableRecord
100
AcDbLinetypeTableRecord
2
CENTER
70
64
3
____ _ ____ _ ____ _ ____ _ ____ _ ____ _ ____
72
65
73
4
40
0.6
49
0.375
74
0
49
-0.075
74
0
49
0.075
74
0
49
-0.075
74
0
0
LTYPE
5
1F6
100
AcDbSymbolTableRecord
100
AcDbLinetypeTableRecord
2
HIDDEN
70
64
3
- - - - - - - - - - - - - - - - - - - -
72
65
73
2
40
0.2
49
0.1
74
0
49
-0.1
74
0
0
LTYPE
5
1F7
100
AcDbSymbolTableRecord
100
AcDbLinetypeTableRecord
2
PHANTOM
70
64
3
_____ _ _ _____ _ _ _____ _ _ _____
72
65
73
6
40
0.8
49
0.45
74
0
49
-0.05
74
0
49
0.1
74
0
49
-0.05
74
0
49
0.1
74
0
49
-0.05
74
0
0
LTYPE
5
1F8
100
AcDbSymbolTableRecord
100
AcDbLinetypeTableRecord
2
DOT
70
64
3
. . . . . . . . . . . . . . . . . . . .
72
65
73
2
40
0.2
49
0.1
74
0
49
-0.1
74
0
0
LTYPE
5
1F9
100
AcDbSymbolTableRecord
100
AcDbLinetypeTableRecord
2
DASHED
70
64
3
- - - - - - - - - - - - - - - - - - - -
72
65
73
2
40
0.2
49
0.1
74
0
49
-0.1
74
0
0
ENDTAB
0
TABLE
2
LAYER
5
2
100
AcDbSymbolTable
70
36
0
LAYER
5
10
100
AcDbSymbolTableRecord
100
AcDbLayerTableRecord
2
0
70
0
62
7
6
CONTINUOUS
370
-3
390
F
0
LAYER
5
1FA
100
AcDbSymbolTableRecord
100
AcDbLayerTableRecord
2
DEFAULT_1
70
0
62
7
6
CENTER
370
-3
390
F
0
LAYER
5
1FB
100
AcDbSymbolTableRecord
100
AcDbLayerTableRecord
2
DEFAULT_2
70
0
62
8
6
HIDDEN
370
-3
390
F
0
LAYER
5
1FC
100
AcDbSymbolTableRecord
100
AcDbLayerTableRecord
2
DEFAULT_3
70
0
62
7
6
PHANTOM
370
-3
390
F
0
LAYER
5
1FD
100
AcDbSymbolTableRecord
100
AcDbLayerTableRecord
2
_2D_DELETED_OBJS
70
0
62
7
6
CONTINUOUS
370
-3
390
F
0
LAYER
5
1FE
100
AcDbSymbolTableRecord
100
AcDbLayerTableRecord
2
ASSI
70
0
62
7
6
CONTINUOUS
370
-3
390
F
0
LAYER
5
1FF
100
AcDbSymbolTableRecord
100
AcDbLayerTableRecord
2
PIANI
70
0
62
7
6
CONTINUOUS
370
-3
390
F
0
LAYER
5
200
100
AcDbSymbolTableRecord
100
AcDbLayerTableRecord
2
SURF_FILETTI
70
0
62
7
6
CONTINUOUS
370
-3
390
F
0
ENDTAB
0
TABLE
2
STYLE
5
3
100
AcDbSymbolTable
70
1
0
STYLE
5
11
100
AcDbSymbolTableRecord
100
AcDbTextStyleTableRecord
2
STANDARD
70
0
40
0.0
41
0.7143000000
50
0.0
71
0
42
0.2
3
txt
4

0
ENDTAB
0
TABLE
2
VIEW
5
6
100
AcDbSymbolTable
70
0
0
ENDTAB
0
TABLE
2
UCS
5
7
100
AcDbSymbolTable
70
0
0
ENDTAB
0
TABLE
2
APPID
5
9
100
AcDbSymbolTable
70
1
0
APPID
5
201
100
AcDbSymbolTableRecord
100
AcDbRegAppTableRecord
2
ACAD
70
0
0
ENDTAB
0
TABLE
2
BLOCK_RECORD
5
1
100
AcDbSymbolTable
70
0
0
BLOCK_RECORD
5
1F
100
AcDbSymbolTableRecord
100
AcDbBlockTableRecord
2
*MODEL_SPACE
0
BLOCK_RECORD
5
1B
100
AcDbSymbolTableRecord
100
AcDbBlockTableRecord
2
*PAPER_SPACE
0
BLOCK_RECORD
5
202
100
AcDbSymbolTableRecord
100
AcDbBlockTableRecord
2
_FILLED
0
BLOCK_RECORD
5
203
100
AcDbSymbolTableRecord
100
AcDbBlockTableRecord
2
*D0
0
BLOCK_RECORD
5
204
100
AcDbSymbolTableRecord
100
AcDbBlockTableRecord
2
*D1
0
BLOCK_RECORD
5
205
100
AcDbSymbolTableRecord
100
AcDbBlockTableRecord
2
*D2
0
BLOCK_RECORD
5
206
100
AcDbSymbolTableRecord
100
AcDbBlockTableRecord
2
*D3
0
BLOCK_RECORD
5
207
100
AcDbSymbolTableRecord
100
AcDbBlockTableRecord
2
*D4
0
BLOCK_RECORD
5
208
100
AcDbSymbolTableRecord
100
AcDbBlockTableRecord
2
*D5
0
BLOCK_RECORD
5
209
100
AcDbSymbolTableRecord
100
AcDbBlockTableRecord
2
*D6
0
BLOCK_RECORD
5
20A
100
AcDbSymbolTableRecord
100
AcDbBlockTableRecord
2
*D7
0
BLOCK_RECORD
5
20B
100
AcDbSymbolTableRecord
100
AcDbBlockTableRecord
2
*D8
0
BLOCK_RECORD
5
20C
100
AcDbSymbolTableRecord
100
AcDbBlockTableRecord
2
*D9
0
BLOCK_RECORD
5
20D
100
AcDbSymbolTableRecord
100
AcDbBlockTableRecord
2
*D10
0
BLOCK_RECORD
5
20E
100
AcDbSymbolTableRecord
100
AcDbBlockTableRecord
2
*D11
0
BLOCK_RECORD
5
20F
100
AcDbSymbolTableRecord
100
AcDbBlockTableRecord
2
*D12
0
ENDTAB
0
TABLE
2
DIMSTYLE
5
A
100
AcDbSymbolTable
70
1
100
AcDbDimStyleTable
71
0
0
DIMSTYLE
105
210
100
AcDbSymbolTableRecord
100
AcDbDimStyleTableRecord
2
STANDARD
70
0
3

4

40
1.0
41
3.5000000000
42
0.0625
43
0.38
44
0.18
45
0.0
46
0.0
47
0.0010000000
48
0.0010000000
140
3.5000000000
141
0.09
142
0.0
143
25.4
144
1.0000000000
145
0.0
146
1.0000000000
147
0.09
71
1
72
0
73
0
74
0
75
0
76
0
77
1
78
8
170
0
171
2
172
0
173
0
174
0
175
0
176
0
177
0
178
0
270
2
271
3
272
3
273
2
274
2
275
0
280
0
281
0
282
0
283
1
284
8
285
0
286
0
287
3
288
0
340
11
341
202
342
202
343
202
344
202
0
DIMSTYLE
105
211
100
AcDbSymbolTableRecord
100
AcDbDimStyleTableRecord
2
DIMSTYLE_1
70
0
3

4

40
1.0
41
3.5000000000
42
0.0625
43
0.38
44
0.18
45
0.0
46
0.0
47
0.0500000000
48
0.0500000000
140
3.5000000000
141
0.09
142
0.0
143
25.4
144
1.0000000000
145
0.0
146
1.0000000000
147
0.09
71
0
72
0
73
0
74
0
75
0
76
0
77
1
78
8
170
0
171
2
172
0
173
0
174
0
175
0
176
0
177
0
178
0
270
2
271
3
272
3
273
2
274
2
275
0
280
0
281
0
282
0
283
1
284
8
285
0
286
0
287
3
288
0
340
11
341
202
342
202
343
202
344
202
0
DIMSTYLE
105
212
100
AcDbSymbolTableRecord
100
AcDbDimStyleTableRecord
2
DIMSTYLE_2
70
0
3

4

40
1.0
41
3.5000000000
42
0.0625
43
0.38
44
0.18
45
0.0
46
0.0
47
0.1000000000
48
0.1000000000
140
3.5000000000
141
0.09
142
0.0
143
25.4
144
1.0000000000
145
0.0
146
1.0000000000
147
0.09
71
0
72
0
73
0
74
0
75
0
76
0
77
1
78
8
170
0
171
2
172
0
173
0
174
0
175
0
176
0
177
0
178
0
270
2
271
3
272
3
273
2
274
2
275
0
280
0
281
0
282
0
283
1
284
8
285
0
286
0
287
3
288
0
340
11
341
202
342
202
343
202
344
202
0
DIMSTYLE
105
213
100
AcDbSymbolTableRecord
100
AcDbDimStyleTableRecord
2
DIMSTYLE_3
70
0
3

4

40
1.0
41
3.5000000000
42
0.0625
43
0.38
44
0.18
45
0.0
46
0.0
47
0.1000000000
48
0.1000000000
140
3.5000000000
141
0.09
142
0.0
143
25.4
144
1.0000000000
145
0.0
146
1.0000000000
147
0.09
71
0
72
0
73
0
74
0
75
0
76
0
77
1
78
8
170
0
171
2
172
0
173
0
174
0
175
0
176
0
177
0
178
0
270
2
271
3
272
3
273
2
274
2
275
0
280
0
281
0
282
0
283
1
284
8
285
0
286
0
287
3
288
0
340
11
341
202
342
202
343
202
344
202
0
DIMSTYLE
105
214
100
AcDbSymbolTableRecord
100
AcDbDimStyleTableRecord
2
DIMSTYLE_4
70
0
3

4

40
1.0
41
3.5000000000
42
0.0625
43
0.38
44
0.18
45
0.0
46
0.0
47
0.1500000000
48
0.1500000000
140
3.5000000000
141
0.09
142
0.0
143
25.4
144
1.0000000000
145
0.0
146
1.0000000000
147
0.09
71
0
72
0
73
0
74
0
75
0
76
0
77
1
78
8
170
0
171
2
172
0
173
0
174
0
175
0
176
0
177
0
178
0
270
2
271
1
272
1
273
2
274
2
275
0
280
0
281
0
282
0
283
1
284
8
285
0
286
0
287
3
288
0
340
11
341
202
342
202
343
202
344
202
0
DIMSTYLE
105
215
100
AcDbSymbolTableRecord
100
AcDbDimStyleTableRecord
2
DIMSTYLE_5
70
0
3

4

40
1.0
41
3.5000000000
42
0.0625
43
0.38
44
0.18
45
0.0
46
0.0
47
0.1000000000
48
0.1000000000
140
3.5000000000
141
0.09
142
0.0
143
25.4
144
1.0000000000
145
0.0
146
1.0000000000
147
0.09
71
0
72
0
73
0
74
0
75
0
76
0
77
1
78
8
170
0
171
2
172
0
173
0
174
0
175
0
176
0
177
0
178
0
270
2
271
1
272
1
273
2
274
2
275
0
280
0
281
0
282
0
283
1
284
8
285
0
286
0
287
3
288
0
340
11
341
202
342
202
343
202
344
202
0
DIMSTYLE
105
216
100
AcDbSymbolTableRecord
100
AcDbDimStyleTableRecord
2
DIMSTYLE_6
70
0
3

4

40
1.0
41
3.5000000000
42
0.0625
43
0.38
44
0.18
45
0.0
46
0.0
47
0.1500000000
48
0.1500000000
140
3.5000000000
141
0.09
142
0.0
143
25.4
144
1.0000000000
145
0.0
146
1.0000000000
147
0.09
71
0
72
0
73
0
74
0
75
0
76
0
77
1
78
8
170
0
171
2
172
0
173
0
174
0
175
0
176
0
177
0
178
0
270
2
271
3
272
3
273
2
274
2
275
0
280
0
281
0
282
0
283
1
284
8
285
0
286
0
287
3
288
0
340
11
341
202
342
202
343
202
344
202
0
DIMSTYLE
105
217
100
AcDbSymbolTableRecord
100
AcDbDimStyleTableRecord
2
DIMSTYLE_7
70
0
3

4

40
1.0
41
3.5000000000
42
0.0625
43
0.38
44
0.18
45
0.0
46
0.0
47
1.0000000000
48
1.0000000000
140
3.5000000000
141
0.09
142
0.0
143
25.4
144
1.0000000000
145
0.0
146
1.0000000000
147
0.09
71
1
72
0
73
0
74
0
75
0
76
0
77
1
78
8
170
0
171
2
172
0
173
0
174
0
175
0
176
0
177
0
178
0
270
2
271
3
272
3
273
2
274
2
275
0
280
0
281
0
282
0
283
1
284
8
285
0
286
0
287
3
288
0
340
11
341
202
342
202
343
202
344
202
0
DIMSTYLE
105
218
100
AcDbSymbolTableRecord
100
AcDbDimStyleTableRecord
2
DIMSTYLE_8
70
0
3

4

40
1.0
41
3.5000000000
42
0.0625
43
0.38
44
0.18
45
0.0
46
0.0
47
0.0500000000
48
0.0500000000
140
3.5000000000
141
0.09
142
0.0
143
25.4
144
0.5000000000
145
0.0
146
1.0000000000
147
0.09
71
0
72
0
73
0
74
0
75
0
76
0
77
1
78
8
170
0
171
2
172
0
173
0
174
0
175
0
176
0
177
0
178
0
270
2
271
3
272
3
273
2
274
2
275
0
280
0
281
0
282
0
283
1
284
8
285
0
286
0
287
3
288
0
340
11
341
202
342
202
343
202
344
202
0
DIMSTYLE
105
219
100
AcDbSymbolTableRecord
100
AcDbDimStyleTableRecord
2
DIMSTYLE_9
70
0
3

4

40
1.0
41
3.5000000000
42
0.0625
43
0.38
44
0.18
45
0.0
46
0.0
47
0.1000000000
48
0.1000000000
140
3.5000000000
141
0.09
142
0.0
143
25.4
144
0.5000000000
145
0.0
146
1.0000000000
147
0.09
71
0
72
0
73
0
74
0
75
0
76
0
77
1
78
8
170
0
171
2
172
0
173
0
174
0
175
0
176
0
177
0
178
0
270
2
271
3
272
3
273
2
274
2
275
0
280
0
281
0
282
0
283
1
284
8
285
0
286
0
287
3
288
0
340
11
341
202
342
202
343
202
344
202
0
ENDTAB
0
ENDSEC
0
SECTION
2
BLOCKS
0
BLOCK
5
20
100
AcDbEntity
8
0
100
AcDbBlockBegin
2
*MODEL_SPACE
70
0
10
0.0
20
0.0
30
0.0
3
*MODEL_SPACE
1

0
ENDBLK
5
21
100
AcDbEntity
8
0
100
AcDbBlockEnd
0
BLOCK
5
1C
100
AcDbEntity
8
0
100
AcDbBlockBegin
2
*PAPER_SPACE
70
0
10
0.0
20
0.0
30
0.0
3
*PAPER_SPACE
1

0
ENDBLK
5
1D
100
AcDbEntity
8
0
100
AcDbBlockEnd
0
BLOCK
5
21A
100
AcDbEntity
8
0
100
AcDbBlockBegin
62
2
6
CONTINUOUS
2
*D0
70
65
10
0.0000000000
20
0.0000000000
3
*D0
1

0
TEXT
5
21B
100
AcDbEntity
8
0
100
AcDbText
62
2
6
CONTINUOUS
10
109.1901379268
20
270.9936531594
7
STANDARD
40
3.5000000000
1
1.1
50
90.0000000000
41
0.7143000000
72
0
100
AcDbText
0
LINE
5
21C
100
AcDbEntity
8
0
100
AcDbLine
62
2
6
CONTINUOUS
10
92.8901923886
20
265.2997470421
11
111.5651379268
21
265.2997470421
0
LINE
5
21D
100
AcDbEntity
8
0
100
AcDbLine
62
2
6
CONTINUOUS
10
92.0351903870
20
266.3997470421
11
111.5651379268
21
266.3997470421
0
LINE
5
21E
100
AcDbEntity
8
0
100
AcDbLine
62
2
6
CONTINUOUS
10
110.0651379268
20
265.2997470421
11
110.0651379268
21
257.2997470421
0
LINE
5
21F
100
AcDbEntity
8
0
100
AcDbLine
62
2
6
CONTINUOUS
10
110.0651379268
20
257.2997470421
11
110.0651379268
21
265.8497470421
0
LINE
5
220
100
AcDbEntity
8
0
100
AcDbLine
62
2
6
CONTINUOUS
10
110.0651379268
20
266.3997470421
11
110.0651379268
21
278.4938031594
0
LINE
5
221
100
AcDbEntity
8
0
100
AcDbLine
62
2
6
CONTINUOUS
10
110.0651379268
20
278.4938031594
11
110.0651379268
21
265.8497470421
0
INSERT
5
222
100
AcDbEntity
8
0
100
AcDbBlockReference
62
2
6
CONTINUOUS
2
_FILLED
10
110.0651379268
20
265.2997470421
41
  3.500000
42
  3.500000
43
  3.500000
50
 90.000000
0
INSERT
5
223
100
AcDbEntity
8
0
100
AcDbBlockReference
62
2
6
CONTINUOUS
2
_FILLED
10
110.0651379268
20
266.3997470421
41
  3.500000
42
  3.500000
43
  3.500000
50
270.000000
0
ENDBLK
5
224
100
AcDbEntity
8
0
6
BYBLOCK
62
0
100
AcDbBlockEnd
0
BLOCK
5
225
100
AcDbEntity
8
0
100
AcDbBlockBegin
62
2
6
CONTINUOUS
2
*D1
70
65
10
0.0000000000
20
0.0000000000
3
*D1
1

0
TEXT
5
226
100
AcDbEntity
8
0
100
AcDbText
62
2
6
CONTINUOUS
10
109.1901379268
20
251.3623151386
7
STANDARD
40
3.5000000000
1
21.4
50
90.0000000000
41
0.7143000000
72
0
100
AcDbText
0
LINE
5
227
100
AcDbEntity
8
0
100
AcDbLine
62
2
6
CONTINUOUS
10
92.8901923886
20
265.2997470421
11
111.5651379268
21
265.2997470421
0
LINE
5
228
100
AcDbEntity
8
0
100
AcDbLine
62
2
6
CONTINUOUS
10
98.6351903870
20
243.8997470421
11
111.5651379268
21
243.8997470421
0
LINE
5
229
100
AcDbEntity
8
0
100
AcDbLine
62
2
6
CONTINUOUS
10
110.0651379268
20
265.2997470421
11
110.0651379268
21
254.5997470421
0
LINE
5
22A
100
AcDbEntity
8
0
100
AcDbLine
62
2
6
CONTINUOUS
10
110.0651379268
20
243.8997470421
11
110.0651379268
21
254.5997470421
0
INSERT
5
22B
100
AcDbEntity
8
0
100
AcDbBlockReference
62
2
6
CONTINUOUS
2
_FILLED
10
110.0651379268
20
265.2997470421
41
  3.500000
42
  3.500000
43
  3.500000
50
 90.000000
0
INSERT
5
22C
100
AcDbEntity
8
0
100
AcDbBlockReference
62
2
6
CONTINUOUS
2
_FILLED
10
110.0651379268
20
243.8997470421
41
  3.500000
42
  3.500000
43
  3.500000
50
270.000000
0
ENDBLK
5
22D
100
AcDbEntity
8
0
6
BYBLOCK
62
0
100
AcDbBlockEnd
0
BLOCK
5
22E
100
AcDbEntity
8
0
100
AcDbBlockBegin
62
2
6
CONTINUOUS
2
*D2
70
65
10
0.0000000000
20
0.0000000000
3
*D2
1

0
TEXT
5
22F
100
AcDbEntity
8
0
100
AcDbText
62
2
6
CONTINUOUS
10
82.4230259245
20
274.2113750459
7
STANDARD
40
3.5000000000
1
12.6
41
0.7143000000
72
0
100
AcDbText
0
LINE
5
230
100
AcDbEntity
8
0
100
AcDbLine
62
2
6
CONTINUOUS
10
78.9351903870
20
266.7247470421
11
78.9351903870
21
274.8363750459
0
LINE
5
231
100
AcDbEntity
8
0
100
AcDbLine
62
2
6
CONTINUOUS
10
91.5351903870
20
266.7247470421
11
91.5351903870
21
274.8363750459
0
LINE
5
232
100
AcDbEntity
8
0
100
AcDbLine
62
2
6
CONTINUOUS
10
78.9351903870
20
273.3363750459
11
85.2351903870
21
273.3363750459
0
LINE
5
233
100
AcDbEntity
8
0
100
AcDbLine
62
2
6
CONTINUOUS
10
91.5351903870
20
273.3363750459
11
85.2351903870
21
273.3363750459
0
INSERT
5
234
100
AcDbEntity
8
0
100
AcDbBlockReference
62
2
6
CONTINUOUS
2
_FILLED
10
78.9351903870
20
273.3363750459
41
  3.500000
42
  3.500000
43
  3.500000
50
180.000000
0
INSERT
5
235
100
AcDbEntity
8
0
100
AcDbBlockReference
62
2
6
CONTINUOUS
2
_FILLED
10
91.5351903870
20
273.3363750459
41
  3.500000
42
  3.500000
43
  3.500000
0
ENDBLK
5
236
100
AcDbEntity
8
0
6
BYBLOCK
62
0
100
AcDbBlockEnd
0
BLOCK
5
237
100
AcDbEntity
8
0
100
AcDbBlockBegin
62
2
6
CONTINUOUS
2
*D3
70
65
10
0.0000000000
20
0.0000000000
3
*D3
1

0
TEXT
5
238
100
AcDbEntity
8
0
100
AcDbText
62
2
6
CONTINUOUS
10
56.0513183564
20
279.6748368997
7
STANDARD
40
3.5000000000
1
%%c
50
-58.9461245733
41
1.3333333333
72
0
100
AcDbText
0
TEXT
5
239
100
AcDbEntity
8
0
100
AcDbText
62
2
6
CONTINUOUS
10
58.4585896311
20
275.6769846278
7
STANDARD
40
3.5000000000
1
11
50
-58.9461245733
41
0.7143000000
72
0
100
AcDbText
0
LINE
5
23A
100
AcDbEntity
8
0
100
AcDbLine
62
2
6
CONTINUOUS
10
63.4980492418
20
265.6115015054
11
66.3351903870
21
260.8997470421
0
LINE
5
23B
100
AcDbEntity
8
0
100
AcDbLine
62
2
6
CONTINUOUS
10
66.3351903870
20
260.8997470421
11
55.3017210554
21
279.2234735356
0
LINE
5
23C
100
AcDbEntity
8
0
100
AcDbLine
62
2
6
CONTINUOUS
10
69.1723315322
20
256.1879925788
11
66.3351903870
21
260.8997470421
0
INSERT
5
23D
100
AcDbEntity
8
0
100
AcDbBlockReference
62
2
6
CONTINUOUS
2
_FILLED
10
63.4980492418
20
265.6115015054
41
  3.500000
42
  3.500000
43
  3.500000
50
121.053875
0
INSERT
5
23E
100
AcDbEntity
8
0
100
AcDbBlockReference
62
2
6
CONTINUOUS
2
_FILLED
10
69.1723315322
20
256.1879925788
41
  3.500000
42
  3.500000
43
  3.500000
50
301.053875
0
ENDBLK
5
23F
100
AcDbEntity
8
0
6
BYBLOCK
62
0
100
AcDbBlockEnd
0
BLOCK
5
240
100
AcDbEntity
8
0
100
AcDbBlockBegin
62
2
6
CONTINUOUS
2
*D4
70
65
10
0.0000000000
20
0.0000000000
3
*D4
1

0
TEXT
5
241
100
AcDbEntity
8
0
100
AcDbText
62
2
6
CONTINUOUS
10
64.7984271574
20
228.1729695431
7
STANDARD
40
3.5000000000
1
39
41
0.7143000000
72
0
100
AcDbText
0
LINE
5
242
100
AcDbEntity
8
0
100
AcDbLine
62
2
6
CONTINUOUS
10
85.2351903870
20
240.3997470421
11
85.2351903870
21
225.7979695431
0
LINE
5
243
100
AcDbEntity
8
0
100
AcDbLine
62
2
6
CONTINUOUS
10
46.2182222211
20
261.8056224952
11
46.2182222211
21
225.7979695431
0
LINE
5
244
100
AcDbEntity
8
0
100
AcDbLine
62
2
6
CONTINUOUS
10
85.2351903870
20
227.2979695431
11
65.7267063041
21
227.2979695431
0
LINE
5
245
100
AcDbEntity
8
0
100
AcDbLine
62
2
6
CONTINUOUS
10
46.2182222211
20
227.2979695431
11
65.7267063041
21
227.2979695431
0
INSERT
5
246
100
AcDbEntity
8
0
100
AcDbBlockReference
62
2
6
CONTINUOUS
2
_FILLED
10
85.2351903870
20
227.2979695431
41
  3.500000
42
  3.500000
43
  3.500000
0
INSERT
5
247
100
AcDbEntity
8
0
100
AcDbBlockReference
62
2
6
CONTINUOUS
2
_FILLED
10
46.2182222211
20
227.2979695431
41
  3.500000
42
  3.500000
43
  3.500000
50
180.000000
0
ENDBLK
5
248
100
AcDbEntity
8
0
6
BYBLOCK
62
0
100
AcDbBlockEnd
0
BLOCK
5
249
100
AcDbEntity
8
0
100
AcDbBlockBegin
62
2
6
CONTINUOUS
2
*D5
70
65
10
0.0000000000
20
0.0000000000
3
*D5
1

0
TEXT
5
24A
100
AcDbEntity
8
0
100
AcDbText
62
2
6
CONTINUOUS
10
54.8138836979
20
239.4251663703
7
STANDARD
40
3.5000000000
1
28.2
41
0.7143000000
72
0
100
AcDbText
0
LINE
5
24B
100
AcDbEntity
8
0
100
AcDbLine
62
2
6
CONTINUOUS
10
46.2182222211
20
261.8056224952
11
46.2182222211
21
237.0501663703
0
LINE
5
24C
100
AcDbEntity
8
0
100
AcDbLine
62
2
6
CONTINUOUS
10
74.4051903870
20
243.3997470421
11
74.4051903870
21
237.0501663703
0
LINE
5
24D
100
AcDbEntity
8
0
100
AcDbLine
62
2
6
CONTINUOUS
10
46.2182222211
20
238.5501663703
11
60.3117063041
21
238.5501663703
0
LINE
5
24E
100
AcDbEntity
8
0
100
AcDbLine
62
2
6
CONTINUOUS
10
74.4051903870
20
238.5501663703
11
60.3117063041
21
238.5501663703
0
INSERT
5
24F
100
AcDbEntity
8
0
100
AcDbBlockReference
62
2
6
CONTINUOUS
2
_FILLED
10
46.2182222211
20
238.5501663703
41
  3.500000
42
  3.500000
43
  3.500000
50
180.000000
0
INSERT
5
250
100
AcDbEntity
8
0
100
AcDbBlockReference
62
2
6
CONTINUOUS
2
_FILLED
10
74.4051903870
20
238.5501663703
41
  3.500000
42
  3.500000
43
  3.500000
0
ENDBLK
5
251
100
AcDbEntity
8
0
6
BYBLOCK
62
0
100
AcDbBlockEnd
0
BLOCK
5
252
100
AcDbEntity
8
0
100
AcDbBlockBegin
62
2
6
CONTINUOUS
2
*D6
70
65
10
0.0000000000
20
0.0000000000
3
*D6
1

0
TEXT
5
253
100
AcDbEntity
8
0
100
AcDbText
62
2
6
CONTINUOUS
10
63.9908505527
20
82.9631058517
7
STANDARD
40
3.5000000000
1
52.4
41
0.7143000000
72
0
100
AcDbText
0
LINE
5
254
100
AcDbEntity
8
0
100
AcDbLine
62
2
6
CONTINUOUS
10
46.2182222211
20
97.2967293273
11
46.2182222211
21
80.5881058517
0
LINE
5
255
100
AcDbEntity
8
0
100
AcDbLine
62
2
6
CONTINUOUS
10
98.6351903870
20
102.1969534440
11
98.6351903870
21
80.5881058517
0
LINE
5
256
100
AcDbEntity
8
0
100
AcDbLine
62
2
6
CONTINUOUS
10
46.2182222211
20
82.0881058517
11
72.4267063041
21
82.0881058517
0
LINE
5
257
100
AcDbEntity
8
0
100
AcDbLine
62
2
6
CONTINUOUS
10
98.6351903870
20
82.0881058517
11
72.4267063041
21
82.0881058517
0
INSERT
5
258
100
AcDbEntity
8
0
100
AcDbBlockReference
62
2
6
CONTINUOUS
2
_FILLED
10
46.2182222211
20
82.0881058517
41
  3.500000
42
  3.500000
43
  3.500000
50
180.000000
0
INSERT
5
259
100
AcDbEntity
8
0
100
AcDbBlockReference
62
2
6
CONTINUOUS
2
_FILLED
10
98.6351903870
20
82.0881058517
41
  3.500000
42
  3.500000
43
  3.500000
0
ENDBLK
5
25A
100
AcDbEntity
8
0
6
BYBLOCK
62
0
100
AcDbBlockEnd
0
BLOCK
5
25B
100
AcDbEntity
8
0
100
AcDbBlockBegin
62
2
6
CONTINUOUS
2
*D7
70
65
10
0.0000000000
20
0.0000000000
3
*D7
1

0
TEXT
5
25C
100
AcDbEntity
8
0
100
AcDbText
62
2
6
CONTINUOUS
10
126.4437664564
20
151.3180601118
7
STANDARD
40
3.5000000000
1
115
50
90.0000000000
41
0.7143000000
72
0
100
AcDbText
0
LINE
5
25D
100
AcDbEntity
8
0
100
AcDbLine
62
2
6
CONTINUOUS
10
92.8901923886
20
96.7969534440
11
128.8187664564
21
96.7969534440
0
LINE
5
25E
100
AcDbEntity
8
0
100
AcDbLine
62
2
6
CONTINUOUS
10
91.2901923886
20
211.7969534440
11
128.8187664564
21
211.7969534440
0
LINE
5
25F
100
AcDbEntity
8
0
100
AcDbLine
62
2
6
CONTINUOUS
10
127.3187664564
20
96.7969534440
11
127.3187664564
21
154.2969534440
0
LINE
5
260
100
AcDbEntity
8
0
100
AcDbLine
62
2
6
CONTINUOUS
10
127.3187664564
20
211.7969534440
11
127.3187664564
21
154.2969534440
0
INSERT
5
261
100
AcDbEntity
8
0
100
AcDbBlockReference
62
2
6
CONTINUOUS
2
_FILLED
10
127.3187664564
20
96.7969534440
41
  3.500000
42
  3.500000
43
  3.500000
50
270.000000
0
INSERT
5
262
100
AcDbEntity
8
0
100
AcDbBlockReference
62
2
6
CONTINUOUS
2
_FILLED
10
127.3187664564
20
211.7969534440
41
  3.500000
42
  3.500000
43
  3.500000
50
 90.000000
0
ENDBLK
5
263
100
AcDbEntity
8
0
6
BYBLOCK
62
0
100
AcDbBlockEnd
0
BLOCK
5
264
100
AcDbEntity
8
0
100
AcDbBlockBegin
62
2
6
CONTINUOUS
2
*D8
70
65
10
0.0000000000
20
0.0000000000
3
*D8
1

0
TEXT
5
265
100
AcDbEntity
8
0
100
AcDbText
62
2
6
CONTINUOUS
10
112.9585071571
20
149.2102894964
7
STANDARD
40
3.5000000000
1
97
50
90.0000000000
41
0.7143000000
72
0
100
AcDbText
0
TEXT
5
266
100
AcDbEntity
8
0
100
AcDbText
62
2
6
CONTINUOUS
10
112.9585071571
20
154.2103894964
7
STANDARD
40
3.5000000000
1
%%p
50
90.0000000000
41
1.1666666667
72
0
100
AcDbText
0
TEXT
5
267
100
AcDbEntity
8
0
100
AcDbText
62
2
6
CONTINUOUS
10
112.9585071571
20
158.2937228297
7
STANDARD
40
3.5000000000
1
1
50
90.0000000000
41
0.7143000000
72
0
100
AcDbText
0
LINE
5
268
100
AcDbEntity
8
0
100
AcDbLine
62
2
6
CONTINUOUS
10
95.7851903870
20
202.8969534440
11
115.3335071571
21
202.8969534440
0
LINE
5
269
100
AcDbEntity
8
0
100
AcDbLine
62
2
6
CONTINUOUS
10
95.7851903870
20
105.8969534440
11
115.3335071571
21
105.8969534440
0
LINE
5
26A
100
AcDbEntity
8
0
100
AcDbLine
62
2
6
CONTINUOUS
10
113.8335071571
20
202.8969534440
11
113.8335071571
21
154.3969534440
0
LINE
5
26B
100
AcDbEntity
8
0
100
AcDbLine
62
2
6
CONTINUOUS
10
113.8335071571
20
105.8969534440
11
113.8335071571
21
154.3969534440
0
INSERT
5
26C
100
AcDbEntity
8
0
100
AcDbBlockReference
62
2
6
CONTINUOUS
2
_FILLED
10
113.8335071571
20
202.8969534440
41
  3.500000
42
  3.500000
43
  3.500000
50
 90.000000
0
INSERT
5
26D
100
AcDbEntity
8
0
100
AcDbBlockReference
62
2
6
CONTINUOUS
2
_FILLED
10
113.8335071571
20
105.8969534440
41
  3.500000
42
  3.500000
43
  3.500000
50
270.000000
0
ENDBLK
5
26E
100
AcDbEntity
8
0
6
BYBLOCK
62
0
100
AcDbBlockEnd
0
BLOCK
5
26F
100
AcDbEntity
8
0
100
AcDbBlockBegin
62
2
6
CONTINUOUS
2
*D9
70
65
10
0.0000000000
20
0.0000000000
3
*D9
1

0
TEXT
5
270
100
AcDbEntity
8
0
100
AcDbText
62
2
6
CONTINUOUS
10
189.3952407947
20
225.8962262701
7
STANDARD
40
3.5000000000
1
3.5
50
90.0000000000
41
0.7143000000
72
0
100
AcDbText
0
LINE
5
271
100
AcDbEntity
8
0
100
AcDbLine
62
2
6
CONTINUOUS
10
170.2084518400
20
246.8147208122
11
191.7702407947
21
246.8147208122
0
LINE
5
272
100
AcDbEntity
8
0
100
AcDbLine
62
2
6
CONTINUOUS
10
170.2084518400
20
239.8147208122
11
191.7702407947
21
239.8147208122
0
LINE
5
273
100
AcDbEntity
8
0
100
AcDbLine
62
2
6
CONTINUOUS
10
190.2702407947
20
246.8147208122
11
190.2702407947
21
254.8147208122
0
LINE
5
274
100
AcDbEntity
8
0
100
AcDbLine
62
2
6
CONTINUOUS
10
190.2702407947
20
254.8147208122
11
190.2702407947
21
243.3147208122
0
LINE
5
275
100
AcDbEntity
8
0
100
AcDbLine
62
2
6
CONTINUOUS
10
190.2702407947
20
239.8147208122
11
190.2702407947
21
225.8962262701
0
LINE
5
276
100
AcDbEntity
8
0
100
AcDbLine
62
2
6
CONTINUOUS
10
190.2702407947
20
225.8962262701
11
190.2702407947
21
243.3147208122
0
INSERT
5
277
100
AcDbEntity
8
0
100
AcDbBlockReference
62
2
6
CONTINUOUS
2
_FILLED
10
190.2702407947
20
246.8147208122
41
  3.500000
42
  3.500000
43
  3.500000
50
270.000000
0
INSERT
5
278
100
AcDbEntity
8
0
100
AcDbBlockReference
62
2
6
CONTINUOUS
2
_FILLED
10
190.2702407947
20
239.8147208122
41
  3.500000
42
  3.500000
43
  3.500000
50
 90.000000
0
ENDBLK
5
279
100
AcDbEntity
8
0
6
BYBLOCK
62
0
100
AcDbBlockEnd
0
BLOCK
5
27A
100
AcDbEntity
8
0
100
AcDbBlockBegin
62
2
6
CONTINUOUS
2
*D10
70
65
10
0.0000000000
20
0.0000000000
3
*D10
1

0
TEXT
5
27B
100
AcDbEntity
8
0
100
AcDbText
62
2
6
CONTINUOUS
10
189.3952407947
20
257.2155659770
7
STANDARD
40
3.5000000000
1
4
50
90.0000000000
41
0.7143000000
72
0
100
AcDbText
0
LINE
5
27C
100
AcDbEntity
8
0
100
AcDbLine
62
2
6
CONTINUOUS
10
170.2084518400
20
246.8147208122
11
191.7702407947
21
246.8147208122
0
LINE
5
27D
100
AcDbEntity
8
0
100
AcDbLine
62
2
6
CONTINUOUS
10
174.2084518400
20
254.8147208122
11
191.7702407947
21
254.8147208122
0
LINE
5
27E
100
AcDbEntity
8
0
100
AcDbLine
62
2
6
CONTINUOUS
10
190.2702407947
20
246.8147208122
11
190.2702407947
21
250.8147208122
0
LINE
5
27F
100
AcDbEntity
8
0
100
AcDbLine
62
2
6
CONTINUOUS
10
190.2702407947
20
254.8147208122
11
190.2702407947
21
250.8147208122
0
LINE
5
280
100
AcDbEntity
8
0
100
AcDbLine
62
2
6
CONTINUOUS
10
190.2702407947
20
250.8147208122
11
190.2702407947
21
259.7156159770
0
INSERT
5
281
100
AcDbEntity
8
0
100
AcDbBlockReference
62
2
6
CONTINUOUS
2
_FILLED
10
190.2702407947
20
246.8147208122
41
  3.500000
42
  3.500000
43
  3.500000
50
270.000000
0
INSERT
5
282
100
AcDbEntity
8
0
100
AcDbBlockReference
62
2
6
CONTINUOUS
2
_FILLED
10
190.2702407947
20
254.8147208122
41
  3.500000
42
  3.500000
43
  3.500000
50
 90.000000
0
ENDBLK
5
283
100
AcDbEntity
8
0
6
BYBLOCK
62
0
100
AcDbBlockEnd
0
BLOCK
5
284
100
AcDbEntity
8
0
100
AcDbBlockBegin
62
2
6
CONTINUOUS
2
*D11
70
65
10
0.0000000000
20
0.0000000000
3
*D11
1

0
TEXT
5
285
100
AcDbEntity
8
0
100
AcDbText
62
2
6
CONTINUOUS
10
158.1743646860
20
271.7899862145
7
STANDARD
40
3.5000000000
1
11.5
41
0.7143000000
72
0
100
AcDbText
0
LINE
5
286
100
AcDbEntity
8
0
100
AcDbLine
62
2
6
CONTINUOUS
10
151.7084518400
20
254.3147208122
11
151.7084518400
21
272.4149862145
0
LINE
5
287
100
AcDbEntity
8
0
100
AcDbLine
62
2
6
CONTINUOUS
10
174.7084518400
20
254.3147208122
11
174.7084518400
21
272.4149862145
0
LINE
5
288
100
AcDbEntity
8
0
100
AcDbLine
62
2
6
CONTINUOUS
10
151.7084518400
20
270.9149862145
11
163.2084518400
21
270.9149862145
0
LINE
5
289
100
AcDbEntity
8
0
100
AcDbLine
62
2
6
CONTINUOUS
10
174.7084518400
20
270.9149862145
11
163.2084518400
21
270.9149862145
0
INSERT
5
28A
100
AcDbEntity
8
0
100
AcDbBlockReference
62
2
6
CONTINUOUS
2
_FILLED
10
151.7084518400
20
270.9149862145
41
  3.500000
42
  3.500000
43
  3.500000
50
180.000000
0
INSERT
5
28B
100
AcDbEntity
8
0
100
AcDbBlockReference
62
2
6
CONTINUOUS
2
_FILLED
10
174.7084518400
20
270.9149862145
41
  3.500000
42
  3.500000
43
  3.500000
0
ENDBLK
5
28C
100
AcDbEntity
8
0
6
BYBLOCK
62
0
100
AcDbBlockEnd
0
BLOCK
5
28D
100
AcDbEntity
8
0
100
AcDbBlockBegin
62
2
6
CONTINUOUS
2
*D12
70
65
10
0.0000000000
20
0.0000000000
3
*D12
1

0
TEXT
5
28E
100
AcDbEntity
8
0
100
AcDbText
62
2
6
CONTINUOUS
10
159.9661746672
20
232.1622847364
7
STANDARD
40
3.5000000000
1
6.5
41
0.7143000000
72
0
100
AcDbText
0
LINE
5
28F
100
AcDbEntity
8
0
100
AcDbLine
62
2
6
CONTINUOUS
10
156.7084518400
20
240.3147208122
11
156.7084518400
21
229.7872847364
0
LINE
5
290
100
AcDbEntity
8
0
100
AcDbLine
62
2
6
CONTINUOUS
10
169.7084518400
20
240.3147208122
11
169.7084518400
21
229.7872847364
0
LINE
5
291
100
AcDbEntity
8
0
100
AcDbLine
62
2
6
CONTINUOUS
10
156.7084518400
20
231.2872847364
11
163.2084518400
21
231.2872847364
0
LINE
5
292
100
AcDbEntity
8
0
100
AcDbLine
62
2
6
CONTINUOUS
10
169.7084518400
20
231.2872847364
11
163.2084518400
21
231.2872847364
0
INSERT
5
293
100
AcDbEntity
8
0
100
AcDbBlockReference
62
2
6
CONTINUOUS
2
_FILLED
10
156.7084518400
20
231.2872847364
41
  3.500000
42
  3.500000
43
  3.500000
50
180.000000
0
INSERT
5
294
100
AcDbEntity
8
0
100
AcDbBlockReference
62
2
6
CONTINUOUS
2
_FILLED
10
169.7084518400
20
231.2872847364
41
  3.500000
42
  3.500000
43
  3.500000
0
ENDBLK
5
295
100
AcDbEntity
8
0
6
BYBLOCK
62
0
100
AcDbBlockEnd
0
BLOCK
5
296
100
AcDbEntity
8
0
100
AcDbBlockBegin
2
_FILLED
70
64
10
0.0000000000
20
0.0000000000
3
_FILLED
1

0
SOLID
5
297
100
AcDbEntity
8
0
6
BYBLOCK
62
0
100
AcDbTrace
10
0.0000000000
20
0.0000000000
11
-1.0000000000
21
0.1857142857
12
-1.0000000000
22
-0.1857142857
13
-1.0000000000
23
-0.1857142857
0
ENDBLK
5
298
100
AcDbEntity
8
0
6
BYBLOCK
62
0
100
AcDbBlockEnd
0
ENDSEC
0
SECTION
2
ENTITIES
0
DIMENSION
5
299
100
AcDbEntity
8
0
100
AcDbDimension
62
2
6
CONTINUOUS
2
*D0
10
110.0651379268
20
266.3997470421
11
107.4401379268
21
274.7437281594
70
160
42
1.100000
3
DIMSTYLE_1
100
AcDbAlignedDimension
13
92.8901923886
23
265.2997470421
14
92.0351903870
24
266.3997470421
50
90.000000
100
AcDbRotatedDimension
0
DIMENSION
5
29A
100
AcDbEntity
8
0
100
AcDbDimension
62
2
6
CONTINUOUS
2
*D1
10
110.0651379268
20
243.8997470421
11
107.4401379268
21
256.3624151386
70
160
42
21.400000
3
DIMSTYLE_2
100
AcDbAlignedDimension
13
92.8901923886
23
265.2997470421
14
98.6351903870
24
243.8997470421
50
270.000000
100
AcDbRotatedDimension
0
DIMENSION
5
29B
100
AcDbEntity
8
0
100
AcDbDimension
62
2
6
CONTINUOUS
2
*D2
10
91.5351903870
20
273.3363750459
11
87.4231259245
21
275.9613750459
70
160
42
12.600000
3
DIMSTYLE_2
100
AcDbAlignedDimension
13
78.9351903870
23
266.7247470421
14
91.5351903870
24
266.7247470421
100
AcDbRotatedDimension
0
DIMENSION
5
29C
100
AcDbEntity
8
0
100
AcDbDimension
62
2
6
CONTINUOUS
2
*D3
10
63.4980492418
20
265.6115015054
11
60.0437839994
21
276.4368880834
70
163
42
11.000000
1
<>
3
DIMSTYLE_3
100
AcDbDiametricDimension
15
69.1723315322
25
256.1879925788
0
DIMENSION
5
29D
100
AcDbEntity
8
0
100
AcDbDimension
62
2
6
CONTINUOUS
2
*D4
10
46.2182222211
20
227.2979695431
11
67.2984771574
21
229.9229695431
70
160
42
39.016968
3
DIMSTYLE_4
100
AcDbAlignedDimension
13
85.2351903870
23
240.3997470421
14
46.2182222211
24
261.8056224952
50
180.000000
100
AcDbRotatedDimension
0
DIMENSION
5
29E
100
AcDbEntity
8
0
100
AcDbDimension
62
2
6
CONTINUOUS
2
*D5
10
74.4051903870
20
238.5501663703
11
59.8139836979
21
241.1751663703
70
160
42
28.186968
3
DIMSTYLE_5
100
AcDbAlignedDimension
13
46.2182222211
23
261.8056224952
14
74.4051903870
24
243.3997470421
100
AcDbRotatedDimension
0
DIMENSION
5
29F
100
AcDbEntity
8
0
100
AcDbDimension
62
2
6
CONTINUOUS
2
*D6
10
98.6351903870
20
82.0881058517
11
68.9909505527
21
84.7131058517
70
160
42
52.416968
3
DIMSTYLE_4
100
AcDbAlignedDimension
13
46.2182222211
23
97.2967293273
14
98.6351903870
24
102.1969534440
100
AcDbRotatedDimension
0
DIMENSION
5
2A0
100
AcDbEntity
8
0
100
AcDbDimension
62
2
6
CONTINUOUS
2
*D7
10
127.3187664564
20
211.7969534440
11
124.6937664564
21
155.0681351118
70
160
42
115.000000
3
DIMSTYLE_6
100
AcDbAlignedDimension
13
92.8901923886
23
96.7969534440
14
91.2901923886
24
211.7969534440
50
90.000000
100
AcDbRotatedDimension
0
DIMENSION
5
2A1
100
AcDbEntity
8
0
100
AcDbDimension
62
2
6
CONTINUOUS
2
*D8
10
113.8335071571
20
105.8969534440
11
111.2085071571
21
155.0020311631
70
160
42
97.000000
3
DIMSTYLE_7
100
AcDbAlignedDimension
13
95.7851903870
23
202.8969534440
14
95.7851903870
24
105.8969534440
50
270.000000
100
AcDbRotatedDimension
0
DIMENSION
5
2A2
100
AcDbEntity
8
0
100
AcDbDimension
62
2
6
CONTINUOUS
2
*D9
10
190.2702407947
20
239.8147208122
11
187.6452407947
21
229.6463012701
70
160
42
3.500000
3
DIMSTYLE_8
100
AcDbAlignedDimension
13
170.2084518400
23
246.8147208122
14
170.2084518400
24
239.8147208122
50
270.000000
100
AcDbRotatedDimension
0
DIMENSION
5
2A3
100
AcDbEntity
8
0
100
AcDbDimension
62
2
6
CONTINUOUS
2
*D10
10
190.2702407947
20
254.8147208122
11
187.6452407947
21
258.4655909770
70
160
42
4.000000
3
DIMSTYLE_8
100
AcDbAlignedDimension
13
170.2084518400
23
246.8147208122
14
174.2084518400
24
254.8147208122
50
90.000000
100
AcDbRotatedDimension
0
DIMENSION
5
2A4
100
AcDbEntity
8
0
100
AcDbDimension
62
2
6
CONTINUOUS
2
*D11
10
174.7084518400
20
270.9149862145
11
163.1744646860
21
273.5399862145
70
160
42
11.500000
3
DIMSTYLE_9
100
AcDbAlignedDimension
13
151.7084518400
23
254.3147208122
14
174.7084518400
24
254.3147208122
100
AcDbRotatedDimension
0
DIMENSION
5
2A5
100
AcDbEntity
8
0
100
AcDbDimension
62
2
6
CONTINUOUS
2
*D12
10
169.7084518400
20
231.2872847364
11
163.7162496672
21
233.9122847364
70
160
42
6.500000
3
DIMSTYLE_9
100
AcDbAlignedDimension
13
156.7084518400
23
240.3147208122
14
169.7084518400
24
240.3147208122
100
AcDbRotatedDimension
0
MTEXT
5
2A6
100
AcDbEntity
8
0
100
AcDbMText
62
2
6
CONTINUOUS
7
STANDARD
71
1
72
1
10
97.8409629257
20
238.4557900986
30
0.0000000000
11
1.0000000000
21
0.0000000000
31
0.0000000000
1
VEDI DETTAGLIO A
40
3.5000000000
41
40.0008000000
0
LINE
5
2A7
100
AcDbEntity
8
0
100
AcDbLine
62
2
6
CONTINUOUS
10
93.0523940123
20
239.9943590120
11
96.3409629257
21
236.7057900986
0
LINE
5
2A8
100
AcDbEntity
8
0
100
AcDbLine
62
2
6
CONTINUOUS
10
96.3409629257
20
236.7057900986
11
97.8409629257
21
236.7057900986
0
SOLID
5
2A9
100
AcDbEntity
8
0
100
AcDbTrace
62
2
6
CONTINUOUS
10
95.9868871542
20
237.9791046856
11
93.0523940123
21
239.9943590120
12
95.0676483387
22
237.0598658701
13
95.0676483387
23
237.0598658701
0
MTEXT
5
2AA
100
AcDbEntity
8
0
100
AcDbMText
62
2
6
CONTINUOUS
7
STANDARD
71
1
72
1
10
156.2739114261
20
219.4719762986
30
0.0000000000
11
1.0000000000
21
0.0000000000
31
0.0000000000
1
DETTAGLIO A\PSCALA 2/1
40
3.5000000000
41
27.5005500000
0
LINE
5
2AB
100
AcDbEntity
8
0
100
AcDbLine
62
7
6
CONTINUOUS
10
0.0000000000
20
0.0000000000
11
210.0000000000
21
0.0000000000
0
LINE
5
2AC
100
AcDbEntity
8
0
100
AcDbLine
62
7
6
CONTINUOUS
10
0.0000000000
20
0.0000000000
11
0.0000000000
21
297.0000000000
0
LINE
5
2AD
100
AcDbEntity
8
0
100
AcDbLine
62
7
6
CONTINUOUS
10
210.0000000000
20
0.0000000000
11
210.0000000000
21
297.0000000000
0
LINE
5
2AE
100
AcDbEntity
8
0
100
AcDbLine
62
7
6
CONTINUOUS
10
0.0000000000
20
297.0000000000
11
210.0000000000
21
297.0000000000
0
LINE
5
2AF
100
AcDbEntity
8
0
100
AcDbLine
62
7
6
CONTINUOUS
10
47.6662077137
20
261.9699147248
11
47.4959431228
21
261.4997977510
0
LINE
5
2B0
100
AcDbEntity
8
0
100
AcDbLine
62
7
6
CONTINUOUS
10
74.6193715695
20
243.8997470421
11
99.3351903870
21
243.8997470421
0
LINE
5
2B1
100
AcDbEntity
8
0
100
AcDbLine
62
7
6
CONTINUOUS
10
74.6193715695
20
244.3997470421
11
81.9851903870
21
244.3997470421
0
LINE
5
2B2
100
AcDbEntity
8
0
100
AcDbLine
62
7
6
CONTINUOUS
10
88.4851903870
20
244.3997470421
11
99.8351903870
21
244.3997470421
0
LINE
5
2B3
100
AcDbEntity
8
0
100
AcDbLine
62
7
6
CONTINUOUS
10
79.9851903870
20
247.3997470421
11
90.4851903870
21
247.3997470421
0
LINE
5
2B4
100
AcDbEntity
8
DEFAULT_1
100
AcDbLine
62
2
6
CENTER
10
66.3351903870
20
260.8997470421
11
66.3351903870
21
255.5747470421
0
LINE
5
2B5
100
AcDbEntity
8
DEFAULT_1
100
AcDbLine
62
2
6
CENTER
10
66.3351903870
20
260.8997470421
11
66.3351903870
21
266.2247470421
0
LINE
5
2B6
100
AcDbEntity
8
0
100
AcDbLine
62
7
6
CONTINUOUS
10
79.4851903870
20
247.8997470421
11
90.9851903870
21
247.8997470421
0
LINE
5
2B7
100
AcDbEntity
8
0
100
AcDbLine
62
7
6
CONTINUOUS
10
79.4851903870
20
250.8997470421
11
90.9851903870
21
250.8997470421
0
LINE
5
2B8
100
AcDbEntity
8
0
100
AcDbLine
62
7
6
CONTINUOUS
10
90.4851903870
20
251.3997470421
11
79.9851903870
21
251.3997470421
0
LINE
5
2B9
100
AcDbEntity
8
0
100
AcDbLine
62
7
6
CONTINUOUS
10
73.9123867104
20
264.2997470421
11
73.9123867104
21
265.2997470421
0
LINE
5
2BA
100
AcDbEntity
8
0
100
AcDbLine
62
7
6
CONTINUOUS
10
74.6193715695
20
244.3997470421
11
74.6193715695
21
243.8997470421
0
LINE
5
2BB
100
AcDbEntity
8
DEFAULT_1
100
AcDbLine
62
2
6
CENTER
10
78.9351903870
20
260.8997470421
11
78.9351903870
21
255.5747470421
0
LINE
5
2BC
100
AcDbEntity
8
DEFAULT_1
100
AcDbLine
62
2
6
CENTER
10
78.9351903870
20
260.8997470421
11
78.9351903870
21
266.2247470421
0
LINE
5
2BD
100
AcDbEntity
8
DEFAULT_1
100
AcDbLine
62
2
6
CENTER
10
91.5351903870
20
260.8997470421
11
86.2101903870
21
260.8997470421
0
LINE
5
2BE
100
AcDbEntity
8
DEFAULT_1
100
AcDbLine
62
2
6
CENTER
10
78.9351903870
20
260.8997470421
11
73.6101903870
21
260.8997470421
0
LINE
5
2BF
100
AcDbEntity
8
DEFAULT_1
100
AcDbLine
62
2
6
CENTER
10
66.3351903870
20
260.8997470421
11
61.0101903870
21
260.8997470421
0
LINE
5
2C0
100
AcDbEntity
8
DEFAULT_1
100
AcDbLine
62
2
6
CENTER
10
66.3351903870
20
260.8997470421
11
71.6601903870
21
260.8997470421
0
LINE
5
2C1
100
AcDbEntity
8
DEFAULT_1
100
AcDbLine
62
2
6
CENTER
10
78.9351903870
20
260.8997470421
11
84.2601903870
21
260.8997470421
0
LINE
5
2C2
100
AcDbEntity
8
DEFAULT_1
100
AcDbLine
62
2
6
CENTER
10
91.5351903870
20
260.8997470421
11
96.8601903870
21
260.8997470421
0
LINE
5
2C3
100
AcDbEntity
8
0
100
AcDbLine
62
7
6
CONTINUOUS
10
79.4851903870
20
250.8997470421
11
79.4851903870
21
247.8997470421
0
LINE
5
2C4
100
AcDbEntity
8
0
100
AcDbLine
62
7
6
CONTINUOUS
10
79.7351903870
20
247.8997470421
11
79.7351903870
21
250.8997470421
0
LINE
5
2C5
100
AcDbEntity
8
0
100
AcDbLine
62
7
6
CONTINUOUS
10
81.9851903870
20
243.8997470421
11
81.9851903870
21
247.3997470421
0
LINE
5
2C6
100
AcDbEntity
8
0
100
AcDbLine
62
7
6
CONTINUOUS
10
74.6193715695
20
244.3997470421
11
74.2579497887
21
244.0542411864
0
LINE
5
2C7
100
AcDbEntity
8
0
100
AcDbLine
62
7
6
CONTINUOUS
10
98.1351903870
20
263.4103792232
11
98.6351903870
21
263.4103792232
0
LINE
5
2C8
100
AcDbEntity
8
0
100
AcDbLine
62
7
6
CONTINUOUS
10
99.8351903870
20
263.7997470421
11
98.6351903870
21
263.7997470421
0
LINE
5
2C9
100
AcDbEntity
8
0
100
AcDbLine
62
7
6
CONTINUOUS
10
99.3351903870
20
264.2997470421
11
98.4753776178
21
264.2997470421
0
LINE
5
2CA
100
AcDbEntity
8
0
100
AcDbLine
62
7
6
CONTINUOUS
10
92.3901923886
20
264.2997470421
11
73.9123867104
21
264.2997470421
0
LINE
5
2CB
100
AcDbEntity
8
0
100
AcDbLine
62
7
6
CONTINUOUS
10
92.3901923886
20
265.2997470421
11
73.9123867104
21
265.2997470421
0
LINE
5
2CC
100
AcDbEntity
8
DEFAULT_1
100
AcDbLine
62
2
6
CENTER
10
85.2351903870
20
247.8997470421
11
85.2351903870
21
240.8997470421
0
LINE
5
2CD
100
AcDbEntity
8
0
100
AcDbLine
62
7
6
CONTINUOUS
10
85.2351903870
20
247.8997470421
11
85.2351903870
21
250.8997470421
0
LINE
5
2CE
100
AcDbEntity
8
0
100
AcDbLine
62
7
6
CONTINUOUS
10
88.4851903870
20
243.8997470421
11
88.4851903870
21
247.3997470421
0
LINE
5
2CF
100
AcDbEntity
8
0
100
AcDbLine
62
7
6
CONTINUOUS
10
90.7351903870
20
250.8997470421
11
90.7351903870
21
247.8997470421
0
LINE
5
2D0
100
AcDbEntity
8
0
100
AcDbLine
62
7
6
CONTINUOUS
10
90.9851903870
20
250.8997470421
11
90.9851903870
21
247.8997470421
0
LINE
5
2D1
100
AcDbEntity
8
DEFAULT_1
100
AcDbLine
62
2
6
CENTER
10
91.5351903870
20
260.8997470421
11
91.5351903870
21
255.5747470421
0
LINE
5
2D2
100
AcDbEntity
8
DEFAULT_1
100
AcDbLine
62
2
6
CENTER
10
91.5351903870
20
260.8997470421
11
91.5351903870
21
266.2247470421
0
LINE
5
2D3
100
AcDbEntity
8
0
100
AcDbLine
62
7
6
CONTINUOUS
10
92.3901923886
20
264.2997470421
11
92.3901923886
21
265.2997470421
0
LINE
5
2D4
100
AcDbEntity
8
0
100
AcDbLine
62
7
6
CONTINUOUS
10
98.1351903870
20
243.8997470421
11
98.1351903870
21
263.4103792232
0
LINE
5
2D5
100
AcDbEntity
8
0
100
AcDbLine
62
7
6
CONTINUOUS
10
98.6351903870
20
244.3997470421
11
98.6351903870
21
263.9342579828
0
LINE
5
2D6
100
AcDbEntity
8
0
100
AcDbLine
62
7
6
CONTINUOUS
10
99.1641803154
20
263.7997470421
11
99.1641803154
21
244.3997470421
0
LINE
5
2D7
100
AcDbEntity
8
0
100
AcDbLine
62
7
6
CONTINUOUS
10
99.8351903870
20
263.7997470421
11
99.8351903870
21
244.3997470421
0
LINE
5
2D8
100
AcDbEntity
8
0
100
AcDbLine
62
7
6
CONTINUOUS
10
98.1351903870
20
96.7969534440
11
47.6662077360
21
96.7969534440
0
LINE
5
2D9
100
AcDbEntity
8
0
100
AcDbLine
62
7
6
CONTINUOUS
10
46.6272718382
20
97.7969534440
11
98.6351903870
21
97.7969534440
0
LINE
5
2DA
100
AcDbEntity
8
0
100
AcDbLine
62
7
6
CONTINUOUS
10
95.2055749511
20
98.9191167445
11
95.6351903870
21
98.9191167445
0
LINE
5
2DB
100
AcDbEntity
8
0
100
AcDbLine
62
7
6
CONTINUOUS
10
95.2055749511
20
101.0747901434
11
95.6351903870
21
101.0747901413
0
LINE
5
2DC
100
AcDbEntity
8
0
100
AcDbLine
62
7
6
CONTINUOUS
10
58.6056757071
20
101.1969534440
11
64.5824359087
21
101.1969534440
0
LINE
5
2DD
100
AcDbEntity
8
0
100
AcDbLine
62
7
6
CONTINUOUS
10
67.6518992692
20
101.1969534440
11
78.0463709453
21
101.1969534440
0
LINE
5
2DE
100
AcDbEntity
8
0
100
AcDbLine
62
7
6
CONTINUOUS
10
79.8240098287
20
101.1969534440
11
88.8894390760
21
101.1969534440
0
LINE
5
2DF
100
AcDbEntity
8
0
100
AcDbLine
62
7
6
CONTINUOUS
10
98.2824980280
20
101.4110274473
11
98.6351903870
21
101.4110274473
0
LINE
5
2E0
100
AcDbEntity
8
0
100
AcDbLine
62
7
6
CONTINUOUS
10
64.6135357447
20
101.6969534440
11
58.6566980771
21
101.6969534440
0
LINE
5
2E1
100
AcDbEntity
8
0
100
AcDbLine
62
7
6
CONTINUOUS
10
67.6727675607
20
101.6969534440
11
78.0463707335
21
101.6969534440
0
LINE
5
2E2
100
AcDbEntity
8
0
100
AcDbLine
62
7
6
CONTINUOUS
10
79.8240098287
20
101.6969534440
11
88.8894390758
21
101.6969534440
0
LINE
5
2E3
100
AcDbEntity
8
0
100
AcDbLine
62
7
6
CONTINUOUS
10
62.8351903870
20
102.1969534440
11
69.8351903870
21
102.1969534440
0
LINE
5
2E4
100
AcDbEntity
8
0
100
AcDbLine
62
7
6
CONTINUOUS
10
75.4351903870
20
102.1969534440
11
82.4351903870
21
102.1969534440
0
LINE
5
2E5
100
AcDbEntity
8
0
100
AcDbLine
62
7
6
CONTINUOUS
10
88.0351903870
20
102.1969534440
11
91.5351903870
21
102.1969534440
0
LINE
5
2E6
100
AcDbEntity
8
0
100
AcDbLine
62
7
6
CONTINUOUS
10
58.8351903870
20
102.6969534440
11
55.4662680131
21
102.6969534440
0
LINE
5
2E7
100
AcDbEntity
8
0
100
AcDbLine
62
7
6
CONTINUOUS
10
62.8351903870
20
102.6969534440
11
69.8351903870
21
102.6969534440
0
LINE
5
2E8
100
AcDbEntity
8
0
100
AcDbLine
62
7
6
CONTINUOUS
10
75.4351903870
20
102.6969534440
11
82.4351903870
21
102.6969534440
0
LINE
5
2E9
100
AcDbEntity
8
0
100
AcDbLine
62
7
6
CONTINUOUS
10
88.0351903870
20
102.6969534440
11
98.6351903870
21
102.6969534440
0
LINE
5
2EA
100
AcDbEntity
8
0
100
AcDbLine
62
7
6
CONTINUOUS
10
81.9351903870
20
103.1969534440
11
75.9351903870
21
103.1969534440
0
LINE
5
2EB
100
AcDbEntity
8
0
100
AcDbLine
62
7
6
CONTINUOUS
10
69.3351903870
20
103.1969534440
11
63.3351903870
21
103.1969534440
0
LINE
5
2EC
100
AcDbEntity
8
0
100
AcDbLine
62
7
6
CONTINUOUS
10
88.5351903870
20
103.1969534440
11
98.1351903870
21
103.1969534440
0
LINE
5
2ED
100
AcDbEntity
8
0
100
AcDbLine
62
7
6
CONTINUOUS
10
62.5851903870
20
105.8969534440
11
70.0851903870
21
105.8969534440
0
LINE
5
2EE
100
AcDbEntity
8
0
100
AcDbLine
62
7
6
CONTINUOUS
10
75.1851903870
20
105.8969534440
11
82.6851903870
21
105.8969534440
0
LINE
5
2EF
100
AcDbEntity
8
0
100
AcDbLine
62
7
6
CONTINUOUS
10
87.7851903870
20
105.8969534440
11
95.2851903870
21
105.8969534440
0
LINE
5
2F0
100
AcDbEntity
8
0
100
AcDbLine
62
7
6
CONTINUOUS
10
60.8351903870
20
106.2469534440
11
71.8351903870
21
106.2469534440
0
LINE
5
2F1
100
AcDbEntity
8
0
100
AcDbLine
62
7
6
CONTINUOUS
10
73.4351903870
20
106.2469534440
11
84.4351903870
21
106.2469534440
0
LINE
5
2F2
100
AcDbEntity
8
0
100
AcDbLine
62
7
6
CONTINUOUS
10
86.0351903870
20
106.2469534440
11
97.0351903870
21
106.2469534440
0
LINE
5
2F3
100
AcDbEntity
8
0
100
AcDbLine
62
7
6
CONTINUOUS
10
97.3035944157
20
209.3946445212
11
99.1641803154
21
210.0718424069
0
LINE
5
2F4
100
AcDbEntity
8
0
100
AcDbLine
62
7
6
CONTINUOUS
10
97.4746044873
20
208.9247982108
11
99.3351903870
21
209.6019960965
0
LINE
5
2F5
100
AcDbEntity
8
0
100
AcDbLine
62
7
6
CONTINUOUS
10
98.6351903870
20
109.4828794406
11
98.1351903870
21
109.4828794406
0
LINE
5
2F6
100
AcDbEntity
8
0
100
AcDbLine
62
7
6
CONTINUOUS
10
60.8351903870
20
115.2469534440
11
71.8351903870
21
115.2469534440
0
LINE
5
2F7
100
AcDbEntity
8
0
100
AcDbLine
62
7
6
CONTINUOUS
10
73.4351903870
20
115.2469534440
11
84.4351903870
21
115.2469534440
0
LINE
5
2F8
100
AcDbEntity
8
0
100
AcDbLine
62
7
6
CONTINUOUS
10
86.0351903870
20
115.2469534440
11
97.0351903870
21
115.2469534440
0
LINE
5
2F9
100
AcDbEntity
8
0
100
AcDbLine
62
7
6
CONTINUOUS
10
62.5851903870
20
115.5969534440
11
70.0851903870
21
115.5969534440
0
LINE
5
2FA
100
AcDbEntity
8
0
100
AcDbLine
62
7
6
CONTINUOUS
10
75.1851903870
20
115.5969534440
11
82.6851903870
21
115.5969534440
0
LINE
5
2FB
100
AcDbEntity
8
0
100
AcDbLine
62
7
6
CONTINUOUS
10
87.7851903870
20
115.5969534440
11
95.2851903870
21
115.5969534440
0
LINE
5
2FC
100
AcDbEntity
8
0
100
AcDbLine
62
7
6
CONTINUOUS
10
60.8351903870
20
115.9469534440
11
71.8351903870
21
115.9469534440
0
LINE
5
2FD
100
AcDbEntity
8
0
100
AcDbLine
62
7
6
CONTINUOUS
10
73.4351903870
20
115.9469534440
11
84.4351903870
21
115.9469534440
0
LINE
5
2FE
100
AcDbEntity
8
0
100
AcDbLine
62
7
6
CONTINUOUS
10
86.0351903870
20
115.9469534440
11
97.0351903870
21
115.9469534440
0
LINE
5
2FF
100
AcDbEntity
8
0
100
AcDbLine
62
7
6
CONTINUOUS
10
96.3062004587
20
101.5446364538
11
97.9641803154
21
100.9411811369
0
LINE
5
300
100
AcDbEntity
8
0
100
AcDbLine
62
7
6
CONTINUOUS
10
97.3035944157
20
198.4122921463
11
97.9641803154
21
198.6527257510
0
LINE
5
301
100
AcDbEntity
8
0
100
AcDbLine
62
7
6
CONTINUOUS
10
97.4746044873
20
197.9424458359
11
98.1351903870
21
198.1828794406
0
LINE
5
302
100
AcDbEntity
8
0
100
AcDbLine
62
7
6
CONTINUOUS
10
60.8351903870
20
124.9469534440
11
71.8351903870
21
124.9469534440
0
LINE
5
303
100
AcDbEntity
8
0
100
AcDbLine
62
7
6
CONTINUOUS
10
73.4351903870
20
124.9469534440
11
84.4351903870
21
124.9469534440
0
LINE
5
304
100
AcDbEntity
8
0
100
AcDbLine
62
7
6
CONTINUOUS
10
86.0351903870
20
124.9469534440
11
97.0351903870
21
124.9469534440
0
LWPOLYLINE
5
305
100
AcDbEntity
8
0
100
AcDbPolyline
62
7
6
CONTINUOUS
90
15
70
0
10
46.2183832697
20
97.7967297686
10
46.2187482888
20
97.7699898155
10
46.2347560786
20
97.6406947805
10
46.2743869402
20
97.5100626439
10
46.3371365990
20
97.3830683143
10
46.4230336373
20
97.2653030888
10
46.5295147667
20
97.1597647910
10
46.6536258329
20
97.0662698968
10
46.7920942467
20
96.9869957458
10
46.9435557202
20
96.9212803983
10
47.1057913707
20
96.8692609426
10
47.2771399357
20
96.8310035960
10
47.4569351034
20
96.8066498835
10
47.6438829537
20
96.7970509913
10
47.6664343982
20
96.7969357370
0
LINE
5
306
100
AcDbEntity
8
0
100
AcDbLine
62
7
6
CONTINUOUS
10
46.2182222211
20
210.7969534489
11
46.2182222211
21
97.7967342222
0
LINE
5
307
100
AcDbEntity
8
0
100
AcDbLine
62
7
6
CONTINUOUS
10
46.6272718382
20
210.7969534440
11
46.6272718382
21
97.7969534440
0
LINE
5
308
100
AcDbEntity
8
0
100
AcDbLine
62
7
6
CONTINUOUS
10
62.5851903870
20
125.2969534440
11
70.0851903870
21
125.2969534440
0
LINE
5
309
100
AcDbEntity
8
0
100
AcDbLine
62
7
6
CONTINUOUS
10
75.1851903870
20
125.2969534440
11
82.6851903870
21
125.2969534440
0
LINE
5
30A
100
AcDbEntity
8
0
100
AcDbLine
62
7
6
CONTINUOUS
10
87.7851903870
20
125.2969534440
11
95.2851903870
21
125.2969534440
0
LINE
5
30B
100
AcDbEntity
8
0
100
AcDbLine
62
7
6
CONTINUOUS
10
60.8351903870
20
125.6469534440
11
71.8351903870
21
125.6469534440
0
LINE
5
30C
100
AcDbEntity
8
0
100
AcDbLine
62
7
6
CONTINUOUS
10
73.4351903870
20
125.6469534440
11
84.4351903870
21
125.6469534440
0
LINE
5
30D
100
AcDbEntity
8
0
100
AcDbLine
62
7
6
CONTINUOUS
10
86.0351903870
20
125.6469534440
11
97.0351903870
21
125.6469534440
0
LINE
5
30E
100
AcDbEntity
8
0
100
AcDbLine
62
7
6
CONTINUOUS
10
98.6351903870
20
133.5110274473
11
98.1351903870
21
133.5110274473
0
LINE
5
30F
100
AcDbEntity
8
0
100
AcDbLine
62
7
6
CONTINUOUS
10
55.4662680131
20
205.8969534440
11
55.4662680131
21
102.6969534440
0
LINE
5
310
100
AcDbEntity
8
0
100
AcDbLine
62
7
6
CONTINUOUS
10
60.8351903870
20
134.6469534440
11
71.8351903870
21
134.6469534440
0
LINE
5
311
100
AcDbEntity
8
0
100
AcDbLine
62
7
6
CONTINUOUS
10
73.4351903870
20
134.6469534440
11
84.4351903870
21
134.6469534440
0
LINE
5
312
100
AcDbEntity
8
0
100
AcDbLine
62
7
6
CONTINUOUS
10
86.0351903870
20
134.6469534440
11
97.0351903870
21
134.6469534440
0
LINE
5
313
100
AcDbEntity
8
0
100
AcDbLine
62
7
6
CONTINUOUS
10
62.5851903870
20
134.9969534440
11
70.0851903870
21
134.9969534440
0
LINE
5
314
100
AcDbEntity
8
0
100
AcDbLine
62
7
6
CONTINUOUS
10
75.1851903870
20
134.9969534440
11
82.6851903870
21
134.9969534440
0
LINE
5
315
100
AcDbEntity
8
0
100
AcDbLine
62
7
6
CONTINUOUS
10
87.7851903870
20
134.9969534440
11
95.2851903870
21
134.9969534440
0
LINE
5
316
100
AcDbEntity
8
0
100
AcDbLine
62
7
6
CONTINUOUS
10
60.8351903870
20
135.3469534440
11
71.8351903870
21
135.3469534440
0
LINE
5
317
100
AcDbEntity
8
0
100
AcDbLine
62
7
6
CONTINUOUS
10
73.4351903870
20
135.3469534440
11
84.4351903870
21
135.3469534440
0
LINE
5
318
100
AcDbEntity
8
0
100
AcDbLine
62
7
6
CONTINUOUS
10
86.0351903870
20
135.3469534440
11
97.0351903870
21
135.3469534440
0
LINE
5
319
100
AcDbEntity
8
0
100
AcDbLine
62
7
6
CONTINUOUS
10
58.8351903870
20
205.8969534440
11
58.8351903870
21
102.6969534440
0
LINE
5
31A
100
AcDbEntity
8
0
100
AcDbLine
62
7
6
CONTINUOUS
10
60.8351903870
20
202.5469534440
11
60.8351903870
21
193.5469534440
0
LINE
5
31B
100
AcDbEntity
8
0
100
AcDbLine
62
7
6
CONTINUOUS
10
60.8351903870
20
192.8469534440
11
60.8351903870
21
183.8469534440
0
LINE
5
31C
100
AcDbEntity
8
0
100
AcDbLine
62
7
6
CONTINUOUS
10
60.8351903870
20
183.1469534440
11
60.8351903870
21
174.1469534440
0
LINE
5
31D
100
AcDbEntity
8
0
100
AcDbLine
62
7
6
CONTINUOUS
10
60.8351903870
20
173.4469534440
11
60.8351903870
21
164.4469534440
0
LINE
5
31E
100
AcDbEntity
8
0
100
AcDbLine
62
7
6
CONTINUOUS
10
60.8351903870
20
163.7469534440
11
60.8351903870
21
154.7469534440
0
LINE
5
31F
100
AcDbEntity
8
0
100
AcDbLine
62
7
6
CONTINUOUS
10
60.8351903870
20
154.0469534440
11
60.8351903870
21
145.0469534440
0
LINE
5
320
100
AcDbEntity
8
0
100
AcDbLine
62
7
6
CONTINUOUS
10
60.8351903870
20
144.3469534440
11
60.8351903870
21
135.3469534440
0
LINE
5
321
100
AcDbEntity
8
0
100
AcDbLine
62
7
6
CONTINUOUS
10
60.8351903870
20
134.6469534440
11
60.8351903870
21
125.6469534440
0
LINE
5
322
100
AcDbEntity
8
0
100
AcDbLine
62
7
6
CONTINUOUS
10
60.8351903870
20
124.9469534440
11
60.8351903870
21
115.9469534440
0
LINE
5
323
100
AcDbEntity
8
0
100
AcDbLine
62
7
6
CONTINUOUS
10
60.8351903870
20
115.2469534440
11
60.8351903870
21
106.2469534440
0
LINE
5
324
100
AcDbEntity
8
0
100
AcDbLine
62
7
6
CONTINUOUS
10
62.5851903870
20
202.8969534440
11
62.5851903870
21
202.5469534440
0
LINE
5
325
100
AcDbEntity
8
0
100
AcDbLine
62
7
6
CONTINUOUS
10
62.5851903870
20
193.5469534440
11
62.5851903870
21
192.8469534440
0
LINE
5
326
100
AcDbEntity
8
0
100
AcDbLine
62
7
6
CONTINUOUS
10
62.5851903870
20
183.8469534440
11
62.5851903870
21
183.1469534440
0
LINE
5
327
100
AcDbEntity
8
0
100
AcDbLine
62
7
6
CONTINUOUS
10
62.5851903870
20
174.1469534440
11
62.5851903870
21
173.4469534440
0
LINE
5
328
100
AcDbEntity
8
0
100
AcDbLine
62
7
6
CONTINUOUS
10
62.5851903870
20
164.4469534440
11
62.5851903870
21
163.7469534440
0
LINE
5
329
100
AcDbEntity
8
0
100
AcDbLine
62
7
6
CONTINUOUS
10
62.5851903870
20
154.7469534440
11
62.5851903870
21
154.0469534440
0
LINE
5
32A
100
AcDbEntity
8
0
100
AcDbLine
62
7
6
CONTINUOUS
10
62.5851903870
20
145.0469534440
11
62.5851903870
21
144.3469534440
0
LINE
5
32B
100
AcDbEntity
8
0
100
AcDbLine
62
7
6
CONTINUOUS
10
62.5851903870
20
135.3469534440
11
62.5851903870
21
134.6469534440
0
LINE
5
32C
100
AcDbEntity
8
0
100
AcDbLine
62
7
6
CONTINUOUS
10
62.5851903870
20
125.6469534440
11
62.5851903870
21
124.9469534440
0
LINE
5
32D
100
AcDbEntity
8
0
100
AcDbLine
62
7
6
CONTINUOUS
10
62.5851903870
20
115.9469534440
11
62.5851903870
21
115.2469534440
0
LINE
5
32E
100
AcDbEntity
8
0
100
AcDbLine
62
7
6
CONTINUOUS
10
62.5851903870
20
106.2469534440
11
62.5851903870
21
105.8969534440
0
LINE
5
32F
100
AcDbEntity
8
0
100
AcDbLine
62
7
6
CONTINUOUS
10
62.8351903870
20
206.3969534440
11
62.8351903870
21
205.8969534440
0
LINE
5
330
100
AcDbEntity
8
0
100
AcDbLine
62
7
6
CONTINUOUS
10
62.8351903870
20
102.1969534440
11
62.8351903870
21
102.6969534440
0
LINE
5
331
100
AcDbEntity
8
0
100
AcDbLine
62
7
6
CONTINUOUS
10
63.8351903870
20
205.2969534440
11
63.8351903870
21
202.8969534440
0
LINE
5
332
100
AcDbEntity
8
0
100
AcDbLine
62
7
6
CONTINUOUS
10
63.8351903870
20
105.8969534440
11
63.8351903870
21
103.1969534440
0
LINE
5
333
100
AcDbEntity
8
0
100
AcDbLine
62
7
6
CONTINUOUS
10
90.7901923886
20
206.8140108735
11
90.6806667400
21
206.6054821788
0
LINE
5
334
100
AcDbEntity
8
0
100
AcDbLine
62
7
6
CONTINUOUS
10
60.8351903870
20
144.3469534440
11
71.8351903870
21
144.3469534440
0
LINE
5
335
100
AcDbEntity
8
0
100
AcDbLine
62
7
6
CONTINUOUS
10
73.4351903870
20
144.3469534440
11
84.4351903870
21
144.3469534440
0
LINE
5
336
100
AcDbEntity
8
0
100
AcDbLine
62
7
6
CONTINUOUS
10
86.0351903870
20
144.3469534440
11
97.0351903870
21
144.3469534440
0
LINE
5
337
100
AcDbEntity
8
0
100
AcDbLine
62
7
6
CONTINUOUS
10
62.5851903870
20
144.6969534440
11
70.0851903870
21
144.6969534440
0
LINE
5
338
100
AcDbEntity
8
0
100
AcDbLine
62
7
6
CONTINUOUS
10
75.1851903870
20
144.6969534440
11
82.6851903870
21
144.6969534440
0
LINE
5
339
100
AcDbEntity
8
0
100
AcDbLine
62
7
6
CONTINUOUS
10
87.7851903870
20
144.6969534440
11
95.2851903870
21
144.6969534440
0
LINE
5
33A
100
AcDbEntity
8
0
100
AcDbLine
62
7
6
CONTINUOUS
10
60.8351903870
20
145.0469534440
11
71.8351903870
21
145.0469534440
0
LINE
5
33B
100
AcDbEntity
8
0
100
AcDbLine
62
7
6
CONTINUOUS
10
73.4351903870
20
145.0469534440
11
84.4351903870
21
145.0469534440
0
LINE
5
33C
100
AcDbEntity
8
0
100
AcDbLine
62
7
6
CONTINUOUS
10
86.0351903870
20
145.0469534440
11
97.0351903870
21
145.0469534440
0
LINE
5
33D
100
AcDbEntity
8
0
100
AcDbLine
62
7
6
CONTINUOUS
10
97.9641803154
20
133.0411811369
11
97.3035944157
21
133.2816147416
0
LINE
5
33E
100
AcDbEntity
8
0
100
AcDbLine
62
7
6
CONTINUOUS
10
98.1351903870
20
133.5110274473
11
97.4746044873
21
133.7514610520
0
LINE
5
33F
100
AcDbEntity
8
0
100
AcDbLine
62
7
6
CONTINUOUS
10
64.1303756135
20
205.4024391596
11
64.1351903870
21
205.2969534440
0
LINE
5
340
100
AcDbEntity
8
0
100
AcDbLine
62
7
6
CONTINUOUS
10
68.8351903870
20
205.2969534440
11
68.8351903870
21
202.8969534440
0
LINE
5
341
100
AcDbEntity
8
0
100
AcDbLine
62
7
6
CONTINUOUS
10
68.8351903870
20
105.8969534440
11
68.8351903870
21
103.1969534440
0
LINE
5
342
100
AcDbEntity
8
0
100
AcDbLine
62
7
6
CONTINUOUS
10
68.5400051605
20
205.4024391596
11
68.5351903870
21
205.2969534440
0
LINE
5
343
100
AcDbEntity
8
0
100
AcDbLine
62
7
6
CONTINUOUS
10
69.8351903870
20
206.3969534440
11
69.8351903870
21
205.8969534440
0
LINE
5
344
100
AcDbEntity
8
0
100
AcDbLine
62
7
6
CONTINUOUS
10
69.8351903870
20
102.6969534440
11
69.8351903870
21
102.1969534440
0
LINE
5
345
100
AcDbEntity
8
0
100
AcDbLine
62
7
6
CONTINUOUS
10
70.0851903870
20
202.8969534440
11
70.0851903870
21
202.5469534440
0
LINE
5
346
100
AcDbEntity
8
0
100
AcDbLine
62
7
6
CONTINUOUS
10
70.0851903870
20
193.5469534440
11
70.0851903870
21
192.8469534440
0
LINE
5
347
100
AcDbEntity
8
0
100
AcDbLine
62
7
6
CONTINUOUS
10
70.0851903870
20
183.8469534440
11
70.0851903870
21
183.1469534440
0
LINE
5
348
100
AcDbEntity
8
0
100
AcDbLine
62
7
6
CONTINUOUS
10
70.0851903870
20
174.1469534440
11
70.0851903870
21
173.4469534440
0
LINE
5
349
100
AcDbEntity
8
0
100
AcDbLine
62
7
6
CONTINUOUS
10
70.0851903870
20
164.4469534440
11
70.0851903870
21
163.7469534440
0
LINE
5
34A
100
AcDbEntity
8
0
100
AcDbLine
62
7
6
CONTINUOUS
10
70.0851903870
20
154.7469534440
11
70.0851903870
21
154.0469534440
0
LINE
5
34B
100
AcDbEntity
8
0
100
AcDbLine
62
7
6
CONTINUOUS
10
70.0851903870
20
145.0469534440
11
70.0851903870
21
144.3469534440
0
LINE
5
34C
100
AcDbEntity
8
0
100
AcDbLine
62
7
6
CONTINUOUS
10
70.0851903870
20
135.3469534440
11
70.0851903870
21
134.6469534440
0
LINE
5
34D
100
AcDbEntity
8
0
100
AcDbLine
62
7
6
CONTINUOUS
10
70.0851903870
20
125.6469534440
11
70.0851903870
21
124.9469534440
0
LINE
5
34E
100
AcDbEntity
8
0
100
AcDbLine
62
7
6
CONTINUOUS
10
70.0851903870
20
115.9469534440
11
70.0851903870
21
115.2469534440
0
LINE
5
34F
100
AcDbEntity
8
0
100
AcDbLine
62
7
6
CONTINUOUS
10
70.0851903870
20
106.2469534440
11
70.0851903870
21
105.8969534440
0
LINE
5
350
100
AcDbEntity
8
0
100
AcDbLine
62
7
6
CONTINUOUS
10
71.8351903870
20
202.5469534440
11
71.8351903870
21
193.5469534440
0
LINE
5
351
100
AcDbEntity
8
0
100
AcDbLine
62
7
6
CONTINUOUS
10
71.8351903870
20
192.8469534440
11
71.8351903870
21
183.8469534440
0
LINE
5
352
100
AcDbEntity
8
0
100
AcDbLine
62
7
6
CONTINUOUS
10
71.8351903870
20
183.1469534440
11
71.8351903870
21
174.1469534440
0
LINE
5
353
100
AcDbEntity
8
0
100
AcDbLine
62
7
6
CONTINUOUS
10
71.8351903870
20
173.4469534440
11
71.8351903870
21
164.4469534440
0
LINE
5
354
100
AcDbEntity
8
0
100
AcDbLine
62
7
6
CONTINUOUS
10
71.8351903870
20
163.7469534440
11
71.8351903870
21
154.7469534440
0
LINE
5
355
100
AcDbEntity
8
0
100
AcDbLine
62
7
6
CONTINUOUS
10
71.8351903870
20
154.0469534440
11
71.8351903870
21
145.0469534440
0
LINE
5
356
100
AcDbEntity
8
0
100
AcDbLine
62
7
6
CONTINUOUS
10
71.8351903870
20
144.3469534440
11
71.8351903870
21
135.3469534440
0
LINE
5
357
100
AcDbEntity
8
0
100
AcDbLine
62
7
6
CONTINUOUS
10
71.8351903870
20
134.6469534440
11
71.8351903870
21
125.6469534440
0
LINE
5
358
100
AcDbEntity
8
0
100
AcDbLine
62
7
6
CONTINUOUS
10
71.8351903870
20
124.9469534440
11
71.8351903870
21
115.9469534440
0
LINE
5
359
100
AcDbEntity
8
0
100
AcDbLine
62
7
6
CONTINUOUS
10
71.8351903870
20
115.2469534440
11
71.8351903870
21
106.2469534440
0
LINE
5
35A
100
AcDbEntity
8
0
100
AcDbLine
62
7
6
CONTINUOUS
10
73.4351903870
20
202.5469534440
11
73.4351903870
21
193.5469534440
0
LINE
5
35B
100
AcDbEntity
8
0
100
AcDbLine
62
7
6
CONTINUOUS
10
73.4351903870
20
192.8469534440
11
73.4351903870
21
183.8469534440
0
LINE
5
35C
100
AcDbEntity
8
0
100
AcDbLine
62
7
6
CONTINUOUS
10
73.4351903870
20
183.1469534440
11
73.4351903870
21
174.1469534440
0
LINE
5
35D
100
AcDbEntity
8
0
100
AcDbLine
62
7
6
CONTINUOUS
10
73.4351903870
20
173.4469534440
11
73.4351903870
21
164.4469534440
0
LINE
5
35E
100
AcDbEntity
8
0
100
AcDbLine
62
7
6
CONTINUOUS
10
73.4351903870
20
163.7469534440
11
73.4351903870
21
154.7469534440
0
LINE
5
35F
100
AcDbEntity
8
0
100
AcDbLine
62
7
6
CONTINUOUS
10
73.4351903870
20
154.0469534440
11
73.4351903870
21
145.0469534440
0
LINE
5
360
100
AcDbEntity
8
0
100
AcDbLine
62
7
6
CONTINUOUS
10
73.4351903870
20
144.3469534440
11
73.4351903870
21
135.3469534440
0
LINE
5
361
100
AcDbEntity
8
0
100
AcDbLine
62
7
6
CONTINUOUS
10
73.4351903870
20
134.6469534440
11
73.4351903870
21
125.6469534440
0
LINE
5
362
100
AcDbEntity
8
0
100
AcDbLine
62
7
6
CONTINUOUS
10
73.4351903870
20
124.9469534440
11
73.4351903870
21
115.9469534440
0
LINE
5
363
100
AcDbEntity
8
0
100
AcDbLine
62
7
6
CONTINUOUS
10
73.4351903870
20
115.2469534440
11
73.4351903870
21
106.2469534440
0
LINE
5
364
100
AcDbEntity
8
0
100
AcDbLine
62
7
6
CONTINUOUS
10
97.2351903870
20
153.7969534440
11
98.6351903870
21
153.7969534440
0
LINE
5
365
100
AcDbEntity
8
0
100
AcDbLine
62
7
6
CONTINUOUS
10
60.8351903870
20
154.0469534440
11
71.8351903870
21
154.0469534440
0
LINE
5
366
100
AcDbEntity
8
0
100
AcDbLine
62
7
6
CONTINUOUS
10
73.4351903870
20
154.0469534440
11
84.4351903870
21
154.0469534440
0
LINE
5
367
100
AcDbEntity
8
0
100
AcDbLine
62
7
6
CONTINUOUS
10
86.0351903870
20
154.0469534440
11
97.0351903870
21
154.0469534440
0
LINE
5
368
100
AcDbEntity
8
0
100
AcDbLine
62
7
6
CONTINUOUS
10
97.2351903870
20
154.2969534440
11
98.1351903870
21
154.2969534440
0
LINE
5
369
100
AcDbEntity
8
0
100
AcDbLine
62
7
6
CONTINUOUS
10
62.5851903870
20
154.3969534440
11
70.0851903870
21
154.3969534440
0
LINE
5
36A
100
AcDbEntity
8
0
100
AcDbLine
62
7
6
CONTINUOUS
10
75.1851903870
20
154.3969534440
11
82.6851903870
21
154.3969534440
0
LINE
5
36B
100
AcDbEntity
8
0
100
AcDbLine
62
7
6
CONTINUOUS
10
87.7851903870
20
154.3969534440
11
95.2851903870
21
154.3969534440
0
LINE
5
36C
100
AcDbEntity
8
0
100
AcDbLine
62
7
6
CONTINUOUS
10
97.0351903870
20
154.4969534440
11
96.5351903871
21
154.4969534480
0
LINE
5
36D
100
AcDbEntity
8
0
100
AcDbLine
62
7
6
CONTINUOUS
10
60.8351903870
20
154.7469534440
11
71.8351903870
21
154.7469534440
0
LINE
5
36E
100
AcDbEntity
8
0
100
AcDbLine
62
7
6
CONTINUOUS
10
73.4351903870
20
154.7469534440
11
84.4351903870
21
154.7469534440
0
LINE
5
36F
100
AcDbEntity
8
0
100
AcDbLine
62
7
6
CONTINUOUS
10
86.0351903870
20
154.7469534440
11
97.0351903870
21
154.7469534440
0
LINE
5
370
100
AcDbEntity
8
0
100
AcDbLine
62
7
6
CONTINUOUS
10
73.9123867104
20
211.7969534440
11
73.9123867104
21
206.8969534440
0
LINE
5
371
100
AcDbEntity
8
0
100
AcDbLine
62
7
6
CONTINUOUS
10
73.9123867104
20
96.7969534440
11
73.9123867104
21
101.6969534440
0
LINE
5
372
100
AcDbEntity
8
0
100
AcDbLine
62
7
6
CONTINUOUS
10
75.1851903870
20
202.8969534440
11
75.1851903870
21
202.5469534440
0
LINE
5
373
100
AcDbEntity
8
0
100
AcDbLine
62
7
6
CONTINUOUS
10
75.1851903870
20
193.5469534440
11
75.1851903870
21
192.8469534440
0
LINE
5
374
100
AcDbEntity
8
0
100
AcDbLine
62
7
6
CONTINUOUS
10
75.1851903870
20
183.8469534440
11
75.1851903870
21
183.1469534440
0
LINE
5
375
100
AcDbEntity
8
0
100
AcDbLine
62
7
6
CONTINUOUS
10
75.1851903870
20
174.1469534440
11
75.1851903870
21
173.4469534440
0
LINE
5
376
100
AcDbEntity
8
0
100
AcDbLine
62
7
6
CONTINUOUS
10
75.1851903870
20
164.4469534440
11
75.1851903870
21
163.7469534440
0
LINE
5
377
100
AcDbEntity
8
0
100
AcDbLine
62
7
6
CONTINUOUS
10
75.1851903870
20
154.7469534440
11
75.1851903870
21
154.0469534440
0
LINE
5
378
100
AcDbEntity
8
0
100
AcDbLine
62
7
6
CONTINUOUS
10
75.1851903870
20
145.0469534440
11
75.1851903870
21
144.3469534440
0
LINE
5
379
100
AcDbEntity
8
0
100
AcDbLine
62
7
6
CONTINUOUS
10
75.1851903870
20
135.3469534440
11
75.1851903870
21
134.6469534440
0
LINE
5
37A
100
AcDbEntity
8
0
100
AcDbLine
62
7
6
CONTINUOUS
10
75.1851903870
20
125.6469534440
11
75.1851903870
21
124.9469534440
0
LINE
5
37B
100
AcDbEntity
8
0
100
AcDbLine
62
7
6
CONTINUOUS
10
75.1851903870
20
115.9469534440
11
75.1851903870
21
115.2469534440
0
LINE
5
37C
100
AcDbEntity
8
0
100
AcDbLine
62
7
6
CONTINUOUS
10
75.1851903870
20
106.2469534440
11
75.1851903870
21
105.8969534440
0
LINE
5
37D
100
AcDbEntity
8
0
100
AcDbLine
62
7
6
CONTINUOUS
10
75.4351903870
20
206.3969534440
11
75.4351903870
21
205.8969534440
0
LINE
5
37E
100
AcDbEntity
8
0
100
AcDbLine
62
7
6
CONTINUOUS
10
75.4351903870
20
102.1969534440
11
75.4351903870
21
102.6969534440
0
LINE
5
37F
100
AcDbEntity
8
0
100
AcDbLine
62
7
6
CONTINUOUS
10
76.4351903870
20
205.2969534440
11
76.4351903870
21
202.8969534440
0
LINE
5
380
100
AcDbEntity
8
0
100
AcDbLine
62
7
6
CONTINUOUS
10
76.4351903870
20
105.8969534440
11
76.4351903870
21
103.1969534440
0
LINE
5
381
100
AcDbEntity
8
0
100
AcDbLine
62
7
6
CONTINUOUS
10
97.3035944157
20
207.7992623668
11
97.4746044902
21
208.2691086761
0
LINE
5
382
100
AcDbEntity
8
0
100
AcDbLine
62
7
6
CONTINUOUS
10
76.7303756135
20
205.4024391596
11
76.7351903870
21
205.2969534440
0
LINE
5
383
100
AcDbEntity
8
0
100
AcDbLine
62
7
6
CONTINUOUS
10
78.0463709453
20
207.3969534440
11
78.0463709451
21
206.8969534440
0
LINE
5
384
100
AcDbEntity
8
0
100
AcDbLine
62
7
6
CONTINUOUS
10
78.0463709453
20
101.6969534440
11
78.0463709453
21
101.1969534440
0
LINE
5
385
100
AcDbEntity
8
0
100
AcDbLine
62
7
6
CONTINUOUS
10
79.8240098287
20
207.3969534440
11
79.8240098287
21
206.8969534440
0
LINE
5
386
100
AcDbEntity
8
0
100
AcDbLine
62
7
6
CONTINUOUS
10
79.8240098287
20
101.6969534440
11
79.8240098287
21
101.1969534440
0
LINE
5
387
100
AcDbEntity
8
0
100
AcDbLine
62
7
6
CONTINUOUS
10
81.4351903870
20
205.2969534440
11
81.4351903870
21
202.8969534440
0
LINE
5
388
100
AcDbEntity
8
0
100
AcDbLine
62
7
6
CONTINUOUS
10
81.4351903870
20
105.8969534440
11
81.4351903870
21
103.1969534440
0
LINE
5
389
100
AcDbEntity
8
0
100
AcDbLine
62
7
6
CONTINUOUS
10
81.1400051605
20
205.4024391596
11
81.1351903870
21
205.2969534440
0
LINE
5
38A
100
AcDbEntity
8
0
100
AcDbLine
62
7
6
CONTINUOUS
10
99.1641803154
20
207.1220644810
11
99.3351903870
21
207.5919107914
0
LINE
5
38B
100
AcDbEntity
8
0
100
AcDbLine
62
7
6
CONTINUOUS
10
97.3035944157
20
109.7122921463
11
97.4746044873
21
109.2424458359
0
LINE
5
38C
100
AcDbEntity
8
0
100
AcDbLine
62
7
6
CONTINUOUS
10
97.9641803154
20
109.9527257510
11
98.1351903870
21
109.4828794406
0
LINE
5
38D
100
AcDbEntity
8
0
100
AcDbLine
62
7
6
CONTINUOUS
10
82.2351903870
20
203.5969534440
11
82.2351903870
21
202.8969534440
0
LINE
5
38E
100
AcDbEntity
8
0
100
AcDbLine
62
7
6
CONTINUOUS
10
82.2351903870
20
104.9969534440
11
82.2351903870
21
105.8969534440
0
LINE
5
38F
100
AcDbEntity
8
0
100
AcDbLine
62
7
6
CONTINUOUS
10
82.4351903870
20
206.3969534440
11
82.4351903870
21
205.8969534440
0
LINE
5
390
100
AcDbEntity
8
0
100
AcDbLine
62
7
6
CONTINUOUS
10
82.4351903870
20
102.6969534440
11
82.4351903870
21
102.1969534440
0
LINE
5
391
100
AcDbEntity
8
0
100
AcDbLine
62
7
6
CONTINUOUS
10
82.6851903870
20
202.8969534440
11
82.6851903870
21
202.5469534440
0
LINE
5
392
100
AcDbEntity
8
0
100
AcDbLine
62
7
6
CONTINUOUS
10
82.6851903870
20
193.5469534440
11
82.6851903870
21
192.8469534440
0
LINE
5
393
100
AcDbEntity
8
0
100
AcDbLine
62
7
6
CONTINUOUS
10
82.6851903870
20
183.8469534440
11
82.6851903870
21
183.1469534440
0
LINE
5
394
100
AcDbEntity
8
0
100
AcDbLine
62
7
6
CONTINUOUS
10
82.6851903870
20
174.1469534440
11
82.6851903870
21
173.4469534440
0
LINE
5
395
100
AcDbEntity
8
0
100
AcDbLine
62
7
6
CONTINUOUS
10
82.6851903870
20
164.4469534440
11
82.6851903870
21
163.7469534440
0
LINE
5
396
100
AcDbEntity
8
0
100
AcDbLine
62
7
6
CONTINUOUS
10
82.6851903870
20
154.7469534440
11
82.6851903870
21
154.0469534440
0
LINE
5
397
100
AcDbEntity
8
0
100
AcDbLine
62
7
6
CONTINUOUS
10
82.6851903870
20
145.0469534440
11
82.6851903870
21
144.3469534440
0
LINE
5
398
100
AcDbEntity
8
0
100
AcDbLine
62
7
6
CONTINUOUS
10
82.6851903870
20
135.3469534440
11
82.6851903870
21
134.6469534440
0
LINE
5
399
100
AcDbEntity
8
0
100
AcDbLine
62
7
6
CONTINUOUS
10
82.6851903870
20
125.6469534440
11
82.6851903870
21
124.9469534440
0
LINE
5
39A
100
AcDbEntity
8
0
100
AcDbLine
62
7
6
CONTINUOUS
10
82.6851903870
20
115.9469534440
11
82.6851903870
21
115.2469534440
0
LINE
5
39B
100
AcDbEntity
8
0
100
AcDbLine
62
7
6
CONTINUOUS
10
82.6851903870
20
106.2469534440
11
82.6851903870
21
105.8969534440
0
LINE
5
39C
100
AcDbEntity
8
0
100
AcDbLine
62
7
6
CONTINUOUS
10
84.4351903870
20
202.5469534440
11
84.4351903870
21
193.5469534440
0
LINE
5
39D
100
AcDbEntity
8
0
100
AcDbLine
62
7
6
CONTINUOUS
10
84.4351903870
20
192.8469534440
11
84.4351903870
21
183.8469534440
0
LINE
5
39E
100
AcDbEntity
8
0
100
AcDbLine
62
7
6
CONTINUOUS
10
84.4351903870
20
183.1469534440
11
84.4351903870
21
174.1469534440
0
LINE
5
39F
100
AcDbEntity
8
0
100
AcDbLine
62
7
6
CONTINUOUS
10
84.4351903870
20
173.4469534440
11
84.4351903870
21
164.4469534440
0
LINE
5
3A0
100
AcDbEntity
8
0
100
AcDbLine
62
7
6
CONTINUOUS
10
84.4351903870
20
163.7469534440
11
84.4351903870
21
154.7469534440
0
LINE
5
3A1
100
AcDbEntity
8
0
100
AcDbLine
62
7
6
CONTINUOUS
10
84.4351903870
20
154.0469534440
11
84.4351903870
21
145.0469534440
0
LINE
5
3A2
100
AcDbEntity
8
0
100
AcDbLine
62
7
6
CONTINUOUS
10
84.4351903870
20
144.3469534440
11
84.4351903870
21
135.3469534440
0
LINE
5
3A3
100
AcDbEntity
8
0
100
AcDbLine
62
7
6
CONTINUOUS
10
84.4351903870
20
134.6469534440
11
84.4351903870
21
125.6469534440
0
LINE
5
3A4
100
AcDbEntity
8
0
100
AcDbLine
62
7
6
CONTINUOUS
10
84.4351903870
20
124.9469534440
11
84.4351903870
21
115.9469534440
0
LINE
5
3A5
100
AcDbEntity
8
0
100
AcDbLine
62
7
6
CONTINUOUS
10
84.4351903870
20
115.2469534440
11
84.4351903870
21
106.2469534440
0
LINE
5
3A6
100
AcDbEntity
8
0
100
AcDbLine
62
7
6
CONTINUOUS
10
86.0351903870
20
202.5469534440
11
86.0351903870
21
193.5469534440
0
LINE
5
3A7
100
AcDbEntity
8
0
100
AcDbLine
62
7
6
CONTINUOUS
10
86.0351903870
20
192.8469534440
11
86.0351903870
21
183.8469534440
0
LINE
5
3A8
100
AcDbEntity
8
0
100
AcDbLine
62
7
6
CONTINUOUS
10
86.0351903870
20
183.1469534440
11
86.0351903870
21
174.1469534440
0
LINE
5
3A9
100
AcDbEntity
8
0
100
AcDbLine
62
7
6
CONTINUOUS
10
86.0351903870
20
173.4469534440
11
86.0351903870
21
164.4469534440
0
LINE
5
3AA
100
AcDbEntity
8
0
100
AcDbLine
62
7
6
CONTINUOUS
10
86.0351903870
20
163.7469534440
11
86.0351903870
21
154.7469534440
0
LINE
5
3AB
100
AcDbEntity
8
0
100
AcDbLine
62
7
6
CONTINUOUS
10
86.0351903870
20
154.0469534440
11
86.0351903870
21
145.0469534440
0
LINE
5
3AC
100
AcDbEntity
8
0
100
AcDbLine
62
7
6
CONTINUOUS
10
86.0351903870
20
144.3469534440
11
86.0351903870
21
135.3469534440
0
LINE
5
3AD
100
AcDbEntity
8
0
100
AcDbLine
62
7
6
CONTINUOUS
10
86.0351903870
20
134.6469534440
11
86.0351903870
21
125.6469534440
0
LINE
5
3AE
100
AcDbEntity
8
0
100
AcDbLine
62
7
6
CONTINUOUS
10
86.0351903870
20
124.9469534440
11
86.0351903870
21
115.9469534440
0
LINE
5
3AF
100
AcDbEntity
8
0
100
AcDbLine
62
7
6
CONTINUOUS
10
86.0351903870
20
115.2469534440
11
86.0351903870
21
106.2469534440
0
LINE
5
3B0
100
AcDbEntity
8
0
100
AcDbLine
62
7
6
CONTINUOUS
10
60.8351903870
20
163.7469534440
11
71.8351903870
21
163.7469534440
0
LINE
5
3B1
100
AcDbEntity
8
0
100
AcDbLine
62
7
6
CONTINUOUS
10
73.4351903870
20
163.7469534440
11
84.4351903870
21
163.7469534440
0
LINE
5
3B2
100
AcDbEntity
8
0
100
AcDbLine
62
7
6
CONTINUOUS
10
86.0351903870
20
163.7469534440
11
97.0351903870
21
163.7469534440
0
LINE
5
3B3
100
AcDbEntity
8
0
100
AcDbLine
62
7
6
CONTINUOUS
10
62.5851903870
20
164.0969534440
11
70.0851903870
21
164.0969534440
0
LINE
5
3B4
100
AcDbEntity
8
0
100
AcDbLine
62
7
6
CONTINUOUS
10
75.1851903870
20
164.0969534440
11
82.6851903870
21
164.0969534440
0
LINE
5
3B5
100
AcDbEntity
8
0
100
AcDbLine
62
7
6
CONTINUOUS
10
87.7851903870
20
164.0969534440
11
95.2851903870
21
164.0969534440
0
LINE
5
3B6
100
AcDbEntity
8
0
100
AcDbLine
62
7
6
CONTINUOUS
10
60.8351903870
20
164.4469534440
11
71.8351903870
21
164.4469534440
0
LINE
5
3B7
100
AcDbEntity
8
0
100
AcDbLine
62
7
6
CONTINUOUS
10
73.4351903870
20
164.4469534440
11
84.4351903870
21
164.4469534440
0
LINE
5
3B8
100
AcDbEntity
8
0
100
AcDbLine
62
7
6
CONTINUOUS
10
86.0351903870
20
164.4469534440
11
97.0351903870
21
164.4469534440
0
LINE
5
3B9
100
AcDbEntity
8
0
100
AcDbLine
62
7
6
CONTINUOUS
10
87.7851903870
20
202.8969534440
11
87.7851903870
21
202.5469534440
0
LINE
5
3BA
100
AcDbEntity
8
0
100
AcDbLine
62
7
6
CONTINUOUS
10
87.7851903870
20
193.5469534440
11
87.7851903870
21
192.8469534440
0
LINE
5
3BB
100
AcDbEntity
8
0
100
AcDbLine
62
7
6
CONTINUOUS
10
87.7851903870
20
183.8469534440
11
87.7851903870
21
183.1469534440
0
LINE
5
3BC
100
AcDbEntity
8
0
100
AcDbLine
62
7
6
CONTINUOUS
10
87.7851903870
20
174.1469534440
11
87.7851903870
21
173.4469534440
0
LINE
5
3BD
100
AcDbEntity
8
0
100
AcDbLine
62
7
6
CONTINUOUS
10
87.7851903870
20
164.4469534440
11
87.7851903870
21
163.7469534440
0
LINE
5
3BE
100
AcDbEntity
8
0
100
AcDbLine
62
7
6
CONTINUOUS
10
87.7851903870
20
154.7469534440
11
87.7851903870
21
154.0469534440
0
LINE
5
3BF
100
AcDbEntity
8
0
100
AcDbLine
62
7
6
CONTINUOUS
10
87.7851903870
20
145.0469534440
11
87.7851903870
21
144.3469534440
0
LINE
5
3C0
100
AcDbEntity
8
0
100
AcDbLine
62
7
6
CONTINUOUS
10
87.7851903870
20
135.3469534440
11
87.7851903870
21
134.6469534440
0
LINE
5
3C1
100
AcDbEntity
8
0
100
AcDbLine
62
7
6
CONTINUOUS
10
87.7851903870
20
125.6469534440
11
87.7851903870
21
124.9469534440
0
LINE
5
3C2
100
AcDbEntity
8
0
100
AcDbLine
62
7
6
CONTINUOUS
10
87.7851903870
20
115.9469534440
11
87.7851903870
21
115.2469534440
0
LINE
5
3C3
100
AcDbEntity
8
0
100
AcDbLine
62
7
6
CONTINUOUS
10
87.7851903870
20
106.2469534440
11
87.7851903870
21
105.8969534440
0
LINE
5
3C4
100
AcDbEntity
8
0
100
AcDbLine
62
7
6
CONTINUOUS
10
88.0351903870
20
206.3969534440
11
88.0351903870
21
205.8969534440
0
LINE
5
3C5
100
AcDbEntity
8
0
100
AcDbLine
62
7
6
CONTINUOUS
10
88.0351903870
20
102.1969534440
11
88.0351903870
21
102.6969534440
0
LINE
5
3C6
100
AcDbEntity
8
0
100
AcDbLine
62
7
6
CONTINUOUS
10
88.2351903870
20
105.8969534440
11
88.2351903870
21
104.9969534440
0
LINE
5
3C7
100
AcDbEntity
8
0
100
AcDbLine
62
7
6
CONTINUOUS
10
88.2351903870
20
202.8969534440
11
88.2351903870
21
203.5969534440
0
LINE
5
3C8
100
AcDbEntity
8
0
100
AcDbLine
62
7
6
CONTINUOUS
10
88.8894390760
20
207.3969534440
11
88.8894390759
21
206.8969534440
0
LINE
5
3C9
100
AcDbEntity
8
0
100
AcDbLine
62
7
6
CONTINUOUS
10
88.8894390760
20
101.6969534440
11
88.8894390564
21
101.1969534476
0
LINE
5
3CA
100
AcDbEntity
8
0
100
AcDbLine
62
7
6
CONTINUOUS
10
89.0351903870
20
205.2969534440
11
89.0351903870
21
202.8969534440
0
LINE
5
3CB
100
AcDbEntity
8
0
100
AcDbLine
62
7
6
CONTINUOUS
10
89.0351903870
20
105.8969534440
11
89.0351903870
21
103.1969534440
0
LINE
5
3CC
100
AcDbEntity
8
0
100
AcDbLine
62
7
6
CONTINUOUS
10
97.3035944157
20
175.7816147416
11
97.4746044871
21
176.2514610521
0
LINE
5
3CD
100
AcDbEntity
8
0
100
AcDbLine
62
7
6
CONTINUOUS
10
97.9641803154
20
175.5411811369
11
98.1351903870
21
176.0110274473
0
LINE
5
3CE
100
AcDbEntity
8
0
100
AcDbLine
62
7
6
CONTINUOUS
10
89.3303756135
20
205.4024391596
11
89.3351903870
21
205.2969534440
0
LINE
5
3CF
100
AcDbEntity
8
0
100
AcDbLine
62
7
6
CONTINUOUS
10
90.7901923886
20
206.8140108735
11
90.7901923886
21
211.7969534440
0
LINE
5
3D0
100
AcDbEntity
8
0
100
AcDbLine
62
7
6
CONTINUOUS
10
91.2904127031
20
206.3969534440
11
91.2904127031
21
205.8969534440
0
LINE
5
3D1
100
AcDbEntity
8
0
100
AcDbLine
62
7
6
CONTINUOUS
10
91.3391037271
20
206.3969534440
11
91.3391037271
21
205.8969534440
0
LINE
5
3D2
100
AcDbEntity
8
0
100
AcDbLine
62
7
6
CONTINUOUS
10
91.5351903870
20
102.1969521866
11
91.5351903870
21
103.1969534440
0
LINE
5
3D3
100
AcDbEntity
8
0
100
AcDbLine
62
7
6
CONTINUOUS
10
92.3901923886
20
96.7969534440
11
92.3901923886
21
103.1969534440
0
LINE
5
3D4
100
AcDbEntity
8
0
100
AcDbLine
62
7
6
CONTINUOUS
10
94.0351903870
20
205.2969534440
11
94.0351903870
21
202.8969534440
0
LINE
5
3D5
100
AcDbEntity
8
0
100
AcDbLine
62
7
6
CONTINUOUS
10
94.0351903870
20
105.8969534440
11
94.0351903870
21
103.1969534440
0
LINE
5
3D6
100
AcDbEntity
8
0
100
AcDbLine
62
7
6
CONTINUOUS
10
93.7400051605
20
205.4024391596
11
93.7351903870
21
205.2969534440
0
LINE
5
3D7
100
AcDbEntity
8
0
100
AcDbLine
62
7
6
CONTINUOUS
10
60.8351903870
20
173.4469534440
11
71.8351903870
21
173.4469534440
0
LINE
5
3D8
100
AcDbEntity
8
0
100
AcDbLine
62
7
6
CONTINUOUS
10
73.4351903870
20
173.4469534440
11
84.4351903870
21
173.4469534440
0
LINE
5
3D9
100
AcDbEntity
8
0
100
AcDbLine
62
7
6
CONTINUOUS
10
86.0351903870
20
173.4469534440
11
97.0351903870
21
173.4469534440
0
LINE
5
3DA
100
AcDbEntity
8
0
100
AcDbLine
62
7
6
CONTINUOUS
10
62.5851903870
20
173.7969534440
11
70.0851903870
21
173.7969534440
0
LINE
5
3DB
100
AcDbEntity
8
0
100
AcDbLine
62
7
6
CONTINUOUS
10
75.1851903870
20
173.7969534440
11
82.6851903870
21
173.7969534440
0
LINE
5
3DC
100
AcDbEntity
8
0
100
AcDbLine
62
7
6
CONTINUOUS
10
87.7851903870
20
173.7969534440
11
95.2851903870
21
173.7969534440
0
LINE
5
3DD
100
AcDbEntity
8
0
100
AcDbLine
62
7
6
CONTINUOUS
10
60.8351903870
20
174.1469534440
11
71.8351903870
21
174.1469534440
0
LINE
5
3DE
100
AcDbEntity
8
0
100
AcDbLine
62
7
6
CONTINUOUS
10
73.4351903870
20
174.1469534440
11
84.4351903870
21
174.1469534440
0
LINE
5
3DF
100
AcDbEntity
8
0
100
AcDbLine
62
7
6
CONTINUOUS
10
86.0351903870
20
174.1469534440
11
97.0351903870
21
174.1469534440
0
LINE
5
3E0
100
AcDbEntity
8
0
100
AcDbLine
62
7
6
CONTINUOUS
10
98.6351903870
20
176.0110274473
11
98.1351903870
21
176.0110274473
0
LINE
5
3E1
100
AcDbEntity
8
0
100
AcDbLine
62
7
6
CONTINUOUS
10
95.2055749511
20
98.9191167445
11
95.2055749511
21
101.0747901434
0
LINE
5
3E2
100
AcDbEntity
8
0
100
AcDbLine
62
7
6
CONTINUOUS
10
95.2851903870
20
202.8969534440
11
95.2851903870
21
202.5469534440
0
LINE
5
3E3
100
AcDbEntity
8
0
100
AcDbLine
62
7
6
CONTINUOUS
10
95.2851903870
20
193.5469534440
11
95.2851903870
21
192.8469534440
0
LINE
5
3E4
100
AcDbEntity
8
0
100
AcDbLine
62
7
6
CONTINUOUS
10
95.2851903870
20
183.8469534440
11
95.2851903870
21
183.1469534440
0
LINE
5
3E5
100
AcDbEntity
8
0
100
AcDbLine
62
7
6
CONTINUOUS
10
95.2851903870
20
174.1469534440
11
95.2851903870
21
173.4469534440
0
LINE
5
3E6
100
AcDbEntity
8
0
100
AcDbLine
62
7
6
CONTINUOUS
10
95.2851903870
20
164.4469534440
11
95.2851903870
21
163.7469534440
0
LINE
5
3E7
100
AcDbEntity
8
0
100
AcDbLine
62
7
6
CONTINUOUS
10
95.2851903870
20
154.7469534440
11
95.2851903870
21
154.0469534440
0
LINE
5
3E8
100
AcDbEntity
8
0
100
AcDbLine
62
7
6
CONTINUOUS
10
95.2851903870
20
145.0469534440
11
95.2851903870
21
144.3469534440
0
LINE
5
3E9
100
AcDbEntity
8
0
100
AcDbLine
62
7
6
CONTINUOUS
10
95.2851903870
20
135.3469534440
11
95.2851903870
21
134.6469534440
0
LINE
5
3EA
100
AcDbEntity
8
0
100
AcDbLine
62
7
6
CONTINUOUS
10
95.2851903870
20
125.6469534440
11
95.2851903870
21
124.9469534440
0
LINE
5
3EB
100
AcDbEntity
8
0
100
AcDbLine
62
7
6
CONTINUOUS
10
95.2851903870
20
115.9469534440
11
95.2851903870
21
115.2469534440
0
LINE
5
3EC
100
AcDbEntity
8
0
100
AcDbLine
62
7
6
CONTINUOUS
10
95.2851903870
20
106.2469534440
11
95.2851903870
21
105.8969534440
0
LINE
5
3ED
100
AcDbEntity
8
0
100
AcDbLine
62
7
6
CONTINUOUS
10
95.6351903870
20
98.9191167445
11
95.6351903870
21
101.0747901434
0
LINE
5
3EE
100
AcDbEntity
8
0
100
AcDbLine
62
7
6
CONTINUOUS
10
96.5351903870
20
205.3969534440
11
96.5351903870
21
202.5469534440
0
LINE
5
3EF
100
AcDbEntity
8
0
100
AcDbLine
62
7
6
CONTINUOUS
10
96.5351903870
20
174.1469534440
11
96.5351903870
21
173.4469534440
0
LINE
5
3F0
100
AcDbEntity
8
0
100
AcDbLine
62
7
6
CONTINUOUS
10
96.5351903870
20
164.4469534440
11
96.5351903870
21
163.7469534440
0
LINE
5
3F1
100
AcDbEntity
8
0
100
AcDbLine
62
7
6
CONTINUOUS
10
96.5351903870
20
154.7469534440
11
96.5351903870
21
154.4969534440
0
LINE
5
3F2
100
AcDbEntity
8
0
100
AcDbLine
62
7
6
CONTINUOUS
10
96.5351903870
20
125.6469534440
11
96.5351903870
21
124.9469534440
0
LINE
5
3F3
100
AcDbEntity
8
0
100
AcDbLine
62
7
6
CONTINUOUS
10
96.5351903870
20
115.9469534440
11
96.5351903870
21
115.2469534440
0
LINE
5
3F4
100
AcDbEntity
8
0
100
AcDbLine
62
7
6
CONTINUOUS
10
96.6824980280
20
205.8969534440
11
96.6824980280
21
207.6113238426
0
LINE
5
3F5
100
AcDbEntity
8
0
100
AcDbLine
62
7
6
CONTINUOUS
10
96.6824980280
20
209.5825830453
11
96.6824980280
21
210.7969534440
0
LINE
5
3F6
100
AcDbEntity
8
0
100
AcDbLine
62
7
6
CONTINUOUS
10
97.0351903870
20
192.8469534440
11
97.0351903870
21
183.8469534440
0
LINE
5
3F7
100
AcDbEntity
8
0
100
AcDbLine
62
7
6
CONTINUOUS
10
97.0351903870
20
183.1469534440
11
97.0351903870
21
154.4969534440
0
LINE
5
3F8
100
AcDbEntity
8
0
100
AcDbLine
62
7
6
CONTINUOUS
10
97.0351903870
20
154.0469534440
11
97.0351903870
21
145.0469534440
0
LINE
5
3F9
100
AcDbEntity
8
0
100
AcDbLine
62
7
6
CONTINUOUS
10
97.0351903870
20
144.3469534440
11
97.0351903870
21
135.3469534440
0
LINE
5
3FA
100
AcDbEntity
8
0
100
AcDbLine
62
7
6
CONTINUOUS
10
97.0351903870
20
134.6469534440
11
97.0351903870
21
106.2469534440
0
LINE
5
3FB
100
AcDbEntity
8
0
100
AcDbLine
62
7
6
CONTINUOUS
10
97.0351903870
20
193.5469534440
11
97.0351903870
21
207.6113238394
0
LINE
5
3FC
100
AcDbEntity
8
0
100
AcDbLine
62
7
6
CONTINUOUS
10
97.0351903870
20
208.2821077585
11
97.0351903870
21
208.9117991294
0
LINE
5
3FD
100
AcDbEntity
8
0
100
AcDbLine
62
7
6
CONTINUOUS
10
97.0351903870
20
209.5825830453
11
97.0351903870
21
211.2969534440
0
LINE
5
3FE
100
AcDbEntity
8
0
100
AcDbLine
62
7
6
CONTINUOUS
10
97.2351903870
20
154.2969534440
11
97.2351903870
21
153.7969534440
0
LINE
5
3FF
100
AcDbEntity
8
0
100
AcDbLine
62
7
6
CONTINUOUS
10
98.1351903870
20
198.1828794406
11
98.1351903870
21
176.0110274473
0
LINE
5
400
100
AcDbEntity
8
0
100
AcDbLine
62
7
6
CONTINUOUS
10
98.1351903870
20
154.2969534440
11
98.1351903870
21
133.5110274473
0
LINE
5
401
100
AcDbEntity
8
0
100
AcDbLine
62
7
6
CONTINUOUS
10
98.1351903870
20
109.4828794406
11
98.1351903870
21
103.1969534440
0
LINE
5
402
100
AcDbEntity
8
0
100
AcDbLine
62
7
6
CONTINUOUS
10
98.2824980280
20
97.7969534440
11
98.2824980280
21
98.5828794406
0
LINE
5
403
100
AcDbEntity
8
0
100
AcDbLine
62
7
6
CONTINUOUS
10
98.2824980280
20
101.4110274473
11
98.2824980280
21
102.6969534440
0
LINE
5
404
100
AcDbEntity
8
0
100
AcDbLine
62
7
6
CONTINUOUS
10
98.6351903870
20
198.1828794406
11
98.6351903870
21
176.0110274473
0
LINE
5
405
100
AcDbEntity
8
0
100
AcDbLine
62
7
6
CONTINUOUS
10
98.6351903870
20
153.7969534440
11
98.6351903870
21
133.5110274473
0
LINE
5
406
100
AcDbEntity
8
0
100
AcDbLine
62
7
6
CONTINUOUS
10
98.6351903870
20
97.2969534440
11
98.6351903870
21
98.5828794406
0
LINE
5
407
100
AcDbEntity
8
0
100
AcDbLine
62
7
6
CONTINUOUS
10
98.6351903870
20
101.4110274473
11
98.6351903870
21
109.4828794406
0
LINE
5
408
100
AcDbEntity
8
0
100
AcDbLine
62
7
6
CONTINUOUS
10
99.3351903870
20
209.6019960965
11
99.3351903870
21
207.5919107914
0
LINE
5
409
100
AcDbEntity
8
0
100
AcDbLine
62
7
6
CONTINUOUS
10
99.8351903870
20
209.6019960965
11
99.8351903870
21
207.5919107914
0
LINE
5
40A
100
AcDbEntity
8
0
100
AcDbLine
62
7
6
CONTINUOUS
10
97.3035944157
20
133.2816147416
11
97.4746044871
21
133.7514610521
0
LINE
5
40B
100
AcDbEntity
8
0
100
AcDbLine
62
7
6
CONTINUOUS
10
60.8351903870
20
183.1469534440
11
71.8351903870
21
183.1469534440
0
LINE
5
40C
100
AcDbEntity
8
0
100
AcDbLine
62
7
6
CONTINUOUS
10
73.4351903870
20
183.1469534440
11
84.4351903870
21
183.1469534440
0
LINE
5
40D
100
AcDbEntity
8
0
100
AcDbLine
62
7
6
CONTINUOUS
10
86.0351903870
20
183.1469534440
11
97.0351903870
21
183.1469534440
0
LINE
5
40E
100
AcDbEntity
8
0
100
AcDbLine
62
7
6
CONTINUOUS
10
62.5851903870
20
183.4969534440
11
70.0851903870
21
183.4969534440
0
LINE
5
40F
100
AcDbEntity
8
0
100
AcDbLine
62
7
6
CONTINUOUS
10
75.1851903870
20
183.4969534440
11
82.6851903870
21
183.4969534440
0
LINE
5
410
100
AcDbEntity
8
0
100
AcDbLine
62
7
6
CONTINUOUS
10
87.7851903870
20
183.4969534440
11
95.2851903870
21
183.4969534440
0
LINE
5
411
100
AcDbEntity
8
0
100
AcDbLine
62
7
6
CONTINUOUS
10
60.8351903870
20
183.8469534440
11
71.8351903870
21
183.8469534440
0
LINE
5
412
100
AcDbEntity
8
0
100
AcDbLine
62
7
6
CONTINUOUS
10
73.4351903870
20
183.8469534440
11
84.4351903870
21
183.8469534440
0
LINE
5
413
100
AcDbEntity
8
0
100
AcDbLine
62
7
6
CONTINUOUS
10
86.0351903870
20
183.8469534440
11
97.0351903870
21
183.8469534440
0
LINE
5
414
100
AcDbEntity
8
0
100
AcDbLine
62
7
6
CONTINUOUS
10
97.9641803154
20
175.5411811369
11
97.3035944157
21
175.7816147416
0
LINE
5
415
100
AcDbEntity
8
0
100
AcDbLine
62
7
6
CONTINUOUS
10
98.1351903870
20
176.0110274473
11
97.4746044873
21
176.2514610520
0
LINE
5
416
100
AcDbEntity
8
0
100
AcDbLine
62
7
6
CONTINUOUS
10
97.9641803154
20
133.0411811369
11
98.1351903870
21
133.5110274473
0
LINE
5
417
100
AcDbEntity
8
0
100
AcDbLine
62
7
6
CONTINUOUS
10
60.8351903870
20
192.8469534440
11
71.8351903870
21
192.8469534440
0
LINE
5
418
100
AcDbEntity
8
0
100
AcDbLine
62
7
6
CONTINUOUS
10
73.4351903870
20
192.8469534440
11
84.4351903870
21
192.8469534440
0
LINE
5
419
100
AcDbEntity
8
0
100
AcDbLine
62
7
6
CONTINUOUS
10
86.0351903870
20
192.8469534440
11
97.0351903870
21
192.8469534440
0
LINE
5
41A
100
AcDbEntity
8
0
100
AcDbLine
62
7
6
CONTINUOUS
10
97.3035944157
20
198.4122921463
11
97.4746044873
21
197.9424458359
0
LINE
5
41B
100
AcDbEntity
8
0
100
AcDbLine
62
7
6
CONTINUOUS
10
97.9641803154
20
198.6527257510
11
98.1351903870
21
198.1828794406
0
LINE
5
41C
100
AcDbEntity
8
0
100
AcDbLine
62
7
6
CONTINUOUS
10
62.5851903870
20
193.1969534440
11
70.0851903870
21
193.1969534440
0
LINE
5
41D
100
AcDbEntity
8
0
100
AcDbLine
62
7
6
CONTINUOUS
10
75.1851903870
20
193.1969534440
11
82.6851903870
21
193.1969534440
0
LINE
5
41E
100
AcDbEntity
8
0
100
AcDbLine
62
7
6
CONTINUOUS
10
87.7851903870
20
193.1969534440
11
95.2851903870
21
193.1969534440
0
LINE
5
41F
100
AcDbEntity
8
0
100
AcDbLine
62
7
6
CONTINUOUS
10
60.8351903870
20
193.5469534440
11
71.8351903870
21
193.5469534440
0
LINE
5
420
100
AcDbEntity
8
0
100
AcDbLine
62
7
6
CONTINUOUS
10
73.4351903870
20
193.5469534440
11
84.4351903870
21
193.5469534440
0
LINE
5
421
100
AcDbEntity
8
0
100
AcDbLine
62
7
6
CONTINUOUS
10
86.0351903870
20
193.5469534440
11
97.0351903870
21
193.5469534440
0
LINE
5
422
100
AcDbEntity
8
0
100
AcDbLine
62
7
6
CONTINUOUS
10
97.3035944157
20
209.3946445212
11
97.4746044873
21
208.9247982108
0
LINE
5
423
100
AcDbEntity
8
0
100
AcDbLine
62
7
6
CONTINUOUS
10
98.6351903870
20
198.1828794406
11
98.1351903870
21
198.1828794406
0
LINE
5
424
100
AcDbEntity
8
0
100
AcDbLine
62
7
6
CONTINUOUS
10
99.1641803154
20
210.0718424069
11
99.3351903870
21
209.6019960965
0
LINE
5
425
100
AcDbEntity
8
0
100
AcDbLine
62
7
6
CONTINUOUS
10
97.3035944157
20
109.7122921463
11
97.9641803154
21
109.9527257510
0
LINE
5
426
100
AcDbEntity
8
0
100
AcDbLine
62
7
6
CONTINUOUS
10
97.4746044873
20
109.2424458359
11
98.1351903870
21
109.4828794406
0
LINE
5
427
100
AcDbEntity
8
0
100
AcDbLine
62
7
6
CONTINUOUS
10
60.8351903870
20
202.5469534440
11
71.8351903870
21
202.5469534440
0
LINE
5
428
100
AcDbEntity
8
0
100
AcDbLine
62
7
6
CONTINUOUS
10
73.4351903870
20
202.5469534440
11
84.4351903870
21
202.5469534440
0
LINE
5
429
100
AcDbEntity
8
0
100
AcDbLine
62
7
6
CONTINUOUS
10
86.0351903870
20
202.5469534440
11
97.0351903870
21
202.5469534440
0
LINE
5
42A
100
AcDbEntity
8
0
100
AcDbLine
62
7
6
CONTINUOUS
10
62.5851903870
20
202.8969534440
11
70.0851903870
21
202.8969534440
0
LINE
5
42B
100
AcDbEntity
8
0
100
AcDbLine
62
7
6
CONTINUOUS
10
75.1851903870
20
202.8969534440
11
82.6851903870
21
202.8969534440
0
LINE
5
42C
100
AcDbEntity
8
0
100
AcDbLine
62
7
6
CONTINUOUS
10
87.7851903870
20
202.8969534440
11
95.2851903870
21
202.8969534440
0
LINE
5
42D
100
AcDbEntity
8
0
100
AcDbLine
62
7
6
CONTINUOUS
10
94.0351903870
20
205.2969534440
11
89.0351903870
21
205.2969534440
0
LINE
5
42E
100
AcDbEntity
8
0
100
AcDbLine
62
7
6
CONTINUOUS
10
81.4351903870
20
205.2969534440
11
76.4351903870
21
205.2969534440
0
LINE
5
42F
100
AcDbEntity
8
0
100
AcDbLine
62
7
6
CONTINUOUS
10
68.8351903870
20
205.2969534440
11
63.8351903870
21
205.2969534440
0
LINE
5
430
100
AcDbEntity
8
0
100
AcDbLine
62
7
6
CONTINUOUS
10
96.5351903870
20
205.3969534440
11
88.5351903870
21
205.3969534440
0
LINE
5
431
100
AcDbEntity
8
0
100
AcDbLine
62
7
6
CONTINUOUS
10
81.9351903870
20
205.3969534440
11
75.9351903870
21
205.3969534440
0
LINE
5
432
100
AcDbEntity
8
0
100
AcDbLine
62
7
6
CONTINUOUS
10
69.3351903870
20
205.3969534440
11
63.3351903870
21
205.3969534440
0
LINE
5
433
100
AcDbEntity
8
0
100
AcDbLine
62
7
6
CONTINUOUS
10
82.4351903870
20
205.8969534440
11
75.4351903870
21
205.8969534440
0
LINE
5
434
100
AcDbEntity
8
0
100
AcDbLine
62
7
6
CONTINUOUS
10
69.8351903870
20
205.8969534440
11
62.8351903870
21
205.8969534440
0
LINE
5
435
100
AcDbEntity
8
0
100
AcDbLine
62
7
6
CONTINUOUS
10
55.4662680131
20
205.8969534440
11
58.8351903870
21
205.8969534440
0
LINE
5
436
100
AcDbEntity
8
0
100
AcDbLine
62
7
6
CONTINUOUS
10
88.0351903870
20
205.8969534440
11
97.0351903870
21
205.8969534440
0
LINE
5
437
100
AcDbEntity
8
0
100
AcDbLine
62
7
6
CONTINUOUS
10
91.3391037271
20
206.3969534440
11
88.0351903870
21
206.3969534440
0
LINE
5
438
100
AcDbEntity
8
0
100
AcDbLine
62
7
6
CONTINUOUS
10
82.4351903870
20
206.3969534440
11
75.4351903870
21
206.3969534440
0
LINE
5
439
100
AcDbEntity
8
0
100
AcDbLine
62
7
6
CONTINUOUS
10
69.8351903870
20
206.3969534440
11
62.8351903870
21
206.3969534440
0
LINE
5
43A
100
AcDbEntity
8
0
100
AcDbLine
62
7
6
CONTINUOUS
10
58.6566959047
20
206.8969534440
11
64.6135357418
21
206.8969534440
0
LINE
5
43B
100
AcDbEntity
8
0
100
AcDbLine
62
7
6
CONTINUOUS
10
67.6727673653
20
206.8969534440
11
78.0463709453
21
206.8969534440
0
LINE
5
43C
100
AcDbEntity
8
0
100
AcDbLine
62
7
6
CONTINUOUS
10
79.8240098287
20
206.8969534440
11
88.8894390169
21
206.8969534440
0
LINE
5
43D
100
AcDbEntity
8
0
100
AcDbLine
62
7
6
CONTINUOUS
10
58.6056757071
20
207.3969534440
11
64.5824359087
21
207.3969534440
0
LINE
5
43E
100
AcDbEntity
8
0
100
AcDbLine
62
7
6
CONTINUOUS
10
67.6518992692
20
207.3969534440
11
78.0463709453
21
207.3969534440
0
LINE
5
43F
100
AcDbEntity
8
0
100
AcDbLine
62
7
6
CONTINUOUS
10
79.8240098287
20
207.3969534440
11
88.8894390760
21
207.3969534440
0
LINE
5
440
100
AcDbEntity
8
0
100
AcDbLine
62
7
6
CONTINUOUS
10
99.8351903870
20
207.5919107914
11
99.3351903870
21
207.5919107914
0
LINE
5
441
100
AcDbEntity
8
0
100
AcDbLine
62
7
6
CONTINUOUS
10
96.6824980280
20
207.6113238426
11
97.0351903870
21
207.6113238394
0
LINE
5
442
100
AcDbEntity
8
0
100
AcDbLine
62
7
6
CONTINUOUS
10
96.6824980280
20
209.5825830453
11
97.0351903870
21
209.5825830453
0
LINE
5
443
100
AcDbEntity
8
0
100
AcDbLine
62
7
6
CONTINUOUS
10
99.8351903870
20
209.6019960965
11
99.3351903870
21
209.6019960965
0
LINE
5
444
100
AcDbEntity
8
0
100
AcDbLine
62
7
6
CONTINUOUS
10
97.9641803154
20
99.0527257510
11
96.3062004587
21
98.4492704341
0
LWPOLYLINE
5
445
100
AcDbEntity
8
0
100
AcDbPolyline
62
7
6
CONTINUOUS
90
13
70
0
10
47.6660591280
20
211.7969726908
10
47.6191046513
20
211.7964719351
10
47.3993499175
20
211.7811245466
10
47.1945964887
20
211.7464350695
10
47.0047018717
20
211.6942021902
10
46.8292839198
20
211.6248626175
10
46.6702716454
20
211.5383594856
10
46.5305545322
20
211.4350577044
10
46.4114427217
20
211.3148977446
10
46.3210928639
20
211.1835571757
10
46.2591726591
20
211.0417701109
10
46.2252211520
20
210.8972806582
10
46.2182294977
20
210.7969534485
0
LINE
5
446
100
AcDbEntity
8
0
100
AcDbLine
62
7
6
CONTINUOUS
10
46.2182222232
20
210.7969534490
11
97.0351903870
21
210.7969534440
0
LINE
5
447
100
AcDbEntity
8
0
100
AcDbLine
62
7
6
CONTINUOUS
10
47.6662077137
20
211.7969534440
11
96.5351903870
21
211.7969534440
0
LINE
5
448
100
AcDbEntity
8
0
100
AcDbLine
62
7
6
CONTINUOUS
10
99.1641803154
20
207.1220644810
11
97.3035944157
21
207.7992623668
0
LINE
5
449
100
AcDbEntity
8
0
100
AcDbLine
62
7
6
CONTINUOUS
10
99.3351903870
20
207.5919107914
11
97.4746044873
21
208.2691086772
0
LINE
5
44A
100
AcDbEntity
8
0
100
AcDbLine
62
7
6
CONTINUOUS
10
144.4202531579
20
259.3175142729
11
143.7589903650
21
252.5904056763
0
LINE
5
44B
100
AcDbEntity
8
0
100
AcDbLine
62
7
6
CONTINUOUS
10
147.3472081218
20
263.7888307889
11
144.4202531579
21
259.3175142729
0
LINE
5
44C
100
AcDbEntity
8
0
100
AcDbLine
62
7
6
CONTINUOUS
10
145.2030456853
20
245.2060896722
11
148.5904950388
21
239.8147208122
0
LINE
5
44D
100
AcDbEntity
8
0
100
AcDbLine
62
7
6
CONTINUOUS
10
143.7589903650
20
252.5904056763
11
145.2030456853
21
245.2060896722
0
LINE
5
44E
100
AcDbEntity
8
0
100
AcDbLine
62
7
6
CONTINUOUS
10
151.7084518400
20
253.8147208122
11
151.7084518400
21
247.8147208122
0
LWPOLYLINE
5
44F
100
AcDbEntity
8
0
100
AcDbPolyline
62
7
6
CONTINUOUS
90
9
70
0
10
152.2084518400
20
247.8147208122
10
152.2180591998
20
247.6196304902
10
152.2465120738
20
247.4320373798
10
152.2927170339
20
247.2591505792
10
152.3548984494
20
247.1076140310
10
152.4306667235
20
246.9832511999
10
152.5171101238
20
246.8908412797
10
152.6109066790
20
246.8339355318
10
152.7084518400
20
246.8147208122
0
LINE
5
450
100
AcDbEntity
8
0
100
AcDbLine
62
7
6
CONTINUOUS
10
152.2084518400
20
247.8147208122
11
152.2084518400
21
253.8147208122
0
LINE
5
451
100
AcDbEntity
8
0
100
AcDbLine
62
7
6
CONTINUOUS
10
148.5904950388
20
239.8147208122
11
184.4337156457
21
239.8147208122
0
LINE
5
452
100
AcDbEntity
8
0
100
AcDbLine
62
7
6
CONTINUOUS
10
147.9621853383
20
240.8147208122
11
156.7084518400
21
240.8147208122
0
LINE
5
453
100
AcDbEntity
8
0
100
AcDbLine
62
7
6
CONTINUOUS
10
169.7084518400
20
240.8147208122
11
184.6807503954
21
240.8147208122
0
LINE
5
454
100
AcDbEntity
8
0
100
AcDbLine
62
7
6
CONTINUOUS
10
156.7084518400
20
239.8147208122
11
156.7084518400
21
246.8147208122
0
LWPOLYLINE
5
455
100
AcDbEntity
8
0
100
AcDbPolyline
62
7
6
CONTINUOUS
90
9
70
0
10
173.7084518400
20
246.8147208122
10
173.8059970010
20
246.8339355318
10
173.8997935562
20
246.8908412797
10
173.9862369565
20
246.9832511999
10
174.0620052306
20
247.1076140310
10
174.1241866462
20
247.2591505792
10
174.1703916063
20
247.4320373798
10
174.1988444802
20
247.6196304902
10
174.2084518400
20
247.8147208122
0
LINE
5
456
100
AcDbEntity
8
0
100
AcDbLine
62
7
6
CONTINUOUS
10
152.7084518400
20
246.8147208122
11
173.7084518400
21
246.8147208122
0
LINE
5
457
100
AcDbEntity
8
0
100
AcDbLine
62
7
6
CONTINUOUS
10
151.7084518400
20
247.8147208122
11
174.7084518400
21
247.8147208122
0
LWPOLYLINE
5
458
100
AcDbEntity
8
0
100
AcDbPolyline
62
7
6
CONTINUOUS
90
3
70
0
10
163.2084518400
20
246.8147208122
10
163.2067788257
20
246.8309825688
10
163.2084518400
20
246.8806347261
0
LINE
5
459
100
AcDbEntity
8
0
100
AcDbLine
62
7
6
CONTINUOUS
10
163.2084518400
20
247.8147208122
11
163.2084518400
21
253.8147208122
0
LINE
5
45A
100
AcDbEntity
8
DEFAULT_1
100
AcDbLine
62
2
6
CENTER
10
163.2084518400
20
238.0547174154
11
163.2084518400
21
246.8806347261
0
LINE
5
45B
100
AcDbEntity
8
DEFAULT_1
100
AcDbLine
62
2
6
CENTER
10
163.2084518400
20
254.7488068983
11
163.2084518400
21
263.3299964785
0
LINE
5
45C
100
AcDbEntity
8
DEFAULT_1
100
AcDbLine
62
2
6
CENTER
10
163.2084518400
20
247.4029410268
11
163.2084518400
21
247.8147208122
0
LINE
5
45D
100
AcDbEntity
8
DEFAULT_1
100
AcDbLine
62
2
6
CENTER
10
163.2084518400
20
253.8147208122
11
163.2084518400
21
254.2265005976
0
LINE
5
45E
100
AcDbEntity
8
0
100
AcDbLine
62
7
6
CONTINUOUS
10
163.2084518400
20
254.7488068983
11
163.2084518400
21
254.2265005976
0
LINE
5
45F
100
AcDbEntity
8
0
100
AcDbLine
62
7
6
CONTINUOUS
10
163.2084518400
20
246.8806347261
11
163.2084518400
21
247.4029410268
0
LWPOLYLINE
5
460
100
AcDbEntity
8
0
100
AcDbPolyline
62
7
6
CONTINUOUS
90
3
70
0
10
163.2084518400
20
254.2265005976
10
163.2067999665
20
254.0282599634
10
163.2084518400
20
253.8147208122
0
LWPOLYLINE
5
461
100
AcDbEntity
8
0
100
AcDbPolyline
62
7
6
CONTINUOUS
90
3
70
0
10
163.2084518400
20
247.4029410268
10
163.2101037136
20
247.6011816609
10
163.2084518400
20
247.8147208122
0
LWPOLYLINE
5
462
100
AcDbEntity
8
0
100
AcDbPolyline
62
7
6
CONTINUOUS
90
3
70
0
10
163.2084518400
20
254.8147208122
10
163.2101248543
20
254.7984590555
10
163.2084518400
20
254.7488068983
0
LINE
5
463
100
AcDbEntity
8
0
100
AcDbLine
62
7
6
CONTINUOUS
10
151.7084518400
20
253.8147208122
11
174.7084518400
21
253.8147208122
0
LINE
5
464
100
AcDbEntity
8
0
100
AcDbLine
62
7
6
CONTINUOUS
10
173.7084518400
20
254.8147208122
11
152.7084518400
21
254.8147208122
0
LINE
5
465
100
AcDbEntity
8
0
100
AcDbLine
62
7
6
CONTINUOUS
10
169.7084518400
20
239.8147208122
11
169.7084518400
21
246.8147208122
0
LWPOLYLINE
5
466
100
AcDbEntity
8
0
100
AcDbPolyline
62
7
6
CONTINUOUS
90
9
70
0
10
152.7084518400
20
254.8147208122
10
152.6109066790
20
254.7955060926
10
152.5171101238
20
254.7386003447
10
152.4306667235
20
254.6461904245
10
152.3548984494
20
254.5218275934
10
152.2927170339
20
254.3702910452
10
152.2465120738
20
254.1974042445
10
152.2180591998
20
254.0098111342
10
152.2084518400
20
253.8147208122
0
LWPOLYLINE
5
467
100
AcDbEntity
8
0
100
AcDbPolyline
62
7
6
CONTINUOUS
90
9
70
0
10
174.2084518400
20
253.8147208122
10
174.1988444802
20
254.0098111342
10
174.1703916063
20
254.1974042445
10
174.1241866462
20
254.3702910452
10
174.0620052306
20
254.5218275934
10
173.9862369565
20
254.6461904245
10
173.8997935562
20
254.7386003447
10
173.8059970010
20
254.7955060926
10
173.7084518400
20
254.8147208122
0
LINE
5
468
100
AcDbEntity
8
0
100
AcDbLine
62
7
6
CONTINUOUS
10
174.2084518400
20
253.8147208122
11
174.2084518400
21
247.8147208122
0
LINE
5
469
100
AcDbEntity
8
0
100
AcDbLine
62
7
6
CONTINUOUS
10
174.7084518400
20
253.8147208122
11
174.7084518400
21
247.8147208122
0
LINE
5
46A
100
AcDbEntity
8
0
100
AcDbLine
62
7
6
CONTINUOUS
10
163.0710659898
20
262.3593891645
11
157.0158827996
21
264.1705123222
0
LINE
5
46B
100
AcDbEntity
8
0
100
AcDbLine
62
7
6
CONTINUOUS
10
173.8175210956
20
258.2736669982
11
163.0710659898
21
262.3593891645
0
LINE
5
46C
100
AcDbEntity
8
0
100
AcDbLine
62
7
6
CONTINUOUS
10
182.2874061110
20
252.9789831562
11
173.8175210956
21
258.2736669982
0
LINE
5
46D
100
AcDbEntity
8
0
100
AcDbLine
62
7
6
CONTINUOUS
10
157.0158827996
20
264.1705123222
11
151.5917061241
21
264.9292426925
0
LINE
5
46E
100
AcDbEntity
8
0
100
AcDbLine
62
7
6
CONTINUOUS
10
151.5917061241
20
264.9292426925
11
147.3472081218
21
263.7888307889
0
LINE
5
46F
100
AcDbEntity
8
0
100
AcDbLine
62
7
6
CONTINUOUS
10
185.9421319797
20
245.9208104843
11
182.2874061110
21
252.9789831562
0
LINE
5
470
100
AcDbEntity
8
0
100
AcDbLine
62
7
6
CONTINUOUS
10
184.4337156457
20
239.8147208122
11
185.9421319797
21
245.9208104843
0
ARC
5
471
100
AcDbEntity
8
0
100
AcDbCircle
62
7
6
CONTINUOUS
10
66.3351903870
20
260.8997470421
40
5.5000000000
100
AcDbArc
50
52.1065377356
51
133.8357910032
0
ARC
5
472
100
AcDbEntity
8
0
100
AcDbCircle
62
7
6
CONTINUOUS
10
78.9351903870
20
260.8997470421
40
5.5000000000
100
AcDbArc
50
53.1526100689
51
126.8473899311
0
ARC
5
473
100
AcDbEntity
8
0
100
AcDbCircle
62
7
6
CONTINUOUS
10
91.5351903870
20
260.8997470421
40
5.5000000000
100
AcDbArc
50
50.0625773708
51
126.8473899311
0
CIRCLE
5
474
100
AcDbEntity
8
0
100
AcDbCircle
62
7
6
CONTINUOUS
10
91.5351903870
20
260.8997470421
40
2.5500000000
0
CIRCLE
5
475
100
AcDbEntity
8
0
100
AcDbCircle
62
7
6
CONTINUOUS
10
78.9351903870
20
260.8997470421
40
2.5500000000
0
CIRCLE
5
476
100
AcDbEntity
8
0
100
AcDbCircle
62
7
6
CONTINUOUS
10
66.3351903870
20
260.8997470421
40
2.5500000000
0
ARC
5
477
100
AcDbEntity
8
0
100
AcDbCircle
62
7
6
CONTINUOUS
10
23.6589004690
20
195.6834213882
40
70.0000000000
100
AcDbArc
50
43.7102480399
51
70.9082048100
0
ARC
5
478
100
AcDbEntity
8
0
100
AcDbCircle
62
7
6
CONTINUOUS
10
46.7182222211
20
262.3056224952
40
0.5000000000
100
AcDbArc
50
100.4804936525
51
250.9082048103
0
ARC
5
479
100
AcDbEntity
8
0
100
AcDbCircle
62
7
6
CONTINUOUS
10
90.4851903870
20
250.8997470421
40
0.5000000000
100
AcDbArc
50
0.0000000000
51
90.0000000000
0
ARC
5
47A
100
AcDbEntity
8
0
100
AcDbCircle
62
7
6
CONTINUOUS
10
73.9123867104
20
115.2997470421
40
150.0000000000
100
AcDbArc
50
90.0000000000
51
100.4804936525
0
ARC
5
47B
100
AcDbEntity
8
0
100
AcDbCircle
62
7
6
CONTINUOUS
10
90.4851903870
20
247.8997470421
40
0.5000000000
100
AcDbArc
50
270.0000000000
51
360.0000000000
0
ARC
5
47C
100
AcDbEntity
8
0
100
AcDbCircle
62
7
6
CONTINUOUS
10
79.9851903870
20
247.8997470421
40
0.5000000000
100
AcDbArc
50
180.0000000000
51
270.0000000000
0
ARC
5
47D
100
AcDbEntity
8
0
100
AcDbCircle
62
7
6
CONTINUOUS
10
79.9851903870
20
250.8997470421
40
0.5000000000
100
AcDbArc
50
90.0000000000
51
180.0000000000
0
ARC
5
47E
100
AcDbEntity
8
0
100
AcDbCircle
62
7
6
CONTINUOUS
10
74.6193715695
20
244.3997470421
40
0.5000000000
100
AcDbArc
50
223.7102480399
51
270.0000000000
0
ARC
5
47F
100
AcDbEntity
8
0
100
AcDbCircle
62
7
6
CONTINUOUS
10
99.3351903870
20
263.7997470421
40
0.5000000000
100
AcDbArc
50
0.0000000000
51
90.0000000000
0
ARC
5
480
100
AcDbEntity
8
0
100
AcDbCircle
62
7
6
CONTINUOUS
10
99.3351903870
20
244.3997470421
40
0.5000000000
100
AcDbArc
50
270.0000000000
51
360.0000000000
0
ARC
5
481
100
AcDbEntity
8
0
100
AcDbCircle
62
7
6
CONTINUOUS
10
92.3901923886
20
245.2997470421
40
20.0000000000
100
AcDbArc
50
72.8655305650
51
90.0000000000
0
ARC
5
482
100
AcDbEntity
8
0
100
AcDbCircle
62
7
6
CONTINUOUS
10
98.1351903870
20
263.9342579828
40
0.5000000000
100
AcDbArc
50
0.0000000000
51
72.8655305650
0
ARC
5
483
100
AcDbEntity
8
0
100
AcDbCircle
62
7
6
CONTINUOUS
10
98.1351903870
20
244.3997470421
40
0.5000000000
100
AcDbArc
50
270.0000000000
51
360.0000000000
0
ARC
5
484
100
AcDbEntity
8
0
100
AcDbCircle
62
7
6
CONTINUOUS
10
23.6589004690
20
195.6834213882
40
70.5000008247
100
AcDbArc
50
43.7102480399
51
70.0908820872
0
ARC
5
485
100
AcDbEntity
8
0
100
AcDbCircle
62
7
6
CONTINUOUS
10
92.3901923886
20
245.2997470421
40
19.0000000000
100
AcDbArc
50
72.4000946751
51
90.0000000000
0
ARC
5
486
100
AcDbEntity
8
0
100
AcDbCircle
62
7
6
CONTINUOUS
10
73.9123867104
20
115.2997470421
40
149.0000000000
100
AcDbArc
50
90.0000000000
51
100.1455211333
0
ARC
5
487
100
AcDbEntity
8
0
100
AcDbCircle
62
7
6
CONTINUOUS
10
85.2351903870
20
105.9969534440
40
3.0000000000
100
AcDbArc
50
74.5295788842
51
105.4704211158
0
ARC
5
488
100
AcDbEntity
8
0
100
AcDbCircle
62
7
6
CONTINUOUS
10
85.2351903870
20
104.9969534440
40
3.0000000000
100
AcDbArc
50
180.0000000000
51
360.0000000000
0
ARC
5
489
100
AcDbEntity
8
0
100
AcDbCircle
62
7
6
CONTINUOUS
10
85.2351903870
20
202.5969534440
40
3.0000000000
100
AcDbArc
50
254.5295788842
51
285.4704211158
0
ARC
5
48A
100
AcDbEntity
8
0
100
AcDbCircle
62
7
6
CONTINUOUS
10
85.2351903870
20
203.5969534440
40
3.0000000000
100
AcDbArc
50
0.0000000000
51
180.0000000000
0
ARC
5
48B
100
AcDbEntity
8
0
100
AcDbCircle
62
7
6
CONTINUOUS
10
63.3351903870
20
102.6969534440
40
0.5000000000
100
AcDbArc
50
90.0000000000
51
180.0000000000
0
ARC
5
48C
100
AcDbEntity
8
0
100
AcDbCircle
62
7
6
CONTINUOUS
10
69.3351903870
20
102.6969534440
40
0.5000000000
100
AcDbArc
50
0.0000000000
51
90.0000000000
0
ARC
5
48D
100
AcDbEntity
8
0
100
AcDbCircle
62
7
6
CONTINUOUS
10
75.9351903870
20
102.6969534440
40
0.5000000000
100
AcDbArc
50
90.0000000000
51
180.0000000000
0
ARC
5
48E
100
AcDbEntity
8
0
100
AcDbCircle
62
7
6
CONTINUOUS
10
81.9351903870
20
102.6969534440
40
0.5000000000
100
AcDbArc
50
0.0000000000
51
90.0000000000
0
ARC
5
48F
100
AcDbEntity
8
0
100
AcDbCircle
62
7
6
CONTINUOUS
10
63.3351903870
20
205.8969534440
40
0.5000000000
100
AcDbArc
50
180.0000000000
51
270.0000000000
0
ARC
5
490
100
AcDbEntity
8
0
100
AcDbCircle
62
7
6
CONTINUOUS
10
69.3351903870
20
205.8969534440
40
0.5000000000
100
AcDbArc
50
270.0000000000
51
360.0000000000
0
ARC
5
491
100
AcDbEntity
8
0
100
AcDbCircle
62
7
6
CONTINUOUS
10
75.9351903870
20
205.8969534440
40
0.5000000000
100
AcDbArc
50
180.0000000000
51
270.0000000000
0
ARC
5
492
100
AcDbEntity
8
0
100
AcDbCircle
62
7
6
CONTINUOUS
10
81.9351903870
20
205.8969534440
40
0.5000000000
100
AcDbArc
50
270.0000000000
51
360.0000000000
0
ARC
5
493
100
AcDbEntity
8
0
100
AcDbCircle
62
7
6
CONTINUOUS
10
70.3351903870
20
206.3969534440
40
0.5000000000
100
AcDbArc
50
90.0000000000
51
180.0000000000
0
ARC
5
494
100
AcDbEntity
8
0
100
AcDbCircle
62
7
6
CONTINUOUS
10
62.3351903870
20
206.3969534440
40
0.5000000000
100
AcDbArc
50
0.0000000000
51
90.0000000000
0
ARC
5
495
100
AcDbEntity
8
0
100
AcDbCircle
62
7
6
CONTINUOUS
10
74.9351903870
20
206.3969534440
40
0.5000000000
100
AcDbArc
50
0.0000000000
51
78.7500000081
0
ARC
5
496
100
AcDbEntity
8
0
100
AcDbCircle
62
7
6
CONTINUOUS
10
82.9351903870
20
206.3969534440
40
0.5000000000
100
AcDbArc
50
101.2502782664
51
180.0000000000
0
ARC
5
497
100
AcDbEntity
8
0
100
AcDbCircle
62
7
6
CONTINUOUS
10
87.5351903870
20
206.3969534440
40
0.5000000000
100
AcDbArc
50
0.0000000000
51
78.7500000000
0
ARC
5
498
100
AcDbEntity
8
0
100
AcDbCircle
62
7
6
CONTINUOUS
10
87.5351903870
20
102.1969534440
40
0.5000000000
100
AcDbArc
50
270.0000000000
51
360.0000000000
0
ARC
5
499
100
AcDbEntity
8
0
100
AcDbCircle
62
7
6
CONTINUOUS
10
74.9351903870
20
102.1969534440
40
0.5000000000
100
AcDbArc
50
281.2504009049
51
360.0000000000
0
ARC
5
49A
100
AcDbEntity
8
0
100
AcDbCircle
62
7
6
CONTINUOUS
10
82.9351903870
20
102.1969534440
40
0.5000000000
100
AcDbArc
50
180.0000000000
51
258.7500000082
0
ARC
5
49B
100
AcDbEntity
8
0
100
AcDbCircle
62
7
6
CONTINUOUS
10
70.3351903870
20
102.1969534440
40
0.5000000000
100
AcDbArc
50
180.0000000000
51
270.0000000000
0
ARC
5
49C
100
AcDbEntity
8
0
100
AcDbCircle
62
7
6
CONTINUOUS
10
62.3351903870
20
102.1969534440
40
0.5000000000
100
AcDbArc
50
270.0000000000
51
360.0000000000
0
ARC
5
49D
100
AcDbEntity
8
0
100
AcDbCircle
62
7
6
CONTINUOUS
10
59.8351903870
20
102.6969534440
40
1.0000000000
100
AcDbArc
50
180.0000000000
51
270.0000000000
0
ARC
5
49E
100
AcDbEntity
8
0
100
AcDbCircle
62
7
6
CONTINUOUS
10
88.5351903870
20
205.8969534440
40
0.5000000000
100
AcDbArc
50
180.0000000000
51
270.0000000000
0
ARC
5
49F
100
AcDbEntity
8
0
100
AcDbCircle
62
7
6
CONTINUOUS
10
59.8351903870
20
205.8969534440
40
1.0000000000
100
AcDbArc
50
90.0000000000
51
180.0000000000
0
ARC
5
4A0
100
AcDbEntity
8
0
100
AcDbCircle
62
7
6
CONTINUOUS
10
88.5351903870
20
102.6969534440
40
0.5000000000
100
AcDbArc
50
90.0000000000
51
180.0000000000
0
ARC
5
4A1
100
AcDbEntity
8
0
100
AcDbCircle
62
7
6
CONTINUOUS
10
97.2351903870
20
109.9002306705
40
0.2000000000
100
AcDbArc
50
180.0000000000
51
290.0000000000
0
ARC
5
4A2
100
AcDbEntity
8
0
100
AcDbCircle
62
7
6
CONTINUOUS
10
97.2351903870
20
133.0936762174
40
0.2000000000
100
AcDbArc
50
70.0000000000
51
180.0000000000
0
ARC
5
4A3
100
AcDbEntity
8
0
100
AcDbCircle
62
7
6
CONTINUOUS
10
97.2351903870
20
154.4969534440
40
0.2000000000
100
AcDbArc
50
180.0000000000
51
270.0000000000
0
ARC
5
4A4
100
AcDbEntity
8
0
100
AcDbCircle
62
7
6
CONTINUOUS
10
97.2351903870
20
175.5936762174
40
0.2000000000
100
AcDbArc
50
70.0000000000
51
180.0000000000
0
ARC
5
4A5
100
AcDbEntity
8
0
100
AcDbCircle
62
7
6
CONTINUOUS
10
97.2351903870
20
198.6002306705
40
0.2000000000
100
AcDbArc
50
180.0000000000
51
290.0000000000
0
ARC
5
4A6
100
AcDbEntity
8
0
100
AcDbCircle
62
7
6
CONTINUOUS
10
99.3351903870
20
209.6019960965
40
0.5000000000
100
AcDbArc
50
0.0000000000
51
110.0000000000
0
ARC
5
4A7
100
AcDbEntity
8
0
100
AcDbCircle
62
7
6
CONTINUOUS
10
98.1351903870
20
101.4110274473
40
0.5000000000
100
AcDbArc
50
250.0000000000
51
360.0000000000
0
ARC
5
4A8
100
AcDbEntity
8
0
100
AcDbCircle
62
7
6
CONTINUOUS
10
98.1351903870
20
98.5828794406
40
0.5000000000
100
AcDbArc
50
0.0000000000
51
110.0000000000
0
ARC
5
4A9
100
AcDbEntity
8
0
100
AcDbCircle
62
7
6
CONTINUOUS
10
97.2351903870
20
207.6113238426
40
0.2000000000
100
AcDbArc
50
70.0000000000
51
180.0000000000
0
ARC
5
4AA
100
AcDbEntity
8
0
100
AcDbCircle
62
7
6
CONTINUOUS
10
96.5351903870
20
205.8969534440
40
0.5000000000
100
AcDbArc
50
270.0000000000
51
360.0000000000
0
ARC
5
4AB
100
AcDbEntity
8
0
100
AcDbCircle
62
7
6
CONTINUOUS
10
97.2351903870
20
209.5825830453
40
0.2000000000
100
AcDbArc
50
180.0000000000
51
290.0000000000
0
ARC
5
4AC
100
AcDbEntity
8
0
100
AcDbCircle
62
7
6
CONTINUOUS
10
96.5351903870
20
211.2969534440
40
0.5000000000
100
AcDbArc
50
0.0000000000
51
90.0000000000
0
ARC
5
4AD
100
AcDbEntity
8
0
100
AcDbCircle
62
7
6
CONTINUOUS
10
98.1351903870
20
102.6969534440
40
0.5000000000
100
AcDbArc
50
0.0000000000
51
90.0000000000
0
ARC
5
4AE
100
AcDbEntity
8
0
100
AcDbCircle
62
7
6
CONTINUOUS
10
96.1351903870
20
101.0747901434
40
0.5000000000
100
AcDbArc
50
70.0000000000
51
180.0000000000
0
ARC
5
4AF
100
AcDbEntity
8
0
100
AcDbCircle
62
7
6
CONTINUOUS
10
96.1351903870
20
98.9191167445
40
0.5000000000
100
AcDbArc
50
180.0000000000
51
290.0000000000
0
ARC
5
4B0
100
AcDbEntity
8
0
100
AcDbCircle
62
7
6
CONTINUOUS
10
98.1351903870
20
97.2969771255
40
0.5000000000
100
AcDbArc
50
270.0000000000
51
359.9972862968
0
ARC
5
4B1
100
AcDbEntity
8
0
100
AcDbCircle
62
7
6
CONTINUOUS
10
98.1351903870
20
198.1828794406
40
0.5000000000
100
AcDbArc
50
0.0000000000
51
110.0000000000
0
ARC
5
4B2
100
AcDbEntity
8
0
100
AcDbCircle
62
7
6
CONTINUOUS
10
98.1351903870
20
153.7969534440
40
0.5000000000
100
AcDbArc
50
0.0000000000
51
90.0000000000
0
ARC
5
4B3
100
AcDbEntity
8
0
100
AcDbCircle
62
7
6
CONTINUOUS
10
98.1351903870
20
109.4828794406
40
0.5000000000
100
AcDbArc
50
0.0000000000
51
110.0000000000
0
ARC
5
4B4
100
AcDbEntity
8
0
100
AcDbCircle
62
7
6
CONTINUOUS
10
99.3351903870
20
207.5919107914
40
0.5000000000
100
AcDbArc
50
250.0000000000
51
360.0000000000
0
ARC
5
4B5
100
AcDbEntity
8
0
100
AcDbCircle
62
7
6
CONTINUOUS
10
98.1351903870
20
176.0110274473
40
0.5000000000
100
AcDbArc
50
250.0000000000
51
360.0000000000
0
ARC
5
4B6
100
AcDbEntity
8
0
100
AcDbCircle
62
7
6
CONTINUOUS
10
98.1351903870
20
133.5110274473
40
0.5000000000
100
AcDbArc
50
250.0000000000
51
360.0000000000
0
ARC
5
4B7
100
AcDbEntity
8
0
100
AcDbCircle
62
7
6
CONTINUOUS
10
97.2351903870
20
109.9002306705
40
0.6999783896
100
AcDbArc
50
253.3612071361
51
290.0000000000
0
ARC
5
4B8
100
AcDbEntity
8
0
100
AcDbCircle
62
7
6
CONTINUOUS
10
97.2351903870
20
133.0936762174
40
0.6999783896
100
AcDbArc
50
70.0000000000
51
106.6562939503
0
ARC
5
4B9
100
AcDbEntity
8
0
100
AcDbCircle
62
7
6
CONTINUOUS
10
97.2351903870
20
154.4969534440
40
0.6999934600
100
AcDbArc
50
180.0000000000
51
220.1348144317
0
ARC
5
4BA
100
AcDbEntity
8
0
100
AcDbCircle
62
7
6
CONTINUOUS
10
97.2351903870
20
154.4969534440
40
0.6999934600
100
AcDbArc
50
253.3965036648
51
270.0000000000
0
ARC
5
4BB
100
AcDbEntity
8
0
100
AcDbCircle
62
7
6
CONTINUOUS
10
97.2351903870
20
175.5936762174
40
0.6999783896
100
AcDbArc
50
70.0000000000
51
106.6562939503
0
ARC
5
4BC
100
AcDbEntity
8
0
100
AcDbCircle
62
7
6
CONTINUOUS
10
97.2351903870
20
198.6002306705
40
0.6999783896
100
AcDbArc
50
253.3612071361
51
290.0000000000
0
ARC
5
4BD
100
AcDbEntity
8
0
100
AcDbCircle
62
7
6
CONTINUOUS
10
97.2351903870
20
207.6113238426
40
0.7000000000
100
AcDbArc
50
70.0000000000
51
106.6024027020
0
ARC
5
4BE
100
AcDbEntity
8
0
100
AcDbCircle
62
7
6
CONTINUOUS
10
97.2351903870
20
209.5825830453
40
0.7000000000
100
AcDbArc
50
253.3975972980
51
290.0000000000
0
ARC
5
4BF
100
AcDbEntity
8
0
100
AcDbCircle
62
7
6
CONTINUOUS
10
173.7084518400
20
253.8147208122
40
1.0000000000
100
AcDbArc
50
0.0000000000
51
90.0000000000
0
ARC
5
4C0
100
AcDbEntity
8
0
100
AcDbCircle
62
7
6
CONTINUOUS
10
173.7084518400
20
247.8147208122
40
1.0000000000
100
AcDbArc
50
270.0000000000
51
360.0000000000
0
ARC
5
4C1
100
AcDbEntity
8
0
100
AcDbCircle
62
7
6
CONTINUOUS
10
152.7084518400
20
247.8147208122
40
1.0000000000
100
AcDbArc
50
180.0000000000
51
270.0000000000
0
ARC
5
4C2
100
AcDbEntity
8
0
100
AcDbCircle
62
7
6
CONTINUOUS
10
152.7084518400
20
253.8147208122
40
1.0000000000
100
AcDbArc
50
90.0000000000
51
180.0000000000
0
CIRCLE
5
4C3
100
AcDbEntity
8
0
100
AcDbCircle
62
2
6
CONTINUOUS
10
85.8584387672
20
247.1883142571
40
10.1737890748
0
SPLINE
5
4C4
100
AcDbEntity
8
0
100
AcDbSpline
62
7
6
CONTINUOUS
70
0
71
3
72
14
73
10
74
8
42
0.0000001000
43
0.0000001000
44
0.0000000001
12
-1.3281450933
22
-0.0055362643
32
0.0000000000
13
1.0315430459
23
-0.8366116086
33
0.0000000000
40
0.0000000000
40
0.0000000000
40
0.0000000000
40
0.0000000000
40
0.0241175937
40
0.0950885282
40
0.2106318730
40
0.3621498415
40
0.5453659158
40
0.7582628707
40
1.0000000000
40
1.0000000000
40
1.0000000000
40
1.0000000000
10
46.6272718382
20
262.7972809415
30
0.0000000000
10
46.6165946170
20
262.7972364344
30
0.0000000000
10
46.6965540231
20
262.7566720632
30
0.0000000000
10
46.7241127071
20
262.7111952629
30
0.0000000000
10
46.8675590517
20
262.6129842547
30
0.0000000000
10
47.0133133064
20
262.4916111935
30
0.0000000000
10
47.2069998844
20
262.3400377259
30
0.0000000000
10
47.4261030825
20
262.1637880678
30
0.0000000000
10
47.5830869622
20
262.0373280877
30
0.0000000000
10
47.6662077137
20
261.9699147248
30
0.0000000000
11
46.6272718382
21
262.7972809415
31
0.0000000000
11
46.6528118863
21
262.7779482943
31
0.0000000000
11
46.7262074989
21
262.7188033099
31
0.0000000000
11
46.8472611161
21
262.6244852898
31
0.0000000000
11
47.0051089796
21
262.4996597054
31
0.0000000000
11
47.1956397869
21
262.3482919615
31
0.0000000000
11
47.4163753204
21
262.1715737506
31
0.0000000000
11
47.6662077137
21
261.9699147248
31
0.0000000000
0
SPLINE
5
4C5
100
AcDbEntity
8
0
100
AcDbSpline
62
7
6
CONTINUOUS
70
0
71
3
72
11
73
7
74
5
42
0.0000001000
43
0.0000001000
44
0.0000000001
12
-0.6016468973
22
0.0000000000
32
0.0000000000
13
0.0000000000
23
-0.6016468973
33
0.0000000000
40
0.0000000000
40
0.0000000000
40
0.0000000000
40
0.0000000000
40
0.1711361921
40
0.3961397340
40
0.6804010462
40
1.0000000000
40
1.0000000000
40
1.0000000000
40
1.0000000000
10
79.9851903870
20
251.3997470421
30
0.0000000000
10
79.9508692007
20
251.3997470421
30
0.0000000000
10
79.8724277469
20
251.3623720820
30
0.0000000000
10
79.7968300990
20
251.2450989039
30
0.0000000000
10
79.7464225670
20
251.0854606911
30
0.0000000000
10
79.7351903870
20
250.9638422817
30
0.0000000000
10
79.7351903870
20
250.8997470421
30
0.0000000000
11
79.9851903870
21
251.3997470421
31
0.0000000000
11
79.8895195289
21
251.3616868084
31
0.0000000000
11
79.8084136917
21
251.2533004327
31
0.0000000000
11
79.7542205039
21
251.0910887583
31
0.0000000000
11
79.7351903870
21
250.8997470421
31
0.0000000000
0
SPLINE
5
4C6
100
AcDbEntity
8
0
100
AcDbSpline
62
7
6
CONTINUOUS
70
0
71
3
72
11
73
7
74
5
42
0.0000001000
43
0.0000001000
44
0.0000000001
12
0.0000000000
22
-0.5000000000
32
0.0000000000
13
-0.0000000000
23
-0.5000000000
33
0.0000000000
40
0.0000000000
40
0.0000000000
40
0.0000000000
40
0.0000000000
40
0.0659139139
40
0.2655420826
40
0.5882202146
40
1.0000000000
40
1.0000000000
40
1.0000000000
40
1.0000000000
10
85.2351903870
20
251.3997470421
30
0.0000000000
10
85.2351903870
20
251.3887613898
30
0.0000000000
10
85.2351903870
20
251.3445043760
30
0.0000000000
10
85.2351903870
20
251.2464676736
30
0.0000000000
10
85.2351903870
20
251.0907866592
30
0.0000000000
10
85.2351903870
20
250.9683770063
30
0.0000000000
10
85.2351903870
20
250.8997470421
30
0.0000000000
11
85.2351903870
21
251.3997470421
31
0.0000000000
11
85.2351903870
21
251.3667900851
31
0.0000000000
11
85.2351903870
21
251.2669760008
31
0.0000000000
11
85.2351903870
21
251.1056369348
31
0.0000000000
11
85.2351903870
21
250.8997470421
31
0.0000000000
0
SPLINE
5
4C7
100
AcDbEntity
8
0
100
AcDbSpline
62
7
6
CONTINUOUS
70
0
71
3
72
11
73
7
74
5
42
0.0000001000
43
0.0000001000
44
0.0000000001
12
0.0000000000
22
0.6016468973
32
0.0000000000
13
-0.6016468973
23
0.0000000000
33
0.0000000000
40
0.0000000000
40
0.0000000000
40
0.0000000000
40
0.0000000000
40
0.3195989538
40
0.6038602660
40
0.8288638079
40
1.0000000000
40
1.0000000000
40
1.0000000000
40
1.0000000000
10
90.7351903870
20
250.8997470421
30
0.0000000000
10
90.7351903870
20
250.9638422817
30
0.0000000000
10
90.7239582070
20
251.0854606911
30
0.0000000000
10
90.6735506751
20
251.2450989039
30
0.0000000000
10
90.5979530271
20
251.3623720820
30
0.0000000000
10
90.5195115733
20
251.3997470421
30
0.0000000000
10
90.4851903870
20
251.3997470421
30
0.0000000000
11
90.7351903870
21
250.8997470421
31
0.0000000000
11
90.7161602701
21
251.0910887583
31
0.0000000000
11
90.6619670823
21
251.2533004327
31
0.0000000000
11
90.5808612451
21
251.3616868084
31
0.0000000000
11
90.4851903870
21
251.3997470421
31
0.0000000000
0
SPLINE
5
4C8
100
AcDbEntity
8
0
100
AcDbSpline
62
7
6
CONTINUOUS
70
0
71
3
72
11
73
7
74
5
42
0.0000001000
43
0.0000001000
44
0.0000000001
12
0.0000000000
22
-0.6016468973
32
0.0000000000
13
0.6016468973
23
0.0000000000
33
0.0000000000
40
0.0000000000
40
0.0000000000
40
0.0000000000
40
0.0000000000
40
0.3195989538
40
0.6038602660
40
0.8288638079
40
1.0000000000
40
1.0000000000
40
1.0000000000
40
1.0000000000
10
79.7351903870
20
247.8997470421
30
0.0000000000
10
79.7351903870
20
247.8356518025
30
0.0000000000
10
79.7464225670
20
247.7140333931
30
0.0000000000
10
79.7968300990
20
247.5543951803
30
0.0000000000
10
79.8724277469
20
247.4371220022
30
0.0000000000
10
79.9508692007
20
247.3997470421
30
0.0000000000
10
79.9851903870
20
247.3997470421
30
0.0000000000
11
79.7351903870
21
247.8997470421
31
0.0000000000
11
79.7542205039
21
247.7084053259
31
0.0000000000
11
79.8084136917
21
247.5461936515
31
0.0000000000
11
79.8895195289
21
247.4378072758
31
0.0000000000
11
79.9851903870
21
247.3997470421
31
0.0000000000
0
SPLINE
5
4C9
100
AcDbEntity
8
0
100
AcDbSpline
62
7
6
CONTINUOUS
70
0
71
3
72
11
73
7
74
5
42
0.0000001000
43
0.0000001000
44
0.0000000001
12
0.0000000000
22
0.5556435948
32
0.0000000000
13
0.5556435948
23
0.0000000000
33
0.0000000000
40
0.0000000000
40
0.0000000000
40
0.0000000000
40
0.0000000000
40
0.3451565100
40
0.6446175672
40
0.8637515913
40
1.0000000000
40
1.0000000000
40
1.0000000000
40
1.0000000000
10
99.1641803154
20
263.7997470421
30
0.0000000000
10
99.1641803154
20
263.8636750434
30
0.0000000000
10
99.1712203679
20
263.9832435809
30
0.0000000000
10
99.2062572776
20
264.1405107811
30
0.0000000000
10
99.2508169247
20
264.2527888940
30
0.0000000000
10
99.3099552018
20
264.2997470421
30
0.0000000000
10
99.3351903870
20
264.2997470421
30
0.0000000000
11
99.1641803154
21
263.7997470421
31
0.0000000000
11
99.1771976820
21
263.9910887583
31
0.0000000000
11
99.2142680057
21
264.1533004327
31
0.0000000000
11
99.2697476658
21
264.2616868084
31
0.0000000000
11
99.3351903870
21
264.2997470421
31
0.0000000000
0
SPLINE
5
4CA
100
AcDbEntity
8
0
100
AcDbSpline
62
7
6
CONTINUOUS
70
0
71
3
72
11
73
7
74
5
42
0.0000001000
43
0.0000001000
44
0.0000000001
12
-0.5556435948
22
0.0000000000
32
0.0000000000
13
-0.0000000000
23
0.5556435948
33
0.0000000000
40
0.0000000000
40
0.0000000000
40
0.0000000000
40
0.0000000000
40
0.1362484087
40
0.3553824328
40
0.6548434900
40
1.0000000000
40
1.0000000000
40
1.0000000000
40
1.0000000000
10
99.3351903870
20
243.8997470421
30
0.0000000000
10
99.3099552018
20
243.8997470421
30
0.0000000000
10
99.2508169247
20
243.9467051902
30
0.0000000000
10
99.2062572776
20
244.0589833031
30
0.0000000000
10
99.1712203679
20
244.2162505033
30
0.0000000000
10
99.1641803154
20
244.3358190408
30
0.0000000000
10
99.1641803154
20
244.3997470421
30
0.0000000000
11
99.3351903870
21
243.8997470421
31
0.0000000000
11
99.2697476658
21
243.9378072758
31
0.0000000000
11
99.2142680057
21
244.0461936515
31
0.0000000000
11
99.1771976820
21
244.2084053259
31
0.0000000000
11
99.1641803154
21
244.3997470421
31
0.0000000000
0
SPLINE
5
4CB
100
AcDbEntity
8
0
100
AcDbSpline
62
7
6
CONTINUOUS
70
0
71
3
72
13
73
9
74
7
42
0.0000001000
43
0.0000001000
44
0.0000000001
12
0.1508774298
22
1.0011576445
32
0.0000000000
13
0.1433868024
23
1.0022578608
33
0.0000000000
40
0.0000000000
40
0.0000000000
40
0.0000000000
40
0.0000000000
40
0.2867688530
40
0.5482532942
40
0.7567463719
40
0.8992117659
40
0.9770455947
40
1.0000000000
40
1.0000000000
40
1.0000000000
40
1.0000000000
10
98.1351903870
20
263.4103792232
30
0.0000000000
10
98.1496127028
20
263.5060794996
30
0.0000000000
10
98.1770686533
20
263.6890599085
30
0.0000000000
10
98.2143753124
20
263.9417131050
30
0.0000000000
10
98.2442118313
20
264.1462402043
30
0.0000000000
10
98.2649205493
20
264.2894629026
30
0.0000000000
10
98.2765812964
20
264.3707256174
30
0.0000000000
10
98.2814009084
20
264.4043972112
30
0.0000000000
10
98.2824980280
20
264.4120659556
30
0.0000000000
11
98.1351903870
21
263.4103792232
31
0.0000000000
11
98.1782178439
21
263.6975160424
31
0.0000000000
11
98.2169031168
21
263.9594176047
31
0.0000000000
11
98.2473762765
21
264.1682979267
31
0.0000000000
11
98.2680088968
21
264.3110555172
31
0.0000000000
11
98.2792049725
21
264.3890599649
31
0.0000000000
11
98.2824980280
21
264.4120659556
31
0.0000000000
0
SPLINE
5
4CC
100
AcDbEntity
8
0
100
AcDbSpline
62
7
6
CONTINUOUS
70
0
71
3
72
11
73
7
74
5
42
0.0000001000
43
0.0000001000
44
0.0000000001
12
0.0000000000
22
0.5000000000
32
0.0000000000
13
-0.0000000000
23
0.5000000000
33
0.0000000000
40
0.0000000000
40
0.0000000000
40
0.0000000000
40
0.0000000000
40
0.0659139139
40
0.2655420826
40
0.5882202146
40
1.0000000000
40
1.0000000000
40
1.0000000000
40
1.0000000000
10
85.2351903870
20
247.3997470421
30
0.0000000000
10
85.2351903870
20
247.4107326944
30
0.0000000000
10
85.2351903870
20
247.4549897082
30
0.0000000000
10
85.2351903870
20
247.5530264106
30
0.0000000000
10
85.2351903870
20
247.7087074250
30
0.0000000000
10
85.2351903870
20
247.8311170779
30
0.0000000000
10
85.2351903870
20
247.8997470421
30
0.0000000000
11
85.2351903870
21
247.3997470421
31
0.0000000000
11
85.2351903870
21
247.4327039990
31
0.0000000000
11
85.2351903870
21
247.5325180834
31
0.0000000000
11
85.2351903870
21
247.6938571494
31
0.0000000000
11
85.2351903870
21
247.8997470421
31
0.0000000000
0
SPLINE
5
4CD
100
AcDbEntity
8
0
100
AcDbSpline
62
7
6
CONTINUOUS
70
0
71
3
72
11
73
7
74
5
42
0.0000001000
43
0.0000001000
44
0.0000000001
12
0.6016468973
22
0.0000000000
32
0.0000000000
13
0.0000000000
23
0.6016468973
33
0.0000000000
40
0.0000000000
40
0.0000000000
40
0.0000000000
40
0.0000000000
40
0.1711361921
40
0.3961397340
40
0.6804010462
40
1.0000000000
40
1.0000000000
40
1.0000000000
40
1.0000000000
10
90.4851903870
20
247.3997470421
30
0.0000000000
10
90.5195115733
20
247.3997470421
30
0.0000000000
10
90.5979530271
20
247.4371220022
30
0.0000000000
10
90.6735506751
20
247.5543951803
30
0.0000000000
10
90.7239582070
20
247.7140333931
30
0.0000000000
10
90.7351903870
20
247.8356518025
30
0.0000000000
10
90.7351903870
20
247.8997470421
30
0.0000000000
11
90.4851903870
21
247.3997470421
31
0.0000000000
11
90.5808612451
21
247.4378072758
31
0.0000000000
11
90.6619670823
21
247.5461936515
31
0.0000000000
11
90.7161602701
21
247.7084053259
31
0.0000000000
11
90.7351903870
21
247.8997470421
31
0.0000000000
0
SPLINE
5
4CE
100
AcDbEntity
8
0
100
AcDbSpline
62
7
6
CONTINUOUS
70
0
71
3
72
14
73
10
74
8
42
0.0000001000
43
0.0000001000
44
0.0000000001
12
-0.0095097245
22
-1.5967729814
32
0.0000000000
13
1.5968015557
23
-0.0002085490
33
0.0000000000
40
0.0000000000
40
0.0000000000
40
0.0000000000
40
0.0000000000
40
0.1363467282
40
0.2753637428
40
0.4149505601
40
0.5540999744
40
0.6953800839
40
0.8424294336
40
1.0000000000
40
1.0000000000
40
1.0000000000
40
1.0000000000
10
46.6272718382
20
97.7969534440
30
0.0000000000
10
46.6268396316
20
97.7243818534
30
0.0000000000
10
46.6460176049
20
97.5776258171
30
0.0000000000
10
46.7178199758
20
97.3668580203
30
0.0000000000
10
46.8412142986
20
97.1793149541
30
0.0000000000
10
47.0008334875
20
97.0205972482
30
0.0000000000
10
47.1947723539
20
96.8980903896
30
0.0000000000
10
47.4195148760
20
96.8164672683
30
0.0000000000
10
47.5823330063
20
96.7969643983
30
0.0000000000
10
47.6662026482
20
96.7969534446
30
0.0000000000
11
46.6272718382
21
97.7969534440
31
0.0000000000
11
46.6528118863
21
97.5807380213
31
0.0000000000
11
46.7262074989
21
97.3712402020
31
0.0000000000
11
46.8472611161
21
97.1840850558
31
0.0000000000
11
47.0051089796
21
97.0277066357
31
0.0000000000
11
47.1956397869
21
96.9069105882
31
0.0000000000
11
47.4163753204
21
96.8268424956
31
0.0000000000
11
47.6662026482
21
96.7969534446
31
0.0000000000
0
SPLINE
5
4CF
100
AcDbEntity
8
0
100
AcDbSpline
62
7
6
CONTINUOUS
70
0
71
3
72
13
73
9
74
7
42
0.0000001000
43
0.0000001000
44
0.0000000001
12
0.0002168682
22
-0.7438489618
32
0.0000000000
13
0.6514454755
23
-0.3590684022
33
0.0000000000
40
0.0000000000
40
0.0000000000
40
0.0000000000
40
0.0000000000
40
0.2144547453
40
0.4064421703
40
0.5781604930
40
0.7333897043
40
0.8746645580
40
1.0000000000
40
1.0000000000
40
1.0000000000
40
1.0000000000
10
96.6824980280
20
209.5825830453
30
0.0000000000
10
96.6825135308
20
209.5294090654
30
0.0000000000
10
96.6944503593
20
209.4282214021
30
0.0000000000
10
96.7424014276
20
209.2920997632
30
0.0000000000
10
96.8082482703
20
209.1806957105
30
0.0000000000
10
96.8841431676
20
209.0921503531
30
0.0000000000
10
96.9639538702
20
209.0239838510
30
0.0000000000
10
97.0198301852
20
208.9882591322
30
0.0000000000
10
97.0470465874
20
208.9732577999
30
0.0000000000
11
96.6824980280
21
209.5825830453
31
0.0000000000
11
96.7011716997
21
209.4241578409
31
0.0000000000
11
96.7485366489
21
209.2894316055
31
0.0000000000
11
96.8135154948
21
209.1794618754
31
0.0000000000
11
96.8886078264
21
209.0917476166
31
0.0000000000
11
96.9684954866
21
209.0234741043
31
0.0000000000
11
97.0470465874
21
208.9732577999
31
0.0000000000
0
SPLINE
5
4D0
100
AcDbEntity
8
0
100
AcDbSpline
62
7
6
CONTINUOUS
70
0
71
3
72
10
73
6
74
4
42
0.0000001000
43
0.0000001000
44
0.0000000001
12
-0.6489867354
22
-0.3577132146
32
0.0000000000
13
-0.0002174675
23
-0.7410414828
33
0.0000000000
40
0.0000000000
40
0.0000000000
40
0.0000000000
40
0.0000000000
40
0.3328159564
40
0.6731628620
40
1.0000000000
40
1.0000000000
40
1.0000000000
40
1.0000000000
10
97.0470466105
20
208.2206491237
30
0.0000000000
10
96.9750488968
20
208.1809649018
30
0.0000000000
10
96.8421171927
20
208.0746092473
30
0.0000000000
10
96.7124291875
20
207.8583336606
30
0.0000000000
10
96.6825217202
20
207.6920571351
30
0.0000000000
10
96.6824980280
20
207.6113238426
30
0.0000000000
11
97.0470466105
21
208.2206491237
31
0.0000000000
11
96.8547581770
21
208.0662090625
31
0.0000000000
11
96.7254107417
21
207.8496918033
31
0.0000000000
11
96.6824980280
21
207.6113238426
31
0.0000000000
0
SPLINE
5
4D1
100
AcDbEntity
8
0
100
AcDbSpline
62
7
6
CONTINUOUS
70
0
71
3
72
10
73
6
74
4
42
0.0000001000
43
0.0000001000
44
0.0000000001
12
-0.4026839424
22
-0.0002515539
32
0.0000000000
13
0.0000004588
23
0.0001028547
33
0.0000000000
40
0.0000000000
40
0.0000000000
40
0.0000000000
40
0.0000000000
40
0.4960648323
40
0.8561396067
40
1.0000000000
40
1.0000000000
40
1.0000000000
40
1.0000000000
10
46.6272718382
20
97.7969534440
30
0.0000000000
10
46.5606860574
20
97.7969118483
30
0.0000000000
10
46.4296655175
20
97.7968380126
30
0.0000000000
10
46.3415506312
20
97.7967900476
30
0.0000000000
10
46.2188368232
20
97.7967225809
30
0.0000000000
10
46.2188368452
20
97.7967275131
30
0.0000000000
11
46.6272718382
21
97.7969534440
31
0.0000000000
11
46.4275144906
21
97.7968372866
31
0.0000000000
11
46.2825181545
21
97.7967575725
31
0.0000000000
11
46.2188368452
21
97.7967275131
31
0.0000000000
0
SPLINE
5
4D2
100
AcDbEntity
8
0
100
AcDbSpline
62
7
6
CONTINUOUS
70
0
71
3
72
12
73
8
74
6
42
0.0000001000
43
0.0000001000
44
0.0000000001
12
2.8038031128
22
2.1651912737
32
0.0000000000
13
3.5425079941
23
-0.0015027643
33
0.0000000000
40
0.0000000000
40
0.0000000000
40
0.0000000000
40
0.0000000000
40
0.2376772655
40
0.4541491679
40
0.6523026042
40
0.8340092773
40
1.0000000000
40
1.0000000000
40
1.0000000000
40
1.0000000000
10
55.4662680131
20
205.8969534532
30
0.0000000000
10
55.6884014320
20
206.0684923669
30
0.0000000000
10
56.1132262735
20
206.3959168508
30
0.0000000000
10
56.7535107186
20
206.8259401642
30
0.0000000000
10
57.3822052355
20
207.1482936634
30
0.0000000000
10
57.9982615522
20
207.3483315333
30
0.0000000000
10
58.4096678864
20
207.3970365923
30
0.0000000000
10
58.6056757071
20
207.3969534440
30
0.0000000000
11
55.4662680131
21
205.8969534532
31
0.0000000000
11
56.1388023468
21
206.4035274975
31
0.0000000000
11
56.7797073462
21
206.8246036114
31
0.0000000000
11
57.4072295716
21
207.1391890085
31
0.0000000000
11
58.0211850118
21
207.3325928877
31
0.0000000000
11
58.6056757071
21
207.3969534440
31
0.0000000000
0
SPLINE
5
4D3
100
AcDbEntity
8
0
100
AcDbSpline
62
7
6
CONTINUOUS
70
0
71
3
72
12
73
8
74
6
42
0.0000001000
43
0.0000001000
44
0.0000000001
12
3.0901589375
22
1.3264282895
32
0.0000000000
13
3.3628104170
23
-0.0006047765
33
0.0000000000
40
0.0000000000
40
0.0000000000
40
0.0000000000
40
0.0000000000
40
0.2577374525
40
0.4845756754
40
0.6822451586
40
0.8531039606
40
1.0000000000
40
1.0000000000
40
1.0000000000
40
1.0000000000
10
55.4662680131
20
205.8969534440
30
0.0000000000
10
55.7317512439
20
206.0109101934
30
0.0000000000
10
56.2311813139
20
206.2245231365
30
0.0000000000
10
56.9412511876
20
206.5088235610
30
0.0000000000
10
57.5731372428
20
206.7252954425
30
0.0000000000
10
58.1356756485
20
206.8616714846
30
0.0000000000
10
58.4920368999
20
206.8969830571
30
0.0000000000
10
58.6566980771
20
206.8969534440
30
0.0000000000
11
55.4662680131
21
205.8969534440
31
0.0000000000
11
56.2644163702
21
206.2348388970
31
0.0000000000
11
56.9741011348
21
206.5145399141
31
0.0000000000
11
57.6047805191
21
206.7245467008
31
0.0000000000
11
58.1645931523
21
206.8539129947
31
0.0000000000
11
58.6566980771
21
206.8969534440
31
0.0000000000
0
SPLINE
5
4D4
100
AcDbEntity
8
0
100
AcDbSpline
62
7
6
CONTINUOUS
70
0
71
3
72
14
73
10
74
8
42
0.0000001000
43
0.0000001000
44
0.0000000001
12
2.8057878329
22
-2.1645753091
32
0.0000000000
13
3.5437030766
23
0.0003700867
33
0.0000000000
40
0.0000000000
40
0.0000000000
40
0.0000000000
40
0.0000000000
40
0.1348449937
40
0.2837606123
40
0.4430039204
40
0.5995332748
40
0.7448838578
40
0.8778204968
40
1.0000000000
40
1.0000000000
40
1.0000000000
40
1.0000000000
10
55.4662680131
20
102.6969534440
30
0.0000000000
10
55.5923834939
20
102.5996593960
30
0.0000000000
10
55.8578084586
20
102.3949587743
30
0.0000000000
10
56.2795888362
20
102.0850462884
30
0.0000000000
10
56.7390575516
20
101.7839125911
30
0.0000000000
10
57.2197441787
20
101.5256979596
30
0.0000000000
10
57.6986139116
20
101.3360863605
30
0.0000000000
10
58.1595937157
20
101.2231839724
30
0.0000000000
10
58.4613530800
20
101.1969383716
30
0.0000000000
10
58.6056757071
20
101.1969534440
30
0.0000000000
11
55.4662680131
21
102.6969534440
31
0.0000000000
11
55.8457176888
21
102.4065069600
31
0.0000000000
11
56.2723952111
21
102.0959799453
31
0.0000000000
11
56.7460500706
21
101.7892260003
31
0.0000000000
11
57.2361768024
21
101.5294939657
31
0.0000000000
11
57.7160656394
21
101.3423752845
31
0.0000000000
11
58.1741739418
21
101.2325542138
31
0.0000000000
11
58.6056757071
21
101.1969534440
31
0.0000000000
0
SPLINE
5
4D5
100
AcDbEntity
8
0
100
AcDbSpline
62
7
6
CONTINUOUS
70
0
71
3
72
14
73
10
74
8
42
0.0000001000
43
0.0000001000
44
0.0000000001
12
3.0898699197
22
-1.3282650663
32
0.0000000000
13
3.3632698652
23
0.0001451326
33
0.0000000000
40
0.0000000000
40
0.0000000000
40
0.0000000000
40
0.0000000000
40
0.1466722091
40
0.3069415265
40
0.4735380293
40
0.6310761585
40
0.7708485391
40
0.8927588613
40
1.0000000000
40
1.0000000000
40
1.0000000000
40
1.0000000000
10
55.4662682386
20
102.6969534440
30
0.0000000000
10
55.6173342542
20
102.6320135868
30
0.0000000000
10
55.9336567750
20
102.4965429746
30
0.0000000000
10
56.4235650652
20
102.2920045136
30
0.0000000000
10
56.9287402949
20
102.0925455659
30
0.0000000000
10
57.4195851088
20
101.9200111002
30
0.0000000000
10
57.8723486610
20
101.7922190323
30
0.0000000000
10
58.2794298410
20
101.7155787681
30
0.0000000000
10
58.5364711138
20
101.6969482559
30
0.0000000000
10
58.6566980771
20
101.6969534440
30
0.0000000000
11
55.4662682386
21
102.6969534440
31
0.0000000000
11
55.9199249624
21
102.5032043480
31
0.0000000000
11
56.4176721749
21
102.2963228877
31
0.0000000000
11
56.9394875103
21
102.0922274958
31
0.0000000000
11
57.4402143284
21
101.9190036063
31
0.0000000000
11
57.8933881096
21
101.7940226699
31
0.0000000000
11
58.2968018499
21
101.7207318012
31
0.0000000000
11
58.6566980771
21
101.6969534440
31
0.0000000000
0
SPLINE
5
4D6
100
AcDbEntity
8
0
100
AcDbSpline
62
7
6
CONTINUOUS
70
0
71
3
72
11
73
7
74
5
42
0.0000001000
43
0.0000001000
44
0.0000000001
12
-0.5024406454
22
0.0000000000
32
0.0000000000
13
-0.0000001182
23
-0.5024406454
33
0.0000000000
40
0.0000000000
40
0.0000000000
40
0.0000000000
40
0.0000000000
40
0.0793679018
40
0.2960204694
40
0.6191466200
40
1.0000000000
40
1.0000000000
40
1.0000000000
40
1.0000000000
10
64.6135357447
20
101.6969534440
30
0.0000000000
10
64.6002431915
20
101.6969534440
30
0.0000000000
10
64.6046468664
20
101.6208740527
30
0.0000000000
10
64.5856288664
20
101.5413529528
30
0.0000000000
10
64.5853584899
20
101.3752422685
30
0.0000000000
10
64.5824359238
20
101.2607388500
30
0.0000000000
10
64.5824359087
20
101.1969534440
30
0.0000000000
11
64.6135357447
21
101.6969534440
31
0.0000000000
11
64.6016343800
21
101.6588931593
31
0.0000000000
11
64.5915448784
21
101.5505066973
31
0.0000000000
11
64.5848032740
21
101.3882950175
31
0.0000000000
11
64.5824359087
21
101.1969534440
31
0.0000000000
0
SPLINE
5
4D7
100
AcDbEntity
8
0
100
AcDbSpline
62
7
6
CONTINUOUS
70
0
71
3
72
19
73
15
74
13
42
0.0000001000
43
0.0000001000
44
0.0000000001
12
3.0710431532
22
-0.0000011610
32
0.0000000000
13
3.0710431530
23
0.0000356644
33
0.0000000000
40
0.0000000000
40
0.0000000000
40
0.0000000000
40
0.0000000000
40
0.0621834938
40
0.1296593132
40
0.2028135680
40
0.2814903284
40
0.3645276628
40
0.4509767015
40
0.5406118168
40
0.6331891367
40
0.7284845812
40
0.8259578367
40
0.9182284309
40
1.0000000000
40
1.0000000000
40
1.0000000000
40
1.0000000000
10
64.5824359087
20
101.1969534440
30
0.0000000000
10
64.6460919730
20
101.1969534199
30
0.0000000000
10
64.7788237914
20
101.1987117761
30
0.0000000000
10
64.9863383974
20
101.2054255751
30
0.0000000000
10
65.2106258691
20
101.2152366328
30
0.0000000000
10
65.4508005997
20
101.2263084896
30
0.0000000000
10
65.7046554367
20
101.2361491730
30
0.0000000000
10
65.9698610522
20
101.2421860185
30
0.0000000000
10
66.2449090513
20
101.2424768920
30
0.0000000000
10
66.5289433435
20
101.2363201882
30
0.0000000000
10
66.8208251275
20
101.2247447558
30
0.0000000000
10
67.1122902645
20
101.2110173890
30
0.0000000000
10
67.3900258620
20
101.2000489770
30
0.0000000000
10
67.5681912634
20
101.1969524719
30
0.0000000000
10
67.6518992692
20
101.1969534440
30
0.0000000000
11
64.5824359087
21
101.1969534440
31
0.0000000000
11
64.7733906172
21
101.1992227980
31
0.0000000000
11
64.9805131796
21
101.2056142376
31
0.0000000000
11
65.2049737903
21
101.2150743082
31
0.0000000000
11
65.4463546108
21
101.2258163597
31
0.0000000000
11
65.7011876355
21
101.2353484454
31
0.0000000000
11
65.9666125526
21
101.2411689468
31
0.0000000000
11
66.2418857187
21
101.2414477139
31
0.0000000000
11
66.5261333189
21
101.2355419873
31
0.0000000000
11
66.8185804285
21
101.2244753875
31
0.0000000000
11
67.1176285102
21
101.2111555248
31
0.0000000000
11
67.4008036603
21
101.2007306635
31
0.0000000000
11
67.6518992692
21
101.1969534440
31
0.0000000000
0
SPLINE
5
4D8
100
AcDbEntity
8
0
100
AcDbSpline
62
7
6
CONTINUOUS
70
0
71
3
72
19
73
15
74
13
42
0.0000001000
43
0.0000001000
44
0.0000000001
12
3.0596283041
22
-0.0000001499
32
0.0000000000
13
3.0596283041
23
0.0000099065
33
0.0000000000
40
0.0000000000
40
0.0000000000
40
0.0000000000
40
0.0000000000
40
0.0579220458
40
0.1223380934
40
0.1938758576
40
0.2725518438
40
0.3571855389
40
0.4465130043
40
0.5397341398
40
0.6358165717
40
0.7336261337
40
0.8317178318
40
0.9221513665
40
1.0000000000
40
1.0000000000
40
1.0000000000
40
1.0000000000
10
64.6135357447
20
101.6969534440
30
0.0000000000
10
64.6726090550
20
101.6969534411
30
0.0000000000
10
64.7973790847
20
101.6978626837
30
0.0000000000
10
64.9950810415
20
101.7012417115
30
0.0000000000
10
65.2139219522
20
101.7061571055
30
0.0000000000
10
65.4533734273
20
101.7116837034
30
0.0000000000
10
65.7109870817
20
101.7165790145
30
0.0000000000
10
65.9834675691
20
101.7195731567
30
0.0000000000
10
66.2676425072
20
101.7197143563
30
0.0000000000
10
66.5604516129
20
101.7166607224
30
0.0000000000
10
66.8581855295
20
101.7109151824
30
0.0000000000
10
67.1501312076
20
101.7040737688
30
0.0000000000
10
67.4217447465
20
101.6985607608
30
0.0000000000
10
67.5933715999
20
101.6969531869
30
0.0000000000
10
67.6727675607
20
101.6969534440
30
0.0000000000
11
64.6135357447
21
101.6969534440
31
0.0000000000
11
64.7907520400
21
101.6980885629
31
0.0000000000
11
64.9878152867
21
101.7012846263
31
0.0000000000
11
65.2066431303
21
101.7060151249
31
0.0000000000
11
65.4473024805
21
101.7113859828
31
0.0000000000
11
65.7062062723
21
101.7161516439
31
0.0000000000
11
65.9794996196
21
101.7190618317
31
0.0000000000
11
66.2647216101
21
101.7192014023
31
0.0000000000
11
66.5586833080
21
101.7162485743
31
0.0000000000
11
66.8578930458
21
101.7107148754
31
0.0000000000
11
67.1579432563
21
101.7040539380
31
0.0000000000
11
67.4345871643
21
101.6988418599
31
0.0000000000
11
67.6727675607
21
101.6969534440
31
0.0000000000
0
SPLINE
5
4D9
100
AcDbEntity
8
0
100
AcDbSpline
62
7
6
CONTINUOUS
70
0
71
3
72
11
73
7
74
5
42
0.0000001000
43
0.0000001000
44
0.0000000001
12
0.0000000019
22
-0.5063889405
32
0.0000000000
13
0.5063889405
23
0.0000000000
33
0.0000000000
40
0.0000000000
40
0.0000000000
40
0.0000000000
40
0.0000000000
40
0.3779331591
40
0.6990071385
40
0.9155265674
40
1.0000000000
40
1.0000000000
40
1.0000000000
40
1.0000000000
10
58.6056757071
20
207.3969534440
30
0.0000000000
10
58.6056757073
20
207.3331597200
30
0.0000000000
10
58.6083626813
20
207.2178882315
30
0.0000000000
10
58.6162652243
20
207.0539175456
30
0.0000000000
10
58.6328333569
20
206.9691327336
30
0.0000000000
10
58.6424392731
20
206.8969534440
30
0.0000000000
10
58.6566980771
20
206.8969534440
30
0.0000000000
11
58.6056757071
21
207.3969534440
31
0.0000000000
11
58.6095595556
21
207.2056116850
31
0.0000000000
11
58.6206198171
21
207.0434000027
31
0.0000000000
11
58.6371726633
21
206.9350136547
31
0.0000000000
11
58.6566980771
21
206.8969534440
31
0.0000000000
0
SPLINE
5
4DA
100
AcDbEntity
8
0
100
AcDbSpline
62
7
6
CONTINUOUS
70
0
71
3
72
11
73
7
74
5
42
0.0000001000
43
0.0000001000
44
0.0000000001
12
0.0000012187
22
-0.5024405407
32
0.0000000000
13
0.5024405407
23
0.0000000000
33
0.0000000000
40
0.0000000000
40
0.0000000000
40
0.0000000000
40
0.0000000000
40
0.3808503879
40
0.7039767276
40
0.9206311776
40
1.0000000000
40
1.0000000000
40
1.0000000000
40
1.0000000000
10
64.5824359087
20
207.3969534440
30
0.0000000000
10
64.5824360635
20
207.3331685524
30
0.0000000000
10
64.5853588697
20
207.2186656206
30
0.0000000000
10
64.5856290755
20
207.0525550658
30
0.0000000000
10
64.6046476049
20
206.9730338228
30
0.0000000000
10
64.6002430402
20
206.8969534440
30
0.0000000000
10
64.6135357448
20
206.8969534440
30
0.0000000000
11
64.5824359087
21
207.3969534440
31
0.0000000000
11
64.5848035588
21
207.2056134173
31
0.0000000000
11
64.5915452241
21
207.0434016789
31
0.0000000000
11
64.6016346215
21
206.9350142800
31
0.0000000000
11
64.6135357448
21
206.8969534440
31
0.0000000000
0
SPLINE
5
4DB
100
AcDbEntity
8
0
100
AcDbSpline
62
7
6
CONTINUOUS
70
0
71
3
72
11
73
7
74
5
42
0.0000001000
43
0.0000001000
44
0.0000000001
12
0.5434671137
22
0.0000000000
32
0.0000000000
13
-0.0000000298
23
0.5434671137
33
0.0000000000
40
0.0000000000
40
0.0000000000
40
0.0000000000
40
0.0000000000
40
0.1251551093
40
0.3431160588
40
0.6473199775
40
1.0000000000
40
1.0000000000
40
1.0000000000
40
1.0000000000
10
96.5351903870
20
205.3969534440
30
0.0000000000
10
96.5578629490
20
205.3969534440
30
0.0000000000
10
96.6101223765
20
205.4478720929
30
0.0000000000
10
96.6459743411
20
205.5568953868
30
0.0000000000
10
96.6766855363
20
205.7141425094
30
0.0000000000
10
96.6824980315
20
205.8330634460
30
0.0000000000
10
96.6824980280
20
205.8969534440
30
0.0000000000
11
96.5351903870
21
205.3969534440
31
0.0000000000
11
96.5915625807
21
205.4350136777
31
0.0000000000
11
96.6393526189
21
205.5434000534
31
0.0000000000
11
96.6712849015
21
205.7056117278
31
0.0000000000
11
96.6824980280
21
205.8969534440
31
0.0000000000
0
SPLINE
5
4DC
100
AcDbEntity
8
0
100
AcDbSpline
62
7
6
CONTINUOUS
70
0
71
3
72
11
73
7
74
5
42
0.0000001000
43
0.0000001000
44
0.0000000001
12
-0.0000000176
22
0.5434671137
32
0.0000000000
13
-0.5434671137
23
0.0000000000
33
0.0000000000
40
0.0000000000
40
0.0000000000
40
0.0000000000
40
0.0000000000
40
0.3526800225
40
0.6568839412
40
0.8748448907
40
1.0000000000
40
1.0000000000
40
1.0000000000
40
1.0000000000
10
98.2824980280
20
102.6969534440
30
0.0000000000
10
98.2824980259
20
102.7608434419
30
0.0000000000
10
98.2766855386
20
102.8797643785
30
0.0000000000
10
98.2459743407
20
103.0370115011
30
0.0000000000
10
98.2101223766
20
103.1460347950
30
0.0000000000
10
98.1578629490
20
103.1969534440
30
0.0000000000
10
98.1351903870
20
103.1969534440
30
0.0000000000
11
98.2824980280
21
102.6969534440
31
0.0000000000
11
98.2712849015
21
102.8882951601
31
0.0000000000
11
98.2393526189
21
103.0505068346
31
0.0000000000
11
98.1915625807
21
103.1588932102
31
0.0000000000
11
98.1351903870
21
103.1969534440
31
0.0000000000
0
SPLINE
5
4DD
100
AcDbEntity
8
0
100
AcDbSpline
62
7
6
CONTINUOUS
70
0
71
3
72
17
73
13
74
11
42
0.0000001000
43
0.0000001000
44
0.0000000001
12
3.0596231283
22
-0.0000383284
32
0.0000000000
13
3.0596231285
23
-0.0000110269
33
0.0000000000
40
0.0000000000
40
0.0000000000
40
0.0000000000
40
0.0000000000
40
0.1095755993
40
0.2296377622
40
0.3540621896
40
0.4760377258
40
0.5893811468
40
0.6904244182
40
0.7803392355
40
0.8610606580
40
0.9341222679
40
1.0000000000
40
1.0000000000
40
1.0000000000
40
1.0000000000
10
64.6135357447
20
206.8969534440
30
0.0000000000
10
64.7252890908
20
206.8969520440
30
0.0000000000
10
64.9594861847
20
206.8937767566
30
0.0000000000
10
65.3204777877
20
206.8851279318
30
0.0000000000
10
65.6941435312
20
206.8772223658
30
0.0000000000
10
66.0610306170
20
206.8736522877
30
0.0000000000
10
66.4040850176
20
206.8751132637
30
0.0000000000
10
66.7144002010
20
206.8799819722
30
0.0000000000
10
66.9914119619
20
206.8860987413
30
0.0000000000
10
67.2398883380
20
206.8917790110
30
0.0000000000
10
67.4638795990
20
206.8958273575
30
0.0000000000
10
67.6055805497
20
206.8969536861
30
0.0000000000
10
67.6727675607
20
206.8969534440
30
0.0000000000
11
64.6135357447
21
206.8969534440
31
0.0000000000
11
64.9487766049
21
206.8933675257
31
0.0000000000
11
65.3160352202
21
206.8854028065
31
0.0000000000
11
65.6966531629
21
206.8779014312
31
0.0000000000
11
66.0698365467
21
206.8744686799
31
0.0000000000
11
66.4166218874
21
206.8758651630
31
0.0000000000
11
66.7257413475
21
206.8805083550
31
0.0000000000
11
67.0007849151
21
206.8863433471
31
0.0000000000
11
67.2477028415
21
206.8917508369
31
0.0000000000
11
67.4712113228
21
206.8955631361
31
0.0000000000
11
67.6727675607
21
206.8969534440
31
0.0000000000
0
SPLINE
5
4DE
100
AcDbEntity
8
0
100
AcDbSpline
62
7
6
CONTINUOUS
70
0
71
3
72
10
73
6
74
4
42
0.0000001000
43
0.0000001000
44
0.0000000001
12
-0.0239139615
22
0.0582722959
32
0.0000000000
13
-0.0000000000
23
0.0629883959
33
0.0000000000
40
0.0000000000
40
0.0000000000
40
0.0000000000
40
0.0000000000
40
0.3215902770
40
0.6548706383
40
1.0000000000
40
1.0000000000
40
1.0000000000
40
1.0000000000
10
97.0470466105
20
208.2206491237
30
0.0000000000
10
97.0444831113
20
208.2268957250
30
0.0000000000
10
97.0400599369
20
208.2399639626
30
0.0000000000
10
97.0360619381
20
208.2606350357
30
0.0000000000
10
97.0351903870
20
208.2748978542
30
0.0000000000
10
97.0351903870
20
208.2821442359
30
0.0000000000
11
97.0470466105
21
208.2206491237
31
0.0000000000
11
97.0405741788
21
208.2398436965
31
0.0000000000
11
97.0365535584
21
208.2604478725
31
0.0000000000
11
97.0351903870
21
208.2821442359
31
0.0000000000
0
SPLINE
5
4DF
100
AcDbEntity
8
0
100
AcDbSpline
62
7
6
CONTINUOUS
70
0
71
3
72
17
73
13
74
11
42
0.0000001000
43
0.0000001000
44
0.0000000001
12
3.0710222007
22
-0.0001264774
32
0.0000000000
13
3.0710222031
23
-0.0000399995
33
0.0000000000
40
0.0000000000
40
0.0000000000
40
0.0000000000
40
0.0000000000
40
0.1163607014
40
0.2387449162
40
0.3615001216
40
0.4794335132
40
0.5883869161
40
0.6862012436
40
0.7746068060
40
0.8556113406
40
0.9306504198
40
1.0000000000
40
1.0000000000
40
1.0000000000
40
1.0000000000
10
64.5824359087
20
207.3969534440
30
0.0000000000
10
64.7015513411
20
207.3969485383
30
0.0000000000
10
64.9459394189
20
207.3909318134
30
0.0000000000
10
65.3155827223
20
207.3736199924
30
0.0000000000
10
65.6869185406
20
207.3576148145
30
0.0000000000
10
66.0448112333
20
207.3503471216
30
0.0000000000
10
66.3772295849
20
207.3532944333
30
0.0000000000
10
66.6792476466
20
207.3630996530
30
0.0000000000
10
66.9525237658
20
207.3753678796
30
0.0000000000
10
67.2025031389
20
207.3867208016
30
0.0000000000
10
67.4330988189
20
207.3947741276
30
0.0000000000
10
67.5809079023
20
207.3969543686
30
0.0000000000
10
67.6518992692
20
207.3969534440
30
0.0000000000
11
64.5824359087
21
207.3969534440
31
0.0000000000
11
64.9397105385
21
207.3897969587
31
0.0000000000
11
65.3152175777
21
207.3738703206
31
0.0000000000
11
65.6919026198
21
207.3588607828
31
0.0000000000
11
66.0540135263
21
207.3519910869
31
0.0000000000
11
66.3886002097
21
207.3547815434
31
0.0000000000
11
66.6888467188
21
207.3640642547
31
0.0000000000
11
66.9600913217
21
207.3757322510
31
0.0000000000
11
67.2086228412
21
207.3865473763
31
0.0000000000
11
67.4389433208
21
207.3941728739
31
0.0000000000
11
67.6518992692
21
207.3969534440
31
0.0000000000
0
SPLINE
5
4E0
100
AcDbEntity
8
0
100
AcDbSpline
62
7
6
CONTINUOUS
70
0
71
3
72
14
73
10
74
8
42
0.0000001000
43
0.0000001000
44
0.0000000001
12
-1.5964693061
22
-0.0007336824
32
0.0000000000
13
0.0027802090
23
-1.5964479557
33
0.0000000000
40
0.0000000000
40
0.0000000000
40
0.0000000000
40
0.0000000000
40
0.1567992893
40
0.3036144187
40
0.4449856139
40
0.5844270667
40
0.7246896356
40
0.8646836988
40
1.0000000000
40
1.0000000000
40
1.0000000000
40
1.0000000000
10
47.6658459559
20
211.7969533402
30
0.0000000000
10
47.5824042051
20
211.7969149933
30
0.0000000000
10
47.4201745557
20
211.7775238821
30
0.0000000000
10
47.1958452039
20
211.6963513544
30
0.0000000000
10
47.0017632192
20
211.5740429662
30
0.0000000000
10
46.8414662305
20
211.4152356901
30
0.0000000000
10
46.7176965177
20
211.2267513765
30
0.0000000000
10
46.6457815033
20
211.0156469947
30
0.0000000000
10
46.6271464357
20
210.8689619214
30
0.0000000000
10
46.6272718382
20
210.7969534440
30
0.0000000000
11
47.6658459559
21
211.7969533402
31
0.0000000000
11
47.4172853244
21
211.7672864244
31
0.0000000000
11
47.1968606691
21
211.6876096133
31
0.0000000000
11
47.0060951673
21
211.5670051096
31
0.0000000000
11
46.8477421225
21
211.4105438340
31
0.0000000000
11
46.7261711241
21
211.2224968776
31
0.0000000000
11
46.6524724071
21
211.0115042778
31
0.0000000000
11
46.6272718382
21
210.7969534440
31
0.0000000000
0
SPLINE
5
4E1
100
AcDbEntity
8
0
100
AcDbSpline
62
7
6
CONTINUOUS
70
0
71
3
72
11
73
7
74
5
42
0.0000001000
43
0.0000001000
44
0.0000000001
12
0.0000000000
22
-0.5011096934
32
0.0000000000
13
0.5011096934
23
0.0000000000
33
0.0000000000
40
0.0000000000
40
0.0000000000
40
0.0000000000
40
0.0000000000
40
0.3818490609
40
0.7056798163
40
0.9223941264
40
1.0000000000
40
1.0000000000
40
1.0000000000
40
1.0000000000
10
67.6518992692
20
207.3969534440
30
0.0000000000
10
67.6518992692
20
207.3331706887
30
0.0000000000
10
67.6550857191
20
207.2189603610
30
0.0000000000
10
67.6509477087
20
207.0520039416
30
0.0000000000
10
67.6722131248
20
206.9744798077
30
0.0000000000
10
67.6598045422
20
206.8969534440
30
0.0000000000
10
67.6727675607
20
206.8969534440
30
0.0000000000
11
67.6518992692
21
207.3969534440
31
0.0000000000
11
67.6534877725
21
207.2056117719
31
0.0000000000
11
67.6580114481
21
207.0434001060
31
0.0000000000
11
67.6647816088
21
206.9350137016
31
0.0000000000
11
67.6727675607
21
206.8969534440
31
0.0000000000
0
SPLINE
5
4E2
100
AcDbEntity
8
0
100
AcDbSpline
62
7
6
CONTINUOUS
70
0
71
3
72
10
73
6
74
4
42
0.0000001000
43
0.0000001000
44
0.0000000001
12
-0.0239139816
22
-0.0582723162
32
0.0000000000
13
-0.0000000000
23
-0.0629884224
33
0.0000000000
40
0.0000000000
40
0.0000000000
40
0.0000000000
40
0.0000000000
40
0.3215902843
40
0.6548706417
40
1.0000000000
40
1.0000000000
40
1.0000000000
40
1.0000000000
10
97.0470465874
20
208.9732577999
30
0.0000000000
10
97.0444830860
20
208.9670111963
30
0.0000000000
10
97.0400599571
20
208.9539429371
30
0.0000000000
10
97.0360619340
20
208.9332718626
30
0.0000000000
10
97.0351903870
20
208.9190090367
30
0.0000000000
10
97.0351903870
20
208.9117626521
30
0.0000000000
11
97.0470465874
21
208.9732577999
31
0.0000000000
11
97.0405741833
21
208.9540632084
31
0.0000000000
11
97.0365535595
21
208.9334590243
31
0.0000000000
11
97.0351903870
21
208.9117626521
31
0.0000000000
0
SPLINE
5
4E3
100
AcDbEntity
8
0
100
AcDbSpline
62
7
6
CONTINUOUS
70
0
71
3
72
10
73
6
74
4
42
0.0000001000
43
0.0000001000
44
0.0000000001
12
0.1689822383
22
-0.4117671174
32
0.0000000000
13
-0.4077945541
23
-0.1783557050
33
0.0000000000
40
0.0000000000
40
0.0000000000
40
0.0000000000
40
0.0000000000
40
0.5028407241
40
0.8580557503
40
1.0000000000
40
1.0000000000
40
1.0000000000
40
1.0000000000
10
97.0470485521
20
208.2206491238
30
0.0000000000
10
97.0753722691
20
208.1516313653
30
0.0000000000
10
97.1238907813
20
208.0241826164
30
0.0000000000
10
97.1533072775
20
207.9038764750
30
0.0000000000
10
97.1743354637
20
207.8030003535
30
0.0000000000
10
97.1550407663
20
207.7945614979
30
0.0000000000
11
97.0470485521
21
208.2206491238
31
0.0000000000
11
97.1242441890
21
208.0105729732
31
0.0000000000
11
97.1628499129
21
207.8572553085
31
0.0000000000
11
97.1550407663
21
207.7945614979
31
0.0000000000
0
SPLINE
5
4E4
100
AcDbEntity
8
0
100
AcDbSpline
62
7
6
CONTINUOUS
70
0
71
3
72
11
73
7
74
5
42
0.0000001000
43
0.0000001000
44
0.0000000001
12
1.7776460301
22
0.0000376537
32
0.0000000000
13
1.7776460302
23
0.0000323811
33
0.0000000000
40
0.0000000000
40
0.0000000000
40
0.0000000000
40
0.0000000000
40
0.2390994504
40
0.5007554105
40
0.7631424764
40
1.0000000000
40
1.0000000000
40
1.0000000000
40
1.0000000000
10
78.0463709453
20
206.8969534440
30
0.0000000000
10
78.1880490082
20
206.8969564450
30
0.0000000000
10
78.4847682561
20
206.8954234517
30
0.0000000000
10
78.9369664713
20
206.8939308567
30
0.0000000000
10
79.3878361553
20
206.8954419944
30
0.0000000000
10
79.6836602166
20
206.8969508874
30
0.0000000000
10
79.8240098287
20
206.8969534440
30
0.0000000000
11
78.0463709453
21
206.8969534440
31
0.0000000000
11
78.4714030384
21
206.8956187152
31
0.0000000000
11
78.9365332420
21
206.8944472700
31
0.0000000000
11
79.4029630546
21
206.8956356130
31
0.0000000000
11
79.8240098287
21
206.8969534440
31
0.0000000000
0
SPLINE
5
4E5
100
AcDbEntity
8
0
100
AcDbSpline
62
7
6
CONTINUOUS
70
0
71
3
72
11
73
7
74
5
42
0.0000001000
43
0.0000001000
44
0.0000000001
12
1.7776671928
22
0.0001449078
32
0.0000000000
13
1.7776671944
23
0.0001236626
33
0.0000000000
40
0.0000000000
40
0.0000000000
40
0.0000000000
40
0.0000000000
40
0.2415140714
40
0.5008476097
40
0.7608360823
40
1.0000000000
40
1.0000000000
40
1.0000000000
40
1.0000000000
10
78.0463709453
20
207.3969534440
30
0.0000000000
10
78.1894814924
20
207.3969651097
30
0.0000000000
10
78.4862511694
20
207.3939604783
30
0.0000000000
10
78.9370853011
20
207.3909111187
30
0.0000000000
10
79.3865265644
20
207.3939962325
30
0.0000000000
10
79.6822918786
20
207.3969435854
30
0.0000000000
10
79.8240098287
20
207.3969534440
30
0.0000000000
11
78.0463709453
21
207.3969534440
31
0.0000000000
11
78.4756943838
21
207.3942992739
31
0.0000000000
11
78.9366971708
21
207.3919595302
31
0.0000000000
11
79.3988640730
21
207.3943297319
31
0.0000000000
11
79.8240098287
21
207.3969534440
31
0.0000000000
0
SPLINE
5
4E6
100
AcDbEntity
8
0
100
AcDbSpline
62
7
6
CONTINUOUS
70
0
71
3
72
10
73
6
74
4
42
0.0000001000
43
0.0000001000
44
0.0000000001
12
0.1689822989
22
0.4117670625
32
0.0000000000
13
-0.4077945222
23
0.1783557086
33
0.0000000000
40
0.0000000000
40
0.0000000000
40
0.0000000000
40
0.0000000000
40
0.5028407351
40
0.8580557587
40
1.0000000000
40
1.0000000000
40
1.0000000000
40
1.0000000000
10
97.0470485255
20
208.9732577999
30
0.0000000000
10
97.0753722533
20
209.0422755507
30
0.0000000000
10
97.1238907777
20
209.1697242883
30
0.0000000000
10
97.1533072754
20
209.2900304207
30
0.0000000000
10
97.1743354654
20
209.3909065329
30
0.0000000000
10
97.1550407707
20
209.3993453881
30
0.0000000000
11
97.0470485255
21
208.9732577999
31
0.0000000000
11
97.1242441843
21
209.1833339327
31
0.0000000000
11
97.1628499131
21
209.3366515848
31
0.0000000000
11
97.1550407707
21
209.3993453881
31
0.0000000000
0
SPLINE
5
4E7
100
AcDbEntity
8
0
100
AcDbSpline
62
7
6
CONTINUOUS
70
0
71
3
72
11
73
7
74
5
42
0.0000001000
43
0.0000001000
44
0.0000000001
12
-0.5011096934
22
0.0000000000
32
0.0000000000
13
-0.0000000000
23
-0.5011096934
33
0.0000000000
40
0.0000000000
40
0.0000000000
40
0.0000000000
40
0.0000000000
40
0.0776058734
40
0.2943201833
40
0.6181509388
40
1.0000000000
40
1.0000000000
40
1.0000000000
40
1.0000000000
10
67.6727675607
20
101.6969534440
30
0.0000000000
10
67.6598045422
20
101.6969534440
30
0.0000000000
10
67.6722131248
20
101.6194270803
30
0.0000000000
10
67.6509477087
20
101.5419029465
30
0.0000000000
10
67.6550857191
20
101.3749465270
30
0.0000000000
10
67.6518992692
20
101.2607361993
30
0.0000000000
10
67.6518992692
20
101.1969534440
30
0.0000000000
11
67.6727675607
21
101.6969534440
31
0.0000000000
11
67.6647816089
21
101.6588931864
31
0.0000000000
11
67.6580114481
21
101.5505067821
31
0.0000000000
11
67.6534877725
21
101.3882951162
31
0.0000000000
11
67.6518992692
21
101.1969534440
31
0.0000000000
0
SPLINE
5
4E8
100
AcDbEntity
8
0
100
AcDbSpline
62
7
6
CONTINUOUS
70
0
71
3
72
12
73
8
74
6
42
0.0000001000
43
0.0000001000
44
0.0000000001
12
1.8183056896
22
-0.0000057539
32
0.0000000000
13
1.7694341981
23
-0.4187340436
33
0.0000000000
40
0.0000000000
40
0.0000000000
40
0.0000000000
40
0.0000000000
40
0.1594952062
40
0.3427034912
40
0.5541001508
40
0.7800344594
40
1.0000000000
40
1.0000000000
40
1.0000000000
40
1.0000000000
10
88.8894390760
20
206.8969534440
30
0.0000000000
10
88.9861094229
20
206.8969531381
30
0.0000000000
10
89.1938504510
20
206.8863093880
30
0.0000000000
10
89.5273230950
20
206.8450343122
30
0.0000000000
10
89.8978145012
20
206.7795649507
30
0.0000000000
10
90.2876206102
20
206.6971335539
30
0.0000000000
10
90.5509285461
20
206.6361845122
30
0.0000000000
10
90.6806667294
20
206.6054821588
30
0.0000000000
11
88.8894390760
21
206.8969534440
31
0.0000000000
11
89.1791526710
21
206.8838219294
31
0.0000000000
11
89.5099519797
21
206.8444960328
31
0.0000000000
11
89.8887257941
21
206.7790646640
31
0.0000000000
11
90.2908701039
21
206.6950939168
31
0.0000000000
11
90.6806667294
21
206.6054821588
31
0.0000000000
0
SPLINE
5
4E9
100
AcDbEntity
8
0
100
AcDbSpline
62
7
6
CONTINUOUS
70
0
71
3
72
12
73
8
74
6
42
0.0000001000
43
0.0000001000
44
0.0000000001
12
2.0066172049
22
-0.0000191148
32
0.0000000000
13
1.7764876987
23
-0.9330616613
33
0.0000000000
40
0.0000000000
40
0.0000000000
40
0.0000000000
40
0.0000000000
40
0.1794538623
40
0.3733383440
40
0.5843424758
40
0.7993841355
40
1.0000000000
40
1.0000000000
40
1.0000000000
40
1.0000000000
10
88.8894390760
20
207.3969534440
30
0.0000000000
10
89.0094708118
20
207.3969523006
30
0.0000000000
10
89.2594092177
20
207.3773026179
30
0.0000000000
10
89.6426359294
20
207.2962601215
30
0.0000000000
10
90.0371406715
20
207.1662780339
30
0.0000000000
10
90.4227433163
20
207.0010272049
30
0.0000000000
10
90.6713951835
20
206.8764065308
30
0.0000000000
10
90.7901923886
20
206.8140108735
30
0.0000000000
11
88.8894390760
21
207.3969534440
31
0.0000000000
11
89.2485715081
21
207.3706389089
31
0.0000000000
11
89.6296020680
21
207.2920442403
31
0.0000000000
11
90.0323724538
21
207.1614785296
31
0.0000000000
11
90.4297158339
21
206.9932051800
31
0.0000000000
11
90.7901923886
21
206.8140108735
31
0.0000000000
0
SPLINE
5
4EA
100
AcDbEntity
8
0
100
AcDbSpline
62
7
6
CONTINUOUS
70
0
71
3
72
13
73
9
74
7
42
0.0000001000
43
0.0000001000
44
0.0000000001
12
-0.0000152068
22
1.0279565851
32
0.0000000000
13
-1.0279564844
23
-0.0004552331
33
0.0000000000
40
0.0000000000
40
0.0000000000
40
0.0000000000
40
0.0000000000
40
0.2078021421
40
0.4268165136
40
0.6381520782
40
0.8179892802
40
0.9417617289
40
1.0000000000
40
1.0000000000
40
1.0000000000
40
1.0000000000
10
96.6824980280
20
210.7969534440
30
0.0000000000
10
96.6824969747
20
210.8681573041
30
0.0000000000
10
96.6803446984
20
211.0143245123
30
0.0000000000
10
96.6694660809
20
211.2332097548
30
0.0000000000
10
96.6514457437
20
211.4400512550
30
0.0000000000
10
96.6215267159
20
211.6187723579
30
0.0000000000
10
96.5953274412
20
211.7299265034
30
0.0000000000
10
96.5551458565
20
211.7969622813
30
0.0000000000
10
96.5351903870
20
211.7969534440
30
0.0000000000
11
96.6824980280
21
210.7969534440
31
0.0000000000
11
96.6791867290
21
211.0105393578
31
0.0000000000
11
96.6679435412
21
211.2353957097
31
0.0000000000
11
96.6472536228
21
211.4516520149
31
0.0000000000
11
96.6167457069
21
211.6339821404
31
0.0000000000
11
96.5780951487
21
211.7552021686
31
0.0000000000
11
96.5351903870
21
211.7969534440
31
0.0000000000
0
SPLINE
5
4EB
100
AcDbEntity
8
0
100
AcDbSpline
62
7
6
CONTINUOUS
70
0
71
3
72
15
73
11
74
9
42
0.0000001000
43
0.0000001000
44
0.0000000001
12
0.6356252909
22
-0.1504652406
32
0.0000000000
13
0.2047930392
23
-0.6202572935
33
0.0000000000
40
0.0000000000
40
0.0000000000
40
0.0000000000
40
0.0000000000
40
0.1395145897
40
0.2855208355
40
0.4328507882
40
0.5761073727
40
0.7101159576
40
0.8302926411
40
0.9307494110
40
1.0000000000
40
1.0000000000
40
1.0000000000
40
1.0000000000
10
90.6806667294
20
206.6054821588
30
0.0000000000
10
90.7102263967
20
206.5984847933
30
0.0000000000
10
90.7706779699
20
206.5839796560
30
0.0000000000
10
90.8621528487
20
206.5613000959
30
0.0000000000
10
90.9541961853
20
206.5375136531
30
0.0000000000
10
91.0433183800
20
206.5129922936
30
0.0000000000
10
91.1263883590
20
206.4885178120
30
0.0000000000
10
91.1989141113
20
206.4622066404
30
0.0000000000
10
91.2583699264
20
206.4403057870
30
0.0000000000
10
91.2856853569
20
206.4112711716
30
0.0000000000
10
91.2904127031
20
206.3969534440
30
0.0000000000
11
90.6806667294
21
206.6054821588
31
0.0000000000
11
90.7692767637
21
206.5842008224
31
0.0000000000
11
90.8618360978
21
206.5612178410
31
0.0000000000
11
90.9549860176
21
206.5370474409
31
0.0000000000
11
91.0451938311
21
206.5121748838
31
0.0000000000
11
91.1289609272
21
206.4867750877
31
0.0000000000
11
91.2029860563
21
206.4606546060
31
0.0000000000
11
91.2621452596
21
206.4322671492
31
0.0000000000
11
91.2904127031
21
206.3969534440
31
0.0000000000
0
SPLINE
5
4EC
100
AcDbEntity
8
0
100
AcDbSpline
62
7
6
CONTINUOUS
70
0
71
3
72
15
73
11
74
9
42
0.0000001000
43
0.0000001000
44
0.0000000001
12
0.6290604592
22
-0.3221531367
32
0.0000000000
13
-0.0829178575
23
-0.7018720209
33
0.0000000000
40
0.0000000000
40
0.0000000000
40
0.0000000000
40
0.0000000000
40
0.1301780222
40
0.2662067158
40
0.4036610763
40
0.5381845192
40
0.6660222201
40
0.7849197689
40
0.8953203471
40
1.0000000000
40
1.0000000000
40
1.0000000000
40
1.0000000000
10
90.7901923886
20
206.8140108735
30
0.0000000000
10
90.8174890041
20
206.8000317875
30
0.0000000000
10
90.8730782537
20
206.7709975708
30
0.0000000000
10
90.9566922571
20
206.7256686916
30
0.0000000000
10
91.0399501490
20
206.6776657159
30
0.0000000000
10
91.1207513607
20
206.6290839511
30
0.0000000000
10
91.1945160285
20
206.5780940165
30
0.0000000000
10
91.2624079245
20
206.5272815676
30
0.0000000000
10
91.3159630304
20
206.4714280471
30
0.0000000000
10
91.3419969980
20
206.4214440171
30
0.0000000000
10
91.3391037271
20
206.3969534440
30
0.0000000000
11
90.7901923886
21
206.8140108735
31
0.0000000000
11
90.8717495243
21
206.7714301949
31
0.0000000000
11
90.9561886268
21
206.7254662597
31
0.0000000000
11
91.0404118002
21
206.6770528808
31
0.0000000000
11
91.1215079835
21
206.6274279498
31
0.0000000000
11
91.1960221548
21
206.5763329296
31
0.0000000000
11
91.2621893303
21
206.5245338373
31
0.0000000000
11
91.3146526426
21
206.4667787774
31
0.0000000000
11
91.3391037271
21
206.3969534440
31
0.0000000000
0
SPLINE
5
4ED
100
AcDbEntity
8
0
100
AcDbSpline
62
7
6
CONTINUOUS
70
0
71
3
72
11
73
7
74
5
42
0.0000001000
43
0.0000001000
44
0.0000000001
12
-0.1852038716
22
-0.5595464632
32
0.0000000000
13
-0.5538551165
23
0.2015867766
33
0.0000000000
40
0.0000000000
40
0.0000000000
40
0.0000000000
40
0.0000000000
40
0.3441166353
40
0.6556729404
40
0.8787411165
40
1.0000000000
40
1.0000000000
40
1.0000000000
40
1.0000000000
10
98.2824980280
20
101.4110274473
30
0.0000000000
10
98.2612541170
20
101.3468443653
30
0.0000000000
10
98.2145787521
20
101.2269607178
30
0.0000000000
10
98.1292813402
20
101.0737776612
30
0.0000000000
10
98.0574134970
20
100.9726769156
30
0.0000000000
10
97.9865669330
20
100.9330330745
30
0.0000000000
10
97.9641803153
20
100.9411811370
30
0.0000000000
11
98.2824980280
21
101.4110274473
31
0.0000000000
11
98.2075867450
21
101.2225460273
31
0.0000000000
11
98.1184213174
21
101.0620156233
31
0.0000000000
11
98.0323587257
21
100.9626210187
31
0.0000000000
11
97.9641803153
21
100.9411811370
31
0.0000000000
0
SPLINE
5
4EE
100
AcDbEntity
8
0
100
AcDbSpline
62
7
6
CONTINUOUS
70
0
71
3
72
9
73
5
74
3
42
0.0000001000
43
0.0000001000
44
0.0000000001
12
1.7004658085
22
-0.6034459149
32
0.0000000000
13
1.7004656024
23
-0.6034464956
33
0.0000000000
40
0.0000000000
40
0.0000000000
40
0.0000000000
40
0.0000000000
40
0.5032532645
40
1.0000000000
40
1.0000000000
40
1.0000000000
40
1.0000000000
10
96.5820058673
20
102.0144827642
30
0.0000000000
10
96.8672608571
20
101.9132540553
30
0.0000000000
10
97.4340694971
20
101.7120679443
30
0.0000000000
10
98.0009311157
20
101.5110311438
30
0.0000000000
10
98.2824980280
20
101.4111111183
30
0.0000000000
11
96.5820058673
21
102.0144827642
31
0.0000000000
11
97.4377708715
21
101.7107967360
31
0.0000000000
11
98.2824980280
21
101.4111111183
31
0.0000000000
0
SPLINE
5
4EF
100
AcDbEntity
8
0
100
AcDbSpline
62
7
6
CONTINUOUS
70
0
71
3
72
11
73
7
74
5
42
0.0000001000
43
0.0000001000
44
0.0000000001
12
-0.1831793450
22
-0.5264052750
32
0.0000000000
13
-0.5237493071
23
0.1906406285
33
0.0000000000
40
0.0000000000
40
0.0000000000
40
0.0000000000
40
0.0000000000
40
0.3626593809
40
0.6778324503
40
0.8972307642
40
1.0000000000
40
1.0000000000
40
1.0000000000
40
1.0000000000
10
96.5820062845
20
102.0144827642
30
0.0000000000
10
96.5598623819
20
101.9508474938
30
0.0000000000
10
96.5149457263
20
101.8344443330
30
0.0000000000
10
96.4372697811
20
101.6810567491
30
0.0000000000
10
96.3808485350
20
101.5891728143
30
0.0000000000
10
96.3241422307
20
101.5381057899
30
0.0000000000
10
96.3062004587
20
101.5446364538
30
0.0000000000
11
96.5820062845
21
102.0144827642
31
0.0000000000
11
96.5078586469
21
101.8264393427
31
0.0000000000
11
96.4286153564
21
101.6696613416
31
0.0000000000
11
96.3574519533
21
101.5702156462
31
0.0000000000
11
96.3062004587
21
101.5446364538
31
0.0000000000
0
SPLINE
5
4F0
100
AcDbEntity
8
0
100
AcDbSpline
62
7
6
CONTINUOUS
70
0
71
3
72
11
73
7
74
5
42
0.0000001000
43
0.0000001000
44
0.0000000001
12
0.0000000000
22
-0.5004821073
32
0.0000000000
13
-0.5004821073
23
0.0000000000
33
0.0000000000
40
0.0000000000
40
0.0000000000
40
0.0000000000
40
0.0000000000
40
0.3823130821
40
0.7064817489
40
0.9232330918
40
1.0000000000
40
1.0000000000
40
1.0000000000
40
1.0000000000
10
91.3391037271
20
205.8969534440
30
0.0000000000
10
91.3391037271
20
205.8331731583
30
0.0000000000
10
91.3356902576
20
205.7191084820
30
0.0000000000
10
91.3430544081
20
205.5517283085
30
0.0000000000
10
91.3199166966
20
205.4751891120
30
0.0000000000
10
91.3381877650
20
205.3969534440
30
0.0000000000
10
91.3253809436
20
205.3969534440
30
0.0000000000
11
91.3391037271
21
205.8969534440
31
0.0000000000
11
91.3380591846
21
205.7056154381
31
0.0000000000
11
91.3350844729
21
205.5434020939
31
0.0000000000
11
91.3306324019
21
205.4350133210
31
0.0000000000
11
91.3253809436
21
205.3969534440
31
0.0000000000
0
SPLINE
5
4F1
100
AcDbEntity
8
0
100
AcDbSpline
62
7
6
CONTINUOUS
70
0
71
3
72
11
73
7
74
5
42
0.0000001000
43
0.0000001000
44
0.0000000001
12
-0.5063889393
22
0.0000000000
32
0.0000000000
13
-0.0000000001
23
-0.5063889393
33
0.0000000000
40
0.0000000000
40
0.0000000000
40
0.0000000000
40
0.0000000000
40
0.0844734283
40
0.3009928571
40
0.6220668384
40
1.0000000000
40
1.0000000000
40
1.0000000000
40
1.0000000000
10
58.6566980771
20
101.6969534440
30
0.0000000000
10
58.6424392738
20
101.6969534440
30
0.0000000000
10
58.6328333641
20
101.6247741526
30
0.0000000000
10
58.6162652226
20
101.5399893446
30
0.0000000000
10
58.6083626820
20
101.3760186567
30
0.0000000000
10
58.6056757071
20
101.2607471682
30
0.0000000000
10
58.6056757071
20
101.1969534440
30
0.0000000000
11
58.6566980771
21
101.6969534440
31
0.0000000000
11
58.6371726670
21
101.6588932339
31
0.0000000000
11
58.6206198185
21
101.5505068866
31
0.0000000000
11
58.6095595556
21
101.3882952038
31
0.0000000000
11
58.6056757071
21
101.1969534440
31
0.0000000000
0
SPLINE
5
4F2
100
AcDbEntity
8
0
100
AcDbSpline
62
7
6
CONTINUOUS
70
0
71
3
72
14
73
10
74
8
42
0.0000001000
43
0.0000001000
44
0.0000000001
12
0.0003863691
22
1.9425494042
32
0.0000000000
13
1.8306779863
23
-0.6497048929
33
0.0000000000
40
0.0000000000
40
0.0000000000
40
0.0000000000
40
0.0000000000
40
0.1334116474
40
0.2775721858
40
0.4258870527
40
0.5757721913
40
0.7257065891
40
0.8685157322
40
1.0000000000
40
1.0000000000
40
1.0000000000
40
1.0000000000
10
95.2055749511
20
101.0747901434
30
0.0000000000
10
95.2055921331
20
101.1611763821
30
0.0000000000
10
95.2297652008
20
101.3417784555
30
0.0000000000
10
95.3410597902
20
101.5980752573
30
0.0000000000
10
95.5273155902
20
101.8209463272
30
0.0000000000
10
95.7719121452
20
101.9842381924
30
0.0000000000
10
96.0487514516
20
102.0719863807
30
0.0000000000
10
96.3263685181
20
102.0818989448
30
0.0000000000
10
96.5017707491
20
102.0429580882
30
0.0000000000
10
96.5820058673
20
102.0144827642
30
0.0000000000
11
95.2055749511
21
101.0747901434
31
0.0000000000
11
95.2400016273
21
101.3316520650
31
0.0000000000
11
95.3513236937
21
101.5886135879
31
0.0000000000
11
95.5358576602
21
101.8098690721
31
0.0000000000
11
95.7778521775
21
101.9717714719
31
0.0000000000
11
96.0554319400
21
102.0599697675
31
0.0000000000
11
96.3326690282
21
102.0698705349
31
0.0000000000
11
96.5820058673
21
102.0144827642
31
0.0000000000
0
SPLINE
5
4F3
100
AcDbEntity
8
0
100
AcDbSpline
62
7
6
CONTINUOUS
70
0
71
3
72
11
73
7
74
5
42
0.0000001000
43
0.0000001000
44
0.0000000001
12
0.0000000000
22
-0.5030715630
32
0.0000000000
13
0.5030715630
23
0.0000000000
33
0.0000000000
40
0.0000000000
40
0.0000000000
40
0.0000000000
40
0.0000000000
40
0.3803763367
40
0.7031740594
40
0.9198049958
40
1.0000000000
40
1.0000000000
40
1.0000000000
40
1.0000000000
10
91.2904127031
20
205.8969534440
30
0.0000000000
10
91.2904127031
20
205.8331679379
30
0.0000000000
10
91.2932587409
20
205.7185326333
30
0.0000000000
10
91.2951157326
20
205.5527991412
30
0.0000000000
10
91.3134462113
20
205.4723725654
30
0.0000000000
10
91.3119330016
20
205.3969534440
30
0.0000000000
10
91.3253809436
20
205.3969534440
30
0.0000000000
11
91.2904127031
21
205.8969534440
31
0.0000000000
11
91.2930743944
21
205.7056154381
31
0.0000000000
11
91.3006545209
21
205.5434020939
31
0.0000000000
11
91.3119992375
21
205.4350133211
31
0.0000000000
11
91.3253809436
21
205.3969534440
31
0.0000000000
0
SPLINE
5
4F4
100
AcDbEntity
8
0
100
AcDbSpline
62
7
6
CONTINUOUS
70
0
71
3
72
11
73
7
74
5
42
0.0000001000
43
0.0000001000
44
0.0000000001
12
-0.1831806366
22
0.5264050901
32
0.0000000000
13
-0.5237560759
23
-0.1906227622
33
0.0000000000
40
0.0000000000
40
0.0000000000
40
0.0000000000
40
0.0000000000
40
0.3626575745
40
0.6778301756
40
0.8972294866
40
1.0000000000
40
1.0000000000
40
1.0000000000
40
1.0000000000
10
96.5820057594
20
97.9794241238
30
0.0000000000
10
96.5598618110
20
98.0430590548
30
0.0000000000
10
96.5149450152
20
98.1594617765
30
0.0000000000
10
96.4372695466
20
98.3128493260
30
0.0000000000
10
96.3808476822
20
98.4047334897
30
0.0000000000
10
96.3241423053
20
98.4558016119
30
0.0000000000
10
96.3062000784
20
98.4492714789
30
0.0000000000
11
96.5820057594
21
97.9794241238
31
0.0000000000
11
96.5078581925
21
98.1674665883
31
0.0000000000
11
96.4286150798
21
98.3242444750
31
0.0000000000
11
96.3574517382
21
98.4236909653
31
0.0000000000
11
96.3062000784
21
98.4492714789
31
0.0000000000
0
SPLINE
5
4F5
100
AcDbEntity
8
0
100
AcDbSpline
62
7
6
CONTINUOUS
70
0
71
3
72
14
73
10
74
8
42
0.0000001000
43
0.0000001000
44
0.0000000001
12
-1.8306783113
22
-0.6497038571
32
0.0000000000
13
-0.0003848730
23
1.9425493645
33
0.0000000000
40
0.0000000000
40
0.0000000000
40
0.0000000000
40
0.0000000000
40
0.1314842598
40
0.2742933998
40
0.4242278050
40
0.5741129450
40
0.7224278162
40
0.8665883541
40
1.0000000000
40
1.0000000000
40
1.0000000000
40
1.0000000000
10
96.5820058673
20
97.9794241238
30
0.0000000000
10
96.5017707397
20
97.9509488468
30
0.0000000000
10
96.3263684949
20
97.9120082714
30
0.0000000000
10
96.0487514186
20
97.9219202719
30
0.0000000000
10
95.7719121769
20
98.0096687993
30
0.0000000000
10
95.5273155840
20
98.1729605291
30
0.0000000000
10
95.3410597460
20
98.3958316200
30
0.0000000000
10
95.2297653430
20
98.6521284596
30
0.0000000000
10
95.2055920666
20
98.8327305086
30
0.0000000000
10
95.2055749511
20
98.9191167445
30
0.0000000000
11
96.5820058673
21
97.9794241238
31
0.0000000000
11
96.3326690121
21
97.9240365217
31
0.0000000000
11
96.0554319267
21
97.9339370394
31
0.0000000000
11
95.7778521893
21
98.0221354412
31
0.0000000000
11
95.5358576545
21
98.1840378094
31
0.0000000000
11
95.3513236868
21
98.4052932956
31
0.0000000000
11
95.2400016847
21
98.6622548390
31
0.0000000000
11
95.2055749511
21
98.9191167445
31
0.0000000000
0
SPLINE
5
4F6
100
AcDbEntity
8
0
100
AcDbSpline
62
7
6
CONTINUOUS
70
0
71
3
72
11
73
7
74
5
42
0.0000001000
43
0.0000001000
44
0.0000000001
12
-0.1859195786
22
0.5593450502
32
0.0000000000
13
-0.5538872063
23
-0.2015984562
33
0.0000000000
40
0.0000000000
40
0.0000000000
40
0.0000000000
40
0.0000000000
40
0.3500534872
40
0.6583761866
40
0.8795496479
40
1.0000000000
40
1.0000000000
40
1.0000000000
40
1.0000000000
10
98.2824980280
20
98.5828794406
30
0.0000000000
10
98.2608040957
20
98.6481463357
30
0.0000000000
10
98.2139837801
20
98.7685676168
30
0.0000000000
10
98.1282479481
20
98.9216526616
30
0.0000000000
10
98.0567873579
20
99.0217762945
30
0.0000000000
10
97.9864189517
20
99.0608199527
30
0.0000000000
10
97.9641803153
20
99.0527257510
30
0.0000000000
11
98.2824980280
21
98.5828794406
31
0.0000000000
11
98.2061095636
21
98.7745519508
31
0.0000000000
11
98.1175138478
21
98.9332301810
31
0.0000000000
11
98.0319617771
21
99.0315992068
31
0.0000000000
11
97.9641803153
21
99.0527257510
31
0.0000000000
0
SPLINE
5
4F7
100
AcDbEntity
8
0
100
AcDbSpline
62
7
6
CONTINUOUS
70
0
71
3
72
10
73
6
74
4
42
0.0000001000
43
0.0000001000
44
0.0000000001
12
-1.7004872958
22
-0.6034537047
32
0.0000000000
13
-1.7004872899
23
-0.6034537212
33
0.0000000000
40
0.0000000000
40
0.0000000000
40
0.0000000000
40
0.0000000000
40
0.3303944585
40
0.6638183637
40
1.0000000000
40
1.0000000000
40
1.0000000000
40
1.0000000000
10
98.2824980280
20
98.5828641189
30
0.0000000000
10
98.0952208349
20
98.5164048656
30
0.0000000000
10
97.7189421633
20
98.3828970094
30
0.0000000000
10
97.1521159512
20
98.1817376403
30
0.0000000000
10
96.7725634005
20
98.0470474769
30
0.0000000000
10
96.5820058673
20
97.9794241238
30
0.0000000000
11
98.2824980280
21
98.5828641189
31
0.0000000000
11
97.7206616095
21
98.3834999961
31
0.0000000000
11
97.1536784662
21
98.1822941850
31
0.0000000000
11
96.5820058673
21
97.9794241238
31
0.0000000000
0
SPLINE
5
4F8
100
AcDbEntity
8
0
100
AcDbSpline
62
7
6
CONTINUOUS
70
0
71
3
72
11
73
7
74
5
42
0.0000001000
43
0.0000001000
44
0.0000000001
12
0.3527119197
22
-0.0033373091
32
0.0000000000
13
0.0000000000
23
0.3527277079
33
0.0000000000
40
0.0000000000
40
0.0000000000
40
0.0000000000
40
0.0000000000
40
0.3847466360
40
0.7142501551
40
0.9323288852
40
1.0000000000
40
1.0000000000
40
1.0000000000
40
1.0000000000
10
98.2824980280
20
98.5828794406
30
0.0000000000
10
98.3277329362
20
98.5824514344
30
0.0000000000
10
98.4088659559
20
98.5839626367
30
0.0000000000
10
98.5285671036
20
98.5783357642
30
0.0000000000
10
98.5813515477
20
98.5929401860
30
0.0000000000
10
98.6351903870
20
98.5749229482
30
0.0000000000
10
98.6351903870
20
98.5828794406
30
0.0000000000
11
98.2824980280
21
98.5828794406
31
0.0000000000
11
98.4182079452
21
98.5823901905
31
0.0000000000
11
98.5344270136
21
98.5835664710
31
0.0000000000
11
98.6113347834
21
98.5820657342
31
0.0000000000
11
98.6351903870
21
98.5828794406
31
0.0000000000
0
SPLINE
5
4F9
100
AcDbEntity
8
0
100
AcDbSpline
62
7
6
CONTINUOUS
70
0
71
3
72
14
73
10
74
8
42
0.0000001000
43
0.0000001000
44
0.0000000001
12
1.7776710629
22
0.0000191803
32
0.0000000000
13
1.7776710624
23
-0.0000465934
33
0.0000000000
40
0.0000000000
40
0.0000000000
40
0.0000000000
40
0.0000000000
40
0.1379220032
40
0.2797147133
40
0.4240175956
40
0.5695084904
40
0.7148812212
40
0.8588261164
40
1.0000000000
40
1.0000000000
40
1.0000000000
40
1.0000000000
10
78.0463709453
20
101.1969534440
30
0.0000000000
10
78.1280975966
20
101.1969543258
30
0.0000000000
10
78.2938436721
20
101.1979411093
30
0.0000000000
10
78.5450863402
20
101.2003220017
30
0.0000000000
10
78.8008215454
20
101.2020097120
30
0.0000000000
10
79.0586846230
20
101.2020498507
30
0.0000000000
10
79.3163294838
20
101.2004036920
30
0.0000000000
10
79.5714080542
20
101.1979804189
30
0.0000000000
10
79.7403562529
20
101.1969556366
30
0.0000000000
10
79.8240098287
20
101.1969534440
30
0.0000000000
11
78.0463709453
21
101.1969534440
31
0.0000000000
11
78.2915483596
21
101.1980694017
31
0.0000000000
11
78.5436002526
21
101.2001881173
31
0.0000000000
11
78.8001186726
21
101.2017307040
31
0.0000000000
11
79.0587536237
21
101.2017676273
31
0.0000000000
11
79.3171741441
21
101.2002636536
31
0.0000000000
11
79.5730517786
21
101.1981126975
31
0.0000000000
11
79.8240098287
21
101.1969534440
31
0.0000000000
0
SPLINE
5
4FA
100
AcDbEntity
8
0
100
AcDbSpline
62
7
6
CONTINUOUS
70
0
71
3
72
14
73
10
74
8
42
0.0000001000
43
0.0000001000
44
0.0000000001
12
1.7776469410
22
0.0000049998
32
0.0000000000
13
1.7776469410
23
-0.0000121195
33
0.0000000000
40
0.0000000000
40
0.0000000000
40
0.0000000000
40
0.0000000000
40
0.1357775684
40
0.2774854782
40
0.4230936039
40
0.5703952267
40
0.7171089946
40
0.8610042741
40
1.0000000000
40
1.0000000000
40
1.0000000000
40
1.0000000000
10
78.0463709453
20
101.6969534440
30
0.0000000000
10
78.1268258050
20
101.6969536703
30
0.0000000000
10
78.2912493023
20
101.6974566178
30
0.0000000000
10
78.5419500005
20
101.6986440479
30
0.0000000000
10
78.7994811824
20
101.6994834291
30
0.0000000000
10
79.0599801630
20
101.6995035777
30
0.0000000000
10
79.3194627198
20
101.6986851863
30
0.0000000000
10
79.5740215439
20
101.6974778131
30
0.0000000000
10
79.7416480531
20
101.6969540055
30
0.0000000000
10
79.8240098287
20
101.6969534440
30
0.0000000000
11
78.0463709453
21
101.6969534440
31
0.0000000000
11
78.2877348784
21
101.6975119098
31
0.0000000000
11
78.5396392804
21
101.6985719299
31
0.0000000000
11
78.7984779692
21
101.6993436816
31
0.0000000000
11
79.0603282477
21
101.6993623045
31
0.0000000000
11
79.3211324439
21
101.6986101782
31
0.0000000000
11
79.5769251844
21
101.6975342217
31
0.0000000000
11
79.8240098287
21
101.6969534440
31
0.0000000000
0
SPLINE
5
4FB
100
AcDbEntity
8
0
100
AcDbSpline
62
7
6
CONTINUOUS
70
0
71
3
72
13
73
9
74
7
42
0.0000001000
43
0.0000001000
44
0.0000000001
12
1.0279417479
22
-0.0005549856
32
0.0000000000
13
0.0000248525
23
1.0279418974
33
0.0000000000
40
0.0000000000
40
0.0000000000
40
0.0000000000
40
0.0000000000
40
0.0584919611
40
0.1827066167
40
0.3628029301
40
0.5740801850
40
0.7927340959
40
1.0000000000
40
1.0000000000
40
1.0000000000
40
1.0000000000
10
98.1351903870
20
96.7969534440
30
0.0000000000
10
98.1552324966
20
96.7969426232
30
0.0000000000
10
98.1954576209
20
96.8643645938
30
0.0000000000
10
98.2216633748
20
96.9757606123
30
0.0000000000
10
98.2515442550
20
97.1547395866
30
0.0000000000
10
98.2695200733
20
97.3615189837
30
0.0000000000
10
98.2803562081
20
97.5800767530
30
0.0000000000
10
98.2824963110
20
97.7259343417
30
0.0000000000
10
98.2824980280
20
97.7969534440
30
0.0000000000
11
98.1351903870
21
96.7969534440
31
0.0000000000
11
98.1782178439
21
96.8389512346
31
0.0000000000
11
98.2169031168
21
96.9606353481
31
0.0000000000
11
98.2473762765
21
97.1432386480
31
0.0000000000
11
98.2680088968
21
97.3594370982
31
0.0000000000
11
98.2792049725
21
97.5839215877
31
0.0000000000
11
98.2824980280
21
97.7969534440
31
0.0000000000
0
SPLINE
5
4FC
100
AcDbEntity
8
0
100
AcDbSpline
62
7
6
CONTINUOUS
70
0
71
3
72
12
73
8
74
6
42
0.0000001000
43
0.0000001000
44
0.0000000001
12
2.6977721076
22
-0.0002863302
32
0.0000000000
13
2.6189343805
23
0.6474234606
33
0.0000000000
40
0.0000000000
40
0.0000000000
40
0.0000000000
40
0.0000000000
40
0.1457597799
40
0.3155976904
40
0.5133552150
40
0.7403550582
40
1.0000000000
40
1.0000000000
40
1.0000000000
40
1.0000000000
10
88.8894390760
20
101.6969534440
30
0.0000000000
10
89.0205146322
20
101.6969395322
30
0.0000000000
10
89.3043100299
20
101.7164691049
30
0.0000000000
10
89.7608348802
20
101.7865790054
30
0.0000000000
10
90.2846245954
20
101.8947459674
30
0.0000000000
10
90.8837470109
20
102.0356768810
30
0.0000000000
10
91.3085260321
20
102.1409200350
30
0.0000000000
10
91.5351903870
20
102.1969534440
30
0.0000000000
11
88.8894390760
21
101.6969534440
31
0.0000000000
11
89.2819893733
21
101.7200072680
31
0.0000000000
11
89.7353486453
21
101.7863241596
31
0.0000000000
11
90.2583560008
21
101.8916361270
31
0.0000000000
11
90.8549025830
21
102.0300500041
31
0.0000000000
11
91.5351903870
21
102.1969534440
31
0.0000000000
0
SPLINE
5
4FD
100
AcDbEntity
8
0
100
AcDbSpline
62
7
6
CONTINUOUS
70
0
71
3
72
12
73
8
74
6
42
0.0000001000
43
0.0000001000
44
0.0000000001
12
2.8597998528
22
-0.0008642290
32
0.0000000000
13
2.4764708705
23
1.4302265459
33
0.0000000000
40
0.0000000000
40
0.0000000000
40
0.0000000000
40
0.0000000000
40
0.1687803411
40
0.3509493113
40
0.5488092614
40
0.7632284290
40
1.0000000000
40
1.0000000000
40
1.0000000000
40
1.0000000000
10
88.8894390760
20
101.1969534440
30
0.0000000000
10
89.0503317409
20
101.1969048223
30
0.0000000000
10
89.3852713447
20
101.2322187318
30
0.0000000000
10
89.8915675106
20
101.3699505153
30
0.0000000000
10
90.4168853952
20
101.5853326764
30
0.0000000000
10
90.9672131792
20
101.8690173626
30
0.0000000000
10
91.3397377542
20
102.0840731912
30
0.0000000000
10
91.5351903870
20
102.1969521866
30
0.0000000000
11
88.8894390760
21
101.1969534440
31
0.0000000000
11
89.3699085234
21
101.2430747837
31
0.0000000000
11
89.8737013422
21
101.3757368388
31
0.0000000000
11
90.3988514673
21
101.5864312106
31
0.0000000000
11
90.9459935390
21
101.8632791911
31
0.0000000000
11
91.5351903870
21
102.1969521866
31
0.0000000000
0
ENDSEC
0
SECTION
2
OBJECTS
0
DICTIONARY
5
C
100
AcDbDictionary
280
0
281
1
3
ACAD_GROUP
350
D
3
ACAD_MLINESTYLE
350
17
3
ACAD_LAYOUT
350
1A
3
ACAD_PLOTSETTINGS
350
19
3
ACAD_PLOTSTYLENAME
350
E
0
DICTIONARY
5
D
102
{ACAD_REACTORS
330
C
102
}
100
AcDbDictionary
280
0
281
1
0
ACDBDICTIONARYWDFLT
5
E
102
{ACAD_REACTORS
330
C
102
}
100
AcDbDictionary
281
1
3
Normal
350
F
100
AcDbDictionaryWithDefault
340
F
0
DICTIONARY
5
17
102
{ACAD_REACTORS
330
C
102
}
100
AcDbDictionary
280
0
281
1
3
Standard
350
18
0
DICTIONARY
5
19
102
{ACAD_REACTORS
330
C
102
}
100
AcDbDictionary
281
1
0
DICTIONARY
5
1A
102
{ACAD_REACTORS
330
C
102
}
100
AcDbDictionary
281
1
3
Layout1
350
1E
3
Model
350
22
0
ACDBPLACEHOLDER
5
F
102
{ACAD_REACTORS
330
E
102
}
0
MLINESTYLE
5
18
102
{ACAD_REACTORS
330
17
102
}
100
AcDbMlineStyle
2
STANDARD
70
0
3

62
256
51
90.0
52
90.0
71
2
49
0.5
62
256
6
BYLAYER
49
-0.5
62
256
6
BYLAYER
0
LAYOUT
5
1E
102
{ACAD_REACTORS
330
1A
102
}
100
AcDbPlotSettings
1

2

4

6

40
0.0
41
0.0
42
0.0
43
0.0
44
0.0
45
0.0
46
0.0
47
0.0
48
0.0
49
0.0
140
0.0
141
0.0
142
1.0
143
1.0
70
0
72
0
73
0
74
0
7

75
0
147
1.0
148
0.0
149
0.0
100
AcDbLayout
1
Layout1
70
0
71
0
10
0.0
20
0.0
11
0.0
21
0.0
12
0.0
22
0.0
32
0.0
14
0.0
24
0.0
34
0.0
15
0.0
25
0.0
35
0.0
146
0.0
13
0.0
23
0.0
33
0.0
16
0.0
26
0.0
36
0.0
17
0.0
27
0.0
37
0.0
76
0
330
1B
331
0
345
0
346
0
0
LAYOUT
5
22
102
{ACAD_REACTORS
330
1A
102
}
100
AcDbPlotSettings
1

2

4

6

40
0.0
41
0.0
42
0.0
43
0.0
44
0.0
45
0.0
46
0.0
47
0.0
48
0.0
49
0.0
140
0.0
141
0.0
142
1.0
143
1.0
70
0
72
0
73
0
74
0
7

75
0
147
1.0
148
0.0
149
0.0
100
AcDbLayout
1
Model
70
0
71
0
10
0.0
20
0.0
11
0.0
21
0.0
12
0.0
22
0.0
32
0.0
14
0.0
24
0.0
34
0.0
15
0.0
25
0.0
35
0.0
146
0.0
13
0.0
23
0.0
33
0.0
16
0.0
26
0.0
36
0.0
17
0.0
27
0.0
37
0.0
76
0
330
1F
331
0
345
0
346
0
0
ENDSEC
0
EOF
