999
DXF file: S0523614683.dxf
999
Pro/ENGINEER 2005310 by Parametric Technology Corporation
0
SECTION
2
HEADER
9
$ACADVER
1
AC1015
9
$DWGCODEPAGE
3
ANSI_1252
9
$EXTMAX
10
420.0000000000
20
297.0000000000
30
0.0000000000
9
$EXTMIN
10
0.0000000000
20
0.0000000000
30
0.0000000000
9
$LIMMIN
10
0.0000000000
20
0.0000000000
9
$LIMMAX
10
420.0000000000
20
297.0000000000
9
$VIEWCTR
10
210.0000000000
20
148.5000000000
9
$VIEWSIZE
40
297.0000000000
9
$CLAYER
8
0
9
$LTSCALE
40
23.1000000000
9
$CELTYPE
6
BYLAYER
9
$DIMSCALE
40
1
9
$DIMASZ
40
3.5000000000
9
$DIMEXO
40
2.6250000000
9
$DIMDLI
40
15.9600000000
9
$DIMEXE
40
7.5600000000
9
$DIMCEN
40
3.7800000000
9
$DIMLFAC
40
1.0000000000
9
$DIMBLK
1
_FILLED
9
$DIMTXT
40
3.5000000000
9
$DIMTOL
70
1
9
$DIMLIM
70
0
9
$DIMTFAC
40
1.0000000000
9
$DIMTP
40
0.0010000000
9
$DIMTM
40
0.0010000000
9
$PDMODE
70
3
9
$PDSIZE
40
0.3125000000
9
$HANDSEED
5
3AE
9
$MEASUREMENT
70
1
9
$INSUNITS
70
4
0
ENDSEC
0
SECTION
2
CLASSES
0
CLASS
1
ACDBDICTIONARYWDFLT
2
AcDbDictionaryWithDefault
3
AutoCAD 2000
90
0
280
0
281
0
0
CLASS
1
ACDBPLACEHOLDER
2
AcDbPlaceHolder
3
AutoCAD 2000
90
0
280
0
281
0
0
CLASS
1
LAYOUT
2
AcDbLayout
3
AutoCAD 2000
90
0
280
0
281
0
0
ENDSEC
0
SECTION
2
TABLES
0
TABLE
2
VPORT
5
8
100
AcDbSymbolTable
70
2
0
VPORT
5
1F4
100
AcDbSymbolTableRecord
100
AcDbViewportTableRecord
2
*ACTIVE
70
0
10
0.0
20
0.0
11
1.0
21
1.0
12
210.0000000000
22
148.5000000000
13
0.0
23
0.0
14
1.0
24
1.0
15
0.0
25
0.0
16
0.0
26
0.0
36
1.0
17
0.0
27
0.0
37
0.0
40
297.0000000000
41
1.4141414141
42
50.0
43
0.0
44
0.0
50
0.0
51
0.0
71
0
72
100
73
1
74
1
75
0
76
0
77
0
78
0
0
ENDTAB
0
TABLE
2
LTYPE
5
5
100
AcDbSymbolTable
70
6
0
LTYPE
5
14
100
AcDbSymbolTableRecord
100
AcDbLinetypeTableRecord
2
BYBLOCK
70
0
3

72
65
73
0
40
0.0
0
LTYPE
5
15
100
AcDbSymbolTableRecord
100
AcDbLinetypeTableRecord
2
BYLAYER
70
0
3

72
65
73
0
40
0.0
0
LTYPE
5
16
100
AcDbSymbolTableRecord
100
AcDbLinetypeTableRecord
2
CONTINUOUS
70
64
3
Solid line
72
65
73
0
40
0
0
LTYPE
5
1F5
100
AcDbSymbolTableRecord
100
AcDbLinetypeTableRecord
2
CENTER
70
64
3
____ _ ____ _ ____ _ ____ _ ____ _ ____ _ ____
72
65
73
4
40
0.6
49
0.375
74
0
49
-0.075
74
0
49
0.075
74
0
49
-0.075
74
0
0
LTYPE
5
1F6
100
AcDbSymbolTableRecord
100
AcDbLinetypeTableRecord
2
HIDDEN
70
64
3
- - - - - - - - - - - - - - - - - - - -
72
65
73
2
40
0.2
49
0.1
74
0
49
-0.1
74
0
0
LTYPE
5
1F7
100
AcDbSymbolTableRecord
100
AcDbLinetypeTableRecord
2
PHANTOM
70
64
3
_____ _ _ _____ _ _ _____ _ _ _____
72
65
73
6
40
0.8
49
0.45
74
0
49
-0.05
74
0
49
0.1
74
0
49
-0.05
74
0
49
0.1
74
0
49
-0.05
74
0
0
LTYPE
5
1F8
100
AcDbSymbolTableRecord
100
AcDbLinetypeTableRecord
2
DOT
70
64
3
. . . . . . . . . . . . . . . . . . . .
72
65
73
2
40
0.2
49
0.1
74
0
49
-0.1
74
0
0
LTYPE
5
1F9
100
AcDbSymbolTableRecord
100
AcDbLinetypeTableRecord
2
DASHED
70
64
3
- - - - - - - - - - - - - - - - - - - -
72
65
73
2
40
0.2
49
0.1
74
0
49
-0.1
74
0
0
ENDTAB
0
TABLE
2
LAYER
5
2
100
AcDbSymbolTable
70
36
0
LAYER
5
10
100
AcDbSymbolTableRecord
100
AcDbLayerTableRecord
2
0
70
0
62
7
6
CONTINUOUS
370
-3
390
F
0
LAYER
5
1FA
100
AcDbSymbolTableRecord
100
AcDbLayerTableRecord
2
DEFAULT_1
70
0
62
7
6
CENTER
370
-3
390
F
0
LAYER
5
1FB
100
AcDbSymbolTableRecord
100
AcDbLayerTableRecord
2
DEFAULT_2
70
0
62
8
6
HIDDEN
370
-3
390
F
0
LAYER
5
1FC
100
AcDbSymbolTableRecord
100
AcDbLayerTableRecord
2
DEFAULT_3
70
0
62
7
6
PHANTOM
370
-3
390
F
0
LAYER
5
1FD
100
AcDbSymbolTableRecord
100
AcDbLayerTableRecord
2
_2D_DELETED_OBJS
70
0
62
7
6
CONTINUOUS
370
-3
390
F
0
LAYER
5
1FE
100
AcDbSymbolTableRecord
100
AcDbLayerTableRecord
2
ASSI
70
0
62
7
6
CONTINUOUS
370
-3
390
F
0
LAYER
5
1FF
100
AcDbSymbolTableRecord
100
AcDbLayerTableRecord
2
CURVE
70
0
62
7
6
CONTINUOUS
370
-3
390
F
0
LAYER
5
200
100
AcDbSymbolTableRecord
100
AcDbLayerTableRecord
2
PIANI
70
0
62
7
6
CONTINUOUS
370
-3
390
F
0
LAYER
5
201
100
AcDbSymbolTableRecord
100
AcDbLayerTableRecord
2
SURF_FILETTI
70
0
62
7
6
CONTINUOUS
370
-3
390
F
0
ENDTAB
0
TABLE
2
STYLE
5
3
100
AcDbSymbolTable
70
1
0
STYLE
5
11
100
AcDbSymbolTableRecord
100
AcDbTextStyleTableRecord
2
STANDARD
70
0
40
0.0
41
0.7143000000
50
0.0
71
0
42
0.2
3
txt
4

0
STYLE
5
202
100
AcDbSymbolTableRecord
100
AcDbTextStyleTableRecord
2
TEXTSTYLE_1
70
0
40
0.0
41
0.8000000000
50
0.0
71
0
42
0.2
3
txt
4

0
ENDTAB
0
TABLE
2
VIEW
5
6
100
AcDbSymbolTable
70
0
0
ENDTAB
0
TABLE
2
UCS
5
7
100
AcDbSymbolTable
70
0
0
ENDTAB
0
TABLE
2
APPID
5
9
100
AcDbSymbolTable
70
1
0
APPID
5
203
100
AcDbSymbolTableRecord
100
AcDbRegAppTableRecord
2
ACAD
70
0
0
ENDTAB
0
TABLE
2
BLOCK_RECORD
5
1
100
AcDbSymbolTable
70
0
0
BLOCK_RECORD
5
1F
100
AcDbSymbolTableRecord
100
AcDbBlockTableRecord
2
*MODEL_SPACE
0
BLOCK_RECORD
5
1B
100
AcDbSymbolTableRecord
100
AcDbBlockTableRecord
2
*PAPER_SPACE
0
BLOCK_RECORD
5
204
100
AcDbSymbolTableRecord
100
AcDbBlockTableRecord
2
_FILLED
0
BLOCK_RECORD
5
205
100
AcDbSymbolTableRecord
100
AcDbBlockTableRecord
2
*D0
0
BLOCK_RECORD
5
206
100
AcDbSymbolTableRecord
100
AcDbBlockTableRecord
2
*D1
0
BLOCK_RECORD
5
207
100
AcDbSymbolTableRecord
100
AcDbBlockTableRecord
2
*D2
0
BLOCK_RECORD
5
208
100
AcDbSymbolTableRecord
100
AcDbBlockTableRecord
2
*D3
0
BLOCK_RECORD
5
209
100
AcDbSymbolTableRecord
100
AcDbBlockTableRecord
2
*D4
0
BLOCK_RECORD
5
20A
100
AcDbSymbolTableRecord
100
AcDbBlockTableRecord
2
*D5
0
BLOCK_RECORD
5
20B
100
AcDbSymbolTableRecord
100
AcDbBlockTableRecord
2
*D6
0
BLOCK_RECORD
5
20C
100
AcDbSymbolTableRecord
100
AcDbBlockTableRecord
2
*D7
0
BLOCK_RECORD
5
20D
100
AcDbSymbolTableRecord
100
AcDbBlockTableRecord
2
*D8
0
BLOCK_RECORD
5
20E
100
AcDbSymbolTableRecord
100
AcDbBlockTableRecord
2
*D9
0
BLOCK_RECORD
5
20F
100
AcDbSymbolTableRecord
100
AcDbBlockTableRecord
2
*D10
0
BLOCK_RECORD
5
210
100
AcDbSymbolTableRecord
100
AcDbBlockTableRecord
2
*D11
0
BLOCK_RECORD
5
211
100
AcDbSymbolTableRecord
100
AcDbBlockTableRecord
2
*D12
0
ENDTAB
0
TABLE
2
DIMSTYLE
5
A
100
AcDbSymbolTable
70
1
100
AcDbDimStyleTable
71
0
0
DIMSTYLE
105
212
100
AcDbSymbolTableRecord
100
AcDbDimStyleTableRecord
2
STANDARD
70
0
3

4

40
1.0
41
3.5000000000
42
0.0625
43
0.38
44
0.18
45
0.0
46
0.0
47
0.0010000000
48
0.0010000000
140
3.5000000000
141
0.09
142
0.0
143
25.4
144
1.0000000000
145
0.0
146
1.0000000000
147
0.09
71
1
72
0
73
0
74
0
75
0
76
0
77
1
78
8
170
0
171
2
172
0
173
0
174
0
175
0
176
0
177
0
178
5
270
2
271
3
272
3
273
2
274
2
275
0
280
0
281
0
282
0
283
1
284
8
285
0
286
0
287
3
288
0
340
11
341
204
342
204
343
204
344
204
0
DIMSTYLE
105
213
100
AcDbSymbolTableRecord
100
AcDbDimStyleTableRecord
2
DIMSTYLE_1
70
0
3

4

40
1.0
41
3.5000000000
42
0.0625
43
0.38
44
0.18
45
0.0
46
0.0
47
0.1000000000
48
0.1000000000
140
3.5000000000
141
0.09
142
0.0
143
25.4
144
1.0000000000
145
0.0
146
1.0000000000
147
0.09
71
0
72
0
73
0
74
0
75
0
76
0
77
1
78
8
170
0
171
2
172
0
173
0
174
0
175
0
176
0
177
0
178
5
270
2
271
2
272
2
273
2
274
2
275
0
280
0
281
0
282
0
283
1
284
8
285
0
286
0
287
3
288
0
340
11
341
204
342
204
343
204
344
204
0
DIMSTYLE
105
214
100
AcDbSymbolTableRecord
100
AcDbDimStyleTableRecord
2
DIMSTYLE_2
70
0
3

4

40
1.0
41
3.5000000000
42
0.0625
43
0.38
44
0.18
45
0.0
46
0.0
47
0.1500000000
48
0.1500000000
140
3.5000000000
141
0.09
142
0.0
143
25.4
144
1.0000000000
145
0.0
146
1.0000000000
147
0.09
71
0
72
0
73
0
74
0
75
0
76
0
77
1
78
8
170
0
171
2
172
0
173
0
174
0
175
0
176
0
177
0
178
5
270
2
271
2
272
2
273
2
274
2
275
0
280
0
281
0
282
0
283
1
284
8
285
0
286
0
287
3
288
0
340
11
341
204
342
204
343
204
344
204
0
DIMSTYLE
105
215
100
AcDbSymbolTableRecord
100
AcDbDimStyleTableRecord
2
DIMSTYLE_3
70
0
3

4

40
1.0
41
3.5000000000
42
0.0625
43
0.38
44
0.18
45
0.0
46
0.0
47
0.0000000000
48
0.1000000000
140
3.5000000000
141
0.09
142
0.0
143
25.4
144
1.0000000000
145
0.0
146
0.6000000000
147
0.09
71
1
72
0
73
0
74
0
75
0
76
0
77
1
78
8
170
0
171
2
172
0
173
0
174
0
175
0
176
0
177
0
178
5
270
2
271
3
272
3
273
2
274
2
275
0
280
0
281
0
282
0
283
1
284
8
285
0
286
0
287
3
288
0
340
11
341
204
342
204
343
204
344
204
0
DIMSTYLE
105
216
100
AcDbSymbolTableRecord
100
AcDbDimStyleTableRecord
2
DIMSTYLE_4
70
0
3

4

40
1.0
41
3.5000000000
42
0.0625
43
0.38
44
0.18
45
0.0
46
0.0
47
0.1000000000
48
0.1000000000
140
3.5000000000
141
0.09
142
0.0
143
25.4
144
1.0000000000
145
0.0
146
1.0000000000
147
0.09
71
0
72
0
73
0
74
0
75
0
76
0
77
1
78
8
170
0
171
2
172
0
173
0
174
0
175
0
176
0
177
0
178
5
270
2
271
3
272
3
273
2
274
2
275
0
280
0
281
0
282
0
283
1
284
8
285
0
286
0
287
3
288
0
340
11
341
204
342
204
343
204
344
204
0
DIMSTYLE
105
217
100
AcDbSymbolTableRecord
100
AcDbDimStyleTableRecord
2
DIMSTYLE_5
70
0
3

4

40
1.0
41
3.5000000000
42
0.0625
43
0.38
44
0.18
45
0.0
46
0.0
47
0.1000000000
48
0.1000000000
140
3.5000000000
141
0.09
142
0.0
143
25.4
144
1.0000000000
145
0.0
146
1.0000000000
147
0.09
71
0
72
0
73
0
74
0
75
0
76
0
77
1
78
8
170
0
171
2
172
0
173
0
174
0
175
0
176
0
177
0
178
5
270
2
271
3
272
3
273
2
274
2
275
0
280
0
281
0
282
0
283
1
284
8
285
0
286
0
287
3
288
0
340
11
341
204
342
204
343
204
344
204
0
ENDTAB
0
ENDSEC
0
SECTION
2
BLOCKS
0
BLOCK
5
20
100
AcDbEntity
8
0
100
AcDbBlockBegin
2
*MODEL_SPACE
70
0
10
0.0
20
0.0
30
0.0
3
*MODEL_SPACE
1

0
ENDBLK
5
21
100
AcDbEntity
8
0
100
AcDbBlockEnd
0
BLOCK
5
1C
100
AcDbEntity
8
0
100
AcDbBlockBegin
2
*PAPER_SPACE
70
0
10
0.0
20
0.0
30
0.0
3
*PAPER_SPACE
1

0
ENDBLK
5
1D
100
AcDbEntity
8
0
100
AcDbBlockEnd
0
BLOCK
5
218
100
AcDbEntity
8
0
100
AcDbBlockBegin
62
2
6
CONTINUOUS
2
*D0
70
65
10
0.0000000000
20
0.0000000000
3
*D0
1

0
TEXT
5
219
100
AcDbEntity
8
0
100
AcDbText
62
5
6
CONTINUOUS
10
266.7023024221
20
147.6716673311
7
STANDARD
40
3.5000000000
1
26
41
0.7143000000
72
0
100
AcDbText
0
LINE
5
21A
100
AcDbEntity
8
0
100
AcDbLine
62
2
6
CONTINUOUS
10
281.4333222325
20
156.3384156544
11
281.4333222325
21
145.2966673311
0
LINE
5
21B
100
AcDbEntity
8
0
100
AcDbLine
62
2
6
CONTINUOUS
10
255.4333222325
20
157.6864128683
11
255.4333222325
21
145.2966673311
0
LINE
5
21C
100
AcDbEntity
8
0
100
AcDbLine
62
2
6
CONTINUOUS
10
281.4333222325
20
146.7966673311
11
268.4333222325
21
146.7966673311
0
LINE
5
21D
100
AcDbEntity
8
0
100
AcDbLine
62
2
6
CONTINUOUS
10
255.4333222325
20
146.7966673311
11
268.4333222325
21
146.7966673311
0
INSERT
5
21E
100
AcDbEntity
8
0
100
AcDbBlockReference
62
2
6
CONTINUOUS
2
_FILLED
10
281.4333222325
20
146.7966673311
41
  3.500000
42
  3.500000
43
  3.500000
0
INSERT
5
21F
100
AcDbEntity
8
0
100
AcDbBlockReference
62
2
6
CONTINUOUS
2
_FILLED
10
255.4333222325
20
146.7966673311
41
  3.500000
42
  3.500000
43
  3.500000
50
180.000000
0
ENDBLK
5
220
100
AcDbEntity
8
0
6
BYBLOCK
62
0
100
AcDbBlockEnd
0
BLOCK
5
221
100
AcDbEntity
8
0
100
AcDbBlockBegin
62
2
6
CONTINUOUS
2
*D1
70
65
10
0.0000000000
20
0.0000000000
3
*D1
1

0
TEXT
5
222
100
AcDbEntity
8
0
100
AcDbText
62
5
6
CONTINUOUS
10
229.1743439423
20
172.1749834104
7
STANDARD
40
3.5000000000
1
38
50
90.0000000000
41
0.7143000000
72
0
100
AcDbText
0
LINE
5
223
100
AcDbEntity
8
0
100
AcDbLine
62
2
6
CONTINUOUS
10
259.3650340050
20
193.3083124844
11
228.5493439423
21
193.3083124844
0
LINE
5
224
100
AcDbEntity
8
0
100
AcDbLine
62
2
6
CONTINUOUS
10
254.9333222325
20
155.3083124844
11
228.5493439423
21
155.3083124844
0
LINE
5
225
100
AcDbEntity
8
0
100
AcDbLine
62
2
6
CONTINUOUS
10
230.0493439423
20
193.3083124844
11
230.0493439423
21
174.3083124844
0
LINE
5
226
100
AcDbEntity
8
0
100
AcDbLine
62
2
6
CONTINUOUS
10
230.0493439423
20
155.3083124844
11
230.0493439423
21
174.3083124844
0
INSERT
5
227
100
AcDbEntity
8
0
100
AcDbBlockReference
62
2
6
CONTINUOUS
2
_FILLED
10
230.0493439423
20
193.3083124844
41
  3.500000
42
  3.500000
43
  3.500000
50
 90.000000
0
INSERT
5
228
100
AcDbEntity
8
0
100
AcDbBlockReference
62
2
6
CONTINUOUS
2
_FILLED
10
230.0493439423
20
155.3083124844
41
  3.500000
42
  3.500000
43
  3.500000
50
270.000000
0
ENDBLK
5
229
100
AcDbEntity
8
0
6
BYBLOCK
62
0
100
AcDbBlockEnd
0
BLOCK
5
22A
100
AcDbEntity
8
0
100
AcDbBlockBegin
62
2
6
CONTINUOUS
2
*D2
70
65
10
0.0000000000
20
0.0000000000
3
*D2
1

0
TEXT
5
22B
100
AcDbEntity
8
0
100
AcDbText
62
5
6
CONTINUOUS
10
136.8511683615
20
140.1958411843
7
STANDARD
40
3.5000000000
1
116
41
0.7143000000
72
0
100
AcDbText
0
TEXT
5
22C
100
AcDbEntity
8
0
100
AcDbText
62
5
6
CONTINUOUS
10
144.3513183615
20
142.2958411843
7
TEXTSTYLE_1
40
2.1000000000
1
 0
41
0.8000000000
72
0
100
AcDbText
0
TEXT
5
22D
100
AcDbEntity
8
0
100
AcDbText
62
5
6
CONTINUOUS
10
144.3513183615
20
139.4958411843
7
TEXTSTYLE_1
40
2.1000000000
1
-0.1
41
0.8000000000
72
0
100
AcDbText
0
LINE
5
22E
100
AcDbEntity
8
0
100
AcDbLine
62
2
6
CONTINUOUS
10
84.6249728578
20
156.7368658029
11
84.6249728578
21
136.9458411843
0
LINE
5
22F
100
AcDbEntity
8
0
100
AcDbLine
62
2
6
CONTINUOUS
10
200.6249728578
20
155.0963912597
11
200.6249728578
21
136.9458411843
0
LINE
5
230
100
AcDbEntity
8
0
100
AcDbLine
62
2
6
CONTINUOUS
10
84.6249728578
20
138.4458411843
11
142.6249728578
21
138.4458411843
0
LINE
5
231
100
AcDbEntity
8
0
100
AcDbLine
62
2
6
CONTINUOUS
10
200.6249728578
20
138.4458411843
11
142.6249728578
21
138.4458411843
0
INSERT
5
232
100
AcDbEntity
8
0
100
AcDbBlockReference
62
2
6
CONTINUOUS
2
_FILLED
10
84.6249728578
20
138.4458411843
41
  3.500000
42
  3.500000
43
  3.500000
50
180.000000
0
INSERT
5
233
100
AcDbEntity
8
0
100
AcDbBlockReference
62
2
6
CONTINUOUS
2
_FILLED
10
200.6249728578
20
138.4458411843
41
  3.500000
42
  3.500000
43
  3.500000
0
ENDBLK
5
234
100
AcDbEntity
8
0
6
BYBLOCK
62
0
100
AcDbBlockEnd
0
BLOCK
5
235
100
AcDbEntity
8
0
100
AcDbBlockBegin
62
2
6
CONTINUOUS
2
*D3
70
65
10
0.0000000000
20
0.0000000000
3
*D3
1

0
TEXT
5
236
100
AcDbEntity
8
0
100
AcDbText
62
5
6
CONTINUOUS
10
241.2419089325
20
142.7114635248
7
STANDARD
40
3.5000000000
1
15.2
50
90.0000000000
41
0.7143000000
72
0
100
AcDbText
0
LINE
5
237
100
AcDbEntity
8
0
100
AcDbLine
62
2
6
CONTINUOUS
10
256.3986585789
20
155.3083124844
11
240.6169089325
21
155.3083124844
0
LINE
5
238
100
AcDbEntity
8
0
100
AcDbLine
62
2
6
CONTINUOUS
10
258.9107157898
20
170.5083124844
11
240.6169089325
21
170.5083124844
0
LINE
5
239
100
AcDbEntity
8
0
100
AcDbLine
62
2
6
CONTINUOUS
10
242.1169089325
20
155.3083124844
11
242.1169089325
21
162.9083124844
0
LINE
5
23A
100
AcDbEntity
8
0
100
AcDbLine
62
2
6
CONTINUOUS
10
242.1169089325
20
162.9083124844
11
242.1169089325
21
142.7114635248
0
LINE
5
23B
100
AcDbEntity
8
0
100
AcDbLine
62
2
6
CONTINUOUS
10
242.1169089325
20
170.5083124844
11
242.1169089325
21
162.9083124844
0
INSERT
5
23C
100
AcDbEntity
8
0
100
AcDbBlockReference
62
2
6
CONTINUOUS
2
_FILLED
10
242.1169089325
20
155.3083124844
41
  3.500000
42
  3.500000
43
  3.500000
50
270.000000
0
INSERT
5
23D
100
AcDbEntity
8
0
100
AcDbBlockReference
62
2
6
CONTINUOUS
2
_FILLED
10
242.1169089325
20
170.5083124844
41
  3.500000
42
  3.500000
43
  3.500000
50
 90.000000
0
ENDBLK
5
23E
100
AcDbEntity
8
0
6
BYBLOCK
62
0
100
AcDbBlockEnd
0
BLOCK
5
23F
100
AcDbEntity
8
0
100
AcDbBlockBegin
62
2
6
CONTINUOUS
2
*D4
70
65
10
0.0000000000
20
0.0000000000
3
*D4
1

0
TEXT
5
240
100
AcDbEntity
8
0
100
AcDbText
62
5
6
CONTINUOUS
10
70.6990323275
20
205.2620331763
7
STANDARD
40
3.5000000000
1
7.5
41
0.7143000000
72
0
100
AcDbText
0
LINE
5
241
100
AcDbEntity
8
0
100
AcDbLine
62
2
6
CONTINUOUS
10
84.6249728578
20
191.5583124844
11
84.6249728578
21
205.8870331763
0
LINE
5
242
100
AcDbEntity
8
0
100
AcDbLine
62
2
6
CONTINUOUS
10
92.1249728578
20
196.8083124844
11
92.1249728578
21
205.8870331763
0
LINE
5
243
100
AcDbEntity
8
0
100
AcDbLine
62
2
6
CONTINUOUS
10
84.6249728578
20
204.3870331763
11
70.6990323275
21
204.3870331763
0
LINE
5
244
100
AcDbEntity
8
0
100
AcDbLine
62
2
6
CONTINUOUS
10
70.6990323275
20
204.3870331763
11
88.3749728578
21
204.3870331763
0
LINE
5
245
100
AcDbEntity
8
0
100
AcDbLine
62
2
6
CONTINUOUS
10
92.1249728578
20
204.3870331763
11
100.1249728578
21
204.3870331763
0
LINE
5
246
100
AcDbEntity
8
0
100
AcDbLine
62
2
6
CONTINUOUS
10
100.1249728578
20
204.3870331763
11
88.3749728578
21
204.3870331763
0
INSERT
5
247
100
AcDbEntity
8
0
100
AcDbBlockReference
62
2
6
CONTINUOUS
2
_FILLED
10
84.6249728578
20
204.3870331763
41
  3.500000
42
  3.500000
43
  3.500000
0
INSERT
5
248
100
AcDbEntity
8
0
100
AcDbBlockReference
62
2
6
CONTINUOUS
2
_FILLED
10
92.1249728578
20
204.3870331763
41
  3.500000
42
  3.500000
43
  3.500000
50
180.000000
0
ENDBLK
5
249
100
AcDbEntity
8
0
6
BYBLOCK
62
0
100
AcDbBlockEnd
0
BLOCK
5
24A
100
AcDbEntity
8
0
100
AcDbBlockBegin
62
2
6
CONTINUOUS
2
*D5
70
65
10
0.0000000000
20
0.0000000000
3
*D5
1

0
TEXT
5
24B
100
AcDbEntity
8
0
100
AcDbText
62
5
6
CONTINUOUS
10
97.3768316485
20
205.2620331763
7
STANDARD
40
3.5000000000
1
16
41
0.7143000000
72
0
100
AcDbText
0
LINE
5
24C
100
AcDbEntity
8
0
100
AcDbLine
62
2
6
CONTINUOUS
10
92.1249728578
20
196.8083124844
11
92.1249728578
21
205.8870331763
0
LINE
5
24D
100
AcDbEntity
8
0
100
AcDbLine
62
2
6
CONTINUOUS
10
108.1249728578
20
196.8083124844
11
108.1249728578
21
205.8870331763
0
LINE
5
24E
100
AcDbEntity
8
0
100
AcDbLine
62
2
6
CONTINUOUS
10
92.1249728578
20
204.3870331763
11
100.1249728578
21
204.3870331763
0
LINE
5
24F
100
AcDbEntity
8
0
100
AcDbLine
62
2
6
CONTINUOUS
10
108.1249728578
20
204.3870331763
11
100.1249728578
21
204.3870331763
0
INSERT
5
250
100
AcDbEntity
8
0
100
AcDbBlockReference
62
2
6
CONTINUOUS
2
_FILLED
10
92.1249728578
20
204.3870331763
41
  3.500000
42
  3.500000
43
  3.500000
50
180.000000
0
INSERT
5
251
100
AcDbEntity
8
0
100
AcDbBlockReference
62
2
6
CONTINUOUS
2
_FILLED
10
108.1249728578
20
204.3870331763
41
  3.500000
42
  3.500000
43
  3.500000
0
ENDBLK
5
252
100
AcDbEntity
8
0
6
BYBLOCK
62
0
100
AcDbBlockEnd
0
BLOCK
5
253
100
AcDbEntity
8
0
100
AcDbBlockBegin
62
2
6
CONTINUOUS
2
*D6
70
65
10
0.0000000000
20
0.0000000000
3
*D6
1

0
TEXT
5
254
100
AcDbEntity
8
0
100
AcDbText
62
5
6
CONTINUOUS
10
118.6737065219
20
205.2620331763
7
STANDARD
40
3.5000000000
1
27
41
0.7143000000
72
0
100
AcDbText
0
LINE
5
255
100
AcDbEntity
8
0
100
AcDbLine
62
2
6
CONTINUOUS
10
108.1249728578
20
196.8083124844
11
108.1249728578
21
205.8870331763
0
LINE
5
256
100
AcDbEntity
8
0
100
AcDbLine
62
2
6
CONTINUOUS
10
135.1249728578
20
196.8083124844
11
135.1249728578
21
205.8870331763
0
LINE
5
257
100
AcDbEntity
8
0
100
AcDbLine
62
2
6
CONTINUOUS
10
108.1249728578
20
204.3870331763
11
121.6249728578
21
204.3870331763
0
LINE
5
258
100
AcDbEntity
8
0
100
AcDbLine
62
2
6
CONTINUOUS
10
135.1249728578
20
204.3870331763
11
121.6249728578
21
204.3870331763
0
INSERT
5
259
100
AcDbEntity
8
0
100
AcDbBlockReference
62
2
6
CONTINUOUS
2
_FILLED
10
108.1249728578
20
204.3870331763
41
  3.500000
42
  3.500000
43
  3.500000
50
180.000000
0
INSERT
5
25A
100
AcDbEntity
8
0
100
AcDbBlockReference
62
2
6
CONTINUOUS
2
_FILLED
10
135.1249728578
20
204.3870331763
41
  3.500000
42
  3.500000
43
  3.500000
0
ENDBLK
5
25B
100
AcDbEntity
8
0
6
BYBLOCK
62
0
100
AcDbBlockEnd
0
BLOCK
5
25C
100
AcDbEntity
8
0
100
AcDbBlockBegin
62
2
6
CONTINUOUS
2
*D7
70
65
10
0.0000000000
20
0.0000000000
3
*D7
1

0
TEXT
5
25D
100
AcDbEntity
8
0
100
AcDbText
62
5
6
CONTINUOUS
10
140.2342290898
20
205.2620331763
7
STANDARD
40
3.5000000000
1
15
41
0.7143000000
72
0
100
AcDbText
0
LINE
5
25E
100
AcDbEntity
8
0
100
AcDbLine
62
2
6
CONTINUOUS
10
135.1249728578
20
196.8083124844
11
135.1249728578
21
205.8870331763
0
LINE
5
25F
100
AcDbEntity
8
0
100
AcDbLine
62
2
6
CONTINUOUS
10
150.1249728578
20
196.8083124844
11
150.1249728578
21
205.8870331763
0
LINE
5
260
100
AcDbEntity
8
0
100
AcDbLine
62
2
6
CONTINUOUS
10
135.1249728578
20
204.3870331763
11
142.6249728578
21
204.3870331763
0
LINE
5
261
100
AcDbEntity
8
0
100
AcDbLine
62
2
6
CONTINUOUS
10
150.1249728578
20
204.3870331763
11
142.6249728578
21
204.3870331763
0
INSERT
5
262
100
AcDbEntity
8
0
100
AcDbBlockReference
62
2
6
CONTINUOUS
2
_FILLED
10
135.1249728578
20
204.3870331763
41
  3.500000
42
  3.500000
43
  3.500000
50
180.000000
0
INSERT
5
263
100
AcDbEntity
8
0
100
AcDbBlockReference
62
2
6
CONTINUOUS
2
_FILLED
10
150.1249728578
20
204.3870331763
41
  3.500000
42
  3.500000
43
  3.500000
0
ENDBLK
5
264
100
AcDbEntity
8
0
6
BYBLOCK
62
0
100
AcDbBlockEnd
0
BLOCK
5
265
100
AcDbEntity
8
0
100
AcDbBlockBegin
62
2
6
CONTINUOUS
2
*D8
70
65
10
0.0000000000
20
0.0000000000
3
*D8
1

0
TEXT
5
266
100
AcDbEntity
8
0
100
AcDbText
62
5
6
CONTINUOUS
10
160.3300422441
20
205.2620331763
7
STANDARD
40
3.5000000000
1
27
41
0.7143000000
72
0
100
AcDbText
0
LINE
5
267
100
AcDbEntity
8
0
100
AcDbLine
62
2
6
CONTINUOUS
10
150.1249728578
20
196.8083124844
11
150.1249728578
21
205.8870331763
0
LINE
5
268
100
AcDbEntity
8
0
100
AcDbLine
62
2
6
CONTINUOUS
10
177.1249728578
20
196.8083124844
11
177.1249728578
21
205.8870331763
0
LINE
5
269
100
AcDbEntity
8
0
100
AcDbLine
62
2
6
CONTINUOUS
10
150.1249728578
20
204.3870331763
11
163.6249728578
21
204.3870331763
0
LINE
5
26A
100
AcDbEntity
8
0
100
AcDbLine
62
2
6
CONTINUOUS
10
177.1249728578
20
204.3870331763
11
163.6249728578
21
204.3870331763
0
INSERT
5
26B
100
AcDbEntity
8
0
100
AcDbBlockReference
62
2
6
CONTINUOUS
2
_FILLED
10
150.1249728578
20
204.3870331763
41
  3.500000
42
  3.500000
43
  3.500000
50
180.000000
0
INSERT
5
26C
100
AcDbEntity
8
0
100
AcDbBlockReference
62
2
6
CONTINUOUS
2
_FILLED
10
177.1249728578
20
204.3870331763
41
  3.500000
42
  3.500000
43
  3.500000
0
ENDBLK
5
26D
100
AcDbEntity
8
0
6
BYBLOCK
62
0
100
AcDbBlockEnd
0
BLOCK
5
26E
100
AcDbEntity
8
0
100
AcDbBlockBegin
62
2
6
CONTINUOUS
2
*D9
70
65
10
0.0000000000
20
0.0000000000
3
*D9
1

0
TEXT
5
26F
100
AcDbEntity
8
0
100
AcDbText
62
5
6
CONTINUOUS
10
182.8279788367
20
205.2620331763
7
STANDARD
40
3.5000000000
1
16
41
0.7143000000
72
0
100
AcDbText
0
LINE
5
270
100
AcDbEntity
8
0
100
AcDbLine
62
2
6
CONTINUOUS
10
177.1249728578
20
196.8083124844
11
177.1249728578
21
205.8870331763
0
LINE
5
271
100
AcDbEntity
8
0
100
AcDbLine
62
2
6
CONTINUOUS
10
193.1249728578
20
196.8083124844
11
193.1249728578
21
205.8870331763
0
LINE
5
272
100
AcDbEntity
8
0
100
AcDbLine
62
2
6
CONTINUOUS
10
177.1249728578
20
204.3870331763
11
185.1249728578
21
204.3870331763
0
LINE
5
273
100
AcDbEntity
8
0
100
AcDbLine
62
2
6
CONTINUOUS
10
193.1249728578
20
204.3870331763
11
185.1249728578
21
204.3870331763
0
INSERT
5
274
100
AcDbEntity
8
0
100
AcDbBlockReference
62
2
6
CONTINUOUS
2
_FILLED
10
177.1249728578
20
204.3870331763
41
  3.500000
42
  3.500000
43
  3.500000
50
180.000000
0
INSERT
5
275
100
AcDbEntity
8
0
100
AcDbBlockReference
62
2
6
CONTINUOUS
2
_FILLED
10
193.1249728578
20
204.3870331763
41
  3.500000
42
  3.500000
43
  3.500000
0
ENDBLK
5
276
100
AcDbEntity
8
0
6
BYBLOCK
62
0
100
AcDbBlockEnd
0
BLOCK
5
277
100
AcDbEntity
8
0
100
AcDbBlockBegin
62
2
6
CONTINUOUS
2
*D10
70
65
10
0.0000000000
20
0.0000000000
3
*D10
1

0
TEXT
5
278
100
AcDbEntity
8
0
100
AcDbText
62
5
6
CONTINUOUS
10
207.1229049107
20
205.4963866825
7
STANDARD
40
3.5000000000
1
7.5
41
0.7143000000
72
0
100
AcDbText
0
LINE
5
279
100
AcDbEntity
8
0
100
AcDbLine
62
2
6
CONTINUOUS
10
193.1249728578
20
196.8083124844
11
193.1249728578
21
206.1213866825
0
LINE
5
27A
100
AcDbEntity
8
0
100
AcDbLine
62
2
6
CONTINUOUS
10
200.6249728578
20
178.6083124844
11
200.6249728578
21
206.1213866825
0
LINE
5
27B
100
AcDbEntity
8
0
100
AcDbLine
62
2
6
CONTINUOUS
10
193.1249728578
20
204.6213866825
11
185.1249728578
21
204.6213866825
0
LINE
5
27C
100
AcDbEntity
8
0
100
AcDbLine
62
2
6
CONTINUOUS
10
185.1249728578
20
204.6213866825
11
196.8749728578
21
204.6213866825
0
LINE
5
27D
100
AcDbEntity
8
0
100
AcDbLine
62
2
6
CONTINUOUS
10
200.6249728578
20
204.6213866825
11
214.6230549107
21
204.6213866825
0
LINE
5
27E
100
AcDbEntity
8
0
100
AcDbLine
62
2
6
CONTINUOUS
10
214.6230549107
20
204.6213866825
11
196.8749728578
21
204.6213866825
0
INSERT
5
27F
100
AcDbEntity
8
0
100
AcDbBlockReference
62
2
6
CONTINUOUS
2
_FILLED
10
193.1249728578
20
204.6213866825
41
  3.500000
42
  3.500000
43
  3.500000
0
INSERT
5
280
100
AcDbEntity
8
0
100
AcDbBlockReference
62
2
6
CONTINUOUS
2
_FILLED
10
200.6249728578
20
204.6213866825
41
  3.500000
42
  3.500000
43
  3.500000
50
180.000000
0
ENDBLK
5
281
100
AcDbEntity
8
0
6
BYBLOCK
62
0
100
AcDbBlockEnd
0
BLOCK
5
282
100
AcDbEntity
8
0
100
AcDbBlockBegin
62
2
6
CONTINUOUS
2
*D11
70
65
10
0.0000000000
20
0.0000000000
3
*D11
1

0
TEXT
5
283
100
AcDbEntity
8
0
100
AcDbText
62
5
6
CONTINUOUS
10
285.5466336575
20
178.4897224107
7
STANDARD
40
3.5000000000
1
%%c
50
22.3477706662
41
1.3333333333
72
0
100
AcDbText
0
TEXT
5
284
100
AcDbEntity
8
0
100
AcDbText
62
5
6
CONTINUOUS
10
289.8628010992
20
180.2641170661
7
STANDARD
40
3.5000000000
1
 DF.15
50
22.3477706662
41
0.7143000000
72
0
100
AcDbText
0
LINE
5
285
100
AcDbEntity
8
0
100
AcDbLine
62
2
6
CONTINUOUS
10
275.4625092090
20
173.3980409232
11
268.4333222325
21
170.5083124844
0
LINE
5
286
100
AcDbEntity
8
0
100
AcDbLine
62
2
6
CONTINUOUS
10
268.4333222325
20
170.5083124844
11
304.0691729133
21
185.1583611314
0
LINE
5
287
100
AcDbEntity
8
0
100
AcDbLine
62
2
6
CONTINUOUS
10
261.4041352561
20
167.6185840456
11
268.4333222325
21
170.5083124844
0
INSERT
5
288
100
AcDbEntity
8
0
100
AcDbBlockReference
62
2
6
CONTINUOUS
2
_FILLED
10
275.4625092090
20
173.3980409232
41
  3.500000
42
  3.500000
43
  3.500000
50
 22.347771
0
INSERT
5
289
100
AcDbEntity
8
0
100
AcDbBlockReference
62
2
6
CONTINUOUS
2
_FILLED
10
261.4041352561
20
167.6185840456
41
  3.500000
42
  3.500000
43
  3.500000
50
202.347771
0
ENDBLK
5
28A
100
AcDbEntity
8
0
6
BYBLOCK
62
0
100
AcDbBlockEnd
0
BLOCK
5
28B
100
AcDbEntity
8
0
100
AcDbBlockBegin
62
2
6
CONTINUOUS
2
*D12
70
65
10
0.0000000000
20
0.0000000000
3
*D12
1

0
TEXT
5
28C
100
AcDbEntity
8
0
100
AcDbText
62
5
6
CONTINUOUS
10
73.5531294476
20
183.4875000188
7
STANDARD
40
3.5000000000
1
15
50
90.0000000000
41
0.7143000000
72
0
100
AcDbText
0
LINE
5
28D
100
AcDbEntity
8
0
100
AcDbLine
62
2
6
CONTINUOUS
10
84.6249728578
20
193.3083124844
11
72.9281294476
21
193.3083124844
0
LINE
5
28E
100
AcDbEntity
8
0
100
AcDbLine
62
2
6
CONTINUOUS
10
88.5249728578
20
178.3083124844
11
72.9281294476
21
178.3083124844
0
LINE
5
28F
100
AcDbEntity
8
0
100
AcDbLine
62
2
6
CONTINUOUS
10
74.4281294476
20
193.3083124844
11
74.4281294476
21
185.8083124844
0
LINE
5
290
100
AcDbEntity
8
0
100
AcDbLine
62
2
6
CONTINUOUS
10
74.4281294476
20
178.3083124844
11
74.4281294476
21
185.8083124844
0
INSERT
5
291
100
AcDbEntity
8
0
100
AcDbBlockReference
62
2
6
CONTINUOUS
2
_FILLED
10
74.4281294476
20
193.3083124844
41
  3.500000
42
  3.500000
43
  3.500000
50
 90.000000
0
INSERT
5
292
100
AcDbEntity
8
0
100
AcDbBlockReference
62
2
6
CONTINUOUS
2
_FILLED
10
74.4281294476
20
178.3083124844
41
  3.500000
42
  3.500000
43
  3.500000
50
270.000000
0
ENDBLK
5
293
100
AcDbEntity
8
0
6
BYBLOCK
62
0
100
AcDbBlockEnd
0
BLOCK
5
294
100
AcDbEntity
8
0
100
AcDbBlockBegin
2
_FILLED
70
64
10
0.0000000000
20
0.0000000000
3
_FILLED
1

0
SOLID
5
295
100
AcDbEntity
8
0
6
BYBLOCK
62
0
100
AcDbTrace
10
0.0000000000
20
0.0000000000
11
-1.0000000000
21
0.1857142857
12
-1.0000000000
22
-0.1857142857
13
-1.0000000000
23
-0.1857142857
0
ENDBLK
5
296
100
AcDbEntity
8
0
6
BYBLOCK
62
0
100
AcDbBlockEnd
0
ENDSEC
0
SECTION
2
ENTITIES
0
TEXT
5
297
100
AcDbEntity
8
0
100
AcDbText
62
7
6
CONTINUOUS
10
285.6832472325
20
128.4342932540
7
STANDARD
40
3.5000000000
1
A
41
0.7143000000
72
2
11
288.1832972325
21
128.4342932540
100
AcDbText
0
LINE
5
298
100
AcDbEntity
8
0
100
AcDbLine
62
7
6
CONTINUOUS
10
268.4333222325
20
133.6842932540
11
289.4333222325
21
133.6842932540
0
SOLID
5
299
100
AcDbEntity
8
0
100
AcDbTrace
62
7
6
CONTINUOUS
10
275.4333222325
20
134.6842932540
11
268.4333222325
21
133.6842932540
12
275.4333222325
22
132.6842932540
13
275.4333222325
23
132.6842932540
0
TEXT
5
29A
100
AcDbEntity
8
0
100
AcDbText
62
7
6
CONTINUOUS
10
285.6832472325
20
216.6823317149
7
STANDARD
40
3.5000000000
1
A
41
0.7143000000
72
2
11
288.1832972325
21
216.6823317149
100
AcDbText
0
LINE
5
29B
100
AcDbEntity
8
0
100
AcDbLine
62
7
6
CONTINUOUS
10
268.4333222325
20
214.9323317149
11
289.4333222325
21
214.9323317149
0
SOLID
5
29C
100
AcDbEntity
8
0
100
AcDbTrace
62
7
6
CONTINUOUS
10
275.4333222325
20
215.9323317149
11
268.4333222325
21
214.9323317149
12
275.4333222325
22
213.9323317149
13
275.4333222325
23
213.9323317149
0
DIMENSION
5
29D
100
AcDbEntity
8
0
100
AcDbDimension
62
2
6
CONTINUOUS
2
*D0
10
255.4333222325
20
146.7966673311
11
269.2023524221
21
149.4216673311
70
160
42
26.000000
3
DIMSTYLE_1
100
AcDbAlignedDimension
13
281.4333222325
23
156.3384156544
14
255.4333222325
24
157.6864128683
50
180.000000
100
AcDbRotatedDimension
0
DIMENSION
5
29E
100
AcDbEntity
8
0
100
AcDbDimension
62
2
6
CONTINUOUS
2
*D1
10
230.0493439423
20
155.3083124844
11
227.4243439423
21
174.6750334104
70
160
42
38.000000
3
DIMSTYLE_2
100
AcDbAlignedDimension
13
259.3650340050
23
193.3083124844
14
254.9333222325
24
155.3083124844
50
270.000000
100
AcDbRotatedDimension
0
DIMENSION
5
29F
100
AcDbEntity
8
0
100
AcDbDimension
62
2
6
CONTINUOUS
2
*D2
10
200.6249728578
20
138.4458411843
11
143.9612433615
21
141.9458411843
70
160
42
116.000000
3
DIMSTYLE_3
100
AcDbAlignedDimension
13
84.6249728578
23
156.7368658029
14
200.6249728578
24
155.0963912597
100
AcDbRotatedDimension
0
DIMENSION
5
2A0
100
AcDbEntity
8
0
100
AcDbDimension
62
2
6
CONTINUOUS
2
*D3
10
242.1169089325
20
170.5083124844
11
239.4919089325
21
147.7115635248
70
160
42
15.200000
3
DIMSTYLE_1
100
AcDbAlignedDimension
13
256.3986585789
23
155.3083124844
14
258.9107157898
24
170.5083124844
50
90.000000
100
AcDbRotatedDimension
0
DIMENSION
5
2A1
100
AcDbEntity
8
0
100
AcDbDimension
62
2
6
CONTINUOUS
2
*D4
10
92.1249728578
20
204.3870331763
11
74.4491073275
21
207.0120331763
70
160
42
7.500000
3
DIMSTYLE_4
100
AcDbAlignedDimension
13
84.6249728578
23
191.5583124844
14
92.1249728578
24
196.8083124844
100
AcDbRotatedDimension
0
DIMENSION
5
2A2
100
AcDbEntity
8
0
100
AcDbDimension
62
2
6
CONTINUOUS
2
*D5
10
108.1249728578
20
204.3870331763
11
99.8768816485
21
207.0120331763
70
160
42
16.000000
3
DIMSTYLE_4
100
AcDbAlignedDimension
13
92.1249728578
23
196.8083124844
14
108.1249728578
24
196.8083124844
100
AcDbRotatedDimension
0
DIMENSION
5
2A3
100
AcDbEntity
8
0
100
AcDbDimension
62
2
6
CONTINUOUS
2
*D6
10
135.1249728578
20
204.3870331763
11
121.1737565219
21
207.0120331763
70
160
42
27.000000
3
DIMSTYLE_4
100
AcDbAlignedDimension
13
108.1249728578
23
196.8083124844
14
135.1249728578
24
196.8083124844
100
AcDbRotatedDimension
0
DIMENSION
5
2A4
100
AcDbEntity
8
0
100
AcDbDimension
62
2
6
CONTINUOUS
2
*D7
10
150.1249728578
20
204.3870331763
11
142.7342790898
21
207.0120331763
70
160
42
15.000000
3
DIMSTYLE_4
100
AcDbAlignedDimension
13
135.1249728578
23
196.8083124844
14
150.1249728578
24
196.8083124844
100
AcDbRotatedDimension
0
DIMENSION
5
2A5
100
AcDbEntity
8
0
100
AcDbDimension
62
2
6
CONTINUOUS
2
*D8
10
177.1249728578
20
204.3870331763
11
162.8300922441
21
207.0120331763
70
160
42
27.000000
3
DIMSTYLE_4
100
AcDbAlignedDimension
13
150.1249728578
23
196.8083124844
14
177.1249728578
24
196.8083124844
100
AcDbRotatedDimension
0
DIMENSION
5
2A6
100
AcDbEntity
8
0
100
AcDbDimension
62
2
6
CONTINUOUS
2
*D9
10
193.1249728578
20
204.3870331763
11
185.3280288367
21
207.0120331763
70
160
42
16.000000
3
DIMSTYLE_4
100
AcDbAlignedDimension
13
177.1249728578
23
196.8083124844
14
193.1249728578
24
196.8083124844
100
AcDbRotatedDimension
0
DIMENSION
5
2A7
100
AcDbEntity
8
0
100
AcDbDimension
62
2
6
CONTINUOUS
2
*D10
10
200.6249728578
20
204.6213866825
11
210.8729799107
21
207.2463866825
70
160
42
7.500000
3
DIMSTYLE_4
100
AcDbAlignedDimension
13
193.1249728578
23
196.8083124844
14
200.6249728578
24
178.6083124844
100
AcDbRotatedDimension
0
DIMENSION
5
2A8
100
AcDbEntity
8
0
100
AcDbDimension
62
2
6
CONTINUOUS
2
*D11
10
275.4625092090
20
173.3980409232
11
293.9761557907
21
183.8472452593
70
163
42
15.200000
1
%%c DF.15
3
DIMSTYLE_5
100
AcDbDiametricDimension
15
261.4041352561
25
167.6185840456
0
DIMENSION
5
2A9
100
AcDbEntity
8
0
100
AcDbDimension
62
2
6
CONTINUOUS
2
*D12
10
74.4281294476
20
178.3083124844
11
71.8031294476
21
185.9875500188
70
160
42
15.000000
3
DIMSTYLE_4
100
AcDbAlignedDimension
13
84.6249728578
23
193.3083124844
14
88.5249728578
24
178.3083124844
50
270.000000
100
AcDbRotatedDimension
0
MTEXT
5
2AA
100
AcDbEntity
8
0
100
AcDbMText
62
5
6
CONTINUOUS
7
STANDARD
71
1
72
1
10
130.4225361193
20
129.1970659990
30
0.0000000000
11
1.0000000000
21
0.0000000000
31
0.0000000000
1
SEZIONE A-A
40
3.5000000000
41
27.5005500000
0
LINE
5
2AB
100
AcDbEntity
8
DEFAULT_1
100
AcDbLine
62
2
6
CENTER
10
255.4333222325
20
178.3083124844
11
281.4333222325
21
178.3083124844
0
LINE
5
2AC
100
AcDbEntity
8
DEFAULT_1
100
AcDbLine
62
2
6
CENTER
10
255.4333222325
20
178.3083124844
11
255.4333222325
21
178.8083124844
0
LINE
5
2AD
100
AcDbEntity
8
DEFAULT_1
100
AcDbLine
62
2
6
CENTER
10
279.4333222325
20
180.8083124844
11
257.4333222325
21
180.8083124844
0
LINE
5
2AE
100
AcDbEntity
8
0
100
AcDbLine
62
2
6
CONTINUOUS
10
258.2333225930
20
167.9056009300
11
258.2333222325
21
173.6221870848
0
LINE
5
2AF
100
AcDbEntity
8
0
100
AcDbLine
62
2
6
CONTINUOUS
10
278.6333218721
20
167.9056009300
11
278.6333222325
21
174.2869446999
0
LINE
5
2B0
100
AcDbEntity
8
0
100
AcDbLine
62
7
6
CONTINUOUS
10
84.6249728578
20
155.8083124844
11
84.6249728578
21
192.8083124844
0
LINE
5
2B1
100
AcDbEntity
8
0
100
AcDbLine
62
7
6
CONTINUOUS
10
87.8749728578
20
186.0583124844
11
87.8749728578
21
191.0583124844
0
LINE
5
2B2
100
AcDbEntity
8
0
100
AcDbLine
62
7
6
CONTINUOUS
10
89.0249728578
20
178.3083124844
11
89.0249728578
21
183.8083124844
0
LINE
5
2B3
100
AcDbEntity
8
0
100
AcDbLine
62
7
6
CONTINUOUS
10
89.3249728578
20
191.8083124844
11
89.3249728578
21
193.0083124844
0
LINE
5
2B4
100
AcDbEntity
8
0
100
AcDbLine
62
7
6
CONTINUOUS
10
89.5249728578
20
184.3083124844
11
89.5249728578
21
191.3083124844
0
LINE
5
2B5
100
AcDbEntity
8
0
100
AcDbLine
62
2
6
CONTINUOUS
10
84.6249728578
20
192.7921598972
11
85.1411254450
21
193.3083124844
0
LINE
5
2B6
100
AcDbEntity
8
DEFAULT_1
100
AcDbLine
62
2
6
CENTER
10
92.1249728578
20
196.3083124844
11
92.1249728578
21
152.3083124844
0
LINE
5
2B7
100
AcDbEntity
8
0
100
AcDbLine
62
7
6
CONTINUOUS
10
94.9249728578
20
191.8083124844
11
94.7249728578
21
191.3083124844
0
LINE
5
2B8
100
AcDbEntity
8
0
100
AcDbLine
62
2
6
CONTINUOUS
10
86.4266593510
20
191.0583124844
11
88.6766593510
21
193.3083124844
0
LINE
5
2B9
100
AcDbEntity
8
0
100
AcDbLine
62
2
6
CONTINUOUS
10
84.6249728578
20
185.7210920853
11
84.9621932569
21
186.0583124844
0
LINE
5
2BA
100
AcDbEntity
8
0
100
AcDbLine
62
2
6
CONTINUOUS
10
87.8749728578
20
188.9710920853
11
89.5249728578
21
190.6210920853
0
LINE
5
2BB
100
AcDbEntity
8
0
100
AcDbLine
62
7
6
CONTINUOUS
10
94.7249728578
20
191.3083124844
11
94.7249728578
21
184.3083124844
0
LINE
5
2BC
100
AcDbEntity
8
0
100
AcDbLine
62
7
6
CONTINUOUS
10
94.9249728578
20
193.0083124844
11
94.9249728578
21
191.8083124844
0
LINE
5
2BD
100
AcDbEntity
8
0
100
AcDbLine
62
7
6
CONTINUOUS
10
95.2249728578
20
183.8083124844
11
95.2249728578
21
178.3083124844
0
LINE
5
2BE
100
AcDbEntity
8
0
100
AcDbLine
62
2
6
CONTINUOUS
10
84.6249728578
20
182.1855581794
11
89.5249728578
21
187.0855581794
0
LINE
5
2BF
100
AcDbEntity
8
0
100
AcDbLine
62
2
6
CONTINUOUS
10
94.9249728578
20
192.4855581794
11
95.7477271628
21
193.3083124844
0
LINE
5
2C0
100
AcDbEntity
8
0
100
AcDbLine
62
7
6
CONTINUOUS
10
89.0249728578
20
183.8083124844
11
89.5249728578
21
184.3083124844
0
LINE
5
2C1
100
AcDbEntity
8
0
100
AcDbLine
62
2
6
CONTINUOUS
10
84.6249728578
20
178.6500242734
11
89.0249728578
21
183.0500242734
0
LINE
5
2C2
100
AcDbEntity
8
0
100
AcDbLine
62
2
6
CONTINUOUS
10
94.7249728578
20
188.7500242734
11
99.2832610688
21
193.3083124844
0
LINE
5
2C3
100
AcDbEntity
8
0
100
AcDbLine
62
2
6
CONTINUOUS
10
87.6187949747
20
178.1083124844
11
89.0249728578
21
179.5144903675
0
LINE
5
2C4
100
AcDbEntity
8
0
100
AcDbLine
62
2
6
CONTINUOUS
10
94.7249728578
20
185.2144903675
11
102.8187949747
21
193.3083124844
0
LINE
5
2C5
100
AcDbEntity
8
0
100
AcDbLine
62
7
6
CONTINUOUS
10
89.5249728578
20
191.3083124844
11
89.3249728578
21
191.8083124844
0
LINE
5
2C6
100
AcDbEntity
8
0
100
AcDbLine
62
7
6
CONTINUOUS
10
105.0249728578
20
178.3083124844
11
105.0249728578
21
183.8083124844
0
LINE
5
2C7
100
AcDbEntity
8
0
100
AcDbLine
62
7
6
CONTINUOUS
10
105.3249728578
20
191.8083124844
11
105.3249728578
21
193.0083124844
0
LINE
5
2C8
100
AcDbEntity
8
0
100
AcDbLine
62
7
6
CONTINUOUS
10
105.5249728578
20
184.3083124844
11
105.5249728578
21
191.3083124844
0
LINE
5
2C9
100
AcDbEntity
8
0
100
AcDbLine
62
2
6
CONTINUOUS
10
91.1543288806
20
178.1083124844
11
91.3543288806
21
178.3083124844
0
LINE
5
2CA
100
AcDbEntity
8
0
100
AcDbLine
62
2
6
CONTINUOUS
10
95.2249728578
20
182.1789564616
11
105.3249728578
21
192.2789564616
0
LINE
5
2CB
100
AcDbEntity
8
0
100
AcDbLine
62
2
6
CONTINUOUS
10
94.6898627866
20
178.1083124844
11
94.8898627866
21
178.3083124844
0
LINE
5
2CC
100
AcDbEntity
8
0
100
AcDbLine
62
2
6
CONTINUOUS
10
95.2249728578
20
178.6434225556
11
105.5249728578
21
188.9434225556
0
LINE
5
2CD
100
AcDbEntity
8
DEFAULT_1
100
AcDbLine
62
2
6
CENTER
10
108.1249728578
20
196.3083124844
11
108.1249728578
21
152.3083124844
0
LINE
5
2CE
100
AcDbEntity
8
0
100
AcDbLine
62
7
6
CONTINUOUS
10
110.9249728578
20
191.8083124844
11
110.7249728578
21
191.3083124844
0
LINE
5
2CF
100
AcDbEntity
8
0
100
AcDbLine
62
2
6
CONTINUOUS
10
98.2253966925
20
178.1083124844
11
105.5249728578
21
185.4078886497
0
LINE
5
2D0
100
AcDbEntity
8
0
100
AcDbLine
62
2
6
CONTINUOUS
10
110.7249728578
20
190.6078886497
11
113.4253966925
21
193.3083124844
0
LINE
5
2D1
100
AcDbEntity
8
0
100
AcDbLine
62
7
6
CONTINUOUS
10
105.0249728578
20
183.8083124844
11
105.5249728578
21
184.3083124844
0
LINE
5
2D2
100
AcDbEntity
8
0
100
AcDbLine
62
7
6
CONTINUOUS
10
110.7249728578
20
191.3083124844
11
110.7249728578
21
184.3083124844
0
LINE
5
2D3
100
AcDbEntity
8
0
100
AcDbLine
62
7
6
CONTINUOUS
10
110.9249728578
20
193.0083124844
11
110.9249728578
21
191.8083124844
0
LINE
5
2D4
100
AcDbEntity
8
0
100
AcDbLine
62
7
6
CONTINUOUS
10
111.2249728578
20
183.8083124844
11
111.2249728578
21
178.3083124844
0
LINE
5
2D5
100
AcDbEntity
8
0
100
AcDbLine
62
2
6
CONTINUOUS
10
101.7609305984
20
178.1083124844
11
105.0249728578
21
181.3723547438
0
LINE
5
2D6
100
AcDbEntity
8
0
100
AcDbLine
62
2
6
CONTINUOUS
10
110.7249728578
20
187.0723547438
11
115.6249728578
21
191.9723547438
0
LINE
5
2D7
100
AcDbEntity
8
0
100
AcDbLine
62
2
6
CONTINUOUS
10
105.2964645044
20
178.1083124844
11
105.4964645044
21
178.3083124844
0
LINE
5
2D8
100
AcDbEntity
8
0
100
AcDbLine
62
2
6
CONTINUOUS
10
111.1107186811
20
183.9225666611
11
115.6249728578
21
188.4368208378
0
LINE
5
2D9
100
AcDbEntity
8
0
100
AcDbLine
62
7
6
CONTINUOUS
10
105.5249728578
20
191.3083124844
11
105.3249728578
21
191.8083124844
0
LINE
5
2DA
100
AcDbEntity
8
0
100
AcDbLine
62
7
6
CONTINUOUS
10
115.6249728578
20
180.8083124844
11
115.6249728578
21
193.0083124844
0
LINE
5
2DB
100
AcDbEntity
8
0
100
AcDbLine
62
2
6
CONTINUOUS
10
108.8319984103
20
178.1083124844
11
109.0319984103
21
178.3083124844
0
LINE
5
2DC
100
AcDbEntity
8
0
100
AcDbLine
62
2
6
CONTINUOUS
10
111.2249728578
20
180.5012869319
11
115.6249728578
21
184.9012869319
0
LINE
5
2DD
100
AcDbEntity
8
0
100
AcDbLine
62
2
6
CONTINUOUS
10
112.3675323162
20
178.1083124844
11
115.6249728578
21
181.3657530260
0
LINE
5
2DE
100
AcDbEntity
8
0
100
AcDbLine
62
7
6
CONTINUOUS
10
94.7249728578
20
184.3083124844
11
95.2249728578
21
183.8083124844
0
LINE
5
2DF
100
AcDbEntity
8
0
100
AcDbLine
62
2
6
CONTINUOUS
10
115.9030662222
20
178.1083124844
11
118.6030662222
21
180.8083124844
0
LINE
5
2E0
100
AcDbEntity
8
0
100
AcDbLine
62
2
6
CONTINUOUS
10
127.6249728578
20
189.8302191200
11
131.1030662222
21
193.3083124844
0
LINE
5
2E1
100
AcDbEntity
8
0
100
AcDbLine
62
2
6
CONTINUOUS
10
119.4386001281
20
178.1083124844
11
122.1386001281
21
180.8083124844
0
LINE
5
2E2
100
AcDbEntity
8
0
100
AcDbLine
62
2
6
CONTINUOUS
10
127.6249728578
20
186.2946852141
11
132.5249728578
21
191.1946852141
0
LINE
5
2E3
100
AcDbEntity
8
0
100
AcDbLine
62
2
6
CONTINUOUS
10
122.9741340340
20
178.1083124844
11
125.6741340340
21
180.8083124844
0
LINE
5
2E4
100
AcDbEntity
8
0
100
AcDbLine
62
2
6
CONTINUOUS
10
127.6249728578
20
182.7591513082
11
132.5249728578
21
187.6591513082
0
LINE
5
2E5
100
AcDbEntity
8
0
100
AcDbLine
62
2
6
CONTINUOUS
10
137.9308170288
20
193.0649954792
11
138.1682898630
21
193.3024683134
0
LINE
5
2E6
100
AcDbEntity
8
0
100
AcDbLine
62
7
6
CONTINUOUS
10
85.1249728578
20
155.3083124844
11
200.1249728578
21
155.3083124844
0
LINE
5
2E7
100
AcDbEntity
8
0
100
AcDbLine
62
7
6
CONTINUOUS
10
127.6249728578
20
193.0083124844
11
127.6249728578
21
180.8083124844
0
LINE
5
2E8
100
AcDbEntity
8
0
100
AcDbLine
62
7
6
CONTINUOUS
10
132.0249728578
20
183.8083124844
11
132.5249728578
21
184.3083124844
0
LINE
5
2E9
100
AcDbEntity
8
0
100
AcDbLine
62
2
6
CONTINUOUS
10
126.5096679400
20
178.1083124844
11
132.0249728578
21
183.6236174022
0
LINE
5
2EA
100
AcDbEntity
8
0
100
AcDbLine
62
2
6
CONTINUOUS
10
137.7249728578
20
189.3236174022
11
141.7096679400
21
193.3083124844
0
LINE
5
2EB
100
AcDbEntity
8
0
100
AcDbLine
62
7
6
CONTINUOUS
10
110.7249728578
20
184.3083124844
11
111.2249728578
21
183.8083124844
0
LINE
5
2EC
100
AcDbEntity
8
0
100
AcDbLine
62
7
6
CONTINUOUS
10
132.0249728578
20
178.3083124844
11
132.0249728578
21
183.8083124844
0
LINE
5
2ED
100
AcDbEntity
8
0
100
AcDbLine
62
7
6
CONTINUOUS
10
132.3249728578
20
191.8083124844
11
132.3249728578
21
193.0083124844
0
LINE
5
2EE
100
AcDbEntity
8
0
100
AcDbLine
62
7
6
CONTINUOUS
10
132.5249728578
20
184.3083124844
11
132.5249728578
21
191.3083124844
0
LINE
5
2EF
100
AcDbEntity
8
0
100
AcDbLine
62
7
6
CONTINUOUS
10
137.9249728578
20
191.8083124844
11
137.7249728578
21
191.3083124844
0
LINE
5
2F0
100
AcDbEntity
8
0
100
AcDbLine
62
2
6
CONTINUOUS
10
130.0452018459
20
178.1083124844
11
132.0249728578
21
180.0880834963
0
LINE
5
2F1
100
AcDbEntity
8
0
100
AcDbLine
62
2
6
CONTINUOUS
10
137.7249728578
20
185.7880834963
11
145.2452018459
21
193.3083124844
0
LINE
5
2F2
100
AcDbEntity
8
0
100
AcDbLine
62
2
6
CONTINUOUS
10
133.5807357518
20
178.1083124844
11
133.7807357518
21
178.3083124844
0
LINE
5
2F3
100
AcDbEntity
8
0
100
AcDbLine
62
2
6
CONTINUOUS
10
138.2249728578
20
182.7525495904
11
147.3249728578
21
191.8525495904
0
LINE
5
2F4
100
AcDbEntity
8
0
100
AcDbLine
62
7
6
CONTINUOUS
10
84.6249728578
20
165.9385834945
11
200.6249728578
21
165.9385834945
0
LINE
5
2F5
100
AcDbEntity
8
DEFAULT_1
100
AcDbLine
62
2
6
CENTER
10
135.1249728578
20
196.3083124844
11
135.1249728578
21
152.3083124844
0
LINE
5
2F6
100
AcDbEntity
8
0
100
AcDbLine
62
7
6
CONTINUOUS
10
137.7249728578
20
191.3083124844
11
137.7249728578
21
184.3083124844
0
LINE
5
2F7
100
AcDbEntity
8
0
100
AcDbLine
62
7
6
CONTINUOUS
10
137.9249728578
20
193.0083124844
11
137.9249728578
21
191.8083124844
0
LINE
5
2F8
100
AcDbEntity
8
0
100
AcDbLine
62
7
6
CONTINUOUS
10
138.2249728578
20
183.8083124844
11
138.2249728578
21
178.3083124844
0
LINE
5
2F9
100
AcDbEntity
8
0
100
AcDbLine
62
2
6
CONTINUOUS
10
137.1162696578
20
178.1083124844
11
137.3162696578
21
178.3083124844
0
LINE
5
2FA
100
AcDbEntity
8
0
100
AcDbLine
62
2
6
CONTINUOUS
10
138.2249728578
20
179.2170156844
11
147.5249728578
21
188.5170156844
0
LINE
5
2FB
100
AcDbEntity
8
0
100
AcDbLine
62
2
6
CONTINUOUS
10
140.6518035637
20
178.1083124844
11
147.5249728578
21
184.9814817785
0
LINE
5
2FC
100
AcDbEntity
8
0
100
AcDbLine
62
2
6
CONTINUOUS
10
152.7249728578
20
190.1814817785
11
155.8518035637
21
193.3083124844
0
LINE
5
2FD
100
AcDbEntity
8
0
100
AcDbLine
62
7
6
CONTINUOUS
10
147.5249728578
20
184.3083124844
11
147.0249728578
21
183.8083124844
0
LINE
5
2FE
100
AcDbEntity
8
0
100
AcDbLine
62
7
6
CONTINUOUS
10
84.6249728578
20
167.5485827670
11
200.6249728578
21
167.5485827670
0
LINE
5
2FF
100
AcDbEntity
8
DEFAULT_1
100
AcDbLine
62
2
6
CENTER
10
203.6249728578
20
168.0583124844
11
81.6249728578
21
168.0583124844
0
LINE
5
300
100
AcDbEntity
8
DEFAULT_1
100
AcDbLine
62
2
6
CENTER
10
142.6249728578
20
196.3083124844
11
142.6249728578
21
152.3083124844
0
LINE
5
301
100
AcDbEntity
8
0
100
AcDbLine
62
2
6
CONTINUOUS
10
144.1873374696
20
178.1083124844
11
147.0249728578
21
180.9459478726
0
LINE
5
302
100
AcDbEntity
8
0
100
AcDbLine
62
2
6
CONTINUOUS
10
152.7249728578
20
186.6459478726
11
157.6249728578
21
191.5459478726
0
LINE
5
303
100
AcDbEntity
8
0
100
AcDbLine
62
7
6
CONTINUOUS
10
132.5249728578
20
191.3083124844
11
132.3249728578
21
191.8083124844
0
LINE
5
304
100
AcDbEntity
8
0
100
AcDbLine
62
7
6
CONTINUOUS
10
147.0249728578
20
183.8083124844
11
147.0249728578
21
178.3083124844
0
LINE
5
305
100
AcDbEntity
8
0
100
AcDbLine
62
7
6
CONTINUOUS
10
152.7249728578
20
191.3083124844
11
152.9249728578
21
191.8083124844
0
LINE
5
306
100
AcDbEntity
8
0
100
AcDbLine
62
2
6
CONTINUOUS
10
147.7228713756
20
178.1083124844
11
147.9228713756
21
178.3083124844
0
LINE
5
307
100
AcDbEntity
8
0
100
AcDbLine
62
2
6
CONTINUOUS
10
153.2249728578
20
183.6104139666
11
157.6249728578
21
188.0104139666
0
LINE
5
308
100
AcDbEntity
8
0
100
AcDbLine
62
2
6
CONTINUOUS
10
151.2584052815
20
178.1083124844
11
151.4584052815
21
178.3083124844
0
LINE
5
309
100
AcDbEntity
8
0
100
AcDbLine
62
2
6
CONTINUOUS
10
153.2249728578
20
180.0748800607
11
157.6249728578
21
184.4748800607
0
LINE
5
30A
100
AcDbEntity
8
0
100
AcDbLine
62
7
6
CONTINUOUS
10
84.6249728578
20
178.1083124844
11
200.6249728578
21
178.1083124844
0
LINE
5
30B
100
AcDbEntity
8
0
100
AcDbLine
62
7
6
CONTINUOUS
10
89.0249728578
20
178.3083124844
11
95.2249728578
21
178.3083124844
0
LINE
5
30C
100
AcDbEntity
8
0
100
AcDbLine
62
7
6
CONTINUOUS
10
105.0249728578
20
178.3083124844
11
111.2249728578
21
178.3083124844
0
LINE
5
30D
100
AcDbEntity
8
0
100
AcDbLine
62
7
6
CONTINUOUS
10
132.0249728578
20
178.3083124844
11
138.2249728578
21
178.3083124844
0
LINE
5
30E
100
AcDbEntity
8
0
100
AcDbLine
62
7
6
CONTINUOUS
10
147.0249728578
20
178.3083124844
11
153.2249728578
21
178.3083124844
0
LINE
5
30F
100
AcDbEntity
8
0
100
AcDbLine
62
7
6
CONTINUOUS
10
174.0249728578
20
178.3083124844
11
180.2249728578
21
178.3083124844
0
LINE
5
310
100
AcDbEntity
8
0
100
AcDbLine
62
7
6
CONTINUOUS
10
190.0249728578
20
178.3083124844
11
196.2249728578
21
178.3083124844
0
LINE
5
311
100
AcDbEntity
8
0
100
AcDbLine
62
7
6
CONTINUOUS
10
137.7249728578
20
184.3083124844
11
138.2249728578
21
183.8083124844
0
LINE
5
312
100
AcDbEntity
8
0
100
AcDbLine
62
7
6
CONTINUOUS
10
147.3249728578
20
193.0083124844
11
147.3249728578
21
191.8083124844
0
LINE
5
313
100
AcDbEntity
8
0
100
AcDbLine
62
7
6
CONTINUOUS
10
147.5249728578
20
191.3083124844
11
147.5249728578
21
184.3083124844
0
LINE
5
314
100
AcDbEntity
8
DEFAULT_1
100
AcDbLine
62
2
6
CENTER
10
150.1249728578
20
152.3083124844
11
150.1249728578
21
196.3083124844
0
LINE
5
315
100
AcDbEntity
8
0
100
AcDbLine
62
2
6
CONTINUOUS
10
154.7939391874
20
178.1083124844
11
157.6249728578
21
180.9393461548
0
LINE
5
316
100
AcDbEntity
8
0
100
AcDbLine
62
2
6
CONTINUOUS
10
169.6249728578
20
192.9393461548
11
169.9939391874
21
193.3083124844
0
LINE
5
317
100
AcDbEntity
8
0
100
AcDbLine
62
2
6
CONTINUOUS
10
158.3294730934
20
178.1083124844
11
161.0294730934
21
180.8083124844
0
LINE
5
318
100
AcDbEntity
8
0
100
AcDbLine
62
2
6
CONTINUOUS
10
169.6249728578
20
189.4038122488
11
173.5294730934
21
193.3083124844
0
LINE
5
319
100
AcDbEntity
8
0
100
AcDbLine
62
7
6
CONTINUOUS
10
127.6249728578
20
180.8083124844
11
115.6249728578
21
180.8083124844
0
LINE
5
31A
100
AcDbEntity
8
0
100
AcDbLine
62
7
6
CONTINUOUS
10
157.6249728578
20
180.8083124844
11
169.6249728578
21
180.8083124844
0
LINE
5
31B
100
AcDbEntity
8
0
100
AcDbLine
62
7
6
CONTINUOUS
10
152.7249728578
20
184.3083124844
11
152.7249728578
21
191.3083124844
0
LINE
5
31C
100
AcDbEntity
8
0
100
AcDbLine
62
7
6
CONTINUOUS
10
152.9249728578
20
191.8083124844
11
152.9249728578
21
193.0083124844
0
LINE
5
31D
100
AcDbEntity
8
0
100
AcDbLine
62
7
6
CONTINUOUS
10
153.2249728578
20
178.3083124844
11
153.2249728578
21
183.8083124844
0
LINE
5
31E
100
AcDbEntity
8
0
100
AcDbLine
62
2
6
CONTINUOUS
10
161.8650069993
20
178.1083124844
11
164.5650069993
21
180.8083124844
0
LINE
5
31F
100
AcDbEntity
8
0
100
AcDbLine
62
2
6
CONTINUOUS
10
169.6249728578
20
185.8682783429
11
174.5249728578
21
190.7682783429
0
LINE
5
320
100
AcDbEntity
8
0
100
AcDbLine
62
7
6
CONTINUOUS
10
84.6249728578
20
186.0583124844
11
87.8749728578
21
186.0583124844
0
LINE
5
321
100
AcDbEntity
8
0
100
AcDbLine
62
7
6
CONTINUOUS
10
197.3749728578
20
186.0583124844
11
200.6249728578
21
186.0583124844
0
LINE
5
322
100
AcDbEntity
8
0
100
AcDbLine
62
7
6
CONTINUOUS
10
147.3249728578
20
191.8083124844
11
147.5249728578
21
191.3083124844
0
LINE
5
323
100
AcDbEntity
8
0
100
AcDbLine
62
7
6
CONTINUOUS
10
157.6249728578
20
193.0083124844
11
157.6249728578
21
180.8083124844
0
LINE
5
324
100
AcDbEntity
8
0
100
AcDbLine
62
2
6
CONTINUOUS
10
165.4005409052
20
178.1083124844
11
168.1005409052
21
180.8083124844
0
LINE
5
325
100
AcDbEntity
8
0
100
AcDbLine
62
2
6
CONTINUOUS
10
169.6249728578
20
182.3327444370
11
174.5249728578
21
187.2327444370
0
LINE
5
326
100
AcDbEntity
8
0
100
AcDbLine
62
2
6
CONTINUOUS
10
179.9249728578
20
192.6327444370
11
180.6005409052
21
193.3083124844
0
LINE
5
327
100
AcDbEntity
8
0
100
AcDbLine
62
7
6
CONTINUOUS
10
174.5249728578
20
184.3083124844
11
174.0249728578
21
183.8083124844
0
LINE
5
328
100
AcDbEntity
8
0
100
AcDbLine
62
2
6
CONTINUOUS
10
168.9360748112
20
178.1083124844
11
174.0249728578
21
183.1972105310
0
LINE
5
329
100
AcDbEntity
8
0
100
AcDbLine
62
2
6
CONTINUOUS
10
179.7249728578
20
188.8972105310
11
184.1360748112
21
193.3083124844
0
LINE
5
32A
100
AcDbEntity
8
DEFAULT_1
100
AcDbLine
62
2
6
CENTER
10
203.6249728578
20
188.5583124844
11
194.3749728578
21
188.5583124844
0
LINE
5
32B
100
AcDbEntity
8
DEFAULT_1
100
AcDbLine
62
2
6
CENTER
10
90.8749728578
20
188.5583124844
11
81.6249728578
21
188.5583124844
0
LINE
5
32C
100
AcDbEntity
8
0
100
AcDbLine
62
7
6
CONTINUOUS
10
84.6249728578
20
191.0583124844
11
87.8749728578
21
191.0583124844
0
LINE
5
32D
100
AcDbEntity
8
0
100
AcDbLine
62
7
6
CONTINUOUS
10
197.3749728578
20
191.0583124844
11
200.6249728578
21
191.0583124844
0
LINE
5
32E
100
AcDbEntity
8
0
100
AcDbLine
62
7
6
CONTINUOUS
10
153.2249728578
20
183.8083124844
11
152.7249728578
21
184.3083124844
0
LINE
5
32F
100
AcDbEntity
8
0
100
AcDbLine
62
2
6
CONTINUOUS
10
172.4716087171
20
178.1083124844
11
174.0249728578
21
179.6616766251
0
LINE
5
330
100
AcDbEntity
8
0
100
AcDbLine
62
2
6
CONTINUOUS
10
179.7249728578
20
185.3616766251
11
187.6716087171
21
193.3083124844
0
LINE
5
331
100
AcDbEntity
8
0
100
AcDbLine
62
7
6
CONTINUOUS
10
85.1249728578
20
193.3083124844
11
89.0249728578
21
193.3083124844
0
LINE
5
332
100
AcDbEntity
8
0
100
AcDbLine
62
7
6
CONTINUOUS
10
95.2249728578
20
193.3083124844
11
105.0249728578
21
193.3083124844
0
LINE
5
333
100
AcDbEntity
8
0
100
AcDbLine
62
7
6
CONTINUOUS
10
111.2249728578
20
193.3083124844
11
115.3249728578
21
193.3083124844
0
LINE
5
334
100
AcDbEntity
8
0
100
AcDbLine
62
7
6
CONTINUOUS
10
127.9249728578
20
193.3083124844
11
132.0249728578
21
193.3083124844
0
LINE
5
335
100
AcDbEntity
8
0
100
AcDbLine
62
7
6
CONTINUOUS
10
138.2249728578
20
193.3083124844
11
147.0249728578
21
193.3083124844
0
LINE
5
336
100
AcDbEntity
8
0
100
AcDbLine
62
7
6
CONTINUOUS
10
153.2249728578
20
193.3083124844
11
157.3249728578
21
193.3083124844
0
LINE
5
337
100
AcDbEntity
8
0
100
AcDbLine
62
7
6
CONTINUOUS
10
169.9249728578
20
193.3083124844
11
174.0249728578
21
193.3083124844
0
LINE
5
338
100
AcDbEntity
8
0
100
AcDbLine
62
7
6
CONTINUOUS
10
180.2249728578
20
193.3083124844
11
190.0249728578
21
193.3083124844
0
LINE
5
339
100
AcDbEntity
8
0
100
AcDbLine
62
7
6
CONTINUOUS
10
196.2249728578
20
193.3083124844
11
200.1249728578
21
193.3083124844
0
LINE
5
33A
100
AcDbEntity
8
0
100
AcDbLine
62
2
6
CONTINUOUS
10
176.0071426230
20
178.1083124844
11
176.2071426230
21
178.3083124844
0
LINE
5
33B
100
AcDbEntity
8
0
100
AcDbLine
62
2
6
CONTINUOUS
10
180.2249728578
20
182.3261427192
11
190.3249728578
21
192.4261427192
0
LINE
5
33C
100
AcDbEntity
8
0
100
AcDbLine
62
2
6
CONTINUOUS
10
179.5426765290
20
178.1083124844
11
179.7426765290
21
178.3083124844
0
LINE
5
33D
100
AcDbEntity
8
0
100
AcDbLine
62
2
6
CONTINUOUS
10
180.2249728578
20
178.7906088132
11
190.5249728578
21
189.0906088132
0
LINE
5
33E
100
AcDbEntity
8
0
100
AcDbLine
62
7
6
CONTINUOUS
10
169.6249728578
20
180.8083124844
11
169.6249728578
21
193.0083124844
0
LINE
5
33F
100
AcDbEntity
8
0
100
AcDbLine
62
7
6
CONTINUOUS
10
179.7249728578
20
191.3083124844
11
179.9249728578
21
191.8083124844
0
LINE
5
340
100
AcDbEntity
8
0
100
AcDbLine
62
2
6
CONTINUOUS
10
183.0782104349
20
178.1083124844
11
190.5249728578
21
185.5550749073
0
LINE
5
341
100
AcDbEntity
8
0
100
AcDbLine
62
2
6
CONTINUOUS
10
195.7249728578
20
190.7550749073
11
198.2782104349
21
193.3083124844
0
LINE
5
342
100
AcDbEntity
8
0
100
AcDbLine
62
7
6
CONTINUOUS
10
190.5249728578
20
184.3083124844
11
190.0249728578
21
183.8083124844
0
LINE
5
343
100
AcDbEntity
8
0
100
AcDbLine
62
2
6
CONTINUOUS
10
186.6137443408
20
178.1083124844
11
190.0249728578
21
181.5195410014
0
LINE
5
344
100
AcDbEntity
8
0
100
AcDbLine
62
2
6
CONTINUOUS
10
195.7249728578
20
187.2195410014
11
197.3749728578
21
188.8695410014
0
LINE
5
345
100
AcDbEntity
8
0
100
AcDbLine
62
2
6
CONTINUOUS
10
199.5637443408
20
191.0583124844
11
200.6249728578
21
192.1195410014
0
LINE
5
346
100
AcDbEntity
8
0
100
AcDbLine
62
7
6
CONTINUOUS
10
174.0249728578
20
183.8083124844
11
174.0249728578
21
178.3083124844
0
LINE
5
347
100
AcDbEntity
8
0
100
AcDbLine
62
7
6
CONTINUOUS
10
174.3249728578
20
193.0083124844
11
174.3249728578
21
191.8083124844
0
LINE
5
348
100
AcDbEntity
8
0
100
AcDbLine
62
7
6
CONTINUOUS
10
174.5249728578
20
191.3083124844
11
174.5249728578
21
184.3083124844
0
LINE
5
349
100
AcDbEntity
8
0
100
AcDbLine
62
2
6
CONTINUOUS
10
190.1492782468
20
178.1083124844
11
190.3492782468
21
178.3083124844
0
LINE
5
34A
100
AcDbEntity
8
0
100
AcDbLine
62
2
6
CONTINUOUS
10
196.0371255523
20
183.9961597899
11
198.0992782468
21
186.0583124844
0
LINE
5
34B
100
AcDbEntity
8
DEFAULT_1
100
AcDbLine
62
2
6
CENTER
10
177.1249728578
20
152.3083124844
11
177.1249728578
21
196.3083124844
0
LINE
5
34C
100
AcDbEntity
8
0
100
AcDbLine
62
7
6
CONTINUOUS
10
179.7249728578
20
184.3083124844
11
179.7249728578
21
191.3083124844
0
LINE
5
34D
100
AcDbEntity
8
0
100
AcDbLine
62
2
6
CONTINUOUS
10
193.6848121527
20
178.1083124844
11
193.8848121527
21
178.3083124844
0
LINE
5
34E
100
AcDbEntity
8
0
100
AcDbLine
62
2
6
CONTINUOUS
10
196.2249728578
20
180.6484731895
11
200.6249728578
21
185.0484731895
0
LINE
5
34F
100
AcDbEntity
8
0
100
AcDbLine
62
2
6
CONTINUOUS
10
197.2203460586
20
178.1083124844
11
200.6249728578
21
181.5129392836
0
LINE
5
350
100
AcDbEntity
8
0
100
AcDbLine
62
7
6
CONTINUOUS
10
180.2249728578
20
183.8083124844
11
179.7249728578
21
184.3083124844
0
LINE
5
351
100
AcDbEntity
8
0
100
AcDbLine
62
7
6
CONTINUOUS
10
174.3249728578
20
191.8083124844
11
174.5249728578
21
191.3083124844
0
LINE
5
352
100
AcDbEntity
8
0
100
AcDbLine
62
7
6
CONTINUOUS
10
179.9249728578
20
191.8083124844
11
179.9249728578
21
193.0083124844
0
LINE
5
353
100
AcDbEntity
8
0
100
AcDbLine
62
7
6
CONTINUOUS
10
180.2249728578
20
178.3083124844
11
180.2249728578
21
183.8083124844
0
LINE
5
354
100
AcDbEntity
8
0
100
AcDbLine
62
7
6
CONTINUOUS
10
195.7249728578
20
191.3083124844
11
195.9249728578
21
191.8083124844
0
LINE
5
355
100
AcDbEntity
8
0
100
AcDbLine
62
7
6
CONTINUOUS
10
196.2249728578
20
183.8083124844
11
195.7249728578
21
184.3083124844
0
LINE
5
356
100
AcDbEntity
8
0
100
AcDbLine
62
7
6
CONTINUOUS
10
190.0249728578
20
183.8083124844
11
190.0249728578
21
178.3083124844
0
LINE
5
357
100
AcDbEntity
8
0
100
AcDbLine
62
7
6
CONTINUOUS
10
190.3249728578
20
193.0083124844
11
190.3249728578
21
191.8083124844
0
LINE
5
358
100
AcDbEntity
8
0
100
AcDbLine
62
7
6
CONTINUOUS
10
190.5249728578
20
191.3083124844
11
190.5249728578
21
184.3083124844
0
LINE
5
359
100
AcDbEntity
8
DEFAULT_1
100
AcDbLine
62
2
6
CENTER
10
193.1249728578
20
152.3083124844
11
193.1249728578
21
196.3083124844
0
LINE
5
35A
100
AcDbEntity
8
0
100
AcDbLine
62
7
6
CONTINUOUS
10
195.7249728578
20
184.3083124844
11
195.7249728578
21
191.3083124844
0
LINE
5
35B
100
AcDbEntity
8
0
100
AcDbLine
62
7
6
CONTINUOUS
10
195.9249728578
20
191.8083124844
11
195.9249728578
21
193.0083124844
0
LINE
5
35C
100
AcDbEntity
8
0
100
AcDbLine
62
7
6
CONTINUOUS
10
190.3249728578
20
191.8083124844
11
190.5249728578
21
191.3083124844
0
LINE
5
35D
100
AcDbEntity
8
0
100
AcDbLine
62
7
6
CONTINUOUS
10
196.2249728578
20
178.3083124844
11
196.2249728578
21
183.8083124844
0
LINE
5
35E
100
AcDbEntity
8
0
100
AcDbLine
62
7
6
CONTINUOUS
10
197.3749728578
20
186.0583124844
11
197.3749728578
21
191.0583124844
0
LINE
5
35F
100
AcDbEntity
8
0
100
AcDbLine
62
7
6
CONTINUOUS
10
200.6249728578
20
155.8083124844
11
200.6249728578
21
192.8083124844
0
LINE
5
360
100
AcDbEntity
8
0
100
AcDbLine
62
7
6
CONTINUOUS
10
256.4333222325
20
155.3083124844
11
258.1833222325
21
155.3083124844
0
LINE
5
361
100
AcDbEntity
8
0
100
AcDbLine
62
7
6
CONTINUOUS
10
278.6833222325
20
155.3083124844
11
280.4333222325
21
155.3083124844
0
LINE
5
362
100
AcDbEntity
8
0
100
AcDbLine
62
7
6
CONTINUOUS
10
256.4333222325
20
155.8083124844
11
258.3361875733
21
155.8083124844
0
LINE
5
363
100
AcDbEntity
8
0
100
AcDbLine
62
7
6
CONTINUOUS
10
278.5304568918
20
155.8083124844
11
280.4333222325
21
155.8083124844
0
LINE
5
364
100
AcDbEntity
8
0
100
AcDbLine
62
7
6
CONTINUOUS
10
255.9333222325
20
156.3083124844
11
255.4333222325
21
156.3083124748
0
LINE
5
365
100
AcDbEntity
8
0
100
AcDbLine
62
7
6
CONTINUOUS
10
280.9333222325
20
156.3083124844
11
281.4333222325
21
156.3083124844
0
LINE
5
366
100
AcDbEntity
8
0
100
AcDbLine
62
7
6
CONTINUOUS
10
255.4333222325
20
190.3083124844
11
255.4333222325
21
156.3083124844
0
LINE
5
367
100
AcDbEntity
8
0
100
AcDbLine
62
7
6
CONTINUOUS
10
255.9333222325
20
190.3083124844
11
255.9333222325
21
156.3083124844
0
LINE
5
368
100
AcDbEntity
8
0
100
AcDbLine
62
7
6
CONTINUOUS
10
256.4333222325
20
155.8083124844
11
256.4333222325
21
155.3083124844
0
LINE
5
369
100
AcDbEntity
8
0
100
AcDbLine
62
7
6
CONTINUOUS
10
258.4333222325
20
192.8083124844
11
258.4333222418
21
193.3083124844
0
LINE
5
36A
100
AcDbEntity
8
0
100
AcDbLine
62
7
6
CONTINUOUS
10
261.4333222325
20
167.5485827670
11
261.4333222325
21
165.9385834945
0
LINE
5
36B
100
AcDbEntity
8
0
100
AcDbLine
62
7
6
CONTINUOUS
10
261.4333222325
20
165.9385834945
11
258.1833222325
21
155.3083124844
0
LINE
5
36C
100
AcDbEntity
8
DEFAULT_1
100
AcDbLine
62
2
6
CENTER
10
268.4333222325
20
170.5083124844
11
259.0980501349
21
170.5083124844
0
LINE
5
36D
100
AcDbEntity
8
DEFAULT_1
100
AcDbLine
62
2
6
CENTER
10
268.4333222325
20
170.5083124844
11
278.7993208542
21
170.5083124844
0
LINE
5
36E
100
AcDbEntity
8
DEFAULT_1
100
AcDbLine
62
2
6
CENTER
10
268.4333222325
20
188.5583124844
11
268.4333222325
21
183.0583124844
0
LINE
5
36F
100
AcDbEntity
8
DEFAULT_1
100
AcDbLine
62
2
6
CENTER
10
268.4333222325
20
170.5083124844
11
268.4333222325
21
162.7979481283
0
LINE
5
370
100
AcDbEntity
8
DEFAULT_1
100
AcDbLine
62
7
6
CENTER
10
268.4333222325
20
133.6842932540
11
268.4333222325
21
138.6842932540
0
LINE
5
371
100
AcDbEntity
8
DEFAULT_1
100
AcDbLine
62
2
6
CENTER
10
268.4333222325
20
170.5083124844
11
268.4333222325
21
183.0583124844
0
LINE
5
372
100
AcDbEntity
8
DEFAULT_1
100
AcDbLine
62
2
6
CENTER
10
268.4333222325
20
188.5583124844
11
268.4333222325
21
194.0583124844
0
LINE
5
373
100
AcDbEntity
8
DEFAULT_1
100
AcDbLine
62
9
6
CENTER
10
268.4333222325
20
138.6842932540
11
268.4333222325
21
162.7979481283
0
LINE
5
374
100
AcDbEntity
8
DEFAULT_1
100
AcDbLine
62
9
6
CENTER
10
268.4333222325
20
194.0583124844
11
268.4333222325
21
209.9323317149
0
LINE
5
375
100
AcDbEntity
8
DEFAULT_1
100
AcDbLine
62
7
6
CENTER
10
268.4333222325
20
209.9323317149
11
268.4333222325
21
214.9323317149
0
LINE
5
376
100
AcDbEntity
8
0
100
AcDbLine
62
7
6
CONTINUOUS
10
278.6833222325
20
155.3083124844
11
275.4333222325
21
165.9385834945
0
LINE
5
377
100
AcDbEntity
8
0
100
AcDbLine
62
7
6
CONTINUOUS
10
275.4333222325
20
165.9385834945
11
275.4333222325
21
167.5485827670
0
LINE
5
378
100
AcDbEntity
8
0
100
AcDbLine
62
7
6
CONTINUOUS
10
278.4333222325
20
192.8083124844
11
278.4333222325
21
193.3083124844
0
LINE
5
379
100
AcDbEntity
8
0
100
AcDbLine
62
7
6
CONTINUOUS
10
280.4333222325
20
155.8083124844
11
280.4333222422
21
155.3083124844
0
LINE
5
37A
100
AcDbEntity
8
0
100
AcDbLine
62
7
6
CONTINUOUS
10
280.9333222325
20
156.3083124844
11
280.9333222325
21
190.3083124844
0
LINE
5
37B
100
AcDbEntity
8
0
100
AcDbLine
62
7
6
CONTINUOUS
10
281.4333222325
20
156.3083124844
11
281.4333222325
21
190.3083124844
0
LINE
5
37C
100
AcDbEntity
8
DEFAULT_1
100
AcDbLine
62
2
6
CENTER
10
268.4333222325
20
188.5583124844
11
262.9333222325
21
188.5583124844
0
LINE
5
37D
100
AcDbEntity
8
DEFAULT_1
100
AcDbLine
62
2
6
CENTER
10
268.4333222325
20
188.5583124844
11
273.7710804470
21
188.5583124844
0
LINE
5
37E
100
AcDbEntity
8
0
100
AcDbLine
62
7
6
CONTINUOUS
10
255.9333222325
20
190.3083124844
11
255.4333222325
21
190.3083124844
0
LINE
5
37F
100
AcDbEntity
8
0
100
AcDbLine
62
7
6
CONTINUOUS
10
280.9333222325
20
190.3083124844
11
281.4333222325
21
190.3083124752
0
LINE
5
380
100
AcDbEntity
8
0
100
AcDbLine
62
7
6
CONTINUOUS
10
278.4333222325
20
192.8083124844
11
258.4333222325
21
192.8083124844
0
LINE
5
381
100
AcDbEntity
8
0
100
AcDbLine
62
7
6
CONTINUOUS
10
278.4333222325
20
193.3083124844
11
258.4333222325
21
193.3083124844
0
ARC
5
382
100
AcDbEntity
8
DEFAULT_1
100
AcDbCircle
62
2
6
CENTER
10
279.4333222325
20
178.8083124844
40
2.0000000000
100
AcDbArc
50
0.0000000000
51
90.0000000000
0
ARC
5
383
100
AcDbEntity
8
DEFAULT_1
100
AcDbCircle
62
2
6
CENTER
10
257.4333222325
20
178.8083124844
40
2.0000000000
100
AcDbArc
50
90.0000000000
51
180.0000000000
0
ARC
5
384
100
AcDbEntity
8
0
100
AcDbCircle
62
7
6
CONTINUOUS
10
200.1249728578
20
192.8083124844
40
0.5000000000
100
AcDbArc
50
0.0000000000
51
90.0000000000
0
ARC
5
385
100
AcDbEntity
8
0
100
AcDbCircle
62
7
6
CONTINUOUS
10
196.2249728578
20
193.0083124844
40
0.3000000000
100
AcDbArc
50
90.0000000000
51
180.0000000000
0
ARC
5
386
100
AcDbEntity
8
0
100
AcDbCircle
62
7
6
CONTINUOUS
10
190.0249728578
20
193.0083124844
40
0.3000000000
100
AcDbArc
50
0.0000000000
51
90.0000000000
0
ARC
5
387
100
AcDbEntity
8
0
100
AcDbCircle
62
7
6
CONTINUOUS
10
180.2249728578
20
193.0083124844
40
0.3000000000
100
AcDbArc
50
90.0000000000
51
180.0000000000
0
ARC
5
388
100
AcDbEntity
8
0
100
AcDbCircle
62
7
6
CONTINUOUS
10
174.0249728578
20
193.0083124844
40
0.3000000000
100
AcDbArc
50
0.0000000000
51
90.0000000000
0
ARC
5
389
100
AcDbEntity
8
0
100
AcDbCircle
62
7
6
CONTINUOUS
10
169.9249728578
20
193.0083124844
40
0.3000000000
100
AcDbArc
50
90.0000000000
51
180.0000000000
0
ARC
5
38A
100
AcDbEntity
8
0
100
AcDbCircle
62
7
6
CONTINUOUS
10
157.3249728578
20
193.0083124844
40
0.3000000000
100
AcDbArc
50
0.0000000000
51
90.0000000000
0
ARC
5
38B
100
AcDbEntity
8
0
100
AcDbCircle
62
7
6
CONTINUOUS
10
153.2249728578
20
193.0083124844
40
0.3000000000
100
AcDbArc
50
90.0000000000
51
180.0000000000
0
ARC
5
38C
100
AcDbEntity
8
0
100
AcDbCircle
62
7
6
CONTINUOUS
10
147.0249728578
20
193.0083124844
40
0.3000000000
100
AcDbArc
50
0.0000000000
51
90.0000000000
0
ARC
5
38D
100
AcDbEntity
8
0
100
AcDbCircle
62
7
6
CONTINUOUS
10
138.2249728578
20
193.0083124844
40
0.3000000000
100
AcDbArc
50
90.0000000000
51
180.0000000000
0
ARC
5
38E
100
AcDbEntity
8
0
100
AcDbCircle
62
7
6
CONTINUOUS
10
132.0249728578
20
193.0083124844
40
0.3000000000
100
AcDbArc
50
0.0000000000
51
90.0000000000
0
ARC
5
38F
100
AcDbEntity
8
0
100
AcDbCircle
62
7
6
CONTINUOUS
10
127.9249728578
20
193.0083124844
40
0.3000000000
100
AcDbArc
50
90.0000000000
51
180.0000000000
0
ARC
5
390
100
AcDbEntity
8
0
100
AcDbCircle
62
7
6
CONTINUOUS
10
115.3249728578
20
193.0083124844
40
0.3000000000
100
AcDbArc
50
0.0000000000
51
90.0000000000
0
ARC
5
391
100
AcDbEntity
8
0
100
AcDbCircle
62
7
6
CONTINUOUS
10
111.2249728578
20
193.0083124844
40
0.3000000000
100
AcDbArc
50
90.0000000000
51
180.0000000000
0
ARC
5
392
100
AcDbEntity
8
0
100
AcDbCircle
62
7
6
CONTINUOUS
10
105.0249728578
20
193.0083124844
40
0.3000000000
100
AcDbArc
50
0.0000000000
51
90.0000000000
0
ARC
5
393
100
AcDbEntity
8
0
100
AcDbCircle
62
7
6
CONTINUOUS
10
95.2249728578
20
193.0083124844
40
0.3000000000
100
AcDbArc
50
90.0000000000
51
180.0000000000
0
ARC
5
394
100
AcDbEntity
8
0
100
AcDbCircle
62
7
6
CONTINUOUS
10
89.0249728578
20
193.0083124844
40
0.3000000000
100
AcDbArc
50
0.0000000000
51
90.0000000000
0
ARC
5
395
100
AcDbEntity
8
0
100
AcDbCircle
62
7
6
CONTINUOUS
10
85.1249728578
20
192.8083124844
40
0.5000000000
100
AcDbArc
50
90.0000000000
51
180.0000000000
0
ARC
5
396
100
AcDbEntity
8
0
100
AcDbCircle
62
7
6
CONTINUOUS
10
85.1249728578
20
155.8083124844
40
0.5000000000
100
AcDbArc
50
180.0000000000
51
270.0000000000
0
ARC
5
397
100
AcDbEntity
8
0
100
AcDbCircle
62
7
6
CONTINUOUS
10
200.1249728578
20
155.8083124844
40
0.5000000000
100
AcDbArc
50
270.0000000000
51
360.0000000000
0
ARC
5
398
100
AcDbEntity
8
0
100
AcDbCircle
62
7
6
CONTINUOUS
10
152.9249728578
20
178.6083124844
40
0.3000000000
100
AcDbArc
50
281.3914555877
51
348.6685958924
0
ARC
5
399
100
AcDbEntity
8
0
100
AcDbCircle
62
7
6
CONTINUOUS
10
147.3249728578
20
178.6083124844
40
0.3000000000
100
AcDbArc
50
191.3914555877
51
258.6685958924
0
ARC
5
39A
100
AcDbEntity
8
0
100
AcDbCircle
62
7
6
CONTINUOUS
10
174.3249728578
20
178.6083124844
40
0.3000000000
100
AcDbArc
50
191.3914555877
51
258.6685958924
0
ARC
5
39B
100
AcDbEntity
8
0
100
AcDbCircle
62
7
6
CONTINUOUS
10
190.3249728578
20
178.6083124844
40
0.3000000000
100
AcDbArc
50
191.3914555877
51
258.6685958924
0
ARC
5
39C
100
AcDbEntity
8
0
100
AcDbCircle
62
7
6
CONTINUOUS
10
179.9249728578
20
178.6083124844
40
0.3000000000
100
AcDbArc
50
281.3914555877
51
348.6685958924
0
ARC
5
39D
100
AcDbEntity
8
0
100
AcDbCircle
62
7
6
CONTINUOUS
10
195.9249728578
20
178.6083124844
40
0.3000000000
100
AcDbArc
50
281.3914555877
51
348.6685958924
0
ARC
5
39E
100
AcDbEntity
8
0
100
AcDbCircle
62
7
6
CONTINUOUS
10
89.3249728578
20
178.6083124844
40
0.3000000000
100
AcDbArc
50
191.3314041076
51
258.6085444123
0
ARC
5
39F
100
AcDbEntity
8
0
100
AcDbCircle
62
7
6
CONTINUOUS
10
105.3249728578
20
178.6083124844
40
0.3000000000
100
AcDbArc
50
191.3314041076
51
258.6085444123
0
ARC
5
3A0
100
AcDbEntity
8
0
100
AcDbCircle
62
7
6
CONTINUOUS
10
94.9249728578
20
178.6083124844
40
0.3000000000
100
AcDbArc
50
281.3314041076
51
348.6085444123
0
ARC
5
3A1
100
AcDbEntity
8
0
100
AcDbCircle
62
7
6
CONTINUOUS
10
110.9249728578
20
178.6083124844
40
0.3000000000
100
AcDbArc
50
281.3314041076
51
348.6085444123
0
ARC
5
3A2
100
AcDbEntity
8
0
100
AcDbCircle
62
7
6
CONTINUOUS
10
137.9249728578
20
178.6083124844
40
0.3000000000
100
AcDbArc
50
281.3314041076
51
348.6085444123
0
ARC
5
3A3
100
AcDbEntity
8
0
100
AcDbCircle
62
7
6
CONTINUOUS
10
132.3249728578
20
178.6083124844
40
0.3000000000
100
AcDbArc
50
191.3314041076
51
258.6085444123
0
CIRCLE
5
3A4
100
AcDbEntity
8
0
100
AcDbCircle
62
7
6
CONTINUOUS
10
268.4333222325
20
188.5583124844
40
2.5000000000
0
ARC
5
3A5
100
AcDbEntity
8
0
100
AcDbCircle
62
7
6
CONTINUOUS
10
280.4333222325
20
156.3083124844
40
1.0000000000
100
AcDbArc
50
270.0000000000
51
360.0000000000
0
ARC
5
3A6
100
AcDbEntity
8
0
100
AcDbCircle
62
7
6
CONTINUOUS
10
256.4333222325
20
156.3083124844
40
1.0000000000
100
AcDbArc
50
180.0000000000
51
270.0000000000
0
ARC
5
3A7
100
AcDbEntity
8
0
100
AcDbCircle
62
7
6
CONTINUOUS
10
258.4333222325
20
190.3083124844
40
3.0000000000
100
AcDbArc
50
90.0000000000
51
180.0000000000
0
ARC
5
3A8
100
AcDbEntity
8
0
100
AcDbCircle
62
7
6
CONTINUOUS
10
278.4333222325
20
190.3083124844
40
3.0000000000
100
AcDbArc
50
0.0000000000
51
90.0000000000
0
ARC
5
3A9
100
AcDbEntity
8
0
100
AcDbCircle
62
7
6
CONTINUOUS
10
268.4333222325
20
170.5083124844
40
7.6000000000
100
AcDbArc
50
337.0804578484
51
202.9195421516
0
ARC
5
3AA
100
AcDbEntity
8
0
100
AcDbCircle
62
7
6
CONTINUOUS
10
280.4333222325
20
156.3083124844
40
0.4999889170
100
AcDbArc
50
270.0000000000
51
360.0000000000
0
ARC
5
3AB
100
AcDbEntity
8
0
100
AcDbCircle
62
7
6
CONTINUOUS
10
256.4333222325
20
156.3083124844
40
0.4999889170
100
AcDbArc
50
180.0000000000
51
270.0000000000
0
ARC
5
3AC
100
AcDbEntity
8
0
100
AcDbCircle
62
7
6
CONTINUOUS
10
258.4333222325
20
190.3083124844
40
2.4999974638
100
AcDbArc
50
90.0000000000
51
180.0000000000
0
ARC
5
3AD
100
AcDbEntity
8
0
100
AcDbCircle
62
7
6
CONTINUOUS
10
278.4333222325
20
190.3083124844
40
2.4999974638
100
AcDbArc
50
0.0000000000
51
90.0000000000
0
ENDSEC
0
SECTION
2
OBJECTS
0
DICTIONARY
5
C
100
AcDbDictionary
280
0
281
1
3
ACAD_GROUP
350
D
3
ACAD_MLINESTYLE
350
17
3
ACAD_LAYOUT
350
1A
3
ACAD_PLOTSETTINGS
350
19
3
ACAD_PLOTSTYLENAME
350
E
0
DICTIONARY
5
D
102
{ACAD_REACTORS
330
C
102
}
100
AcDbDictionary
280
0
281
1
0
ACDBDICTIONARYWDFLT
5
E
102
{ACAD_REACTORS
330
C
102
}
100
AcDbDictionary
281
1
3
Normal
350
F
100
AcDbDictionaryWithDefault
340
F
0
DICTIONARY
5
17
102
{ACAD_REACTORS
330
C
102
}
100
AcDbDictionary
280
0
281
1
3
Standard
350
18
0
DICTIONARY
5
19
102
{ACAD_REACTORS
330
C
102
}
100
AcDbDictionary
281
1
0
DICTIONARY
5
1A
102
{ACAD_REACTORS
330
C
102
}
100
AcDbDictionary
281
1
3
Layout1
350
1E
3
Model
350
22
0
ACDBPLACEHOLDER
5
F
102
{ACAD_REACTORS
330
E
102
}
0
MLINESTYLE
5
18
102
{ACAD_REACTORS
330
17
102
}
100
AcDbMlineStyle
2
STANDARD
70
0
3

62
256
51
90.0
52
90.0
71
2
49
0.5
62
256
6
BYLAYER
49
-0.5
62
256
6
BYLAYER
0
LAYOUT
5
1E
102
{ACAD_REACTORS
330
1A
102
}
100
AcDbPlotSettings
1

2

4

6

40
0.0
41
0.0
42
0.0
43
0.0
44
0.0
45
0.0
46
0.0
47
0.0
48
0.0
49
0.0
140
0.0
141
0.0
142
1.0
143
1.0
70
0
72
0
73
0
74
0
7

75
0
147
1.0
148
0.0
149
0.0
100
AcDbLayout
1
Layout1
70
0
71
0
10
0.0
20
0.0
11
0.0
21
0.0
12
0.0
22
0.0
32
0.0
14
0.0
24
0.0
34
0.0
15
0.0
25
0.0
35
0.0
146
0.0
13
0.0
23
0.0
33
0.0
16
0.0
26
0.0
36
0.0
17
0.0
27
0.0
37
0.0
76
0
330
1B
331
0
345
0
346
0
0
LAYOUT
5
22
102
{ACAD_REACTORS
330
1A
102
}
100
AcDbPlotSettings
1

2

4

6

40
0.0
41
0.0
42
0.0
43
0.0
44
0.0
45
0.0
46
0.0
47
0.0
48
0.0
49
0.0
140
0.0
141
0.0
142
1.0
143
1.0
70
0
72
0
73
0
74
0
7

75
0
147
1.0
148
0.0
149
0.0
100
AcDbLayout
1
Model
70
0
71
0
10
0.0
20
0.0
11
0.0
21
0.0
12
0.0
22
0.0
32
0.0
14
0.0
24
0.0
34
0.0
15
0.0
25
0.0
35
0.0
146
0.0
13
0.0
23
0.0
33
0.0
16
0.0
26
0.0
36
0.0
17
0.0
27
0.0
37
0.0
76
0
330
1F
331
0
345
0
346
0
0
ENDSEC
0
EOF
