999
DXF file: s0342-605153n.dxf
999
Pro/ENGINEER 2005310 by Parametric Technology Corporation
0
SECTION
2
HEADER
9
$ACADVER
1
AC1015
9
$DWGCODEPAGE
3
ANSI_1252
9
$EXTMAX
10
297.0000000000
20
210.0000000000
30
0.0000000000
9
$EXTMIN
10
0.0000000000
20
0.0000000000
30
0.0000000000
9
$LIMMIN
10
0.0000000000
20
0.0000000000
9
$LIMMAX
10
297.0000000000
20
210.0000000000
9
$VIEWCTR
10
148.5000000000
20
105.0000000000
9
$VIEWSIZE
40
210.0000000000
9
$CLAYER
8
0
9
$LTSCALE
40
16.3350000000
9
$CELTYPE
6
BYLAYER
9
$DIMSCALE
40
1
9
$DIMASZ
40
3.5000000000
9
$DIMEXO
40
1.8562500000
9
$DIMDLI
40
11.2860000000
9
$DIMEXE
40
5.3460000000
9
$DIMCEN
40
2.6730000000
9
$DIMLFAC
40
1.0000000000
9
$DIMBLK
1
_FILLED
9
$DIMTXT
40
3.5000000000
9
$DIMTOL
70
1
9
$DIMLIM
70
0
9
$DIMTFAC
40
1.0000000000
9
$DIMTP
40
0.0010000000
9
$DIMTM
40
0.0010000000
9
$PDMODE
70
3
9
$PDSIZE
40
0.3125000000
9
$HANDSEED
5
2DF
9
$MEASUREMENT
70
1
9
$INSUNITS
70
4
0
ENDSEC
0
SECTION
2
CLASSES
0
CLASS
1
ACDBDICTIONARYWDFLT
2
AcDbDictionaryWithDefault
3
AutoCAD 2000
90
0
280
0
281
0
0
CLASS
1
ACDBPLACEHOLDER
2
AcDbPlaceHolder
3
AutoCAD 2000
90
0
280
0
281
0
0
CLASS
1
LAYOUT
2
AcDbLayout
3
AutoCAD 2000
90
0
280
0
281
0
0
ENDSEC
0
SECTION
2
TABLES
0
TABLE
2
VPORT
5
8
100
AcDbSymbolTable
70
2
0
VPORT
5
1F4
100
AcDbSymbolTableRecord
100
AcDbViewportTableRecord
2
*ACTIVE
70
0
10
0.0
20
0.0
11
1.0
21
1.0
12
148.5000000000
22
105.0000000000
13
0.0
23
0.0
14
1.0
24
1.0
15
0.0
25
0.0
16
0.0
26
0.0
36
1.0
17
0.0
27
0.0
37
0.0
40
210.0000000000
41
1.4142857143
42
50.0
43
0.0
44
0.0
50
0.0
51
0.0
71
0
72
100
73
1
74
1
75
0
76
0
77
0
78
0
0
ENDTAB
0
TABLE
2
LTYPE
5
5
100
AcDbSymbolTable
70
6
0
LTYPE
5
14
100
AcDbSymbolTableRecord
100
AcDbLinetypeTableRecord
2
BYBLOCK
70
0
3

72
65
73
0
40
0.0
0
LTYPE
5
15
100
AcDbSymbolTableRecord
100
AcDbLinetypeTableRecord
2
BYLAYER
70
0
3

72
65
73
0
40
0.0
0
LTYPE
5
16
100
AcDbSymbolTableRecord
100
AcDbLinetypeTableRecord
2
CONTINUOUS
70
64
3
Solid line
72
65
73
0
40
0
0
LTYPE
5
1F5
100
AcDbSymbolTableRecord
100
AcDbLinetypeTableRecord
2
CENTER
70
64
3
____ _ ____ _ ____ _ ____ _ ____ _ ____ _ ____
72
65
73
4
40
0.6
49
0.375
74
0
49
-0.075
74
0
49
0.075
74
0
49
-0.075
74
0
0
LTYPE
5
1F6
100
AcDbSymbolTableRecord
100
AcDbLinetypeTableRecord
2
HIDDEN
70
64
3
- - - - - - - - - - - - - - - - - - - -
72
65
73
2
40
0.2
49
0.1
74
0
49
-0.1
74
0
0
LTYPE
5
1F7
100
AcDbSymbolTableRecord
100
AcDbLinetypeTableRecord
2
PHANTOM
70
64
3
_____ _ _ _____ _ _ _____ _ _ _____
72
65
73
6
40
0.8
49
0.45
74
0
49
-0.05
74
0
49
0.1
74
0
49
-0.05
74
0
49
0.1
74
0
49
-0.05
74
0
0
LTYPE
5
1F8
100
AcDbSymbolTableRecord
100
AcDbLinetypeTableRecord
2
DOT
70
64
3
. . . . . . . . . . . . . . . . . . . .
72
65
73
2
40
0.2
49
0.1
74
0
49
-0.1
74
0
0
LTYPE
5
1F9
100
AcDbSymbolTableRecord
100
AcDbLinetypeTableRecord
2
DASHED
70
64
3
- - - - - - - - - - - - - - - - - - - -
72
65
73
2
40
0.2
49
0.1
74
0
49
-0.1
74
0
0
ENDTAB
0
TABLE
2
LAYER
5
2
100
AcDbSymbolTable
70
36
0
LAYER
5
10
100
AcDbSymbolTableRecord
100
AcDbLayerTableRecord
2
0
70
0
62
7
6
CONTINUOUS
370
-3
390
F
0
LAYER
5
1FA
100
AcDbSymbolTableRecord
100
AcDbLayerTableRecord
2
DEFAULT_1
70
0
62
7
6
CENTER
370
-3
390
F
0
LAYER
5
1FB
100
AcDbSymbolTableRecord
100
AcDbLayerTableRecord
2
DEFAULT_2
70
0
62
8
6
HIDDEN
370
-3
390
F
0
LAYER
5
1FC
100
AcDbSymbolTableRecord
100
AcDbLayerTableRecord
2
DEFAULT_3
70
0
62
7
6
PHANTOM
370
-3
390
F
0
LAYER
5
1FD
100
AcDbSymbolTableRecord
100
AcDbLayerTableRecord
2
ASSI
70
0
62
7
6
CONTINUOUS
370
-3
390
F
0
LAYER
5
1FE
100
AcDbSymbolTableRecord
100
AcDbLayerTableRecord
2
CURVE
70
0
62
7
6
CONTINUOUS
370
-3
390
F
0
LAYER
5
1FF
100
AcDbSymbolTableRecord
100
AcDbLayerTableRecord
2
PIANI
70
0
62
7
6
CONTINUOUS
370
-3
390
F
0
LAYER
5
200
100
AcDbSymbolTableRecord
100
AcDbLayerTableRecord
2
SURF_FILETTI
70
0
62
7
6
CONTINUOUS
370
-3
390
F
0
LAYER
5
201
100
AcDbSymbolTableRecord
100
AcDbLayerTableRecord
2
XSEC_DATUMS
70
0
62
7
6
CONTINUOUS
370
-3
390
F
0
ENDTAB
0
TABLE
2
STYLE
5
3
100
AcDbSymbolTable
70
1
0
STYLE
5
11
100
AcDbSymbolTableRecord
100
AcDbTextStyleTableRecord
2
STANDARD
70
0
40
0.0
41
0.7143000000
50
0.0
71
0
42
0.2
3
txt
4

0
ENDTAB
0
TABLE
2
VIEW
5
6
100
AcDbSymbolTable
70
0
0
ENDTAB
0
TABLE
2
UCS
5
7
100
AcDbSymbolTable
70
0
0
ENDTAB
0
TABLE
2
APPID
5
9
100
AcDbSymbolTable
70
1
0
APPID
5
202
100
AcDbSymbolTableRecord
100
AcDbRegAppTableRecord
2
ACAD
70
0
0
ENDTAB
0
TABLE
2
BLOCK_RECORD
5
1
100
AcDbSymbolTable
70
0
0
BLOCK_RECORD
5
1F
100
AcDbSymbolTableRecord
100
AcDbBlockTableRecord
2
*MODEL_SPACE
0
BLOCK_RECORD
5
1B
100
AcDbSymbolTableRecord
100
AcDbBlockTableRecord
2
*PAPER_SPACE
0
BLOCK_RECORD
5
203
100
AcDbSymbolTableRecord
100
AcDbBlockTableRecord
2
_FILLED
0
BLOCK_RECORD
5
204
100
AcDbSymbolTableRecord
100
AcDbBlockTableRecord
2
*D0
0
BLOCK_RECORD
5
205
100
AcDbSymbolTableRecord
100
AcDbBlockTableRecord
2
*D1
0
BLOCK_RECORD
5
206
100
AcDbSymbolTableRecord
100
AcDbBlockTableRecord
2
*D2
0
BLOCK_RECORD
5
207
100
AcDbSymbolTableRecord
100
AcDbBlockTableRecord
2
*D3
0
BLOCK_RECORD
5
208
100
AcDbSymbolTableRecord
100
AcDbBlockTableRecord
2
*D4
0
ENDTAB
0
TABLE
2
DIMSTYLE
5
A
100
AcDbSymbolTable
70
1
100
AcDbDimStyleTable
71
0
0
DIMSTYLE
105
209
100
AcDbSymbolTableRecord
100
AcDbDimStyleTableRecord
2
STANDARD
70
0
3

4

40
1.0
41
3.5000000000
42
0.0625
43
0.38
44
0.18
45
0.0
46
0.0
47
0.0010000000
48
0.0010000000
140
3.5000000000
141
0.09
142
0.0
143
25.4
144
1.0000000000
145
0.0
146
1.0000000000
147
0.09
71
1
72
0
73
0
74
0
75
0
76
0
77
1
78
8
170
0
171
2
172
0
173
0
174
0
175
0
176
0
177
0
178
0
270
2
271
3
272
3
273
2
274
2
275
0
280
0
281
0
282
0
283
1
284
8
285
0
286
0
287
3
288
0
340
11
341
203
342
203
343
203
344
203
0
DIMSTYLE
105
20A
100
AcDbSymbolTableRecord
100
AcDbDimStyleTableRecord
2
DIMSTYLE_1
70
0
3

4

40
1.0
41
3.5000000000
42
0.0625
43
0.38
44
0.18
45
0.0
46
0.0
47
0.1500000000
48
0.1500000000
140
3.5000000000
141
0.09
142
0.0
143
25.4
144
1.0000000000
145
0.0
146
1.0000000000
147
0.09
71
0
72
0
73
0
74
0
75
0
76
0
77
1
78
8
170
0
171
2
172
0
173
0
174
0
175
0
176
0
177
0
178
0
270
2
271
3
272
3
273
2
274
2
275
0
280
0
281
0
282
0
283
1
284
8
285
0
286
0
287
3
288
0
340
11
341
203
342
203
343
203
344
203
0
DIMSTYLE
105
20B
100
AcDbSymbolTableRecord
100
AcDbDimStyleTableRecord
2
DIMSTYLE_2
70
0
3

4

40
1.0
41
3.5000000000
42
0.0625
43
0.38
44
0.18
45
0.0
46
0.0
47
0.2000000000
48
0.2000000000
140
3.5000000000
141
0.09
142
0.0
143
25.4
144
1.0000000000
145
0.0
146
1.0000000000
147
0.09
71
0
72
0
73
0
74
0
75
0
76
0
77
1
78
8
170
0
171
2
172
0
173
0
174
0
175
0
176
0
177
0
178
0
270
2
271
3
272
3
273
2
274
2
275
0
280
0
281
0
282
0
283
1
284
8
285
0
286
0
287
3
288
0
340
11
341
203
342
203
343
203
344
203
0
DIMSTYLE
105
20C
100
AcDbSymbolTableRecord
100
AcDbDimStyleTableRecord
2
DIMSTYLE_3
70
0
3

4

40
1.0
41
3.5000000000
42
0.0625
43
0.38
44
0.18
45
0.0
46
0.0
47
0.1000000000
48
0.1000000000
140
3.5000000000
141
0.09
142
0.0
143
25.4
144
1.0000000000
145
0.0
146
1.0000000000
147
0.09
71
0
72
0
73
0
74
0
75
0
76
0
77
1
78
8
170
0
171
2
172
0
173
0
174
0
175
0
176
0
177
0
178
0
270
2
271
3
272
3
273
2
274
2
275
0
280
0
281
0
282
0
283
1
284
8
285
0
286
0
287
3
288
0
340
11
341
203
342
203
343
203
344
203
0
ENDTAB
0
ENDSEC
0
SECTION
2
BLOCKS
0
BLOCK
5
20
100
AcDbEntity
8
0
100
AcDbBlockBegin
2
*MODEL_SPACE
70
0
10
0.0
20
0.0
30
0.0
3
*MODEL_SPACE
1

0
ENDBLK
5
21
100
AcDbEntity
8
0
100
AcDbBlockEnd
0
BLOCK
5
1C
100
AcDbEntity
8
0
100
AcDbBlockBegin
2
*PAPER_SPACE
70
0
10
0.0
20
0.0
30
0.0
3
*PAPER_SPACE
1

0
ENDBLK
5
1D
100
AcDbEntity
8
0
100
AcDbBlockEnd
0
BLOCK
5
20D
100
AcDbEntity
8
0
100
AcDbBlockBegin
62
2
6
CONTINUOUS
2
*D0
70
65
10
0.0000000000
20
0.0000000000
3
*D0
1

0
TEXT
5
20E
100
AcDbEntity
8
0
100
AcDbText
62
2
6
CONTINUOUS
10
77.7050261421
20
6.5232233503
7
STANDARD
40
3.5000000000
1
40
41
0.7143000000
72
0
100
AcDbText
0
LINE
5
20F
100
AcDbEntity
8
0
100
AcDbLine
62
2
6
CONTINUOUS
10
58.9931472081
20
35.2595072510
11
58.9931472081
21
4.1482233503
0
LINE
5
210
100
AcDbEntity
8
0
100
AcDbLine
62
2
6
CONTINUOUS
10
98.9931472081
20
35.2595072510
11
98.9931472081
21
4.1482233503
0
LINE
5
211
100
AcDbEntity
8
0
100
AcDbLine
62
2
6
CONTINUOUS
10
58.9931472081
20
5.6482233503
11
78.9931472081
21
5.6482233503
0
LINE
5
212
100
AcDbEntity
8
0
100
AcDbLine
62
2
6
CONTINUOUS
10
98.9931472081
20
5.6482233503
11
78.9931472081
21
5.6482233503
0
INSERT
5
213
100
AcDbEntity
8
0
100
AcDbBlockReference
62
2
6
CONTINUOUS
2
_FILLED
10
58.9931472081
20
5.6482233503
41
  3.500000
42
  3.500000
43
  3.500000
50
180.000000
0
INSERT
5
214
100
AcDbEntity
8
0
100
AcDbBlockReference
62
2
6
CONTINUOUS
2
_FILLED
10
98.9931472081
20
5.6482233503
41
  3.500000
42
  3.500000
43
  3.500000
0
ENDBLK
5
215
100
AcDbEntity
8
0
6
BYBLOCK
62
0
100
AcDbBlockEnd
0
BLOCK
5
216
100
AcDbEntity
8
0
100
AcDbBlockBegin
62
2
6
CONTINUOUS
2
*D1
70
65
10
0.0000000000
20
0.0000000000
3
*D1
1

0
TEXT
5
217
100
AcDbEntity
8
0
100
AcDbText
62
2
6
CONTINUOUS
10
19.0255076142
20
84.5154072335
7
STANDARD
40
3.5000000000
1
150
50
90.0000000000
41
0.7143000000
72
0
100
AcDbText
0
LINE
5
218
100
AcDbEntity
8
0
100
AcDbLine
62
2
6
CONTINUOUS
10
73.4931472081
20
165.7595072510
11
18.4005076142
21
165.7595072510
0
LINE
5
219
100
AcDbEntity
8
0
100
AcDbLine
62
2
6
CONTINUOUS
10
73.4931472081
20
15.7595072510
11
18.4005076142
21
15.7595072510
0
LINE
5
21A
100
AcDbEntity
8
0
100
AcDbLine
62
2
6
CONTINUOUS
10
19.9005076142
20
165.7595072510
11
19.9005076142
21
90.7595072510
0
LINE
5
21B
100
AcDbEntity
8
0
100
AcDbLine
62
2
6
CONTINUOUS
10
19.9005076142
20
15.7595072510
11
19.9005076142
21
90.7595072510
0
INSERT
5
21C
100
AcDbEntity
8
0
100
AcDbBlockReference
62
2
6
CONTINUOUS
2
_FILLED
10
19.9005076142
20
165.7595072510
41
  3.500000
42
  3.500000
43
  3.500000
50
 90.000000
0
INSERT
5
21D
100
AcDbEntity
8
0
100
AcDbBlockReference
62
2
6
CONTINUOUS
2
_FILLED
10
19.9005076142
20
15.7595072510
41
  3.500000
42
  3.500000
43
  3.500000
50
270.000000
0
ENDBLK
5
21E
100
AcDbEntity
8
0
6
BYBLOCK
62
0
100
AcDbBlockEnd
0
BLOCK
5
21F
100
AcDbEntity
8
0
100
AcDbBlockBegin
62
2
6
CONTINUOUS
2
*D2
70
65
10
0.0000000000
20
0.0000000000
3
*D2
1

0
TEXT
5
220
100
AcDbEntity
8
0
100
AcDbText
62
2
6
CONTINUOUS
10
129.9859137056
20
159.6263959391
7
STANDARD
40
3.5000000000
1
%%c
50
90.0000000000
41
1.3333333333
72
0
100
AcDbText
0
TEXT
5
221
100
AcDbEntity
8
0
100
AcDbText
62
2
6
CONTINUOUS
10
129.9859137056
20
164.2930626058
7
STANDARD
40
3.5000000000
1
10
50
90.0000000000
41
0.7143000000
72
0
100
AcDbText
0
LINE
5
222
100
AcDbEntity
8
0
100
AcDbLine
62
2
6
CONTINUOUS
10
130.2578680203
20
141.2595072510
11
132.3609137056
21
141.2595072510
0
LINE
5
223
100
AcDbEntity
8
0
100
AcDbLine
62
2
6
CONTINUOUS
10
130.5593908629
20
151.2595072510
11
132.3609137056
21
151.2595072510
0
LINE
5
224
100
AcDbEntity
8
0
100
AcDbLine
62
2
6
CONTINUOUS
10
130.8609137056
20
141.2595072510
11
130.8609137056
21
133.2595072510
0
LINE
5
225
100
AcDbEntity
8
0
100
AcDbLine
62
2
6
CONTINUOUS
10
130.8609137056
20
133.2595072510
11
130.8609137056
21
146.2595072510
0
LINE
5
226
100
AcDbEntity
8
0
100
AcDbLine
62
2
6
CONTINUOUS
10
130.8609137056
20
151.2595072510
11
130.8609137056
21
169.2931626058
0
LINE
5
227
100
AcDbEntity
8
0
100
AcDbLine
62
2
6
CONTINUOUS
10
130.8609137056
20
169.2931626058
11
130.8609137056
21
146.2595072510
0
INSERT
5
228
100
AcDbEntity
8
0
100
AcDbBlockReference
62
2
6
CONTINUOUS
2
_FILLED
10
130.8609137056
20
141.2595072510
41
  3.500000
42
  3.500000
43
  3.500000
50
 90.000000
0
INSERT
5
229
100
AcDbEntity
8
0
100
AcDbBlockReference
62
2
6
CONTINUOUS
2
_FILLED
10
130.8609137056
20
151.2595072510
41
  3.500000
42
  3.500000
43
  3.500000
50
270.000000
0
ENDBLK
5
22A
100
AcDbEntity
8
0
6
BYBLOCK
62
0
100
AcDbBlockEnd
0
BLOCK
5
22B
100
AcDbEntity
8
0
100
AcDbBlockBegin
62
2
6
CONTINUOUS
2
*D3
70
65
10
0.0000000000
20
0.0000000000
3
*D3
1

0
TEXT
5
22C
100
AcDbEntity
8
0
100
AcDbText
62
2
6
CONTINUOUS
10
159.2336294416
20
185.9588832487
7
STANDARD
40
3.5000000000
1
%%c
50
90.0000000000
41
1.3333333333
72
0
100
AcDbText
0
TEXT
5
22D
100
AcDbEntity
8
0
100
AcDbText
62
2
6
CONTINUOUS
10
159.2336294416
20
190.6255499154
7
STANDARD
40
3.5000000000
1
19
50
90.0000000000
41
0.7143000000
72
0
100
AcDbText
0
LINE
5
22E
100
AcDbEntity
8
0
100
AcDbLine
62
2
6
CONTINUOUS
10
182.9931472081
20
180.7595072510
11
158.6086294416
21
180.7595072510
0
LINE
5
22F
100
AcDbEntity
8
0
100
AcDbLine
62
2
6
CONTINUOUS
10
182.9931472081
20
161.7595072510
11
158.6086294416
21
161.7595072510
0
LINE
5
230
100
AcDbEntity
8
0
100
AcDbLine
62
2
6
CONTINUOUS
10
160.1086294416
20
180.7595072510
11
160.1086294416
21
171.2595072510
0
LINE
5
231
100
AcDbEntity
8
0
100
AcDbLine
62
2
6
CONTINUOUS
10
160.1086294416
20
171.2595072510
11
160.1086294416
21
195.6256499154
0
LINE
5
232
100
AcDbEntity
8
0
100
AcDbLine
62
2
6
CONTINUOUS
10
160.1086294416
20
161.7595072510
11
160.1086294416
21
171.2595072510
0
INSERT
5
233
100
AcDbEntity
8
0
100
AcDbBlockReference
62
2
6
CONTINUOUS
2
_FILLED
10
160.1086294416
20
180.7595072510
41
  3.500000
42
  3.500000
43
  3.500000
50
 90.000000
0
INSERT
5
234
100
AcDbEntity
8
0
100
AcDbBlockReference
62
2
6
CONTINUOUS
2
_FILLED
10
160.1086294416
20
161.7595072510
41
  3.500000
42
  3.500000
43
  3.500000
50
270.000000
0
ENDBLK
5
235
100
AcDbEntity
8
0
6
BYBLOCK
62
0
100
AcDbBlockEnd
0
BLOCK
5
236
100
AcDbEntity
8
0
100
AcDbBlockBegin
62
2
6
CONTINUOUS
2
*D4
70
65
10
0.0000000000
20
0.0000000000
3
*D4
1

0
TEXT
5
237
100
AcDbEntity
8
0
100
AcDbText
62
2
6
CONTINUOUS
10
124.7580421893
20
199.6279413280
7
STANDARD
40
3.5000000000
1
150
41
0.7143000000
72
0
100
AcDbText
0
LINE
5
238
100
AcDbEntity
8
0
100
AcDbLine
62
2
6
CONTINUOUS
10
58.4931472081
20
151.7595072510
11
58.4931472081
21
200.2529413280
0
LINE
5
239
100
AcDbEntity
8
0
100
AcDbLine
62
2
6
CONTINUOUS
10
208.4931472081
20
151.7595072510
11
208.4931472081
21
200.2529413280
0
LINE
5
23A
100
AcDbEntity
8
0
100
AcDbLine
62
2
6
CONTINUOUS
10
58.4931472081
20
198.7529413280
11
133.4931472081
21
198.7529413280
0
LINE
5
23B
100
AcDbEntity
8
0
100
AcDbLine
62
2
6
CONTINUOUS
10
208.4931472081
20
198.7529413280
11
133.4931472081
21
198.7529413280
0
INSERT
5
23C
100
AcDbEntity
8
0
100
AcDbBlockReference
62
2
6
CONTINUOUS
2
_FILLED
10
58.4931472081
20
198.7529413280
41
  3.500000
42
  3.500000
43
  3.500000
50
180.000000
0
INSERT
5
23D
100
AcDbEntity
8
0
100
AcDbBlockReference
62
2
6
CONTINUOUS
2
_FILLED
10
208.4931472081
20
198.7529413280
41
  3.500000
42
  3.500000
43
  3.500000
0
ENDBLK
5
23E
100
AcDbEntity
8
0
6
BYBLOCK
62
0
100
AcDbBlockEnd
0
BLOCK
5
23F
100
AcDbEntity
8
0
100
AcDbBlockBegin
2
_FILLED
70
64
10
0.0000000000
20
0.0000000000
3
_FILLED
1

0
SOLID
5
240
100
AcDbEntity
8
0
6
BYBLOCK
62
0
100
AcDbTrace
10
0.0000000000
20
0.0000000000
11
-1.0000000000
21
0.1857142857
12
-1.0000000000
22
-0.1857142857
13
-1.0000000000
23
-0.1857142857
0
ENDBLK
5
241
100
AcDbEntity
8
0
6
BYBLOCK
62
0
100
AcDbBlockEnd
0
ENDSEC
0
SECTION
2
ENTITIES
0
DIMENSION
5
242
100
AcDbEntity
8
0
100
AcDbDimension
62
2
6
CONTINUOUS
2
*D0
10
98.9931472081
20
5.6482233503
11
80.2050761421
21
8.2732233503
70
160
42
40.000000
3
DIMSTYLE_1
100
AcDbAlignedDimension
13
58.9931472081
23
35.2595072510
14
98.9931472081
24
35.2595072510
100
AcDbRotatedDimension
0
DIMENSION
5
243
100
AcDbEntity
8
0
100
AcDbDimension
62
2
6
CONTINUOUS
2
*D1
10
19.9005076142
20
15.7595072510
11
17.2755076142
21
88.2654822335
70
160
42
150.000000
3
DIMSTYLE_2
100
AcDbAlignedDimension
13
73.4931472081
23
165.7595072510
14
73.4931472081
24
15.7595072510
50
270.000000
100
AcDbRotatedDimension
0
DIMENSION
5
244
100
AcDbEntity
8
0
100
AcDbDimension
62
2
6
CONTINUOUS
2
*D2
10
130.8609137056
20
151.2595072510
11
128.2359137056
21
164.4597792724
70
160
42
10.000000
1
%%c<>
3
DIMSTYLE_3
100
AcDbAlignedDimension
13
132.3609137056
23
141.2595072510
14
132.3609137056
24
151.2595072510
50
90.000000
100
AcDbRotatedDimension
0
DIMENSION
5
245
100
AcDbEntity
8
0
100
AcDbDimension
62
2
6
CONTINUOUS
2
*D3
10
160.1086294416
20
161.7595072510
11
157.4836294416
21
190.7922665821
70
160
42
19.000000
1
%%c<>
3
DIMSTYLE_3
100
AcDbAlignedDimension
13
182.9931472081
23
180.7595072510
14
182.9931472081
24
161.7595072510
50
270.000000
100
AcDbRotatedDimension
0
DIMENSION
5
246
100
AcDbEntity
8
0
100
AcDbDimension
62
2
6
CONTINUOUS
2
*D4
10
208.4931472081
20
198.7529413280
11
128.5081171893
21
201.3779413280
70
160
42
150.000000
3
DIMSTYLE_2
100
AcDbAlignedDimension
13
58.4931472081
23
151.7595072510
14
208.4931472081
24
151.7595072510
100
AcDbRotatedDimension
0
LINE
5
247
100
AcDbEntity
8
0
100
AcDbLine
62
7
6
CONTINUOUS
10
0.0000000000
20
0.0000000000
11
0.0000000000
21
210.0000000000
0
LINE
5
248
100
AcDbEntity
8
0
100
AcDbLine
62
7
6
CONTINUOUS
10
0.0000000000
20
0.0000000000
11
297.0000000000
21
0.0000000000
0
LINE
5
249
100
AcDbEntity
8
0
100
AcDbLine
62
7
6
CONTINUOUS
10
0.0000000000
20
210.0000000000
11
297.0000000000
21
210.0000000000
0
LINE
5
24A
100
AcDbEntity
8
0
100
AcDbLine
62
7
6
CONTINUOUS
10
297.0000000000
20
0.0000000000
11
297.0000000000
21
210.0000000000
0
LINE
5
24B
100
AcDbEntity
8
0
100
AcDbLine
62
7
6
CONTINUOUS
10
73.9931472081
20
15.7595072510
11
83.9931472081
21
15.7595072510
0
LINE
5
24C
100
AcDbEntity
8
0
100
AcDbLine
62
7
6
CONTINUOUS
10
65.9931472081
20
20.7595072510
11
74.9931472081
21
20.7595072510
0
LINE
5
24D
100
AcDbEntity
8
0
100
AcDbLine
62
7
6
CONTINUOUS
10
82.9931472081
20
20.7595072510
11
91.9931472081
21
20.7595072510
0
LINE
5
24E
100
AcDbEntity
8
0
100
AcDbLine
62
7
6
CONTINUOUS
10
82.9931472081
20
20.7678429004
11
81.9931472081
21
20.7678429004
0
LINE
5
24F
100
AcDbEntity
8
0
100
AcDbLine
62
7
6
CONTINUOUS
10
75.9931472081
20
20.7678429004
11
74.9931472081
21
20.7678429004
0
LINE
5
250
100
AcDbEntity
8
0
100
AcDbLine
62
7
6
CONTINUOUS
10
58.4931472081
20
141.2595072510
11
58.4931472081
21
151.2595072510
0
LINE
5
251
100
AcDbEntity
8
DEFAULT_1
100
AcDbLine
62
2
6
CENTER
10
58.9931472081
20
35.7595072510
11
58.9931472081
21
29.5095072510
0
LINE
5
252
100
AcDbEntity
8
DEFAULT_1
100
AcDbLine
62
2
6
CENTER
10
58.9931472081
20
35.7595072510
11
58.9931472081
21
42.0095072510
0
LINE
5
253
100
AcDbEntity
8
0
100
AcDbLine
62
7
6
CONTINUOUS
10
67.5976756714
20
50.7595072510
11
67.5976756714
21
20.7595072510
0
LINE
5
254
100
AcDbEntity
8
0
100
AcDbLine
62
7
6
CONTINUOUS
10
68.4931472081
20
20.7595072510
11
68.4931472081
21
50.7595072510
0
LINE
5
255
100
AcDbEntity
8
0
100
AcDbLine
62
7
6
CONTINUOUS
10
68.4931472081
20
137.7595072510
11
68.4931472081
21
154.7595072510
0
LINE
5
256
100
AcDbEntity
8
0
100
AcDbLine
62
7
6
CONTINUOUS
10
68.5023548114
20
137.7595072510
11
68.5023548114
21
154.7595072510
0
LINE
5
257
100
AcDbEntity
8
0
100
AcDbLine
62
7
6
CONTINUOUS
10
80.2431472081
20
32.5095072510
11
77.7431472081
21
32.5095072510
0
LINE
5
258
100
AcDbEntity
8
DEFAULT_1
100
AcDbLine
62
2
6
CENTER
10
98.9931472081
20
35.7595072510
11
90.7431472081
21
35.7595072510
0
LINE
5
259
100
AcDbEntity
8
DEFAULT_1
100
AcDbLine
62
2
6
CENTER
10
58.9931472081
20
35.7595072510
11
52.7431472081
21
35.7595072510
0
LINE
5
25A
100
AcDbEntity
8
DEFAULT_1
100
AcDbLine
62
2
6
CENTER
10
58.9931472081
20
35.7595072510
11
65.2431472081
21
35.7595072510
0
LINE
5
25B
100
AcDbEntity
8
DEFAULT_1
100
AcDbLine
62
2
6
CENTER
10
98.9931472081
20
35.7595072510
11
107.2431472081
21
35.7595072510
0
LINE
5
25C
100
AcDbEntity
8
0
100
AcDbLine
62
7
6
CONTINUOUS
10
80.2431472081
20
39.0095072510
11
77.7431472081
21
39.0095072510
0
LINE
5
25D
100
AcDbEntity
8
0
100
AcDbLine
62
7
6
CONTINUOUS
10
73.9931472081
20
15.7595072510
11
73.9931472081
21
20.7595072510
0
LINE
5
25E
100
AcDbEntity
8
0
100
AcDbLine
62
7
6
CONTINUOUS
10
73.9931472081
20
50.7595072510
11
73.9931472081
21
135.7595072510
0
LINE
5
25F
100
AcDbEntity
8
0
100
AcDbLine
62
7
6
CONTINUOUS
10
73.9931472081
20
156.7595072510
11
73.9931472081
21
165.7595072510
0
LINE
5
260
100
AcDbEntity
8
0
100
AcDbLine
62
7
6
CONTINUOUS
10
74.9931472081
20
20.7595072510
11
74.9931472081
21
20.7678429004
0
LINE
5
261
100
AcDbEntity
8
0
100
AcDbLine
62
7
6
CONTINUOUS
10
74.9931472081
20
50.7511716015
11
74.9931472081
21
50.7595072510
0
LINE
5
262
100
AcDbEntity
8
0
100
AcDbLine
62
7
6
CONTINUOUS
10
77.7431472081
20
20.8195907760
11
77.7431472081
21
50.6994237260
0
LINE
5
263
100
AcDbEntity
8
0
100
AcDbLine
62
7
6
CONTINUOUS
10
77.9931472081
20
156.7595072510
11
77.9931472081
21
135.7595072510
0
LINE
5
264
100
AcDbEntity
8
DEFAULT_1
100
AcDbLine
62
2
6
CENTER
10
78.9931472081
20
169.6766497462
11
78.9931472081
21
12.7595072510
0
LINE
5
265
100
AcDbEntity
8
0
100
AcDbLine
62
7
6
CONTINUOUS
10
79.9931472081
20
156.7595072510
11
79.9931472081
21
135.7595072510
0
LINE
5
266
100
AcDbEntity
8
0
100
AcDbLine
62
7
6
CONTINUOUS
10
80.2431472081
20
20.8195907760
11
80.2431472081
21
50.6994237260
0
LINE
5
267
100
AcDbEntity
8
0
100
AcDbLine
62
7
6
CONTINUOUS
10
82.9931472081
20
20.7595072510
11
82.9931472081
21
20.7678429004
0
LINE
5
268
100
AcDbEntity
8
0
100
AcDbLine
62
7
6
CONTINUOUS
10
82.9931472081
20
50.7511716015
11
82.9931472081
21
50.7595072510
0
LINE
5
269
100
AcDbEntity
8
0
100
AcDbLine
62
7
6
CONTINUOUS
10
83.9931472081
20
15.7595072510
11
83.9931472081
21
20.7595072510
0
LINE
5
26A
100
AcDbEntity
8
0
100
AcDbLine
62
7
6
CONTINUOUS
10
83.9931472081
20
50.7595072510
11
83.9931472081
21
135.7595072510
0
LINE
5
26B
100
AcDbEntity
8
0
100
AcDbLine
62
7
6
CONTINUOUS
10
83.9931472081
20
156.7595072510
11
83.9931472081
21
165.7595072510
0
LINE
5
26C
100
AcDbEntity
8
0
100
AcDbLine
62
7
6
CONTINUOUS
10
82.9931472081
20
50.7511716015
11
81.9931472081
21
50.7511716015
0
LINE
5
26D
100
AcDbEntity
8
0
100
AcDbLine
62
7
6
CONTINUOUS
10
75.9931472081
20
50.7511716015
11
74.9931472081
21
50.7511716015
0
LINE
5
26E
100
AcDbEntity
8
0
100
AcDbLine
62
7
6
CONTINUOUS
10
65.9931468022
20
50.7595072510
11
74.9931472081
21
50.7595072510
0
LINE
5
26F
100
AcDbEntity
8
0
100
AcDbLine
62
7
6
CONTINUOUS
10
82.9931472081
20
50.7595072510
11
91.9931472081
21
50.7595072510
0
LINE
5
270
100
AcDbEntity
8
0
100
AcDbLine
62
7
6
CONTINUOUS
10
89.4839396049
20
154.7595072510
11
89.4839396049
21
137.7595072510
0
LINE
5
271
100
AcDbEntity
8
0
100
AcDbLine
62
7
6
CONTINUOUS
10
89.4931472081
20
154.7595072510
11
89.4931472081
21
137.7595072510
0
LINE
5
272
100
AcDbEntity
8
0
100
AcDbLine
62
7
6
CONTINUOUS
10
89.4931472081
20
20.7595072510
11
89.4931472081
21
50.7595072510
0
LINE
5
273
100
AcDbEntity
8
0
100
AcDbLine
62
7
6
CONTINUOUS
10
90.3886187449
20
20.7595072510
11
90.3886187449
21
50.7595072510
0
LINE
5
274
100
AcDbEntity
8
DEFAULT_1
100
AcDbLine
62
2
6
CENTER
10
98.9931472081
20
35.7595072510
11
98.9931472081
21
27.5095072510
0
LINE
5
275
100
AcDbEntity
8
DEFAULT_1
100
AcDbLine
62
2
6
CENTER
10
98.9931472081
20
35.7595072510
11
98.9931472081
21
44.0095072510
0
LINE
5
276
100
AcDbEntity
8
0
100
AcDbLine
62
7
6
CONTINUOUS
10
183.4931462796
20
127.7595072510
11
183.4931870916
21
127.7595072512
0
LINE
5
277
100
AcDbEntity
8
0
100
AcDbLine
62
7
6
CONTINUOUS
10
187.4735175228
20
129.6497013632
11
179.5127768934
21
129.6497013632
0
LINE
5
278
100
AcDbEntity
8
0
100
AcDbLine
62
7
6
CONTINUOUS
10
168.4931472081
20
135.7595072510
11
168.4931472081
21
171.2595072510
0
LINE
5
279
100
AcDbEntity
8
0
100
AcDbLine
62
7
6
CONTINUOUS
10
70.4931472081
20
135.7595072510
11
77.9931472081
21
135.7595072510
0
LINE
5
27A
100
AcDbEntity
8
0
100
AcDbLine
62
7
6
CONTINUOUS
10
79.9931472081
20
135.7595072510
11
87.4931472081
21
135.7595072510
0
LINE
5
27B
100
AcDbEntity
8
0
100
AcDbLine
62
7
6
CONTINUOUS
10
68.4931472081
20
137.7595072510
11
69.0005699946
21
137.7595072510
0
LINE
5
27C
100
AcDbEntity
8
0
100
AcDbLine
62
7
6
CONTINUOUS
10
88.9857244216
20
137.7595072510
11
89.4931472081
21
137.7595072510
0
LINE
5
27D
100
AcDbEntity
8
0
100
AcDbLine
62
7
6
CONTINUOUS
10
169.4931472081
20
137.0573472117
11
169.4931472081
21
171.2595072510
0
LINE
5
27E
100
AcDbEntity
8
0
100
AcDbLine
62
7
6
CONTINUOUS
10
208.4931472081
20
141.2595072510
11
198.4931472081
21
141.2595072510
0
LINE
5
27F
100
AcDbEntity
8
0
100
AcDbLine
62
7
6
CONTINUOUS
10
168.4931472081
20
141.2595072510
11
89.4931472081
21
141.2595072510
0
LINE
5
280
100
AcDbEntity
8
0
100
AcDbLine
62
7
6
CONTINUOUS
10
68.4931472081
20
141.2595072510
11
58.4931472081
21
141.2595072510
0
LINE
5
281
100
AcDbEntity
8
DEFAULT_1
100
AcDbLine
62
2
6
CENTER
10
55.4931472081
20
146.2595072510
11
211.4931472081
21
146.2595072510
0
LINE
5
282
100
AcDbEntity
8
DEFAULT_1
100
AcDbLine
62
2
6
CENTER
10
183.4931472081
20
171.2595072510
11
183.4931472081
21
158.7595072510
0
LINE
5
283
100
AcDbEntity
8
DEFAULT_1
100
AcDbLine
62
2
6
CENTER
10
183.4931472081
20
171.2595072510
11
183.4931472081
21
183.7595072510
0
LINE
5
284
100
AcDbEntity
8
0
100
AcDbLine
62
7
6
CONTINUOUS
10
197.4931472081
20
150.0711254308
11
169.4931472081
21
150.0711254308
0
LINE
5
285
100
AcDbEntity
8
0
100
AcDbLine
62
7
6
CONTINUOUS
10
208.4931472081
20
151.2595072510
11
198.4931472081
21
151.2595072510
0
LINE
5
286
100
AcDbEntity
8
0
100
AcDbLine
62
7
6
CONTINUOUS
10
168.4931472081
20
151.2595072510
11
89.4931472081
21
151.2595072510
0
LINE
5
287
100
AcDbEntity
8
0
100
AcDbLine
62
7
6
CONTINUOUS
10
68.4931472081
20
151.2595072510
11
58.4931472081
21
151.2595072510
0
LINE
5
288
100
AcDbEntity
8
0
100
AcDbLine
62
7
6
CONTINUOUS
10
197.4931472081
20
154.5040235604
11
169.4931472081
21
154.5040235604
0
LINE
5
289
100
AcDbEntity
8
0
100
AcDbLine
62
7
6
CONTINUOUS
10
89.4931472081
20
154.7595072510
11
88.9857244216
21
154.7595072510
0
LINE
5
28A
100
AcDbEntity
8
0
100
AcDbLine
62
7
6
CONTINUOUS
10
69.0005699946
20
154.7595072510
11
68.4931472081
21
154.7595072510
0
LINE
5
28B
100
AcDbEntity
8
0
100
AcDbLine
62
7
6
CONTINUOUS
10
70.4931472081
20
156.7595072510
11
77.9931472081
21
156.7595072510
0
LINE
5
28C
100
AcDbEntity
8
0
100
AcDbLine
62
7
6
CONTINUOUS
10
79.9931472081
20
156.7595072510
11
87.4931472081
21
156.7595072510
0
LINE
5
28D
100
AcDbEntity
8
0
100
AcDbLine
62
7
6
CONTINUOUS
10
169.4931472081
20
156.9625813963
11
197.4931472081
21
156.9625813963
0
LINE
5
28E
100
AcDbEntity
8
0
100
AcDbLine
62
7
6
CONTINUOUS
10
168.4931472081
20
157.7942580783
11
198.4931472081
21
157.7942580783
0
LINE
5
28F
100
AcDbEntity
8
0
100
AcDbLine
62
7
6
CONTINUOUS
10
197.4931472081
20
171.2595072510
11
197.4931472081
21
137.0573449635
0
LINE
5
290
100
AcDbEntity
8
0
100
AcDbLine
62
7
6
CONTINUOUS
10
198.4931472081
20
135.7595072510
11
198.4931472081
21
171.2595072510
0
LINE
5
291
100
AcDbEntity
8
0
100
AcDbLine
62
7
6
CONTINUOUS
10
73.9931472081
20
165.7595072510
11
83.9931472081
21
165.7595072510
0
LINE
5
292
100
AcDbEntity
8
0
100
AcDbLine
62
7
6
CONTINUOUS
10
198.4931472081
20
171.2595072510
11
197.4931472081
21
171.2595072510
0
LINE
5
293
100
AcDbEntity
8
DEFAULT_1
100
AcDbLine
62
2
6
CENTER
10
183.4931472081
20
171.2595072510
11
170.9931472081
21
171.2595072510
0
LINE
5
294
100
AcDbEntity
8
0
100
AcDbLine
62
7
6
CONTINUOUS
10
168.4931472081
20
171.2595072510
11
169.4931472081
21
171.2595072510
0
LINE
5
295
100
AcDbEntity
8
DEFAULT_1
100
AcDbLine
62
2
6
CENTER
10
183.4931472081
20
171.2595072510
11
195.9931472081
21
171.2595072510
0
LINE
5
296
100
AcDbEntity
8
0
100
AcDbLine
62
7
6
CONTINUOUS
10
208.4931472081
20
141.2595072510
11
208.4931472081
21
151.2595072510
0
ARC
5
297
100
AcDbEntity
8
0
100
AcDbCircle
62
7
6
CONTINUOUS
10
87.4931472081
20
137.7595072510
40
2.0000000000
100
AcDbArc
50
270.0000000000
51
360.0000000000
0
ARC
5
298
100
AcDbEntity
8
0
100
AcDbCircle
62
7
6
CONTINUOUS
10
87.4931472081
20
154.7595072510
40
2.0000000000
100
AcDbArc
50
0.0000000000
51
90.0000000000
0
ARC
5
299
100
AcDbEntity
8
0
100
AcDbCircle
62
7
6
CONTINUOUS
10
70.4931472081
20
154.7595072510
40
2.0000000000
100
AcDbArc
50
90.0000000000
51
180.0000000000
0
ARC
5
29A
100
AcDbEntity
8
0
100
AcDbCircle
62
7
6
CONTINUOUS
10
70.4931472081
20
137.7595072510
40
2.0000000000
100
AcDbArc
50
180.0000000000
51
270.0000000000
0
CIRCLE
5
29B
100
AcDbEntity
8
0
100
AcDbCircle
62
7
6
CONTINUOUS
10
183.4931472081
20
171.2595072510
40
9.5000000000
0
CIRCLE
5
29C
100
AcDbEntity
8
0
100
AcDbCircle
62
7
6
CONTINUOUS
10
183.4931472081
20
134.0595072510
40
4.2500000000
0
ARC
5
29D
100
AcDbEntity
8
0
100
AcDbCircle
62
7
6
CONTINUOUS
10
197.4931472081
20
135.7595072510
40
1.0000000000
100
AcDbArc
50
323.1301023542
51
360.0000000000
0
ARC
5
29E
100
AcDbEntity
8
0
100
AcDbCircle
62
7
6
CONTINUOUS
10
183.4931472081
20
146.2595072510
40
18.5000000000
100
AcDbArc
50
216.8698976458
51
323.1301023542
0
ARC
5
29F
100
AcDbEntity
8
0
100
AcDbCircle
62
7
6
CONTINUOUS
10
169.4931472081
20
135.7595072510
40
1.0000000000
100
AcDbArc
50
180.0000000000
51
216.8698976458
0
CIRCLE
5
2A0
100
AcDbEntity
8
0
100
AcDbCircle
62
7
6
CONTINUOUS
10
183.4931472081
20
134.0595072510
40
2.5000000000
0
ARC
5
2A1
100
AcDbEntity
8
0
100
AcDbCircle
62
7
6
CONTINUOUS
10
183.4931472081
20
171.2595072510
40
15.0000000000
100
AcDbArc
50
0.0000000000
51
180.0000000000
0
ARC
5
2A2
100
AcDbEntity
8
0
100
AcDbCircle
62
7
6
CONTINUOUS
10
183.4931472081
20
171.2595072510
40
13.9999997048
100
AcDbArc
50
0.0000000000
51
180.0000000000
0
CIRCLE
5
2A3
100
AcDbEntity
8
0
100
AcDbCircle
62
7
6
CONTINUOUS
10
58.9931472081
20
35.7595072510
40
5.2500000000
0
CIRCLE
5
2A4
100
AcDbEntity
8
0
100
AcDbCircle
62
7
6
CONTINUOUS
10
98.9931472081
20
35.7595072510
40
5.2500000000
0
CIRCLE
5
2A5
100
AcDbEntity
8
0
100
AcDbCircle
62
7
6
CONTINUOUS
10
58.9931472081
20
35.7595072510
40
3.2500000000
0
CIRCLE
5
2A6
100
AcDbEntity
8
0
100
AcDbCircle
62
7
6
CONTINUOUS
10
98.9931472081
20
35.7595072510
40
3.2500000000
0
ARC
5
2A7
100
AcDbEntity
8
0
100
AcDbCircle
62
7
6
CONTINUOUS
10
91.9931472081
20
35.7595072510
40
15.0000000000
100
AcDbArc
50
270.0000000000
51
90.0000000000
0
ARC
5
2A8
100
AcDbEntity
8
0
100
AcDbCircle
62
7
6
CONTINUOUS
10
65.9931472081
20
35.7595072510
40
15.0000000000
100
AcDbArc
50
90.0000000000
51
270.0000000000
0
SPLINE
5
2A9
100
AcDbEntity
8
0
100
AcDbSpline
62
7
6
CONTINUOUS
70
0
71
3
72
15
73
11
74
9
42
0.0000001000
43
0.0000001000
44
0.0000000001
12
-3.6609368644
22
-0.0001672149
32
0.0000000000
13
0.0000000000
23
-4.8145022724
33
0.0000000000
40
0.0000000000
40
0.0000000000
40
0.0000000000
40
0.0000000000
40
0.0266199382
40
0.0857940133
40
0.1787672496
40
0.3025713197
40
0.4526257939
40
0.6232612218
40
0.8080345835
40
1.0000000000
40
1.0000000000
40
1.0000000000
40
1.0000000000
10
88.6912428183
20
151.0095072509
30
0.0000000000
10
88.6587581806
20
151.0095057672
30
0.0000000000
10
88.5540599250
20
150.8568564099
30
0.0000000000
10
88.5087645008
20
150.6029073116
30
0.0000000000
10
88.4204583813
20
150.1534698869
30
0.0000000000
10
88.3612372928
20
149.5733178880
30
0.0000000000
10
88.3045887790
20
148.8601319861
30
0.0000000000
10
88.2647205771
20
148.0504839280
30
0.0000000000
10
88.2394271491
20
147.1721562686
30
0.0000000000
10
88.2338698286
20
146.5675798956
30
0.0000000000
10
88.2338698286
20
146.2595072510
30
0.0000000000
11
88.6912428183
21
151.0095072509
31
0.0000000000
11
88.6017739220
21
150.9177411751
31
0.0000000000
11
88.5157949790
21
150.6461310637
31
0.0000000000
11
88.4366473035
21
150.2055641763
31
0.0000000000
11
88.3673777568
21
149.6135479054
31
0.0000000000
11
88.3106219508
21
148.8933431605
31
0.0000000000
11
88.2685118179
21
148.0728984663
31
0.0000000000
11
88.2426102602
21
147.1836838543
31
0.0000000000
11
88.2338698286
21
146.2595072510
31
0.0000000000
0
SPLINE
5
2AA
100
AcDbEntity
8
0
100
AcDbSpline
62
7
6
CONTINUOUS
70
0
71
3
72
15
73
11
74
9
42
0.0000001000
43
0.0000001000
44
0.0000000001
12
3.2755750892
22
-0.0001496134
32
0.0000000000
13
-0.0000000000
23
-4.3077125595
33
0.0000000000
40
0.0000000000
40
0.0000000000
40
0.0000000000
40
0.0000000000
40
0.0266199382
40
0.0857940133
40
0.1787672497
40
0.3025713197
40
0.4526257939
40
0.6232612218
40
0.8080345835
40
1.0000000000
40
1.0000000000
40
1.0000000000
40
1.0000000000
10
69.2950515991
20
150.5095072509
30
0.0000000000
10
69.3241168013
20
150.5095059234
30
0.0000000000
10
69.4177941879
20
150.3729249195
30
0.0000000000
10
69.4583216726
20
150.1457073053
30
0.0000000000
10
69.5373324111
20
149.7435790831
30
0.0000000000
10
69.5903197009
20
149.2244957157
30
0.0000000000
10
69.6410052132
20
148.5863820140
30
0.0000000000
10
69.6766767622
20
147.8619600673
30
0.0000000000
10
69.6993077241
20
147.0760879510
30
0.0000000000
10
69.7042800635
20
146.5351511962
30
0.0000000000
10
69.7042800635
20
146.2595072510
30
0.0000000000
11
69.2950515991
21
150.5095072509
31
0.0000000000
11
69.3751027168
21
150.4274007620
31
0.0000000000
11
69.4520312448
21
150.1843811887
31
0.0000000000
11
69.5228475860
21
149.7901897631
31
0.0000000000
11
69.5848256015
21
149.2604909944
31
0.0000000000
11
69.6356071121
21
148.6160972752
31
0.0000000000
11
69.6732845994
21
147.8820151805
31
0.0000000000
11
69.6964596773
21
147.0864021066
31
0.0000000000
11
69.7042800635
21
146.2595072510
31
0.0000000000
0
SPLINE
5
2AB
100
AcDbEntity
8
0
100
AcDbSpline
62
7
6
CONTINUOUS
70
0
71
3
72
15
73
11
74
9
42
0.0000001000
43
0.0000001000
44
0.0000000001
12
0.0000000000
22
-4.3077140776
32
0.0000000000
13
-3.2755762435
23
0.0001496134
33
0.0000000000
40
0.0000000000
40
0.0000000000
40
0.0000000000
40
0.0000000000
40
0.1919650878
40
0.3767376440
40
0.5473721216
40
0.6974258445
40
0.8212296440
40
0.9142032451
40
0.9733782275
40
1.0000000000
40
1.0000000000
40
1.0000000000
40
1.0000000000
10
69.7042800635
20
146.2595072510
30
0.0000000000
10
69.7042800635
20
145.9838636806
30
0.0000000000
10
69.6993077375
20
145.4429283701
30
0.0000000000
10
69.6766769339
20
144.6570589413
30
0.0000000000
10
69.6410055931
20
143.9326404147
30
0.0000000000
10
69.5903208400
20
143.2945290304
30
0.0000000000
10
69.5373333066
20
142.7754471234
30
0.0000000000
10
69.4583248346
20
142.3733153110
30
0.0000000000
10
69.4177942948
20
142.1460971600
30
0.0000000000
10
69.3241188335
20
142.0095059234
30
0.0000000000
10
69.2950516183
20
142.0095072510
30
0.0000000000
11
69.7042800635
21
146.2595072510
31
0.0000000000
11
69.6964596988
21
145.4326135198
31
0.0000000000
11
69.6732847708
21
144.6370036319
31
0.0000000000
11
69.6356076338
21
143.9029253590
31
0.0000000000
11
69.5848266680
21
143.2585346151
31
0.0000000000
11
69.5228493124
21
142.7288367530
31
0.0000000000
11
69.4520336003
21
142.3346434746
31
0.0000000000
11
69.3751055279
21
142.0916195634
31
0.0000000000
11
69.2950516183
21
142.0095072510
31
0.0000000000
0
SPLINE
5
2AC
100
AcDbEntity
8
0
100
AcDbSpline
62
7
6
CONTINUOUS
70
0
71
3
72
15
73
11
74
9
42
0.0000001000
43
0.0000001000
44
0.0000000001
12
0.0000000000
22
-4.8145039691
32
0.0000000000
13
3.6609381546
23
0.0001672150
33
0.0000000000
40
0.0000000000
40
0.0000000000
40
0.0000000000
40
0.0000000000
40
0.1919650878
40
0.3767376440
40
0.5473721216
40
0.6974258445
40
0.8212296440
40
0.9142032451
40
0.9733782275
40
1.0000000000
40
1.0000000000
40
1.0000000000
40
1.0000000000
10
88.2338698286
20
146.2595072510
30
0.0000000000
10
88.2338698286
20
145.9514350253
30
0.0000000000
10
88.2394271342
20
145.3468602665
30
0.0000000000
10
88.2647203852
20
144.4685356108
30
0.0000000000
10
88.3045883544
20
143.6588913752
30
0.0000000000
10
88.3612360196
20
142.9457080633
30
0.0000000000
10
88.4204573805
20
142.3655576966
30
0.0000000000
10
88.5087609669
20
141.9161162593
30
0.0000000000
10
88.5540598055
20
141.6621665610
30
0.0000000000
10
88.6587559093
20
141.5095057672
30
0.0000000000
10
88.6912427968
20
141.5095072510
30
0.0000000000
11
88.2338698286
21
146.2595072510
31
0.0000000000
11
88.2426102362
21
145.3353319043
31
0.0000000000
11
88.2685116263
21
144.4461208532
31
0.0000000000
11
88.3106213677
21
143.6256804306
31
0.0000000000
11
88.3673765648
21
142.9054790108
31
0.0000000000
11
88.4366453740
21
142.3134637532
31
0.0000000000
11
88.5157923464
21
141.8728947950
31
0.0000000000
11
88.6017707802
21
141.6012798355
31
0.0000000000
11
88.6912427968
21
141.5095072510
31
0.0000000000
0
SPLINE
5
2AD
100
AcDbEntity
8
0
100
AcDbSpline
62
7
6
CONTINUOUS
70
0
71
3
72
27
73
23
74
21
42
0.0000001000
43
0.0000001000
44
0.0000000001
12
21.2006832557
22
0.0067009970
32
0.0000000000
13
-21.2006835383
23
0.0057375517
33
0.0000000000
40
0.0000000000
40
0.0000000000
40
0.0000000000
40
0.0000000000
40
0.0086066331
40
0.0277380317
40
0.0580837601
40
0.0990998394
40
0.1498453281
40
0.2091009776
40
0.2754197434
40
0.3471852088
40
0.4226552485
40
0.4999996168
40
0.5773439794
40
0.6528140168
40
0.7245795294
40
0.7908983833
40
0.8501540741
40
0.9008995984
40
0.9419158201
40
0.9722616640
40
0.9913932010
40
1.0000000000
40
1.0000000000
40
1.0000000000
40
1.0000000000
10
70.9913623913
20
135.7595072510
30
0.0000000000
10
71.0521845590
20
135.7595264753
30
0.0000000000
10
71.1728394796
20
135.9751157252
30
0.0000000000
10
71.2641283198
20
136.3386553663
30
0.0000000000
10
71.3841234212
20
136.9863623934
30
0.0000000000
10
71.4844278978
20
137.8358897828
30
0.0000000000
10
71.5801637092
20
138.9017633228
30
0.0000000000
10
71.6606129837
20
140.1443383323
30
0.0000000000
10
71.7261186962
20
141.5377392133
30
0.0000000000
10
71.7740066447
20
143.0461054224
30
0.0000000000
10
71.8032890949
20
144.6329859899
30
0.0000000000
10
71.8131243804
20
146.2594990794
30
0.0000000000
10
71.8032893494
20
147.8860121522
30
0.0000000000
10
71.7740071528
20
149.4728930057
30
0.0000000000
10
71.7261194362
20
150.9812601486
30
0.0000000000
10
71.6606139356
20
152.3746623334
30
0.0000000000
10
71.5801648606
20
153.6172383839
30
0.0000000000
10
71.4844292648
20
154.6831139133
30
0.0000000000
10
71.3841249227
20
155.5326422637
30
0.0000000000
10
71.2641299068
20
156.1803548953
30
0.0000000000
10
71.1728408318
20
156.5438921141
30
0.0000000000
10
71.0521857319
20
156.7594907903
30
0.0000000000
10
70.9913623913
20
156.7595072510
30
0.0000000000
11
70.9913623913
21
135.7595072510
31
0.0000000000
11
71.1196398877
21
135.8892720841
31
0.0000000000
11
71.2446857163
21
136.2751138658
31
0.0000000000
11
71.3634634002
21
136.9074044255
31
0.0000000000
11
71.4729980673
21
137.7700470592
31
0.0000000000
11
71.5706095403
21
138.8414488226
31
0.0000000000
11
71.6539140015
21
140.0949440787
31
0.0000000000
11
71.7208802666
21
141.4993516282
31
0.0000000000
11
71.7698928896
21
143.0200389587
31
0.0000000000
11
71.7997776093
21
144.6197763319
31
0.0000000000
11
71.8098192963
21
146.2594991189
31
0.0000000000
11
71.7997778682
21
147.8992217893
31
0.0000000000
11
71.7698934126
21
149.4989591169
31
0.0000000000
11
71.7208810265
21
151.0196474557
31
0.0000000000
11
71.6539149470
21
152.4240568853
31
0.0000000000
11
71.5706107237
21
153.6775530331
31
0.0000000000
11
71.4729995481
21
154.7489555826
31
0.0000000000
11
71.3634649594
21
155.6116012702
31
0.0000000000
11
71.2446874086
21
156.2438943459
31
0.0000000000
11
71.1196416796
21
156.6297392446
31
0.0000000000
11
70.9913623913
21
156.7595072510
31
0.0000000000
0
SPLINE
5
2AE
100
AcDbEntity
8
0
100
AcDbSpline
62
7
6
CONTINUOUS
70
0
71
3
72
27
73
23
74
21
42
0.0000001000
43
0.0000001000
44
0.0000000001
12
-21.2006835379
22
-0.0057390759
32
0.0000000000
13
21.2006832560
23
-0.0066997988
33
0.0000000000
40
0.0000000000
40
0.0000000000
40
0.0000000000
40
0.0000000000
40
0.0086067990
40
0.0277383360
40
0.0580841799
40
0.0991004016
40
0.1498459259
40
0.2091016167
40
0.2754204706
40
0.3471859832
40
0.4226560206
40
0.5000003832
40
0.5773447515
40
0.6528147912
40
0.7245802566
40
0.7908990224
40
0.8501546719
40
0.9009001606
40
0.9419162399
40
0.9722619683
40
0.9913933669
40
1.0000000000
40
1.0000000000
40
1.0000000000
40
1.0000000000
10
86.9949320249
20
156.7595072510
30
0.0000000000
10
86.9341086843
20
156.7594907860
30
0.0000000000
10
86.8134535846
20
156.5438921186
30
0.0000000000
10
86.7221645091
20
156.1803548928
30
0.0000000000
10
86.6021694938
20
155.5326422648
30
0.0000000000
10
86.5018651513
20
154.6831139129
30
0.0000000000
10
86.4061295557
20
153.6172383840
30
0.0000000000
10
86.3256804806
20
152.3746623334
30
0.0000000000
10
86.2601749800
20
150.9812601486
30
0.0000000000
10
86.2122872635
20
149.4728930057
30
0.0000000000
10
86.1830050669
20
147.8860121522
30
0.0000000000
10
86.1731700359
20
146.2594990794
30
0.0000000000
10
86.1830053214
20
144.6329859899
30
0.0000000000
10
86.2122877716
20
143.0461054224
30
0.0000000000
10
86.2601757200
20
141.5377392133
30
0.0000000000
10
86.3256814326
20
140.1443383322
30
0.0000000000
10
86.4061307070
20
138.9017633229
30
0.0000000000
10
86.5018665186
20
137.8358897825
30
0.0000000000
10
86.6021709948
20
136.9863623943
30
0.0000000000
10
86.7221660968
20
136.3386553644
30
0.0000000000
10
86.8134549364
20
135.9751157287
30
0.0000000000
10
86.9341098572
20
135.7595264719
30
0.0000000000
10
86.9949320249
20
135.7595072510
30
0.0000000000
11
86.9949320249
21
156.7595072510
31
0.0000000000
11
86.8666527368
21
156.6297392446
31
0.0000000000
11
86.7416070075
21
156.2438943459
31
0.0000000000
11
86.6228294569
21
155.6116012702
31
0.0000000000
11
86.5132948681
21
154.7489555826
31
0.0000000000
11
86.4156836926
21
153.6775530331
31
0.0000000000
11
86.3323794692
21
152.4240568853
31
0.0000000000
11
86.2654133897
21
151.0196474557
31
0.0000000000
11
86.2164010036
21
149.4989591169
31
0.0000000000
11
86.1865165480
21
147.8992217893
31
0.0000000000
11
86.1764751199
21
146.2594991189
31
0.0000000000
11
86.1865168069
21
144.6197763319
31
0.0000000000
11
86.2164015267
21
143.0200389587
31
0.0000000000
11
86.2654141497
21
141.4993516282
31
0.0000000000
11
86.3323804148
21
140.0949440787
31
0.0000000000
11
86.4156848760
21
138.8414488226
31
0.0000000000
11
86.5132963490
21
137.7700470592
31
0.0000000000
11
86.6228310160
21
136.9074044255
31
0.0000000000
11
86.7416087000
21
136.2751138658
31
0.0000000000
11
86.8666545284
21
135.8892720841
31
0.0000000000
11
86.9949320249
21
135.7595072510
31
0.0000000000
0
SPLINE
5
2AF
100
AcDbEntity
8
0
100
AcDbSpline
62
7
6
CONTINUOUS
70
0
71
3
72
14
73
10
74
8
42
0.0000001000
43
0.0000001000
44
0.0000000001
12
0.0000000000
22
-3.1277930220
32
0.0000000000
13
-3.1277930220
23
-0.0000000000
33
0.0000000000
40
0.0000000000
40
0.0000000000
40
0.0000000000
40
0.0000000000
40
0.1431773763
40
0.2862922407
40
0.4292928184
40
0.5721504368
40
0.7148648942
40
0.8574643757
40
1.0000000000
40
1.0000000000
40
1.0000000000
40
1.0000000000
10
89.4839396049
20
137.7595072510
30
0.0000000000
10
89.4839396049
20
137.6102308515
30
0.0000000000
10
89.4504016165
20
137.3106732833
30
0.0000000000
10
89.3019836633
20
136.8846334840
30
0.0000000000
10
89.0628684139
20
136.5021891569
30
0.0000000000
10
88.7450373166
20
136.1828114735
30
0.0000000000
10
88.3643274354
20
135.9424595513
30
0.0000000000
10
87.9401193746
20
135.7932367996
30
0.0000000000
10
87.6417545185
20
135.7595072510
30
0.0000000000
10
87.4931472081
20
135.7595072510
30
0.0000000000
11
89.4839396049
21
137.7595072510
31
0.0000000000
11
89.4340269335
21
137.3144682458
31
0.0000000000
11
89.2867903518
21
136.8917422171
31
0.0000000000
11
89.0496124615
21
136.5125290110
31
0.0000000000
11
88.7343866228
21
136.1958448129
31
0.0000000000
11
88.3569198367
21
135.9575696021
31
0.0000000000
11
87.9361401612
21
135.8096514197
31
0.0000000000
11
87.4931472081
21
135.7595072510
31
0.0000000000
0
SPLINE
5
2B0
100
AcDbEntity
8
0
100
AcDbSpline
62
7
6
CONTINUOUS
70
0
71
3
72
15
73
11
74
9
42
0.0000001000
43
0.0000001000
44
0.0000000001
12
-3.2755750892
22
0.0001496134
32
0.0000000000
13
-0.0000000000
23
4.3077125595
33
0.0000000000
40
0.0000000000
40
0.0000000000
40
0.0000000000
40
0.0000000000
40
0.0266199382
40
0.0857940133
40
0.1787672497
40
0.3025713197
40
0.4526257939
40
0.6232612218
40
0.8080345835
40
1.0000000000
40
1.0000000000
40
1.0000000000
40
1.0000000000
10
69.2950516183
20
142.0095072510
30
0.0000000000
10
69.2659864161
20
142.0095085786
30
0.0000000000
10
69.1723090295
20
142.1460895825
30
0.0000000000
10
69.1317815447
20
142.3733071967
30
0.0000000000
10
69.0527708063
20
142.7754354189
30
0.0000000000
10
68.9997835165
20
143.2945187862
30
0.0000000000
10
68.9490980042
20
143.9326324880
30
0.0000000000
10
68.9134264551
20
144.6570544347
30
0.0000000000
10
68.8907954933
20
145.4429265510
30
0.0000000000
10
68.8858231539
20
145.9838633058
30
0.0000000000
10
68.8858231539
20
146.2595072510
30
0.0000000000
11
69.2950516183
21
142.0095072510
31
0.0000000000
11
69.2150005005
21
142.0916137400
31
0.0000000000
11
69.1380719726
21
142.3346333133
31
0.0000000000
11
69.0672556314
21
142.7288247389
31
0.0000000000
11
69.0052776159
21
143.2585235076
31
0.0000000000
11
68.9544961053
21
143.9029172267
31
0.0000000000
11
68.9168186180
21
144.6369993214
31
0.0000000000
11
68.8936435400
21
145.4326123953
31
0.0000000000
11
68.8858231539
21
146.2595072510
31
0.0000000000
0
SPLINE
5
2B1
100
AcDbEntity
8
0
100
AcDbSpline
62
7
6
CONTINUOUS
70
0
71
3
72
14
73
10
74
8
42
0.0000001000
43
0.0000001000
44
0.0000000001
12
0.0000000000
22
3.1277930220
32
0.0000000000
13
3.1277930220
23
0.0000000000
33
0.0000000000
40
0.0000000000
40
0.0000000000
40
0.0000000000
40
0.0000000000
40
0.1431773763
40
0.2862922407
40
0.4292928184
40
0.5721504368
40
0.7148648942
40
0.8574643757
40
1.0000000000
40
1.0000000000
40
1.0000000000
40
1.0000000000
10
68.5023548114
20
154.7595072510
30
0.0000000000
10
68.5023548114
20
154.9087836504
30
0.0000000000
10
68.5358927997
20
155.2083412186
30
0.0000000000
10
68.6843107530
20
155.6343810180
30
0.0000000000
10
68.9234260024
20
156.0168253451
30
0.0000000000
10
69.2412570997
20
156.3362030284
30
0.0000000000
10
69.6219669809
20
156.5765549507
30
0.0000000000
10
70.0461750417
20
156.7257777024
30
0.0000000000
10
70.3445398978
20
156.7595072510
30
0.0000000000
10
70.4931472081
20
156.7595072510
30
0.0000000000
11
68.5023548114
21
154.7595072510
31
0.0000000000
11
68.5522674828
21
155.2045462561
31
0.0000000000
11
68.6995040645
21
155.6272722848
31
0.0000000000
11
68.9366819548
21
156.0064854909
31
0.0000000000
11
69.2519077935
21
156.3231696890
31
0.0000000000
11
69.6293745796
21
156.5614448999
31
0.0000000000
11
70.0501542550
21
156.7093630823
31
0.0000000000
11
70.4931472081
21
156.7595072510
31
0.0000000000
0
SPLINE
5
2B2
100
AcDbEntity
8
0
100
AcDbSpline
62
7
6
CONTINUOUS
70
0
71
3
72
15
73
11
74
9
42
0.0000001000
43
0.0000001000
44
0.0000000001
12
3.6609368644
22
0.0001672149
32
0.0000000000
13
0.0000000000
23
4.8145022724
33
0.0000000000
40
0.0000000000
40
0.0000000000
40
0.0000000000
40
0.0000000000
40
0.0266199382
40
0.0857940133
40
0.1787672496
40
0.3025713197
40
0.4526257939
40
0.6232612218
40
0.8080345835
40
1.0000000000
40
1.0000000000
40
1.0000000000
40
1.0000000000
10
88.6912427968
20
141.5095072510
30
0.0000000000
10
88.7237274345
20
141.5095087348
30
0.0000000000
10
88.8284256902
20
141.6621580921
30
0.0000000000
10
88.8737211143
20
141.9161071903
30
0.0000000000
10
88.9620272338
20
142.3655446151
30
0.0000000000
10
89.0212483224
20
142.9456966139
30
0.0000000000
10
89.0778968361
20
143.6588825159
30
0.0000000000
10
89.1177650380
20
144.4685305739
30
0.0000000000
10
89.1430584660
20
145.3468582333
30
0.0000000000
10
89.1486157865
20
145.9514346063
30
0.0000000000
10
89.1486157865
20
146.2595072510
30
0.0000000000
11
88.6912427968
21
141.5095072510
31
0.0000000000
11
88.7807116931
21
141.6012733269
31
0.0000000000
11
88.8666906361
21
141.8728834382
31
0.0000000000
11
88.9458383116
21
142.3134503257
31
0.0000000000
11
89.0151078584
21
142.9054665966
31
0.0000000000
11
89.0718636643
21
143.6256713415
31
0.0000000000
11
89.1139737972
21
144.4461160356
31
0.0000000000
11
89.1398753549
21
145.3353306476
31
0.0000000000
11
89.1486157865
21
146.2595072510
31
0.0000000000
0
SPLINE
5
2B3
100
AcDbEntity
8
0
100
AcDbSpline
62
7
6
CONTINUOUS
70
0
71
3
72
13
73
9
74
7
42
0.0000001000
43
0.0000001000
44
0.0000000001
12
0.0000000000
22
-3.1254217722
32
0.0000000000
13
-3.1254217723
23
-0.0000000000
33
0.0000000000
40
0.0000000000
40
0.0000000000
40
0.0000000000
40
0.0000000000
40
0.1670379066
40
0.3339764801
40
0.5007428635
40
0.6673101976
40
0.8337049574
40
1.0000000000
40
1.0000000000
40
1.0000000000
40
1.0000000000
10
88.9857244216
20
137.7595072510
30
0.0000000000
10
88.9857244216
20
137.5854859476
30
0.0000000000
10
88.9400161304
20
137.2358519591
30
0.0000000000
10
88.7389453470
20
136.7483222917
30
0.0000000000
10
88.4190499325
20
136.3292574115
30
0.0000000000
10
88.0019450453
20
136.0076973169
30
0.0000000000
10
87.5164937950
20
135.8054937092
30
0.0000000000
10
87.1681794071
20
135.7595072510
30
0.0000000000
10
86.9949320249
20
135.7595072510
30
0.0000000000
11
88.9857244216
21
137.7595072510
31
0.0000000000
11
88.9178898157
21
137.2418691608
31
0.0000000000
11
88.7190088141
21
136.7595072510
31
0.0000000000
11
88.4026348286
21
136.3452936886
31
0.0000000000
11
87.9903282233
21
136.0274564434
31
0.0000000000
11
87.5101870120
21
135.8276555984
31
0.0000000000
11
86.9949320249
21
135.7595072510
31
0.0000000000
0
SPLINE
5
2B4
100
AcDbEntity
8
0
100
AcDbSpline
62
7
6
CONTINUOUS
70
0
71
3
72
13
73
9
74
7
42
0.0000001000
43
0.0000001000
44
0.0000000001
12
-0.0000000000
22
3.1254217722
32
0.0000000000
13
3.1254217722
23
0.0000000000
33
0.0000000000
40
0.0000000000
40
0.0000000000
40
0.0000000000
40
0.0000000000
40
0.1670379066
40
0.3339764801
40
0.5007428635
40
0.6673101976
40
0.8337049574
40
1.0000000000
40
1.0000000000
40
1.0000000000
40
1.0000000000
10
69.0005699946
20
154.7595072510
30
0.0000000000
10
69.0005699946
20
154.9335285543
30
0.0000000000
10
69.0462782858
20
155.2831625428
30
0.0000000000
10
69.2473490693
20
155.7706922103
30
0.0000000000
10
69.5672444837
20
156.1897570905
30
0.0000000000
10
69.9843493709
20
156.5113171850
30
0.0000000000
10
70.4698006213
20
156.7135207928
30
0.0000000000
10
70.8181150091
20
156.7595072510
30
0.0000000000
10
70.9913623913
20
156.7595072510
30
0.0000000000
11
69.0005699946
21
154.7595072510
31
0.0000000000
11
69.0684046006
21
155.2771453412
31
0.0000000000
11
69.2672856021
21
155.7595072510
31
0.0000000000
11
69.5836595877
21
156.1737208134
31
0.0000000000
11
69.9959661930
21
156.4915580585
31
0.0000000000
11
70.4761074042
21
156.6913589036
31
0.0000000000
11
70.9913623913
21
156.7595072510
31
0.0000000000
0
SPLINE
5
2B5
100
AcDbEntity
8
0
100
AcDbSpline
62
7
6
CONTINUOUS
70
0
71
3
72
13
73
9
74
7
42
0.0000001000
43
0.0000001000
44
0.0000000001
12
-0.0000000028
22
3.1254217717
32
0.0000000000
13
-3.1254217717
23
0.0000000000
33
0.0000000000
40
0.0000000000
40
0.0000000000
40
0.0000000000
40
0.0000000000
40
0.1670377818
40
0.3339762922
40
0.5007426680
40
0.6673100399
40
0.8337048700
40
1.0000000000
40
1.0000000000
40
1.0000000000
40
1.0000000000
10
88.9857244216
20
154.7595072510
30
0.0000000000
10
88.9857244215
20
154.9335284243
30
0.0000000000
10
88.9400161908
20
155.2831622131
30
0.0000000000
10
88.7389456075
20
155.7706917359
30
0.0000000000
10
88.4190503413
20
156.1897566848
30
0.0000000000
10
88.0019454581
20
156.5113169625
30
0.0000000000
10
87.5164940528
20
156.7135207461
30
0.0000000000
10
87.1681794982
20
156.7595072510
30
0.0000000000
10
86.9949320249
20
156.7595072510
30
0.0000000000
11
88.9857244216
21
154.7595072510
31
0.0000000000
11
88.9178899167
21
155.2771449609
31
0.0000000000
11
88.7190091088
21
155.7595067372
31
0.0000000000
11
88.4026352629
21
156.1737203763
31
0.0000000000
11
87.9903286528
21
156.4915578090
31
0.0000000000
11
87.5101872780
21
156.6913588318
31
0.0000000000
11
86.9949320249
21
156.7595072510
31
0.0000000000
0
SPLINE
5
2B6
100
AcDbEntity
8
0
100
AcDbSpline
62
7
6
CONTINUOUS
70
0
71
3
72
15
73
11
74
9
42
0.0000001000
43
0.0000001000
44
0.0000000001
12
0.0000000000
22
4.3077140776
32
0.0000000000
13
3.2755762435
23
-0.0001496134
33
0.0000000000
40
0.0000000000
40
0.0000000000
40
0.0000000000
40
0.0000000000
40
0.1919650878
40
0.3767376440
40
0.5473721216
40
0.6974258445
40
0.8212296440
40
0.9142032451
40
0.9733782275
40
1.0000000000
40
1.0000000000
40
1.0000000000
40
1.0000000000
10
68.8858231539
20
146.2595072510
30
0.0000000000
10
68.8858231539
20
146.5351508213
30
0.0000000000
10
68.8907954799
20
147.0760861318
30
0.0000000000
10
68.9134262835
20
147.8619555606
30
0.0000000000
10
68.9490976243
20
148.5863740872
30
0.0000000000
10
68.9997823774
20
149.2244854716
30
0.0000000000
10
69.0527699108
20
149.7435673786
30
0.0000000000
10
69.1317783828
20
150.1456991909
30
0.0000000000
10
69.1723089226
20
150.3729173420
30
0.0000000000
10
69.2659843839
20
150.5095085786
30
0.0000000000
10
69.2950515991
20
150.5095072509
30
0.0000000000
11
68.8858231539
21
146.2595072510
31
0.0000000000
11
68.8936435186
21
147.0864009822
31
0.0000000000
11
68.9168184465
21
147.8820108700
31
0.0000000000
11
68.9544955836
21
148.6160891429
31
0.0000000000
11
69.0052765493
21
149.2604798869
31
0.0000000000
11
69.0672539049
21
149.7901777489
31
0.0000000000
11
69.1380696171
21
150.1843710274
31
0.0000000000
11
69.2149976894
21
150.4273949385
31
0.0000000000
11
69.2950515991
21
150.5095072509
31
0.0000000000
0
SPLINE
5
2B7
100
AcDbEntity
8
0
100
AcDbSpline
62
7
6
CONTINUOUS
70
0
71
3
72
27
73
23
74
21
42
0.0000001000
43
0.0000001000
44
0.0000000001
12
17.2384257027
22
0.0097483012
32
0.0000000000
13
-17.2384263381
23
0.0085512278
33
0.0000000000
40
0.0000000000
40
0.0000000000
40
0.0000000000
40
0.0000000000
40
0.0096147263
40
0.0291301569
40
0.0596098248
40
0.1006139949
40
0.1512445047
40
0.2103072521
40
0.2763737914
40
0.3478436838
40
0.4229896630
40
0.4999958984
40
0.5770023084
40
0.6521488047
40
0.7236194443
40
0.7896868734
40
0.8487505340
40
0.8993819953
40
0.9403872108
40
0.9708679194
40
0.9903842096
40
1.0000000000
40
1.0000000000
40
1.0000000000
40
1.0000000000
10
69.0005699946
20
137.7595072510
30
0.0000000000
10
69.0558175763
20
137.7595384934
30
0.0000000000
10
69.1791833800
20
137.9200388599
30
0.0000000000
10
69.2731264392
20
138.2299296029
30
0.0000000000
10
69.3928788526
20
138.7493607711
30
0.0000000000
10
69.4936152672
20
139.4402378835
30
0.0000000000
10
69.5892860584
20
140.3023790057
30
0.0000000000
10
69.6698011550
20
141.3087666719
30
0.0000000000
10
69.7353080299
20
142.4367674971
30
0.0000000000
10
69.7832083934
20
143.6579526948
30
0.0000000000
10
69.8124945766
20
144.9426482115
30
0.0000000000
10
69.8223324646
20
146.2594370126
30
0.0000000000
10
69.8124966637
20
147.5762287979
30
0.0000000000
10
69.7832124165
20
148.8609326376
30
0.0000000000
10
69.7353137051
20
150.0821302583
30
0.0000000000
10
69.6698082427
20
151.2101459354
30
0.0000000000
10
69.5892941197
20
152.2165492646
30
0.0000000000
10
69.4936244452
20
153.0787081845
30
0.0000000000
10
69.3928876597
20
153.7696005455
30
0.0000000000
10
69.2731367879
20
154.2890549313
30
0.0000000000
10
69.1791906737
20
154.5989513624
30
0.0000000000
10
69.0558236930
20
154.7594798420
30
0.0000000000
10
69.0005699946
20
154.7595072510
30
0.0000000000
11
69.0005699946
21
137.7595072510
31
0.0000000000
11
69.1288157827
21
137.8645009850
31
0.0000000000
11
69.2538665879
21
138.1768110655
31
0.0000000000
11
69.3726473643
21
138.6886303289
31
0.0000000000
11
69.4821864842
21
139.3869386435
31
0.0000000000
11
69.5798021648
21
140.2542530613
31
0.0000000000
11
69.6631107985
21
141.2689879756
31
0.0000000000
11
69.7300808324
21
142.4059005541
31
0.0000000000
11
69.7790966370
21
143.6369537580
31
0.0000000000
11
69.8089837536
21
144.9320075242
31
0.0000000000
11
69.8190269012
21
146.2594360107
31
0.0000000000
11
69.8089858840
21
147.5868675254
31
0.0000000000
11
69.7791007276
21
148.8819302539
31
0.0000000000
11
69.7300866121
21
150.1129964140
31
0.0000000000
11
69.6631179623
21
151.2499244392
31
0.0000000000
11
69.5798104936
21
152.2646752449
31
0.0000000000
11
69.4821957660
21
153.1320062750
31
0.0000000000
11
69.3726570887
21
153.8303329017
31
0.0000000000
11
69.2538766023
21
154.3421706494
31
0.0000000000
11
69.1288256742
21
154.6544966414
31
0.0000000000
11
69.0005699946
21
154.7595072510
31
0.0000000000
0
SPLINE
5
2B8
100
AcDbEntity
8
0
100
AcDbSpline
62
7
6
CONTINUOUS
70
0
71
3
72
15
73
11
74
9
42
0.0000001000
43
0.0000001000
44
0.0000000001
12
0.0000000000
22
4.8145039691
32
0.0000000000
13
-3.6609381546
23
-0.0001672150
33
0.0000000000
40
0.0000000000
40
0.0000000000
40
0.0000000000
40
0.0000000000
40
0.1919650878
40
0.3767376440
40
0.5473721216
40
0.6974258445
40
0.8212296440
40
0.9142032451
40
0.9733782275
40
1.0000000000
40
1.0000000000
40
1.0000000000
40
1.0000000000
10
89.1486157865
20
146.2595072510
30
0.0000000000
10
89.1486157865
20
146.5675794767
30
0.0000000000
10
89.1430584809
20
147.1721542354
30
0.0000000000
10
89.1177652299
20
148.0504788912
30
0.0000000000
10
89.0778972607
20
148.8601231268
30
0.0000000000
10
89.0212495955
20
149.5733064387
30
0.0000000000
10
88.9620282347
20
150.1534568054
30
0.0000000000
10
88.8737246482
20
150.6028982427
30
0.0000000000
10
88.8284258096
20
150.8568479409
30
0.0000000000
10
88.7237297058
20
151.0095087348
30
0.0000000000
10
88.6912428183
20
151.0095072509
30
0.0000000000
11
89.1486157865
21
146.2595072510
31
0.0000000000
11
89.1398753789
21
147.1836825976
31
0.0000000000
11
89.1139739888
21
148.0728936488
31
0.0000000000
11
89.0718642474
21
148.8933340714
31
0.0000000000
11
89.0151090504
21
149.6135354911
31
0.0000000000
11
88.9458402411
21
150.2055507487
31
0.0000000000
11
88.8666932688
21
150.6461197070
31
0.0000000000
11
88.7807148349
21
150.9177346665
31
0.0000000000
11
88.6912428183
21
151.0095072509
31
0.0000000000
0
SPLINE
5
2B9
100
AcDbEntity
8
0
100
AcDbSpline
62
7
6
CONTINUOUS
70
0
71
3
72
27
73
23
74
21
42
0.0000001000
43
0.0000001000
44
0.0000000001
12
-17.2384263368
22
-0.0085539408
32
0.0000000000
13
17.2384257040
23
-0.0097460906
33
0.0000000000
40
0.0000000000
40
0.0000000000
40
0.0000000000
40
0.0000000000
40
0.0096157905
40
0.0291320805
40
0.0596127892
40
0.1006180047
40
0.1512494660
40
0.2103131266
40
0.2763805557
40
0.3478511953
40
0.4229976916
40
0.5000041016
40
0.5770103370
40
0.6521563162
40
0.7236262086
40
0.7896927479
40
0.8487554953
40
0.8993860051
40
0.9403901752
40
0.9708698431
40
0.9903852737
40
1.0000000000
40
1.0000000000
40
1.0000000000
40
1.0000000000
10
88.9857244216
20
154.7595072510
30
0.0000000000
10
88.9304707232
20
154.7594798333
30
0.0000000000
10
88.8071037427
20
154.5989513706
30
0.0000000000
10
88.7131576282
20
154.2890549268
30
0.0000000000
10
88.5934067567
20
153.7696005475
30
0.0000000000
10
88.4926699710
20
153.0787081838
30
0.0000000000
10
88.3970002966
20
152.2165492648
30
0.0000000000
10
88.3164861736
20
151.2101459353
30
0.0000000000
10
88.2509807111
20
150.0821302583
30
0.0000000000
10
88.2030819998
20
148.8609326376
30
0.0000000000
10
88.1737977526
20
147.5762287979
30
0.0000000000
10
88.1639619517
20
146.2594370126
30
0.0000000000
10
88.1737998396
20
144.9426482115
30
0.0000000000
10
88.2030860229
20
143.6579526948
30
0.0000000000
10
88.2509863864
20
142.4367674971
30
0.0000000000
10
88.3164932612
20
141.3087666718
30
0.0000000000
10
88.3970083578
20
140.3023790059
30
0.0000000000
10
88.4926791491
20
139.4402378829
30
0.0000000000
10
88.5934155635
20
138.7493607727
30
0.0000000000
10
88.7131679773
20
138.2299295993
30
0.0000000000
10
88.8071110360
20
137.9200388665
30
0.0000000000
10
88.9304768400
20
137.7595384863
30
0.0000000000
10
88.9857244216
20
137.7595072510
30
0.0000000000
11
88.9857244216
21
154.7595072510
31
0.0000000000
11
88.8574687421
21
154.6544966412
31
0.0000000000
11
88.7324178139
21
154.3421706495
31
0.0000000000
11
88.6136373275
21
153.8303329017
31
0.0000000000
11
88.5040986502
21
153.1320062750
31
0.0000000000
11
88.4064839227
21
152.2646752449
31
0.0000000000
11
88.3231764540
21
151.2499244392
31
0.0000000000
11
88.2562078041
21
150.1129964140
31
0.0000000000
11
88.2071936887
21
148.8819302539
31
0.0000000000
11
88.1773085322
21
147.5868675254
31
0.0000000000
11
88.1672675151
21
146.2594360107
31
0.0000000000
11
88.1773106626
21
144.9320075242
31
0.0000000000
11
88.2071977793
21
143.6369537580
31
0.0000000000
11
88.2562135838
21
142.4059005541
31
0.0000000000
11
88.3231836177
21
141.2689879756
31
0.0000000000
11
88.4064922515
21
140.2542530613
31
0.0000000000
11
88.5041079321
21
139.3869386435
31
0.0000000000
11
88.6136470520
21
138.6886303288
31
0.0000000000
11
88.7324278283
21
138.1768110657
31
0.0000000000
11
88.8574786335
21
137.8645009848
31
0.0000000000
11
88.9857244216
21
137.7595072510
31
0.0000000000
0
SPLINE
5
2BA
100
AcDbEntity
8
0
100
AcDbSpline
62
7
6
CONTINUOUS
70
0
71
3
72
13
73
9
74
7
42
0.0000001000
43
0.0000001000
44
0.0000000001
12
0.0000000035
22
-3.1254217715
32
0.0000000000
13
3.1254217715
23
-0.0000000000
33
0.0000000000
40
0.0000000000
40
0.0000000000
40
0.0000000000
40
0.0000000000
40
0.1670377057
40
0.3339761770
40
0.5007425476
40
0.6673099423
40
0.8337048154
40
1.0000000000
40
1.0000000000
40
1.0000000000
40
1.0000000000
10
69.0005699946
20
137.7595072510
30
0.0000000000
10
69.0005699948
20
137.5854861570
30
0.0000000000
10
69.0462781884
20
137.2358524905
30
0.0000000000
10
69.2473486489
20
136.7483230570
30
0.0000000000
10
69.5672438231
20
136.3292580671
30
0.0000000000
10
69.9843487025
20
136.0076976773
30
0.0000000000
10
70.4698002031
20
135.8054937848
30
0.0000000000
10
70.8181148612
20
135.7595072510
30
0.0000000000
10
70.9913623913
20
135.7595072510
30
0.0000000000
11
69.0005699946
21
137.7595072510
31
0.0000000000
11
69.0684044378
21
137.2418697729
31
0.0000000000
11
69.2672851267
21
136.7595080796
31
0.0000000000
11
69.5836588857
21
136.3452943948
31
0.0000000000
11
69.9959654971
21
136.0274568475
31
0.0000000000
11
70.4761069721
21
135.8276557149
31
0.0000000000
11
70.9913623913
21
135.7595072510
31
0.0000000000
0
SPLINE
5
2BB
100
AcDbEntity
8
0
100
AcDbSpline
62
7
6
CONTINUOUS
70
0
71
3
72
14
73
10
74
8
42
0.0000001000
43
0.0000001000
44
0.0000000001
12
0.0000000000
22
3.1277930220
32
0.0000000000
13
-3.1277930220
23
-0.0000000000
33
0.0000000000
40
0.0000000000
40
0.0000000000
40
0.0000000000
40
0.0000000000
40
0.1431773762
40
0.2862922398
40
0.4292928177
40
0.5721504371
40
0.7148648948
40
0.8574643756
40
1.0000000000
40
1.0000000000
40
1.0000000000
40
1.0000000000
10
89.4839396049
20
154.7595072510
30
0.0000000000
10
89.4839396049
20
154.9087836503
30
0.0000000000
10
89.4504016166
20
155.2083412176
30
0.0000000000
10
89.3019836640
20
155.6343810163
30
0.0000000000
10
89.0628684149
20
156.0168253441
30
0.0000000000
10
88.7450373165
20
156.3362030286
30
0.0000000000
10
88.3643274346
20
156.5765549510
30
0.0000000000
10
87.9401193741
20
156.7257777024
30
0.0000000000
10
87.6417545185
20
156.7595072510
30
0.0000000000
10
87.4931472081
20
156.7595072510
30
0.0000000000
11
89.4839396049
21
154.7595072510
31
0.0000000000
11
89.4340269335
21
155.2045462559
31
0.0000000000
11
89.2867903530
21
155.6272722823
31
0.0000000000
11
89.0496124629
21
156.0064854892
31
0.0000000000
11
88.7343866221
21
156.3231696896
31
0.0000000000
11
88.3569198351
21
156.5614449006
31
0.0000000000
11
87.9361401615
21
156.7093630822
31
0.0000000000
11
87.4931472081
21
156.7595072510
31
0.0000000000
0
SPLINE
5
2BC
100
AcDbEntity
8
0
100
AcDbSpline
62
7
6
CONTINUOUS
70
0
71
3
72
14
73
10
74
8
42
0.0000001000
43
0.0000001000
44
0.0000000001
12
0.0000000000
22
-3.1277930220
32
0.0000000000
13
3.1277930220
23
0.0000000000
33
0.0000000000
40
0.0000000000
40
0.0000000000
40
0.0000000000
40
0.0000000000
40
0.1431773762
40
0.2862922398
40
0.4292928177
40
0.5721504371
40
0.7148648948
40
0.8574643756
40
1.0000000000
40
1.0000000000
40
1.0000000000
40
1.0000000000
10
68.5023548114
20
137.7595072510
30
0.0000000000
10
68.5023548114
20
137.6102308516
30
0.0000000000
10
68.5358927996
20
137.3106732843
30
0.0000000000
10
68.6843107523
20
136.8846334856
30
0.0000000000
10
68.9234260014
20
136.5021891579
30
0.0000000000
10
69.2412570997
20
136.1828114733
30
0.0000000000
10
69.6219669816
20
135.9424595510
30
0.0000000000
10
70.0461750422
20
135.7932367995
30
0.0000000000
10
70.3445398977
20
135.7595072510
30
0.0000000000
10
70.4931472081
20
135.7595072510
30
0.0000000000
11
68.5023548114
21
137.7595072510
31
0.0000000000
11
68.5522674827
21
137.3144682461
31
0.0000000000
11
68.6995040633
21
136.8917422196
31
0.0000000000
11
68.9366819534
21
136.5125290127
31
0.0000000000
11
69.2519077942
21
136.1958448124
31
0.0000000000
11
69.6293745812
21
135.9575696013
31
0.0000000000
11
70.0501542548
21
135.8096514197
31
0.0000000000
11
70.4931472081
21
135.7595072510
31
0.0000000000
0
SPLINE
5
2BD
100
AcDbEntity
8
0
100
AcDbSpline
62
7
6
CONTINUOUS
70
0
71
3
72
13
73
9
74
7
42
0.0000001000
43
0.0000001000
44
0.0000000001
12
1.1555859533
22
-0.8828686014
32
0.0000000000
13
0.8838395232
23
1.1548435219
33
0.0000000000
40
0.0000000000
40
0.0000000000
40
0.0000000000
40
0.0000000000
40
0.2601519350
40
0.5011070613
40
0.7071767101
40
0.8649799047
40
0.9643945865
40
1.0000000000
40
1.0000000000
40
1.0000000000
40
1.0000000000
10
196.9931470910
20
135.8451637517
30
0.0000000000
10
197.0933563982
20
135.7686037600
30
0.0000000000
10
197.2868585047
20
135.6227252462
30
0.0000000000
10
197.5641261640
20
135.4171426312
30
0.0000000000
10
197.7990295591
20
135.2531277490
30
0.0000000000
10
197.9936366514
20
135.1105223929
30
0.0000000000
10
198.0967082740
20
135.0647460759
30
0.0000000000
10
198.1738338609
20
135.0021657697
30
0.0000000000
10
198.1843236848
20
135.0158719967
30
0.0000000000
11
196.9931470910
21
135.8451637517
31
0.0000000000
11
197.2950719241
21
135.6171913116
31
0.0000000000
11
197.5773238674
21
135.4095380321
31
0.0000000000
11
197.8214720009
21
135.2357635815
31
0.0000000000
11
198.0115736888
21
135.1072152640
31
0.0000000000
11
198.1352154776
21
135.0322871593
31
0.0000000000
11
198.1843236848
21
135.0158719967
31
0.0000000000
0
SPLINE
5
2BE
100
AcDbEntity
8
0
100
AcDbSpline
62
7
6
CONTINUOUS
70
0
71
3
72
13
73
9
74
7
42
0.0000001000
43
0.0000001000
44
0.0000000001
12
11.2529466112
22
2.7105134722
32
0.0000000000
13
7.0347610245
23
9.1917260646
33
0.0000000000
40
0.0000000000
40
0.0000000000
40
0.0000000000
40
0.0000000000
40
0.1664491643
40
0.3331494515
40
0.4998888624
40
0.6666336527
40
0.8333925868
40
1.0000000000
40
1.0000000000
40
1.0000000000
40
1.0000000000
10
187.4735175228
20
129.6497013632
30
0.0000000000
10
188.0978653761
20
129.8000889306
30
0.0000000000
10
189.3315894400
20
130.1722503500
30
0.0000000000
10
191.1067303177
20
130.9364793238
30
0.0000000000
10
192.7850612420
20
131.8975738594
30
0.0000000000
10
194.3437716767
20
133.0429046509
30
0.0000000000
10
195.7621752846
20
134.3569244023
30
0.0000000000
10
196.6025611432
20
135.3349398009
30
0.0000000000
10
196.9932422554
20
135.8454097017
30
0.0000000000
11
187.4735175228
21
129.6497013632
31
0.0000000000
11
189.3180069033
21
130.2062073259
31
0.0000000000
11
191.0902860697
21
130.9691457996
31
0.0000000000
11
192.7650749624
21
131.9282487616
31
0.0000000000
11
194.3204069271
21
133.0710432092
31
0.0000000000
11
195.7363061237
21
134.3828732678
31
0.0000000000
11
196.9932422554
21
135.8454097017
31
0.0000000000
0
SPLINE
5
2BF
100
AcDbEntity
8
0
100
AcDbSpline
62
7
6
CONTINUOUS
70
0
71
3
72
12
73
8
74
6
42
0.0000001000
43
0.0000001000
44
0.0000000001
12
0.3334909491
22
-1.3805593053
32
0.0000000000
13
1.3807699857
23
0.3326175812
33
0.0000000000
40
0.0000000000
40
0.0000000000
40
0.0000000000
40
0.0000000000
40
0.3125904231
40
0.5914649938
40
0.8111440646
40
0.9515675238
40
1.0000000000
40
1.0000000000
40
1.0000000000
40
1.0000000000
10
187.4735175238
20
129.6497013634
30
0.0000000000
10
187.5082662161
20
129.5058514910
30
0.0000000000
10
187.5729352708
20
129.2305943176
30
0.0000000000
10
187.6714466235
20
128.8700737690
30
0.0000000000
10
187.7305550101
20
128.5459525126
30
0.0000000000
10
187.8091915725
20
128.4177030861
30
0.0000000000
10
187.8024308239
20
128.2683999767
30
0.0000000000
10
187.8247221938
20
128.2737698077
30
0.0000000000
11
187.4735175238
21
129.6497013634
31
0.0000000000
11
187.5786223481
21
129.2183600917
31
0.0000000000
11
187.6741208945
21
128.8339688234
31
0.0000000000
11
187.7512852202
21
128.5316584072
31
0.0000000000
11
187.8030630293
21
128.3390579604
31
0.0000000000
11
187.8247221938
21
128.2737698077
31
0.0000000000
0
SPLINE
5
2C0
100
AcDbEntity
8
0
100
AcDbSpline
62
7
6
CONTINUOUS
70
0
71
3
72
12
73
8
74
6
42
0.0000001000
43
0.0000001000
44
0.0000000001
12
0.0000000000
22
1.4357131110
32
0.0000000000
13
-1.4357131110
23
0.0000000021
33
0.0000000000
40
0.0000000000
40
0.0000000000
40
0.0000000000
40
0.0000000000
40
0.1822234648
40
0.3716036530
40
0.5720230275
40
0.7829045089
40
1.0000000000
40
1.0000000000
40
1.0000000000
40
1.0000000000
10
198.4931472081
20
153.6723468784
30
0.0000000000
10
198.4931472081
20
153.7595537509
30
0.0000000000
10
198.4582989832
20
153.9390188361
30
0.0000000000
10
198.3101292283
20
154.1754975180
30
0.0000000000
10
198.0838714144
20
154.3602341195
30
0.0000000000
10
197.8029107445
20
154.4773778371
30
0.0000000000
10
197.5970428224
20
154.5040235603
30
0.0000000000
10
197.4931472081
20
154.5040235604
30
0.0000000000
11
198.4931472081
21
153.6723468784
31
0.0000000000
11
198.4442039100
21
153.9293486315
31
0.0000000000
11
198.3021646968
21
154.1611936004
31
0.0000000000
11
198.0809330803
21
154.3451870729
31
0.0000000000
11
197.8021646331
21
154.4633182896
31
0.0000000000
11
197.4931472081
21
154.5040235604
31
0.0000000000
0
SPLINE
5
2C1
100
AcDbEntity
8
0
100
AcDbSpline
62
7
6
CONTINUOUS
70
0
71
3
72
12
73
8
74
6
42
0.0000001000
43
0.0000001000
44
0.0000000001
12
0.0000000000
22
-1.0041333042
32
0.0000000000
13
-1.0041333042
23
0.0000000004
33
0.0000000000
40
0.0000000000
40
0.0000000000
40
0.0000000000
40
0.0000000000
40
0.0515874280
40
0.1938611010
40
0.4145139998
40
0.6922433742
40
1.0000000000
40
1.0000000000
40
1.0000000000
40
1.0000000000
10
198.4931472081
20
150.1260283747
30
0.0000000000
10
198.4931472081
20
150.1087614899
30
0.0000000000
10
198.3947712025
20
150.1112296456
30
0.0000000000
10
198.2874876995
20
150.0859300291
30
0.0000000000
10
198.0572411071
20
150.0817862517
30
0.0000000000
10
197.7937501155
20
150.0720792751
30
0.0000000000
10
197.5961567673
20
150.0711254308
30
0.0000000000
10
197.4931472081
20
150.0711254308
30
0.0000000000
11
198.4931472081
21
150.1260283747
31
0.0000000000
11
198.4442037244
21
150.1090624320
31
0.0000000000
11
198.3021642025
21
150.0937572340
31
0.0000000000
11
198.0809324604
21
150.0816109600
31
0.0000000000
11
197.8021642025
21
150.0738125721
31
0.0000000000
11
197.4931472081
21
150.0711254308
31
0.0000000000
0
SPLINE
5
2C2
100
AcDbEntity
8
0
100
AcDbSpline
62
7
6
CONTINUOUS
70
0
71
3
72
8
73
4
74
2
42
0.0000001000
43
0.0000001000
44
0.0000000001
12
0.0000000000
22
-0.1062244533
32
0.0000000000
13
0.0214807758
23
-0.1050588514
33
0.0000000000
40
0.0000000000
40
0.0000000000
40
0.0000000000
40
0.0000000000
40
1.0000000000
40
1.0000000000
40
1.0000000000
40
1.0000000000
10
168.4931472081
20
135.9275180911
30
0.0000000000
10
168.4931472081
20
135.8921099400
30
0.0000000000
10
168.4964451820
20
135.8562992876
30
0.0000000000
10
168.5036054407
20
135.8212796705
30
0.0000000000
11
168.4931472081
21
135.9275180911
31
0.0000000000
11
168.5036054407
21
135.8212796705
31
0.0000000000
0
SPLINE
5
2C3
100
AcDbEntity
8
0
100
AcDbSpline
62
7
6
CONTINUOUS
70
0
71
3
72
14
73
10
74
8
42
0.0000001000
43
0.0000001000
44
0.0000000001
12
0.3509740175
22
-1.7165547198
32
0.0000000000
13
1.5108021038
23
0.8542730916
33
0.0000000000
40
0.0000000000
40
0.0000000000
40
0.0000000000
40
0.0000000000
40
0.0582826420
40
0.1711495699
40
0.2933314995
40
0.4380184881
40
0.6077435864
40
0.7978891258
40
1.0000000000
40
1.0000000000
40
1.0000000000
40
1.0000000000
10
168.5036054407
20
135.8212796705
30
0.0000000000
10
168.5104240050
20
135.7879312224
30
0.0000000000
10
168.5407321417
20
135.6921085189
30
0.0000000000
10
168.6516432956
20
135.5537137500
30
0.0000000000
10
168.8626290140
20
135.4697971905
30
0.0000000000
10
169.1184558676
20
135.4629394386
30
0.0000000000
10
169.4049893536
20
135.5268622885
30
0.0000000000
10
169.7087787309
20
135.6503499038
30
0.0000000000
10
169.8913641470
20
135.7876111244
30
0.0000000000
10
169.9931473250
20
135.8451637515
30
0.0000000000
11
168.5036054407
21
135.8212796705
31
0.0000000000
11
168.5350558196
21
135.7244170333
31
0.0000000000
11
168.6577413566
21
135.5717021079
31
0.0000000000
11
168.8518226190
21
135.4862536596
31
0.0000000000
11
169.1025813789
21
135.4728139465
31
0.0000000000
11
169.3912057130
21
135.5317232054
31
0.0000000000
11
169.6953890692
21
135.6597207603
31
0.0000000000
11
169.9931473250
21
135.8451637515
31
0.0000000000
0
SPLINE
5
2C4
100
AcDbEntity
8
0
100
AcDbSpline
62
7
6
CONTINUOUS
70
0
71
3
72
12
73
8
74
6
42
0.0000001000
43
0.0000001000
44
0.0000000001
12
-0.5926362445
22
0.7743445726
32
0.0000000000
13
0.0000000000
23
0.9751037050
33
0.0000000000
40
0.0000000000
40
0.0000000000
40
0.0000000000
40
0.0000000000
40
0.1808909738
40
0.3904089057
40
0.6095015291
40
0.8188000224
40
1.0000000000
40
1.0000000000
40
1.0000000000
40
1.0000000000
10
168.8019707314
20
135.0158719967
30
0.0000000000
10
168.7662365490
20
135.0625626446
30
0.0000000000
10
168.6994042573
20
135.1711619768
30
0.0000000000
10
168.6165320917
20
135.3514264188
30
0.0000000000
10
168.5497762977
20
135.5481752006
30
0.0000000000
10
168.5060152763
20
135.7417290889
30
0.0000000000
10
168.4931472081
20
135.8686218346
30
0.0000000000
10
168.4931472081
20
135.9275180911
30
0.0000000000
11
168.8019707314
21
135.0158719967
31
0.0000000000
11
168.7072565391
21
135.1646730632
31
0.0000000000
11
168.6210416182
21
135.3498923299
31
0.0000000000
11
168.5524333896
21
135.5522141487
31
0.0000000000
11
168.5083545906
21
135.7514849784
31
0.0000000000
11
168.4931472081
21
135.9275180911
31
0.0000000000
0
SPLINE
5
2C5
100
AcDbEntity
8
0
100
AcDbSpline
62
7
6
CONTINUOUS
70
0
71
3
72
13
73
9
74
7
42
0.0000001000
43
0.0000001000
44
0.0000000001
12
-1.1555856790
22
-0.8828690414
32
0.0000000000
13
-0.8838395528
23
1.1548435612
33
0.0000000000
40
0.0000000000
40
0.0000000000
40
0.0000000000
40
0.0000000000
40
0.2601519262
40
0.5011070430
40
0.7071766840
40
0.8649798742
40
0.9643945587
40
1.0000000000
40
1.0000000000
40
1.0000000000
40
1.0000000000
10
169.9931473250
20
135.8451637515
30
0.0000000000
10
169.8929380449
20
135.7686037243
30
0.0000000000
10
169.6994359950
20
135.6227251341
30
0.0000000000
10
169.4221683806
20
135.4171424695
30
0.0000000000
10
169.1872650132
20
135.2531275214
30
0.0000000000
10
168.9926578863
20
135.1105222768
30
0.0000000000
10
168.8895862594
20
135.0647458194
30
0.0000000000
10
168.8124605639
20
135.0021657585
30
0.0000000000
10
168.8019707314
20
135.0158719967
30
0.0000000000
11
169.9931473250
21
135.8451637515
31
0.0000000000
11
169.6912225705
21
135.6171912073
31
0.0000000000
11
169.4089706773
21
135.4095378631
31
0.0000000000
11
169.1648225609
21
135.2357633904
31
0.0000000000
11
168.9747208563
21
135.1072150953
31
0.0000000000
11
168.8510790179
21
135.0322870557
31
0.0000000000
11
168.8019707314
21
135.0158719967
31
0.0000000000
0
SPLINE
5
2C6
100
AcDbEntity
8
0
100
AcDbSpline
62
7
6
CONTINUOUS
70
0
71
3
72
12
73
8
74
6
42
0.0000001000
43
0.0000001000
44
0.0000000001
12
0.0000000000
22
1.4357131085
32
0.0000000000
13
-1.4357131085
23
-0.0000000000
33
0.0000000000
40
0.0000000000
40
0.0000000000
40
0.0000000000
40
0.0000000000
40
0.1822238146
40
0.3716041694
40
0.5720235264
40
0.7829048165
40
1.0000000000
40
1.0000000000
40
1.0000000000
40
1.0000000000
10
198.4931472081
20
156.1309047143
30
0.0000000000
10
198.4931472081
20
156.2181117541
30
0.0000000000
10
198.4582988629
20
156.3975770942
30
0.0000000000
10
198.3101287826
20
156.6340558638
30
0.0000000000
10
198.0838708454
20
156.8187922720
30
0.0000000000
10
197.8029103535
20
156.9359357425
30
0.0000000000
10
197.5970426750
20
156.9625813963
30
0.0000000000
10
197.4931472081
20
156.9625813963
30
0.0000000000
11
198.4931472081
21
156.1309047143
31
0.0000000000
11
198.4442037244
21
156.3879069429
31
0.0000000000
11
198.3021642025
21
156.6197520027
31
0.0000000000
11
198.0809324604
21
156.8037452839
31
0.0000000000
11
197.8021642025
21
156.9218762422
31
0.0000000000
11
197.4931472081
21
156.9625813963
31
0.0000000000
0
SPLINE
5
2C7
100
AcDbEntity
8
0
100
AcDbSpline
62
7
6
CONTINUOUS
70
0
71
3
72
13
73
9
74
7
42
0.0000001000
43
0.0000001000
44
0.0000000001
12
7.0347637950
22
-9.1917199634
32
0.0000000000
13
11.2529437167
23
-2.7105119894
33
0.0000000000
40
0.0000000000
40
0.0000000000
40
0.0000000000
40
0.0000000000
40
0.1666041182
40
0.3333601329
40
0.5001039028
40
0.6668450528
40
0.8335490452
40
1.0000000000
40
1.0000000000
40
1.0000000000
40
1.0000000000
10
169.9930551940
20
135.8454081117
30
0.0000000000
10
170.3837287335
20
135.3349486454
30
0.0000000000
10
171.2240957997
20
134.3569494559
30
0.0000000000
10
172.6424750012
20
133.0429453301
30
0.0000000000
10
174.2011728186
20
131.8976128188
30
0.0000000000
10
175.8795142153
20
130.9365029967
30
0.0000000000
10
177.6546785781
20
130.1722587263
30
0.0000000000
10
178.8884224846
20
129.8000904661
30
0.0000000000
10
179.5127768934
20
129.6497013632
30
0.0000000000
11
169.9930551940
21
135.8454081117
31
0.0000000000
11
171.2499635999
21
134.3828988327
31
0.0000000000
11
172.6658335118
21
133.0710876616
31
0.0000000000
11
174.2211504439
21
131.9282935925
31
0.0000000000
11
175.8959523002
21
130.9691738231
31
0.0000000000
11
177.6682685085
21
130.2062142641
31
0.0000000000
11
179.5127768934
21
129.6497013632
31
0.0000000000
0
SPLINE
5
2C8
100
AcDbEntity
8
0
100
AcDbSpline
62
7
6
CONTINUOUS
70
0
71
3
72
12
73
8
74
6
42
0.0000001000
43
0.0000001000
44
0.0000000001
12
3.2527347057
22
-3.1291075031
32
0.0000000000
13
4.5134917773
23
-0.0002016440
33
0.0000000000
40
0.0000000000
40
0.0000000000
40
0.0000000000
40
0.0000000000
40
0.1854823959
40
0.3826031186
40
0.5879747302
40
0.7940387899
40
1.0000000000
40
1.0000000000
40
1.0000000000
40
1.0000000000
10
179.5127768934
20
129.6497013632
30
0.0000000000
10
179.7138852355
20
129.4562365776
30
0.0000000000
10
180.1445583739
20
129.0730594129
30
0.0000000000
10
180.8632967051
20
128.5540609405
30
0.0000000000
10
181.6740215588
20
128.1207083835
30
0.0000000000
10
182.5614440150
20
127.8286541877
30
0.0000000000
10
183.1832782036
20
127.7595210964
30
0.0000000000
10
183.4931462796
20
127.7595072528
30
0.0000000000
11
179.5127768934
21
129.6497013632
31
0.0000000000
11
180.1401582388
21
129.0953987885
31
0.0000000000
11
180.8638122108
21
128.5778125669
31
0.0000000000
11
181.6838784682
21
128.1457080248
31
0.0000000000
11
182.5689967834
21
127.8600641999
31
0.0000000000
11
183.4931462796
21
127.7595072528
31
0.0000000000
0
SPLINE
5
2C9
100
AcDbEntity
8
0
100
AcDbSpline
62
7
6
CONTINUOUS
70
0
71
3
72
12
73
8
74
6
42
0.0000001000
43
0.0000001000
44
0.0000000001
12
-0.7785233088
22
1.0805578020
32
0.0000000000
13
0.0000243436
23
1.3318033553
33
0.0000000000
40
0.0000000000
40
0.0000000000
40
0.0000000000
40
0.0000000000
40
0.2528066341
40
0.5057606788
40
0.7540345935
40
0.8768693270
40
1.0000000000
40
1.0000000000
40
1.0000000000
40
1.0000000000
10
169.9930393726
20
135.8453967127
30
0.0000000000
10
169.9274340868
20
135.9364541064
30
0.0000000000
10
169.8008106071
20
136.1221380039
30
0.0000000000
10
169.6390295719
20
136.4159735190
30
0.0000000000
10
169.5425208912
20
136.6775558760
30
0.0000000000
10
169.5006101962
20
136.8933716091
30
0.0000000000
10
169.4931579888
20
137.0026852637
30
0.0000000000
10
169.4931589879
20
137.0573472115
30
0.0000000000
11
169.9930393726
21
135.8453967127
31
0.0000000000
11
169.8053725173
21
136.1249330091
31
0.0000000000
11
169.6456731730
21
136.4215601375
31
0.0000000000
11
169.5347236774
21
136.7330420409
31
0.0000000000
11
169.5039785471
21
136.8937186871
31
0.0000000000
11
169.4931589879
21
137.0573472115
31
0.0000000000
0
SPLINE
5
2CA
100
AcDbEntity
8
0
100
AcDbSpline
62
7
6
CONTINUOUS
70
0
71
3
72
12
73
8
74
6
42
0.0000001000
43
0.0000001000
44
0.0000000001
12
0.7785200425
22
1.0805542882
32
0.0000000000
13
-0.0000236799
23
1.3317985790
33
0.0000000000
40
0.0000000000
40
0.0000000000
40
0.0000000000
40
0.0000000000
40
0.2528049181
40
0.5057595380
40
0.7540340290
40
0.8768690483
40
1.0000000000
40
1.0000000000
40
1.0000000000
40
1.0000000000
10
196.9932579123
20
135.8453984212
30
0.0000000000
10
197.0588624775
20
135.9364549006
30
0.0000000000
10
197.1854851031
20
136.1221377893
30
0.0000000000
10
197.3472653375
20
136.4159720867
30
0.0000000000
10
197.4437738297
20
136.6775541264
30
0.0000000000
10
197.4856844859
20
136.8933695787
30
0.0000000000
10
197.4931367214
20
137.0026830879
30
0.0000000000
10
197.4931357495
20
137.0573449633
30
0.0000000000
11
196.9932579123
21
135.8453984212
31
0.0000000000
11
197.1809226988
21
136.1249319015
31
0.0000000000
11
197.3406217458
21
136.4215586878
31
0.0000000000
11
197.4515710427
21
136.7330402179
31
0.0000000000
11
197.4823161473
21
136.8937166593
31
0.0000000000
11
197.4931357495
21
137.0573449633
31
0.0000000000
0
SPLINE
5
2CB
100
AcDbEntity
8
0
100
AcDbSpline
62
7
6
CONTINUOUS
70
0
71
3
72
12
73
8
74
6
42
0.0000001000
43
0.0000001000
44
0.0000000001
12
-0.3334878330
22
-1.3805769369
32
0.0000000000
13
-1.3807520718
23
0.3327619714
33
0.0000000000
40
0.0000000000
40
0.0000000000
40
0.0000000000
40
0.0000000000
40
0.3125898919
40
0.5914645402
40
0.8111439394
40
0.9515676215
40
1.0000000000
40
1.0000000000
40
1.0000000000
40
1.0000000000
10
179.5127768924
20
129.6497009093
30
0.0000000000
10
179.4780285839
20
129.5058494442
30
0.0000000000
10
179.4133597468
20
129.2305888044
30
0.0000000000
10
179.3148487620
20
128.8700648386
30
0.0000000000
10
179.2557378445
20
128.5459372553
30
0.0000000000
10
179.1771030285
20
128.4176906642
30
0.0000000000
10
179.1838593441
20
128.2683814137
30
0.0000000000
10
179.1615683085
20
128.2737535649
30
0.0000000000
11
179.5127768924
21
129.6497009093
31
0.0000000000
11
179.4076727758
21
129.2183549629
31
0.0000000000
11
179.3121738746
21
128.8339589549
31
0.0000000000
11
179.2350084185
21
128.5316446258
31
0.0000000000
11
179.1832290608
21
128.3390418818
31
0.0000000000
11
179.1615683085
21
128.2737535649
31
0.0000000000
0
SPLINE
5
2CC
100
AcDbEntity
8
0
100
AcDbSpline
62
7
6
CONTINUOUS
70
0
71
3
72
20
73
16
74
14
42
0.0000001000
43
0.0000001000
44
0.0000000001
12
-0.0000014161
22
-1.0053551337
32
0.0000000000
13
1.0053547358
23
0.0000000034
33
0.0000000000
40
0.0000000000
40
0.0000000000
40
0.0000000000
40
0.0000000000
40
0.0072063187
40
0.0137664287
40
0.0225289207
40
0.0467855545
40
0.0800199719
40
0.1220632085
40
0.1724814670
40
0.2307680204
40
0.2964085604
40
0.4473268218
40
0.6193272186
40
0.8059502351
40
1.0000000000
40
1.0000000000
40
1.0000000000
40
1.0000000000
10
168.4931472081
20
137.1122501557
30
0.0000000000
10
168.4931472047
20
137.1098351858
30
0.0000000000
10
168.4979989119
20
137.1065850075
30
0.0000000000
10
168.5045735256
20
137.1038726488
30
0.0000000000
10
168.5174753205
20
137.0999060566
30
0.0000000000
10
168.5391245206
20
137.0955595323
30
0.0000000000
10
168.5721871606
20
137.0906256141
30
0.0000000000
10
168.6140275511
20
137.0859153960
30
0.0000000000
10
168.6643532810
20
137.0813812495
30
0.0000000000
10
168.7226235657
20
137.0771218646
30
0.0000000000
10
168.8145671848
20
137.0716080326
30
0.0000000000
10
168.9446648537
20
137.0659480136
30
0.0000000000
10
169.1153556221
20
137.0610403376
30
0.0000000000
10
169.3005461961
20
137.0580317312
30
0.0000000000
10
169.4281175914
20
137.0573472067
30
0.0000000000
10
169.4931472081
20
137.0573472069
30
0.0000000000
11
168.4931472081
21
137.1122501557
31
0.0000000000
11
168.4979980529
21
137.1068688957
31
0.0000000000
11
168.5040267011
21
137.1041944685
31
0.0000000000
11
168.5124264707
21
137.1015393557
31
0.0000000000
11
168.5362462867
21
137.0963126160
31
0.0000000000
11
168.5692713259
21
137.0912397620
31
0.0000000000
11
168.6112583034
21
137.0863706173
31
0.0000000000
11
168.6617354932
21
137.0817499592
31
0.0000000000
11
168.7201740591
21
137.0774213033
31
0.0000000000
11
168.7860451648
21
137.0734281655
31
0.0000000000
11
168.9376179754
21
137.0666031987
31
0.0000000000
11
169.1104648552
21
137.0615266440
31
0.0000000000
11
169.2980612296
21
137.0584056946
31
0.0000000000
11
169.4931472081
21
137.0573472069
31
0.0000000000
0
SPLINE
5
2CD
100
AcDbEntity
8
0
100
AcDbSpline
62
7
6
CONTINUOUS
70
0
71
3
72
12
73
8
74
6
42
0.0000001000
43
0.0000001000
44
0.0000000001
12
0.0000000000
22
-1.0041333056
32
0.0000000000
13
1.0041333056
23
-0.0000000039
33
0.0000000000
40
0.0000000000
40
0.0000000000
40
0.0000000000
40
0.0000000000
40
0.0515872928
40
0.1938607343
40
0.4145135349
40
0.6922430520
40
1.0000000000
40
1.0000000000
40
1.0000000000
40
1.0000000000
10
168.4931472081
20
150.1260283747
30
0.0000000000
10
168.4931472081
20
150.1087615351
30
0.0000000000
10
168.5915230061
20
150.1112296387
30
0.0000000000
10
168.6988063993
20
150.0859300633
30
0.0000000000
10
168.9290529262
20
150.0817862648
30
0.0000000000
10
169.1925440340
20
150.0720792791
30
0.0000000000
10
169.3901375409
20
150.0711254311
30
0.0000000000
10
169.4931472081
20
150.0711254307
30
0.0000000000
11
168.4931472081
21
150.1260283747
31
0.0000000000
11
168.5420905564
21
150.1090624557
31
0.0000000000
11
168.6841298453
21
150.0937572631
31
0.0000000000
11
168.9053614886
21
150.0816109800
31
0.0000000000
11
169.1841298898
21
150.0738125788
31
0.0000000000
11
169.4931472081
21
150.0711254307
31
0.0000000000
0
SPLINE
5
2CE
100
AcDbEntity
8
0
100
AcDbSpline
62
7
6
CONTINUOUS
70
0
71
3
72
12
73
8
74
6
42
0.0000001000
43
0.0000001000
44
0.0000000001
12
0.0000000000
22
1.4357131085
32
0.0000000000
13
1.4357131085
23
-0.0000000000
33
0.0000000000
40
0.0000000000
40
0.0000000000
40
0.0000000000
40
0.0000000000
40
0.1822238146
40
0.3716041694
40
0.5720235264
40
0.7829048165
40
1.0000000000
40
1.0000000000
40
1.0000000000
40
1.0000000000
10
168.4931472081
20
153.6723468784
30
0.0000000000
10
168.4931472081
20
153.7595539181
30
0.0000000000
10
168.5279955534
20
153.9390192582
30
0.0000000000
10
168.6761656336
20
154.1754980279
30
0.0000000000
10
168.9024235709
20
154.3602344360
30
0.0000000000
10
169.1833840628
20
154.4773779066
30
0.0000000000
10
169.3892517412
20
154.5040235604
30
0.0000000000
10
169.4931472081
20
154.5040235604
30
0.0000000000
11
168.4931472081
21
153.6723468784
31
0.0000000000
11
168.5420906918
21
153.9293491069
31
0.0000000000
11
168.6841302137
21
154.1611941667
31
0.0000000000
11
168.9053619558
21
154.3451874479
31
0.0000000000
11
169.1841302137
21
154.4633184062
31
0.0000000000
11
169.4931472081
21
154.5040235604
31
0.0000000000
0
SPLINE
5
2CF
100
AcDbEntity
8
0
100
AcDbSpline
62
7
6
CONTINUOUS
70
0
71
3
72
12
73
8
74
6
42
0.0000001000
43
0.0000001000
44
0.0000000001
12
0.0000000000
22
1.4357131045
32
0.0000000000
13
1.4357131045
23
0.0000000000
33
0.0000000000
40
0.0000000000
40
0.0000000000
40
0.0000000000
40
0.0000000000
40
0.1822243081
40
0.3716049080
40
0.5720242514
40
0.7829052723
40
1.0000000000
40
1.0000000000
40
1.0000000000
40
1.0000000000
10
168.4931472081
20
156.1309047143
30
0.0000000000
10
168.4931472081
20
156.2181119900
30
0.0000000000
10
168.5279957241
20
156.3975776944
30
0.0000000000
10
168.6761662718
20
156.6340565954
30
0.0000000000
10
168.9024243962
20
156.8187927320
30
0.0000000000
10
169.1833846356
20
156.9359358442
30
0.0000000000
10
169.3892519596
20
156.9625813964
30
0.0000000000
10
169.4931472081
20
156.9625813964
30
0.0000000000
11
168.4931472081
21
156.1309047143
31
0.0000000000
11
168.5420909538
21
156.3879076134
31
0.0000000000
11
168.6841309210
21
156.6197528123
31
0.0000000000
11
168.9053628571
21
156.8037458285
31
0.0000000000
11
169.1841308519
21
156.9218764147
31
0.0000000000
11
169.4931472081
21
156.9625813964
31
0.0000000000
0
SPLINE
5
2D0
100
AcDbEntity
8
0
100
AcDbSpline
62
7
6
CONTINUOUS
70
0
71
3
72
20
73
16
74
14
42
0.0000001000
43
0.0000001000
44
0.0000000001
12
1.0053547358
22
-0.0000000034
32
0.0000000000
13
-0.0000014152
23
1.0053551334
33
0.0000000000
40
0.0000000000
40
0.0000000000
40
0.0000000000
40
0.0000000000
40
0.1940497649
40
0.3806727814
40
0.5526731782
40
0.7035914396
40
0.7692319796
40
0.8275185330
40
0.8779367915
40
0.9199800281
40
0.9532144455
40
0.9774710793
40
0.9862335713
40
0.9927936813
40
1.0000000000
40
1.0000000000
40
1.0000000000
40
1.0000000000
10
197.4931472081
20
137.0573449588
30
0.0000000000
10
197.5581768248
20
137.0573449585
30
0.0000000000
10
197.6857482202
20
137.0580294830
30
0.0000000000
10
197.8709387942
20
137.0610380894
30
0.0000000000
10
198.0416295626
20
137.0659457654
30
0.0000000000
10
198.1717272315
20
137.0716057844
30
0.0000000000
10
198.2636708505
20
137.0771196164
30
0.0000000000
10
198.3219411353
20
137.0813790013
30
0.0000000000
10
198.3722668651
20
137.0859131478
30
0.0000000000
10
198.4141072556
20
137.0906233659
30
0.0000000000
10
198.4471698957
20
137.0955572841
30
0.0000000000
10
198.4688190957
20
137.0999038084
30
0.0000000000
10
198.4817208906
20
137.1038704006
30
0.0000000000
10
198.4882955043
20
137.1065827593
30
0.0000000000
10
198.4931472115
20
137.1098329376
30
0.0000000000
10
198.4931472081
20
137.1122479074
30
0.0000000000
11
197.4931472081
21
137.0573449588
31
0.0000000000
11
197.6882331867
21
137.0584034464
31
0.0000000000
11
197.8758295611
21
137.0615243958
31
0.0000000000
11
198.0486764409
21
137.0666009505
31
0.0000000000
11
198.2002492514
21
137.0734259174
31
0.0000000000
11
198.2661203572
21
137.0774190552
31
0.0000000000
11
198.3245589230
21
137.0817477110
31
0.0000000000
11
198.3750361128
21
137.0863683691
31
0.0000000000
11
198.4170230903
21
137.0912375138
31
0.0000000000
11
198.4500481296
21
137.0963103678
31
0.0000000000
11
198.4738679455
21
137.1015371075
31
0.0000000000
11
198.4822677151
21
137.1041922203
31
0.0000000000
11
198.4882963633
21
137.1068666475
31
0.0000000000
11
198.4931472081
21
137.1122479074
31
0.0000000000
0
SPLINE
5
2D1
100
AcDbEntity
8
0
100
AcDbSpline
62
7
6
CONTINUOUS
70
0
71
3
72
12
73
8
74
6
42
0.0000001000
43
0.0000001000
44
0.0000000001
12
0.0000000000
22
-0.9751037049
32
0.0000000000
13
-0.5926362451
23
-0.7743445721
33
0.0000000000
40
0.0000000000
40
0.0000000000
40
0.0000000000
40
0.0000000000
40
0.1811999776
40
0.3904984708
40
0.6095910944
40
0.8191090264
40
1.0000000000
40
1.0000000000
40
1.0000000000
40
1.0000000000
10
198.4931472081
20
135.9275180911
30
0.0000000000
10
198.4931472081
20
135.8686218346
30
0.0000000000
10
198.4802791400
20
135.7417290889
30
0.0000000000
10
198.4365181185
20
135.5481752006
30
0.0000000000
10
198.3697623245
20
135.3514264188
30
0.0000000000
10
198.2868901588
20
135.1711619768
30
0.0000000000
10
198.2200578673
20
135.0625626446
30
0.0000000000
10
198.1843236848
20
135.0158719967
30
0.0000000000
11
198.4931472081
21
135.9275180911
31
0.0000000000
11
198.4779398256
21
135.7514849784
31
0.0000000000
11
198.4338610266
21
135.5522141487
31
0.0000000000
11
198.3652527980
21
135.3498923299
31
0.0000000000
11
198.2790378770
21
135.1646730630
31
0.0000000000
11
198.1843236848
21
135.0158719967
31
0.0000000000
0
SPLINE
5
2D2
100
AcDbEntity
8
0
100
AcDbSpline
62
7
6
CONTINUOUS
70
0
71
3
72
14
73
10
74
8
42
0.0000001000
43
0.0000001000
44
0.0000000001
12
1.5108057130
22
-0.8542661936
32
0.0000000000
13
0.3509741009
23
1.7165544575
33
0.0000000000
40
0.0000000000
40
0.0000000000
40
0.0000000000
40
0.0000000000
40
0.2021108895
40
0.3922564470
40
0.5619815611
40
0.7066685590
40
0.8288504822
40
0.9417173797
40
1.0000000000
40
1.0000000000
40
1.0000000000
40
1.0000000000
10
196.9931470910
20
135.8451637517
30
0.0000000000
10
197.0949305198
20
135.7876115849
30
0.0000000000
10
197.2775156140
20
135.6503498002
30
0.0000000000
10
197.5813051673
20
135.5268625793
30
0.0000000000
10
197.8678386067
20
135.4629397143
30
0.0000000000
10
198.1236654364
20
135.4697974640
30
0.0000000000
10
198.3346511233
20
135.5537139510
30
0.0000000000
10
198.4455622794
20
135.6921086432
30
0.0000000000
10
198.4758704139
20
135.7879313011
30
0.0000000000
10
198.4826889774
20
135.8212797317
30
0.0000000000
11
196.9931470910
21
135.8451637517
31
0.0000000000
11
197.2909053818
21
135.6597208634
31
0.0000000000
11
197.5950887739
21
135.5317234370
31
0.0000000000
11
197.8837131014
21
135.4728142235
31
0.0000000000
11
198.1344718415
21
135.4862539219
31
0.0000000000
11
198.3285530825
21
135.5717023139
31
0.0000000000
11
198.4512386031
21
135.7244171482
31
0.0000000000
11
198.4826889774
21
135.8212797317
31
0.0000000000
0
SPLINE
5
2D3
100
AcDbEntity
8
0
100
AcDbSpline
62
7
6
CONTINUOUS
70
0
71
3
72
8
73
4
74
2
42
0.0000001000
43
0.0000001000
44
0.0000000001
12
0.0214807717
22
0.1050587901
32
0.0000000000
13
0.0000000000
23
0.1062243919
33
0.0000000000
40
0.0000000000
40
0.0000000000
40
0.0000000000
40
0.0000000000
40
1.0000000000
40
1.0000000000
40
1.0000000000
40
1.0000000000
10
198.4826889774
20
135.8212797317
30
0.0000000000
10
198.4898492346
20
135.8562993284
30
0.0000000000
10
198.4931472081
20
135.8921099604
30
0.0000000000
10
198.4931472081
20
135.9275180911
30
0.0000000000
11
198.4826889774
21
135.8212797317
31
0.0000000000
11
198.4931472081
21
135.9275180911
31
0.0000000000
0
SPLINE
5
2D4
100
AcDbEntity
8
0
100
AcDbSpline
62
7
6
CONTINUOUS
70
0
71
3
72
12
73
8
74
6
42
0.0000001000
43
0.0000001000
44
0.0000000001
12
4.5134129020
22
0.0001959706
32
0.0000000000
13
3.2527315327
23
3.1289970308
33
0.0000000000
40
0.0000000000
40
0.0000000000
40
0.0000000000
40
0.0000000000
40
0.2059112950
40
0.4119325061
40
0.6173486514
40
0.8145888820
40
1.0000000000
40
1.0000000000
40
1.0000000000
40
1.0000000000
10
183.4932278992
20
127.7595072527
30
0.0000000000
10
183.8030154644
20
127.7595207036
30
0.0000000000
10
184.4246964891
20
127.8286392701
30
0.0000000000
10
185.3120492534
20
128.1206099114
30
0.0000000000
10
186.1229423514
20
128.5540074309
30
0.0000000000
10
186.8417778949
20
129.0730885728
30
0.0000000000
10
187.2724866595
20
129.4563177506
30
0.0000000000
10
187.4735175228
20
129.6497013632
30
0.0000000000
11
183.4932278992
21
127.7595072527
31
0.0000000000
11
184.4171382074
21
127.8600295523
31
0.0000000000
11
185.3020725130
21
128.1455609408
31
0.0000000000
11
186.1223227020
21
128.5777128382
31
0.0000000000
11
186.8463980807
21
129.0956103310
31
0.0000000000
11
187.4735175228
21
129.6497013632
31
0.0000000000
0
SPLINE
5
2D5
100
AcDbEntity
8
0
100
AcDbSpline
62
7
6
CONTINUOUS
70
0
71
3
72
22
73
18
74
16
42
0.0000001000
43
0.0000001000
44
0.0000000001
12
-9.0382837830
22
0.0000000000
32
0.0000000000
13
9.0382837830
23
0.0000000000
33
0.0000000000
40
0.0000000000
40
0.0000000000
40
0.0000000000
40
0.0000000000
40
0.0121750694
40
0.0448000923
40
0.0971100636
40
0.1669121649
40
0.2511825320
40
0.3462559747
40
0.4480005643
40
0.5520006401
40
0.6537450781
40
0.7488182625
40
0.8330883363
40
0.9028901847
40
0.9551999902
40
0.9878249411
40
1.0000000000
40
1.0000000000
40
1.0000000000
40
1.0000000000
10
88.9166616360
20
31.2595072510
30
0.0000000000
10
88.8799810586
20
31.2595072510
30
0.0000000000
10
88.8572820120
20
31.4521833212
30
0.0000000000
10
88.8065010359
20
31.6869669100
30
0.0000000000
10
88.7734631073
20
32.1814001833
30
0.0000000000
10
88.7364704873
20
32.7899392312
30
0.0000000000
10
88.7097194170
20
33.5444857741
30
0.0000000000
10
88.6901909984
20
34.3897121834
30
0.0000000000
10
88.6804064729
20
35.2964261561
30
0.0000000000
10
88.6804065307
20
36.2225987779
30
0.0000000000
10
88.6901911561
20
37.1293115136
30
0.0000000000
10
88.7097196314
20
37.9745358073
30
0.0000000000
10
88.7364707122
20
38.7290799051
30
0.0000000000
10
88.7734632784
20
39.3376168635
30
0.0000000000
10
88.8065011769
20
39.8320485380
30
0.0000000000
10
88.8572820467
20
40.0668315443
30
0.0000000000
10
88.8799810903
20
40.2595072510
30
0.0000000000
10
88.9166616360
20
40.2595072510
30
0.0000000000
11
88.9166616360
21
31.2595072510
31
0.0000000000
11
88.8675897141
21
31.3580015619
31
0.0000000000
11
88.8206722264
21
31.6491193259
31
0.0000000000
11
88.7779657213
21
32.1199789384
31
0.0000000000
11
88.7413366770
21
32.7498059147
31
0.0000000000
11
88.7123799586
21
33.5109147702
31
0.0000000000
11
88.6923513216
21
34.3699820794
31
0.0000000000
11
88.6821163974
21
35.2895215963
31
0.0000000000
11
88.6821164573
21
36.2295037945
31
0.0000000000
11
88.6923514835
21
37.1490419390
31
0.0000000000
11
88.7123801757
21
38.0081069122
31
0.0000000000
11
88.7413368905
21
38.7692131157
31
0.0000000000
11
88.7779658828
21
39.3990378044
31
0.0000000000
11
88.8206723139
21
39.8698959198
31
0.0000000000
11
88.8675897374
21
40.1610130346
31
0.0000000000
11
88.9166616360
21
40.2595072510
31
0.0000000000
0
SPLINE
5
2D6
100
AcDbEntity
8
0
100
AcDbSpline
62
7
6
CONTINUOUS
70
0
71
3
72
22
73
18
74
16
42
0.0000001000
43
0.0000001000
44
0.0000000001
12
8.0340300294
22
0.0000000000
32
0.0000000000
13
-8.0340300294
23
0.0000000000
33
0.0000000000
40
0.0000000000
40
0.0000000000
40
0.0000000000
40
0.0000000000
40
0.0121750694
40
0.0448000923
40
0.0971100636
40
0.1669121649
40
0.2511825320
40
0.3462559747
40
0.4480005643
40
0.5520006401
40
0.6537450781
40
0.7488182625
40
0.8330883363
40
0.9028901847
40
0.9551999902
40
0.9878249411
40
1.0000000000
40
1.0000000000
40
1.0000000000
40
1.0000000000
10
69.0696327802
20
31.7595072510
30
0.0000000000
10
69.1022377379
20
31.7595072510
30
0.0000000000
10
69.1224146682
20
31.9307748690
30
0.0000000000
10
69.1675533136
20
32.1394713924
30
0.0000000000
10
69.1969203613
20
32.5789676353
30
0.0000000000
10
69.2298026902
20
33.1198912334
30
0.0000000000
10
69.2535814194
20
33.7905992715
30
0.0000000000
10
69.2709400137
20
34.5419116353
30
0.0000000000
10
69.2796373696
20
35.3478796111
30
0.0000000000
10
69.2796373183
20
36.1711441638
30
0.0000000000
10
69.2709398734
20
36.9771110400
30
0.0000000000
10
69.2535812288
20
37.7284215233
30
0.0000000000
10
69.2298024903
20
38.3991273880
30
0.0000000000
10
69.1969202092
20
38.9400491288
30
0.0000000000
10
69.1675531884
20
39.3795439505
30
0.0000000000
10
69.1224146374
20
39.5882399562
30
0.0000000000
10
69.1022377097
20
39.7595072510
30
0.0000000000
10
69.0696327802
20
39.7595072510
30
0.0000000000
11
69.0696327802
21
31.7595072510
31
0.0000000000
11
69.1132522664
21
31.8470577496
31
0.0000000000
11
69.1549566999
21
32.1058290953
31
0.0000000000
11
69.1929180377
21
32.5243709731
31
0.0000000000
11
69.2254771882
21
33.0842171743
31
0.0000000000
11
69.2512164935
21
33.7607583792
31
0.0000000000
11
69.2690197264
21
34.5243737652
31
0.0000000000
11
69.2781174368
21
35.3417422246
31
0.0000000000
11
69.2781173835
21
36.1772819564
31
0.0000000000
11
69.2690195825
21
36.9946491959
31
0.0000000000
11
69.2512163005
21
37.7582625054
31
0.0000000000
11
69.2254769985
21
38.4348013529
31
0.0000000000
11
69.1929178942
21
38.9946455207
31
0.0000000000
11
69.1549566221
21
39.4131860677
31
0.0000000000
11
69.1132522457
21
39.6719568364
31
0.0000000000
11
69.0696327802
21
39.7595072510
31
0.0000000000
0
SPLINE
5
2D7
100
AcDbEntity
8
0
100
AcDbSpline
62
7
6
CONTINUOUS
70
0
71
3
72
10
73
6
74
4
42
0.0000001000
43
0.0000001000
44
0.0000000001
12
1.7502981491
22
-0.0405715153
32
0.0000000000
13
1.7502208384
23
-0.0437798499
33
0.0000000000
40
0.0000000000
40
0.0000000000
40
0.0000000000
40
0.0000000000
40
0.3536009234
40
0.6886795123
40
1.0000000000
40
1.0000000000
40
1.0000000000
40
1.0000000000
10
80.2431472081
20
20.8195907760
30
0.0000000000
10
80.4494495554
20
20.8148087342
30
0.0000000000
10
80.8512033680
20
20.8035565253
30
0.0000000000
10
81.4344700045
20
20.7842109842
30
0.0000000000
10
81.8115206731
20
20.7723860885
30
0.0000000000
10
81.9931472081
20
20.7678429004
30
0.0000000000
11
80.2431472081
21
20.8195907760
31
0.0000000000
11
80.8619902494
21
20.8027080048
31
0.0000000000
11
81.4483347431
21
20.7839341090
31
0.0000000000
11
81.9931472081
21
20.7678429004
31
0.0000000000
0
SPLINE
5
2D8
100
AcDbEntity
8
0
100
AcDbSpline
62
7
6
CONTINUOUS
70
0
71
3
72
10
73
6
74
4
42
0.0000001000
43
0.0000001000
44
0.0000000001
12
-1.7502208384
22
-0.0437798499
32
0.0000000000
13
-1.7502981491
23
-0.0405715153
33
0.0000000000
40
0.0000000000
40
0.0000000000
40
0.0000000000
40
0.0000000000
40
0.3113204877
40
0.6463990766
40
1.0000000000
40
1.0000000000
40
1.0000000000
40
1.0000000000
10
81.9931472081
20
50.7511716015
30
0.0000000000
10
81.8115206731
20
50.7466284135
30
0.0000000000
10
81.4344700045
20
50.7348035177
30
0.0000000000
10
80.8512033680
20
50.7154579767
30
0.0000000000
10
80.4494495554
20
50.7042057677
30
0.0000000000
10
80.2431472081
20
50.6994237260
30
0.0000000000
11
81.9931472081
21
50.7511716015
31
0.0000000000
11
81.4483347431
21
50.7350803930
31
0.0000000000
11
80.8619902494
21
50.7163064972
31
0.0000000000
11
80.2431472081
21
50.6994237260
31
0.0000000000
0
SPLINE
5
2D9
100
AcDbEntity
8
0
100
AcDbSpline
62
7
6
CONTINUOUS
70
0
71
3
72
10
73
6
74
4
42
0.0000001000
43
0.0000001000
44
0.0000000001
12
1.7502208384
22
-0.0437798499
32
0.0000000000
13
1.7502981491
23
-0.0405715153
33
0.0000000000
40
0.0000000000
40
0.0000000000
40
0.0000000000
40
0.0000000000
40
0.3113062357
40
0.6463839378
40
1.0000000000
40
1.0000000000
40
1.0000000000
40
1.0000000000
10
75.9931472081
20
50.7511716015
30
0.0000000000
10
76.1747654284
20
50.7466286215
30
0.0000000000
10
76.5518072693
20
50.7348041009
30
0.0000000000
10
77.1350739038
20
50.7154585014
30
0.0000000000
10
77.5368360284
20
50.7042059725
30
0.0000000000
10
77.7431472081
20
50.6994237260
30
0.0000000000
11
75.9931472081
21
50.7511716015
31
0.0000000000
11
76.5379347339
21
50.7350811962
31
0.0000000000
11
77.1242776747
21
50.7163073091
31
0.0000000000
11
77.7431472081
21
50.6994237260
31
0.0000000000
0
SPLINE
5
2DA
100
AcDbEntity
8
0
100
AcDbSpline
62
7
6
CONTINUOUS
70
0
71
3
72
10
73
6
74
4
42
0.0000001000
43
0.0000001000
44
0.0000000001
12
-1.7502981491
22
-0.0405715153
32
0.0000000000
13
-1.7502208384
23
-0.0437798499
33
0.0000000000
40
0.0000000000
40
0.0000000000
40
0.0000000000
40
0.0000000000
40
0.3536160622
40
0.6886937643
40
1.0000000000
40
1.0000000000
40
1.0000000000
40
1.0000000000
10
77.7431472081
20
20.8195907760
30
0.0000000000
10
77.5368360284
20
20.8148085295
30
0.0000000000
10
77.1350739038
20
20.8035560006
30
0.0000000000
10
76.5518072693
20
20.7842104011
30
0.0000000000
10
76.1747654284
20
20.7723858805
30
0.0000000000
10
75.9931472081
20
20.7678429004
30
0.0000000000
11
77.7431472081
21
20.8195907760
31
0.0000000000
11
77.1242776747
21
20.8027071928
31
0.0000000000
11
76.5379347339
21
20.7839333057
31
0.0000000000
11
75.9931472081
21
20.7678429004
31
0.0000000000
0
SPLINE
5
2DB
100
AcDbEntity
8
0
100
AcDbSpline
62
7
6
CONTINUOUS
70
0
71
3
72
27
73
23
74
21
42
0.0000001000
43
0.0000001000
44
0.0000000001
12
30.1364259744
22
0.0000000000
32
0.0000000000
13
-30.1364259744
23
-0.0000000000
33
0.0000000000
40
0.0000000000
40
0.0000000000
40
0.0000000000
40
0.0000000000
40
0.0073737248
40
0.0260672522
40
0.0562386923
40
0.0972438760
40
0.1481029298
40
0.2075752206
40
0.2742034259
40
0.3463545599
40
0.4222620996
40
0.5000695990
40
0.5778572286
40
0.6537456022
40
0.7258785510
40
0.7924896478
40
0.8519459536
40
0.9027902944
40
0.9437824043
40
0.9739430771
40
0.9926291478
40
1.0000000000
40
1.0000000000
40
1.0000000000
40
1.0000000000
10
68.6765744356
20
20.7595072510
30
0.0000000000
10
68.7506470060
20
20.7595072510
30
0.0000000000
10
68.8438694947
20
21.1043749941
30
0.0000000000
10
68.9445570724
20
21.5762554780
30
0.0000000000
10
69.0513774734
20
22.5187183744
30
0.0000000000
10
69.1509341136
20
23.7213492986
30
0.0000000000
10
69.2416319870
20
25.2461518015
30
0.0000000000
10
69.3193517701
20
27.0197121616
30
0.0000000000
10
69.3821884291
20
29.0110694883
30
0.0000000000
10
69.4282762250
20
31.1670060926
30
0.0000000000
10
69.4564217468
20
33.4358594500
30
0.0000000000
10
69.4658723728
20
35.7614067306
30
0.0000000000
10
69.4563908303
20
38.0867613416
30
0.0000000000
10
69.4282241046
20
40.3550395372
30
0.0000000000
10
69.3821220665
20
42.5104287272
30
0.0000000000
10
69.3192770041
20
44.5012700758
30
0.0000000000
10
69.2415551035
20
46.2743507207
30
0.0000000000
10
69.1508585892
20
47.7987094479
30
0.0000000000
10
69.0513143151
20
49.0009625857
30
0.0000000000
10
68.9444979775
20
49.9430844188
30
0.0000000000
10
68.8438441480
20
50.4148043675
30
0.0000000000
10
68.7506181499
20
50.7595072510
30
0.0000000000
10
68.6765744356
20
50.7595072510
30
0.0000000000
11
68.6765744356
21
20.7595072510
31
0.0000000000
11
68.7996622614
21
20.9445210297
31
0.0000000000
11
68.9197041462
21
21.4949390962
31
0.0000000000
11
69.0337323465
21
22.3970201189
31
0.0000000000
11
69.1389328907
21
23.6282837473
31
0.0000000000
11
69.2327161250
21
25.1581219719
31
0.0000000000
11
69.3127802237
21
26.9486150714
31
0.0000000000
11
69.3771661629
21
28.9555184906
31
0.0000000000
11
69.4243031795
21
31.1293848134
31
0.0000000000
11
69.4530442062
21
33.4167862068
31
0.0000000000
11
69.4626911172
21
35.7616063092
31
0.0000000000
11
69.4530143570
21
38.1058274765
31
0.0000000000
11
69.4242517768
21
40.3926509553
31
0.0000000000
11
69.3771001884
21
42.5659687958
31
0.0000000000
11
69.3127057844
21
44.5723560888
31
0.0000000000
11
69.2326389241
21
46.3623668553
31
0.0000000000
11
69.1388586361
21
47.8917610296
31
0.0000000000
11
69.0336670251
21
49.1226299875
31
0.0000000000
11
68.9196541107
21
50.0243858736
31
0.0000000000
11
68.7996340826
21
50.5745787027
31
0.0000000000
11
68.6765744356
21
50.7595072510
31
0.0000000000
0
SPLINE
5
2DC
100
AcDbEntity
8
0
100
AcDbSpline
62
7
6
CONTINUOUS
70
0
71
3
72
22
73
18
74
16
42
0.0000001000
43
0.0000001000
44
0.0000000001
12
9.0382837830
22
0.0000000000
32
0.0000000000
13
-9.0382837830
23
0.0000000000
33
0.0000000000
40
0.0000000000
40
0.0000000000
40
0.0000000000
40
0.0000000000
40
0.0121750694
40
0.0448000923
40
0.0971100636
40
0.1669121649
40
0.2511825320
40
0.3462559747
40
0.4480005643
40
0.5520006401
40
0.6537450781
40
0.7488182625
40
0.8330883363
40
0.9028901847
40
0.9551999902
40
0.9878249411
40
1.0000000000
40
1.0000000000
40
1.0000000000
40
1.0000000000
10
88.9166616360
20
40.2595072510
30
0.0000000000
10
88.9533422134
20
40.2595072510
30
0.0000000000
10
88.9760412600
20
40.0668311807
30
0.0000000000
10
89.0268222361
20
39.8320475919
30
0.0000000000
10
89.0598601648
20
39.3376143187
30
0.0000000000
10
89.0968527848
20
38.7290752707
30
0.0000000000
10
89.1236038551
20
37.9745287279
30
0.0000000000
10
89.1431322736
20
37.1293023186
30
0.0000000000
10
89.1529167991
20
36.2225883458
30
0.0000000000
10
89.1529167413
20
35.2964157240
30
0.0000000000
10
89.1431321159
20
34.3897029883
30
0.0000000000
10
89.1236036406
20
33.5444786946
30
0.0000000000
10
89.0968525598
20
32.7899345968
30
0.0000000000
10
89.0598599936
20
32.1813976385
30
0.0000000000
10
89.0268220951
20
31.6869659640
30
0.0000000000
10
88.9760412253
20
31.4521829576
30
0.0000000000
10
88.9533421817
20
31.2595072510
30
0.0000000000
10
88.9166616360
20
31.2595072510
30
0.0000000000
11
88.9166616360
21
40.2595072510
31
0.0000000000
11
88.9657335579
21
40.1610129400
31
0.0000000000
11
89.0126510456
21
39.8698951761
31
0.0000000000
11
89.0553575507
21
39.3990355636
31
0.0000000000
11
89.0919865950
21
38.7692085872
31
0.0000000000
11
89.1209433134
21
38.0080997317
31
0.0000000000
11
89.1409719504
21
37.1490324225
31
0.0000000000
11
89.1512068746
21
36.2294929056
31
0.0000000000
11
89.1512068147
21
35.2895107074
31
0.0000000000
11
89.1409717885
21
34.3699725629
31
0.0000000000
11
89.1209430964
21
33.5109075898
31
0.0000000000
11
89.0919863815
21
32.7498013863
31
0.0000000000
11
89.0553573892
21
32.1199766975
31
0.0000000000
11
89.0126509582
21
31.6491185822
31
0.0000000000
11
88.9657335346
21
31.3580014674
31
0.0000000000
11
88.9166616360
21
31.2595072510
31
0.0000000000
0
SPLINE
5
2DD
100
AcDbEntity
8
0
100
AcDbSpline
62
7
6
CONTINUOUS
70
0
71
3
72
27
73
23
74
21
42
0.0000001000
43
0.0000001000
44
0.0000000001
12
-30.1364259744
22
0.0000000000
32
0.0000000000
13
30.1364259744
23
0.0000000000
33
0.0000000000
40
0.0000000000
40
0.0000000000
40
0.0000000000
40
0.0000000000
40
0.0073737248
40
0.0260672522
40
0.0562386923
40
0.0972438760
40
0.1481029298
40
0.2075752206
40
0.2742034259
40
0.3463545599
40
0.4222620996
40
0.5000695990
40
0.5778572286
40
0.6537456022
40
0.7258785510
40
0.7924896478
40
0.8519459536
40
0.9027902944
40
0.9437824043
40
0.9739430771
40
0.9926291478
40
1.0000000000
40
1.0000000000
40
1.0000000000
40
1.0000000000
10
89.3097199806
20
20.7595072510
30
0.0000000000
10
89.2356474102
20
20.7595072510
30
0.0000000000
10
89.1424249215
20
21.1043749941
30
0.0000000000
10
89.0417373439
20
21.5762554780
30
0.0000000000
10
88.9349169428
20
22.5187183744
30
0.0000000000
10
88.8353603027
20
23.7213492986
30
0.0000000000
10
88.7446624292
20
25.2461518015
30
0.0000000000
10
88.6669426461
20
27.0197121616
30
0.0000000000
10
88.6041059871
20
29.0110694883
30
0.0000000000
10
88.5580181912
20
31.1670060926
30
0.0000000000
10
88.5298726694
20
33.4358594500
30
0.0000000000
10
88.5204220435
20
35.7614067306
30
0.0000000000
10
88.5299035859
20
38.0867613416
30
0.0000000000
10
88.5580703117
20
40.3550395372
30
0.0000000000
10
88.6041723498
20
42.5104287272
30
0.0000000000
10
88.6670174121
20
44.5012700758
30
0.0000000000
10
88.7447393128
20
46.2743507207
30
0.0000000000
10
88.8354358270
20
47.7987094479
30
0.0000000000
10
88.9349801011
20
49.0009625857
30
0.0000000000
10
89.0417964387
20
49.9430844188
30
0.0000000000
10
89.1424502682
20
50.4148043675
30
0.0000000000
10
89.2356762663
20
50.7595072510
30
0.0000000000
10
89.3097199806
20
50.7595072510
30
0.0000000000
11
89.3097199806
21
20.7595072510
31
0.0000000000
11
89.1866321548
21
20.9445210297
31
0.0000000000
11
89.0665902701
21
21.4949390962
31
0.0000000000
11
88.9525620697
21
22.3970201189
31
0.0000000000
11
88.8473615255
21
23.6282837473
31
0.0000000000
11
88.7535782913
21
25.1581219719
31
0.0000000000
11
88.6735141926
21
26.9486150714
31
0.0000000000
11
88.6091282534
21
28.9555184906
31
0.0000000000
11
88.5619912368
21
31.1293848134
31
0.0000000000
11
88.5332502100
21
33.4167862068
31
0.0000000000
11
88.5236032991
21
35.7616063092
31
0.0000000000
11
88.5332800592
21
38.1058274765
31
0.0000000000
11
88.5620426394
21
40.3926509553
31
0.0000000000
11
88.6091942278
21
42.5659687958
31
0.0000000000
11
88.6735886319
21
44.5723560888
31
0.0000000000
11
88.7536554922
21
46.3623668553
31
0.0000000000
11
88.8474357802
21
47.8917610296
31
0.0000000000
11
88.9526273911
21
49.1226299875
31
0.0000000000
11
89.0666403056
21
50.0243858736
31
0.0000000000
11
89.1866603337
21
50.5745787027
31
0.0000000000
11
89.3097199806
21
50.7595072510
31
0.0000000000
0
SPLINE
5
2DE
100
AcDbEntity
8
0
100
AcDbSpline
62
7
6
CONTINUOUS
70
0
71
3
72
22
73
18
74
16
42
0.0000001000
43
0.0000001000
44
0.0000000001
12
-8.0340300294
22
0.0000000000
32
0.0000000000
13
8.0340300294
23
-0.0000000000
33
0.0000000000
40
0.0000000000
40
0.0000000000
40
0.0000000000
40
0.0000000000
40
0.0121750694
40
0.0448000923
40
0.0971100636
40
0.1669121649
40
0.2511825320
40
0.3462559747
40
0.4480005643
40
0.5520006401
40
0.6537450781
40
0.7488182625
40
0.8330883363
40
0.9028901847
40
0.9551999902
40
0.9878249411
40
1.0000000000
40
1.0000000000
40
1.0000000000
40
1.0000000000
10
69.0696327802
20
39.7595072510
30
0.0000000000
10
69.0370278226
20
39.7595072510
30
0.0000000000
10
69.0168508923
20
39.5882396330
30
0.0000000000
10
68.9717122468
20
39.3795431096
30
0.0000000000
10
68.9423451991
20
38.9400468667
30
0.0000000000
10
68.9094628702
20
38.3991232685
30
0.0000000000
10
68.8856841411
20
37.7284152305
30
0.0000000000
10
68.8683255468
20
36.9771028666
30
0.0000000000
10
68.8596281908
20
36.1711348908
30
0.0000000000
10
68.8596282422
20
35.3478703381
30
0.0000000000
10
68.8683256870
20
34.5419034620
30
0.0000000000
10
68.8856843317
20
33.7905929787
30
0.0000000000
10
68.9094630702
20
33.1198871140
30
0.0000000000
10
68.9423453513
20
32.5789653732
30
0.0000000000
10
68.9717123721
20
32.1394705514
30
0.0000000000
10
69.0168509231
20
31.9307745458
30
0.0000000000
10
69.0370278507
20
31.7595072510
30
0.0000000000
10
69.0696327802
20
31.7595072510
30
0.0000000000
11
69.0696327802
21
39.7595072510
31
0.0000000000
11
69.0260132941
21
39.6719567523
31
0.0000000000
11
68.9843088606
21
39.4131854066
31
0.0000000000
11
68.9463475228
21
38.9946435289
31
0.0000000000
11
68.9137883722
21
38.4347973277
31
0.0000000000
11
68.8880490670
21
37.7582561228
31
0.0000000000
11
68.8702458341
21
36.9946407368
31
0.0000000000
11
68.8611481237
21
36.1772722773
31
0.0000000000
11
68.8611481769
21
35.3417325456
31
0.0000000000
11
68.8702459780
21
34.5243653061
31
0.0000000000
11
68.8880492599
21
33.7607519966
31
0.0000000000
11
68.9137885620
21
33.0842131490
31
0.0000000000
11
68.9463476663
21
32.5243689812
31
0.0000000000
11
68.9843089383
21
32.1058284343
31
0.0000000000
11
69.0260133148
21
31.8470576655
31
0.0000000000
11
69.0696327802
21
31.7595072510
31
0.0000000000
0
ENDSEC
0
SECTION
2
OBJECTS
0
DICTIONARY
5
C
100
AcDbDictionary
280
0
281
1
3
ACAD_GROUP
350
D
3
ACAD_MLINESTYLE
350
17
3
ACAD_LAYOUT
350
1A
3
ACAD_PLOTSETTINGS
350
19
3
ACAD_PLOTSTYLENAME
350
E
0
DICTIONARY
5
D
102
{ACAD_REACTORS
330
C
102
}
100
AcDbDictionary
280
0
281
1
0
ACDBDICTIONARYWDFLT
5
E
102
{ACAD_REACTORS
330
C
102
}
100
AcDbDictionary
281
1
3
Normal
350
F
100
AcDbDictionaryWithDefault
340
F
0
DICTIONARY
5
17
102
{ACAD_REACTORS
330
C
102
}
100
AcDbDictionary
280
0
281
1
3
Standard
350
18
0
DICTIONARY
5
19
102
{ACAD_REACTORS
330
C
102
}
100
AcDbDictionary
281
1
0
DICTIONARY
5
1A
102
{ACAD_REACTORS
330
C
102
}
100
AcDbDictionary
281
1
3
Layout1
350
1E
3
Model
350
22
0
ACDBPLACEHOLDER
5
F
102
{ACAD_REACTORS
330
E
102
}
0
MLINESTYLE
5
18
102
{ACAD_REACTORS
330
17
102
}
100
AcDbMlineStyle
2
STANDARD
70
0
3

62
256
51
90.0
52
90.0
71
2
49
0.5
62
256
6
BYLAYER
49
-0.5
62
256
6
BYLAYER
0
LAYOUT
5
1E
102
{ACAD_REACTORS
330
1A
102
}
100
AcDbPlotSettings
1

2

4

6

40
0.0
41
0.0
42
0.0
43
0.0
44
0.0
45
0.0
46
0.0
47
0.0
48
0.0
49
0.0
140
0.0
141
0.0
142
1.0
143
1.0
70
0
72
0
73
0
74
0
7

75
0
147
1.0
148
0.0
149
0.0
100
AcDbLayout
1
Layout1
70
0
71
0
10
0.0
20
0.0
11
0.0
21
0.0
12
0.0
22
0.0
32
0.0
14
0.0
24
0.0
34
0.0
15
0.0
25
0.0
35
0.0
146
0.0
13
0.0
23
0.0
33
0.0
16
0.0
26
0.0
36
0.0
17
0.0
27
0.0
37
0.0
76
0
330
1B
331
0
345
0
346
0
0
LAYOUT
5
22
102
{ACAD_REACTORS
330
1A
102
}
100
AcDbPlotSettings
1

2

4

6

40
0.0
41
0.0
42
0.0
43
0.0
44
0.0
45
0.0
46
0.0
47
0.0
48
0.0
49
0.0
140
0.0
141
0.0
142
1.0
143
1.0
70
0
72
0
73
0
74
0
7

75
0
147
1.0
148
0.0
149
0.0
100
AcDbLayout
1
Model
70
0
71
0
10
0.0
20
0.0
11
0.0
21
0.0
12
0.0
22
0.0
32
0.0
14
0.0
24
0.0
34
0.0
15
0.0
25
0.0
35
0.0
146
0.0
13
0.0
23
0.0
33
0.0
16
0.0
26
0.0
36
0.0
17
0.0
27
0.0
37
0.0
76
0
330
1F
331
0
345
0
346
0
0
ENDSEC
0
EOF
