999
DXF file: s0210p6185510.dxf
999
Pro/ENGINEER 2005310 by Parametric Technology Corporation
0
SECTION
2
HEADER
9
$ACADVER
1
AC1015
9
$DWGCODEPAGE
3
ANSI_1252
9
$EXTMAX
10
210.0000000000
20
297.0000000000
30
0.0000000000
9
$EXTMIN
10
0.0000000000
20
0.0000000000
30
0.0000000000
9
$LIMMIN
10
0.0000000000
20
0.0000000000
9
$LIMMAX
10
210.0000000000
20
297.0000000000
9
$VIEWCTR
10
105.0000000000
20
148.5000000000
9
$VIEWSIZE
40
297.0000000000
9
$CLAYER
8
0
9
$LTSCALE
40
19.3600000000
9
$CELTYPE
6
BYLAYER
9
$DIMSCALE
40
1
9
$DIMASZ
40
3.5000000000
9
$DIMEXO
40
2.2000000000
9
$DIMDLI
40
13.3760000000
9
$DIMEXE
40
6.3360000000
9
$DIMCEN
40
3.1680000000
9
$DIMLFAC
40
1.0000000000
9
$DIMBLK
1
_FILLED
9
$DIMTXT
40
3.5000000000
9
$DIMTOL
70
1
9
$DIMLIM
70
0
9
$DIMTFAC
40
1.0000000000
9
$DIMTP
40
0.0010000000
9
$DIMTM
40
0.0010000000
9
$PDMODE
70
3
9
$PDSIZE
40
0.3125000000
9
$HANDSEED
5
339
9
$MEASUREMENT
70
1
9
$INSUNITS
70
4
0
ENDSEC
0
SECTION
2
CLASSES
0
CLASS
1
ACDBDICTIONARYWDFLT
2
AcDbDictionaryWithDefault
3
AutoCAD 2000
90
0
280
0
281
0
0
CLASS
1
ACDBPLACEHOLDER
2
AcDbPlaceHolder
3
AutoCAD 2000
90
0
280
0
281
0
0
CLASS
1
LAYOUT
2
AcDbLayout
3
AutoCAD 2000
90
0
280
0
281
0
0
ENDSEC
0
SECTION
2
TABLES
0
TABLE
2
VPORT
5
8
100
AcDbSymbolTable
70
2
0
VPORT
5
1F4
100
AcDbSymbolTableRecord
100
AcDbViewportTableRecord
2
*ACTIVE
70
0
10
0.0
20
0.0
11
1.0
21
1.0
12
105.0000000000
22
148.5000000000
13
0.0
23
0.0
14
1.0
24
1.0
15
0.0
25
0.0
16
0.0
26
0.0
36
1.0
17
0.0
27
0.0
37
0.0
40
297.0000000000
41
0.7070707071
42
50.0
43
0.0
44
0.0
50
0.0
51
0.0
71
0
72
100
73
1
74
1
75
0
76
0
77
0
78
0
0
ENDTAB
0
TABLE
2
LTYPE
5
5
100
AcDbSymbolTable
70
6
0
LTYPE
5
14
100
AcDbSymbolTableRecord
100
AcDbLinetypeTableRecord
2
BYBLOCK
70
0
3

72
65
73
0
40
0.0
0
LTYPE
5
15
100
AcDbSymbolTableRecord
100
AcDbLinetypeTableRecord
2
BYLAYER
70
0
3

72
65
73
0
40
0.0
0
LTYPE
5
16
100
AcDbSymbolTableRecord
100
AcDbLinetypeTableRecord
2
CONTINUOUS
70
64
3
Solid line
72
65
73
0
40
0
0
LTYPE
5
1F5
100
AcDbSymbolTableRecord
100
AcDbLinetypeTableRecord
2
CENTER
70
64
3
____ _ ____ _ ____ _ ____ _ ____ _ ____ _ ____
72
65
73
4
40
0.6
49
0.375
74
0
49
-0.075
74
0
49
0.075
74
0
49
-0.075
74
0
0
LTYPE
5
1F6
100
AcDbSymbolTableRecord
100
AcDbLinetypeTableRecord
2
HIDDEN
70
64
3
- - - - - - - - - - - - - - - - - - - -
72
65
73
2
40
0.2
49
0.1
74
0
49
-0.1
74
0
0
LTYPE
5
1F7
100
AcDbSymbolTableRecord
100
AcDbLinetypeTableRecord
2
PHANTOM
70
64
3
_____ _ _ _____ _ _ _____ _ _ _____
72
65
73
6
40
0.8
49
0.45
74
0
49
-0.05
74
0
49
0.1
74
0
49
-0.05
74
0
49
0.1
74
0
49
-0.05
74
0
0
LTYPE
5
1F8
100
AcDbSymbolTableRecord
100
AcDbLinetypeTableRecord
2
DOT
70
64
3
. . . . . . . . . . . . . . . . . . . .
72
65
73
2
40
0.2
49
0.1
74
0
49
-0.1
74
0
0
LTYPE
5
1F9
100
AcDbSymbolTableRecord
100
AcDbLinetypeTableRecord
2
DASHED
70
64
3
- - - - - - - - - - - - - - - - - - - -
72
65
73
2
40
0.2
49
0.1
74
0
49
-0.1
74
0
0
ENDTAB
0
TABLE
2
LAYER
5
2
100
AcDbSymbolTable
70
36
0
LAYER
5
10
100
AcDbSymbolTableRecord
100
AcDbLayerTableRecord
2
0
70
0
62
7
6
CONTINUOUS
370
-3
390
F
0
LAYER
5
1FA
100
AcDbSymbolTableRecord
100
AcDbLayerTableRecord
2
DEFAULT_1
70
0
62
7
6
CENTER
370
-3
390
F
0
LAYER
5
1FB
100
AcDbSymbolTableRecord
100
AcDbLayerTableRecord
2
DEFAULT_2
70
0
62
8
6
HIDDEN
370
-3
390
F
0
LAYER
5
1FC
100
AcDbSymbolTableRecord
100
AcDbLayerTableRecord
2
DEFAULT_3
70
0
62
7
6
PHANTOM
370
-3
390
F
0
LAYER
5
1FD
100
AcDbSymbolTableRecord
100
AcDbLayerTableRecord
2
ASSI
70
0
62
7
6
CONTINUOUS
370
-3
390
F
0
LAYER
5
1FE
100
AcDbSymbolTableRecord
100
AcDbLayerTableRecord
2
PIANI
70
0
62
7
6
CONTINUOUS
370
-3
390
F
0
ENDTAB
0
TABLE
2
STYLE
5
3
100
AcDbSymbolTable
70
1
0
STYLE
5
11
100
AcDbSymbolTableRecord
100
AcDbTextStyleTableRecord
2
STANDARD
70
0
40
0.0
41
0.7143000000
50
0.0
71
0
42
0.2
3
txt
4

0
ENDTAB
0
TABLE
2
VIEW
5
6
100
AcDbSymbolTable
70
0
0
ENDTAB
0
TABLE
2
UCS
5
7
100
AcDbSymbolTable
70
0
0
ENDTAB
0
TABLE
2
APPID
5
9
100
AcDbSymbolTable
70
1
0
APPID
5
1FF
100
AcDbSymbolTableRecord
100
AcDbRegAppTableRecord
2
ACAD
70
0
0
ENDTAB
0
TABLE
2
BLOCK_RECORD
5
1
100
AcDbSymbolTable
70
0
0
BLOCK_RECORD
5
1F
100
AcDbSymbolTableRecord
100
AcDbBlockTableRecord
2
*MODEL_SPACE
0
BLOCK_RECORD
5
1B
100
AcDbSymbolTableRecord
100
AcDbBlockTableRecord
2
*PAPER_SPACE
0
BLOCK_RECORD
5
200
100
AcDbSymbolTableRecord
100
AcDbBlockTableRecord
2
_FILLED
0
BLOCK_RECORD
5
201
100
AcDbSymbolTableRecord
100
AcDbBlockTableRecord
2
*D0
0
BLOCK_RECORD
5
202
100
AcDbSymbolTableRecord
100
AcDbBlockTableRecord
2
*D1
0
BLOCK_RECORD
5
203
100
AcDbSymbolTableRecord
100
AcDbBlockTableRecord
2
*D2
0
BLOCK_RECORD
5
204
100
AcDbSymbolTableRecord
100
AcDbBlockTableRecord
2
*D3
0
BLOCK_RECORD
5
205
100
AcDbSymbolTableRecord
100
AcDbBlockTableRecord
2
*D4
0
BLOCK_RECORD
5
206
100
AcDbSymbolTableRecord
100
AcDbBlockTableRecord
2
*D5
0
BLOCK_RECORD
5
207
100
AcDbSymbolTableRecord
100
AcDbBlockTableRecord
2
*D6
0
BLOCK_RECORD
5
208
100
AcDbSymbolTableRecord
100
AcDbBlockTableRecord
2
*D7
0
BLOCK_RECORD
5
209
100
AcDbSymbolTableRecord
100
AcDbBlockTableRecord
2
*D8
0
BLOCK_RECORD
5
20A
100
AcDbSymbolTableRecord
100
AcDbBlockTableRecord
2
*D9
0
ENDTAB
0
TABLE
2
DIMSTYLE
5
A
100
AcDbSymbolTable
70
1
100
AcDbDimStyleTable
71
0
0
DIMSTYLE
105
20B
100
AcDbSymbolTableRecord
100
AcDbDimStyleTableRecord
2
STANDARD
70
0
3

4

40
1.0
41
3.5000000000
42
0.0625
43
0.38
44
0.18
45
0.0
46
0.0
47
0.0010000000
48
0.0010000000
140
3.5000000000
141
0.09
142
0.0
143
25.4
144
1.0000000000
145
0.0
146
1.0000000000
147
0.09
71
1
72
0
73
0
74
0
75
0
76
0
77
1
78
8
170
0
171
2
172
0
173
0
174
0
175
0
176
0
177
0
178
0
270
2
271
3
272
3
273
2
274
2
275
0
280
0
281
0
282
0
283
1
284
8
285
0
286
0
287
3
288
0
340
11
341
200
342
200
343
200
344
200
0
DIMSTYLE
105
20C
100
AcDbSymbolTableRecord
100
AcDbDimStyleTableRecord
2
DIMSTYLE_1
70
0
3

4

40
1.0
41
3.5000000000
42
0.0625
43
0.38
44
0.18
45
0.0
46
0.0
47
0.1500000000
48
0.1500000000
140
3.5000000000
141
0.09
142
0.0
143
25.4
144
1.0000000000
145
0.0
146
1.0000000000
147
0.09
71
0
72
0
73
0
74
0
75
0
76
0
77
1
78
8
170
0
171
2
172
0
173
0
174
0
175
0
176
0
177
0
178
0
270
2
271
3
272
3
273
2
274
2
275
0
280
0
281
0
282
0
283
1
284
8
285
0
286
0
287
3
288
0
340
11
341
200
342
200
343
200
344
200
0
DIMSTYLE
105
20D
100
AcDbSymbolTableRecord
100
AcDbDimStyleTableRecord
2
DIMSTYLE_2
70
0
3

4

40
1.0
41
3.5000000000
42
0.0625
43
0.38
44
0.18
45
0.0
46
0.0
47
0.1000000000
48
0.1000000000
140
3.5000000000
141
0.09
142
0.0
143
25.4
144
1.0000000000
145
0.0
146
1.0000000000
147
0.09
71
0
72
0
73
0
74
0
75
0
76
0
77
1
78
8
170
0
171
2
172
0
173
0
174
0
175
0
176
0
177
0
178
0
270
2
271
3
272
3
273
2
274
2
275
0
280
0
281
0
282
0
283
1
284
8
285
0
286
0
287
3
288
0
340
11
341
200
342
200
343
200
344
200
0
DIMSTYLE
105
20E
100
AcDbSymbolTableRecord
100
AcDbDimStyleTableRecord
2
DIMSTYLE_3
70
0
3

4

40
1.0
41
3.5000000000
42
0.0625
43
0.38
44
0.18
45
0.0
46
0.0
47
0.1000000000
48
0.1000000000
140
3.5000000000
141
0.09
142
0.0
143
25.4
144
1.0000000000
145
0.0
146
1.0000000000
147
0.09
71
0
72
0
73
0
74
0
75
0
76
0
77
1
78
8
170
0
171
2
172
0
173
0
174
0
175
0
176
0
177
0
178
0
270
2
271
2
272
2
273
2
274
2
275
0
280
0
281
0
282
0
283
1
284
8
285
0
286
0
287
3
288
0
340
11
341
200
342
200
343
200
344
200
0
DIMSTYLE
105
20F
100
AcDbSymbolTableRecord
100
AcDbDimStyleTableRecord
2
DIMSTYLE_4
70
0
3

4

40
1.0
41
3.5000000000
42
0.0625
43
0.38
44
0.18
45
0.0
46
0.0
47
0.0500000000
48
0.0500000000
140
3.5000000000
141
0.09
142
0.0
143
25.4
144
1.0000000000
145
0.0
146
1.0000000000
147
0.09
71
0
72
0
73
0
74
0
75
0
76
0
77
1
78
8
170
0
171
2
172
0
173
0
174
0
175
0
176
0
177
0
178
0
270
2
271
2
272
2
273
2
274
2
275
0
280
0
281
0
282
0
283
1
284
8
285
0
286
0
287
3
288
0
340
11
341
200
342
200
343
200
344
200
0
ENDTAB
0
ENDSEC
0
SECTION
2
BLOCKS
0
BLOCK
5
20
100
AcDbEntity
8
0
100
AcDbBlockBegin
2
*MODEL_SPACE
70
0
10
0.0
20
0.0
30
0.0
3
*MODEL_SPACE
1

0
ENDBLK
5
21
100
AcDbEntity
8
0
100
AcDbBlockEnd
0
BLOCK
5
1C
100
AcDbEntity
8
0
100
AcDbBlockBegin
2
*PAPER_SPACE
70
0
10
0.0
20
0.0
30
0.0
3
*PAPER_SPACE
1

0
ENDBLK
5
1D
100
AcDbEntity
8
0
100
AcDbBlockEnd
0
BLOCK
5
210
100
AcDbEntity
8
0
100
AcDbBlockBegin
62
2
6
CONTINUOUS
2
*D0
70
65
10
0.0000000000
20
0.0000000000
3
*D0
1

0
TEXT
5
211
100
AcDbEntity
8
0
100
AcDbText
62
2
6
CONTINUOUS
10
181.6770425753
20
171.2519731679
7
STANDARD
40
3.5000000000
1
100
50
90.0000000000
41
0.7143000000
72
0
100
AcDbText
0
LINE
5
212
100
AcDbEntity
8
0
100
AcDbLine
62
2
6
CONTINUOUS
10
160.7921442270
20
239.4694253227
11
184.0520425753
21
239.4694253227
0
LINE
5
213
100
AcDbEntity
8
0
100
AcDbLine
62
2
6
CONTINUOUS
10
159.7921442270
20
139.4694253227
11
184.0520425753
21
139.4694253227
0
LINE
5
214
100
AcDbEntity
8
0
100
AcDbLine
62
2
6
CONTINUOUS
10
182.5520425753
20
239.4694253227
11
182.5520425753
21
189.4694253227
0
LINE
5
215
100
AcDbEntity
8
0
100
AcDbLine
62
2
6
CONTINUOUS
10
182.5520425753
20
139.4694253227
11
182.5520425753
21
189.4694253227
0
INSERT
5
216
100
AcDbEntity
8
0
100
AcDbBlockReference
62
2
6
CONTINUOUS
2
_FILLED
10
182.5520425753
20
239.4694253227
41
  3.500000
42
  3.500000
43
  3.500000
50
 90.000000
0
INSERT
5
217
100
AcDbEntity
8
0
100
AcDbBlockReference
62
2
6
CONTINUOUS
2
_FILLED
10
182.5520425753
20
139.4694253227
41
  3.500000
42
  3.500000
43
  3.500000
50
270.000000
0
ENDBLK
5
218
100
AcDbEntity
8
0
6
BYBLOCK
62
0
100
AcDbBlockEnd
0
BLOCK
5
219
100
AcDbEntity
8
0
100
AcDbBlockBegin
62
2
6
CONTINUOUS
2
*D1
70
65
10
0.0000000000
20
0.0000000000
3
*D1
1

0
TEXT
5
21A
100
AcDbEntity
8
0
100
AcDbText
62
2
6
CONTINUOUS
10
181.6770425753
20
120.2878550451
7
STANDARD
40
3.5000000000
1
28.5
50
90.0000000000
41
0.7143000000
72
0
100
AcDbText
0
LINE
5
21B
100
AcDbEntity
8
0
100
AcDbLine
62
2
6
CONTINUOUS
10
159.5421442270
20
139.4694253227
11
184.0520425753
21
139.4694253227
0
LINE
5
21C
100
AcDbEntity
8
0
100
AcDbLine
62
2
6
CONTINUOUS
10
159.7921442270
20
110.9694253227
11
184.0520425753
21
110.9694253227
0
LINE
5
21D
100
AcDbEntity
8
0
100
AcDbLine
62
2
6
CONTINUOUS
10
182.5520425753
20
139.4694253227
11
182.5520425753
21
125.2194253227
0
LINE
5
21E
100
AcDbEntity
8
0
100
AcDbLine
62
2
6
CONTINUOUS
10
182.5520425753
20
110.9694253227
11
182.5520425753
21
125.2194253227
0
INSERT
5
21F
100
AcDbEntity
8
0
100
AcDbBlockReference
62
2
6
CONTINUOUS
2
_FILLED
10
182.5520425753
20
139.4694253227
41
  3.500000
42
  3.500000
43
  3.500000
50
 90.000000
0
INSERT
5
220
100
AcDbEntity
8
0
100
AcDbBlockReference
62
2
6
CONTINUOUS
2
_FILLED
10
182.5520425753
20
110.9694253227
41
  3.500000
42
  3.500000
43
  3.500000
50
270.000000
0
ENDBLK
5
221
100
AcDbEntity
8
0
6
BYBLOCK
62
0
100
AcDbBlockEnd
0
BLOCK
5
222
100
AcDbEntity
8
0
100
AcDbBlockBegin
62
2
6
CONTINUOUS
2
*D2
70
65
10
0.0000000000
20
0.0000000000
3
*D2
1

0
TEXT
5
223
100
AcDbEntity
8
0
100
AcDbText
62
2
6
CONTINUOUS
10
60.1961865767
20
89.9676065435
7
STANDARD
40
3.5000000000
1
27
41
0.7143000000
72
0
100
AcDbText
0
LINE
5
224
100
AcDbEntity
8
0
100
AcDbLine
62
2
6
CONTINUOUS
10
48.9781923086
20
104.0400583271
11
48.9781923086
21
87.5926065435
0
LINE
5
225
100
AcDbEntity
8
0
100
AcDbLine
62
2
6
CONTINUOUS
10
75.9781923086
20
104.0400583271
11
75.9781923086
21
87.5926065435
0
LINE
5
226
100
AcDbEntity
8
0
100
AcDbLine
62
2
6
CONTINUOUS
10
48.9781923086
20
89.0926065435
11
62.4781923086
21
89.0926065435
0
LINE
5
227
100
AcDbEntity
8
0
100
AcDbLine
62
2
6
CONTINUOUS
10
75.9781923086
20
89.0926065435
11
62.4781923086
21
89.0926065435
0
INSERT
5
228
100
AcDbEntity
8
0
100
AcDbBlockReference
62
2
6
CONTINUOUS
2
_FILLED
10
48.9781923086
20
89.0926065435
41
  3.500000
42
  3.500000
43
  3.500000
50
180.000000
0
INSERT
5
229
100
AcDbEntity
8
0
100
AcDbBlockReference
62
2
6
CONTINUOUS
2
_FILLED
10
75.9781923086
20
89.0926065435
41
  3.500000
42
  3.500000
43
  3.500000
0
ENDBLK
5
22A
100
AcDbEntity
8
0
6
BYBLOCK
62
0
100
AcDbBlockEnd
0
BLOCK
5
22B
100
AcDbEntity
8
0
100
AcDbBlockBegin
62
2
6
CONTINUOUS
2
*D3
70
65
10
0.0000000000
20
0.0000000000
3
*D3
1

0
TEXT
5
22C
100
AcDbEntity
8
0
100
AcDbText
62
2
6
CONTINUOUS
10
85.3700175296
20
122.5265383345
7
STANDARD
40
3.5000000000
1
22.25
50
90.0000000000
41
0.7143000000
72
0
100
AcDbText
0
LINE
5
22D
100
AcDbEntity
8
0
100
AcDbLine
62
2
6
CONTINUOUS
10
72.4781923086
20
139.4694253227
11
87.7450175296
21
139.4694253227
0
LINE
5
22E
100
AcDbEntity
8
0
100
AcDbLine
62
2
6
CONTINUOUS
10
62.9781923086
20
117.2194253227
11
87.7450175296
21
117.2194253227
0
LINE
5
22F
100
AcDbEntity
8
0
100
AcDbLine
62
2
6
CONTINUOUS
10
86.2450175296
20
139.4694253227
11
86.2450175296
21
128.3444253227
0
LINE
5
230
100
AcDbEntity
8
0
100
AcDbLine
62
2
6
CONTINUOUS
10
86.2450175296
20
117.2194253227
11
86.2450175296
21
128.3444253227
0
INSERT
5
231
100
AcDbEntity
8
0
100
AcDbBlockReference
62
2
6
CONTINUOUS
2
_FILLED
10
86.2450175296
20
139.4694253227
41
  3.500000
42
  3.500000
43
  3.500000
50
 90.000000
0
INSERT
5
232
100
AcDbEntity
8
0
100
AcDbBlockReference
62
2
6
CONTINUOUS
2
_FILLED
10
86.2450175296
20
117.2194253227
41
  3.500000
42
  3.500000
43
  3.500000
50
270.000000
0
ENDBLK
5
233
100
AcDbEntity
8
0
6
BYBLOCK
62
0
100
AcDbBlockEnd
0
BLOCK
5
234
100
AcDbEntity
8
0
100
AcDbBlockBegin
62
2
6
CONTINUOUS
2
*D4
70
65
10
0.0000000000
20
0.0000000000
3
*D4
1

0
TEXT
5
235
100
AcDbEntity
8
0
100
AcDbText
62
2
6
CONTINUOUS
10
98.4152822878
20
117.7728868793
7
STANDARD
40
3.5000000000
1
37
50
90.0000000000
41
0.7143000000
72
0
100
AcDbText
0
LINE
5
236
100
AcDbEntity
8
0
100
AcDbLine
62
2
6
CONTINUOUS
10
72.4781923086
20
139.4694253227
11
100.7902822878
21
139.4694253227
0
LINE
5
237
100
AcDbEntity
8
0
100
AcDbLine
62
2
6
CONTINUOUS
10
75.9781923086
20
102.4694253227
11
100.7902822878
21
102.4694253227
0
LINE
5
238
100
AcDbEntity
8
0
100
AcDbLine
62
2
6
CONTINUOUS
10
99.2902822878
20
139.4694253227
11
99.2902822878
21
120.9694253227
0
LINE
5
239
100
AcDbEntity
8
0
100
AcDbLine
62
2
6
CONTINUOUS
10
99.2902822878
20
102.4694253227
11
99.2902822878
21
120.9694253227
0
INSERT
5
23A
100
AcDbEntity
8
0
100
AcDbBlockReference
62
2
6
CONTINUOUS
2
_FILLED
10
99.2902822878
20
139.4694253227
41
  3.500000
42
  3.500000
43
  3.500000
50
 90.000000
0
INSERT
5
23B
100
AcDbEntity
8
0
100
AcDbBlockReference
62
2
6
CONTINUOUS
2
_FILLED
10
99.2902822878
20
102.4694253227
41
  3.500000
42
  3.500000
43
  3.500000
50
270.000000
0
ENDBLK
5
23C
100
AcDbEntity
8
0
6
BYBLOCK
62
0
100
AcDbBlockEnd
0
BLOCK
5
23D
100
AcDbEntity
8
0
100
AcDbBlockBegin
62
2
6
CONTINUOUS
2
*D5
70
65
10
0.0000000000
20
0.0000000000
3
*D5
1

0
TEXT
5
23E
100
AcDbEntity
8
0
100
AcDbText
62
2
6
CONTINUOUS
10
148.1768207483
20
246.3494897959
7
STANDARD
40
3.5000000000
1
%%c
41
1.3333333333
72
0
100
AcDbText
0
TEXT
5
23F
100
AcDbEntity
8
0
100
AcDbText
62
2
6
CONTINUOUS
10
152.8434874150
20
246.3494897959
7
STANDARD
40
3.5000000000
1
14
41
0.7143000000
72
0
100
AcDbText
0
LINE
5
240
100
AcDbEntity
8
0
100
AcDbLine
62
2
6
CONTINUOUS
10
146.2921442270
20
239.9694253227
11
146.2921442270
21
246.9744897959
0
LINE
5
241
100
AcDbEntity
8
0
100
AcDbLine
62
2
6
CONTINUOUS
10
160.2921442270
20
239.9694253227
11
160.2921442270
21
246.9744897959
0
LINE
5
242
100
AcDbEntity
8
0
100
AcDbLine
62
2
6
CONTINUOUS
10
146.2921442270
20
245.4744897959
11
138.2921442270
21
245.4744897959
0
LINE
5
243
100
AcDbEntity
8
0
100
AcDbLine
62
2
6
CONTINUOUS
10
138.2921442270
20
245.4744897959
11
153.2921442270
21
245.4744897959
0
LINE
5
244
100
AcDbEntity
8
0
100
AcDbLine
62
2
6
CONTINUOUS
10
160.2921442270
20
245.4744897959
11
168.2921442270
21
245.4744897959
0
LINE
5
245
100
AcDbEntity
8
0
100
AcDbLine
62
2
6
CONTINUOUS
10
168.2921442270
20
245.4744897959
11
153.2921442270
21
245.4744897959
0
INSERT
5
246
100
AcDbEntity
8
0
100
AcDbBlockReference
62
2
6
CONTINUOUS
2
_FILLED
10
146.2921442270
20
245.4744897959
41
  3.500000
42
  3.500000
43
  3.500000
0
INSERT
5
247
100
AcDbEntity
8
0
100
AcDbBlockReference
62
2
6
CONTINUOUS
2
_FILLED
10
160.2921442270
20
245.4744897959
41
  3.500000
42
  3.500000
43
  3.500000
50
180.000000
0
ENDBLK
5
248
100
AcDbEntity
8
0
6
BYBLOCK
62
0
100
AcDbBlockEnd
0
BLOCK
5
249
100
AcDbEntity
8
0
100
AcDbBlockBegin
62
2
6
CONTINUOUS
2
*D6
70
65
10
0.0000000000
20
0.0000000000
3
*D6
1

0
TEXT
5
24A
100
AcDbEntity
8
0
100
AcDbText
62
2
6
CONTINUOUS
10
164.0408097723
20
150.2111686617
7
STANDARD
40
3.5000000000
1
%%c
41
1.3333333333
72
0
100
AcDbText
0
TEXT
5
24B
100
AcDbEntity
8
0
100
AcDbText
62
2
6
CONTINUOUS
10
168.7074764390
20
150.2111686617
7
STANDARD
40
3.5000000000
1
11.5
41
0.7143000000
72
0
100
AcDbText
0
LINE
5
24C
100
AcDbEntity
8
0
100
AcDbLine
62
2
6
CONTINUOUS
10
159.0421442270
20
139.9694253227
11
159.0421442270
21
150.8361686617
0
LINE
5
24D
100
AcDbEntity
8
0
100
AcDbLine
62
2
6
CONTINUOUS
10
147.5421442270
20
139.9694253227
11
147.5421442270
21
150.8361686617
0
LINE
5
24E
100
AcDbEntity
8
0
100
AcDbLine
62
2
6
CONTINUOUS
10
159.0421442270
20
149.3361686617
11
153.2921442270
21
149.3361686617
0
LINE
5
24F
100
AcDbEntity
8
0
100
AcDbLine
62
2
6
CONTINUOUS
10
153.2921442270
20
149.3361686617
11
178.7076764390
21
149.3361686617
0
LINE
5
250
100
AcDbEntity
8
0
100
AcDbLine
62
2
6
CONTINUOUS
10
147.5421442270
20
149.3361686617
11
153.2921442270
21
149.3361686617
0
INSERT
5
251
100
AcDbEntity
8
0
100
AcDbBlockReference
62
2
6
CONTINUOUS
2
_FILLED
10
159.0421442270
20
149.3361686617
41
  3.500000
42
  3.500000
43
  3.500000
0
INSERT
5
252
100
AcDbEntity
8
0
100
AcDbBlockReference
62
2
6
CONTINUOUS
2
_FILLED
10
147.5421442270
20
149.3361686617
41
  3.500000
42
  3.500000
43
  3.500000
50
180.000000
0
ENDBLK
5
253
100
AcDbEntity
8
0
6
BYBLOCK
62
0
100
AcDbBlockEnd
0
BLOCK
5
254
100
AcDbEntity
8
0
100
AcDbBlockBegin
62
2
6
CONTINUOUS
2
*D7
70
65
10
0.0000000000
20
0.0000000000
3
*D7
1

0
TEXT
5
255
100
AcDbEntity
8
0
100
AcDbText
62
2
6
CONTINUOUS
10
164.1145895855
20
159.8275036391
7
STANDARD
40
3.5000000000
1
%%c
41
1.3333333333
72
0
100
AcDbText
0
TEXT
5
256
100
AcDbEntity
8
0
100
AcDbText
62
2
6
CONTINUOUS
10
168.7812562521
20
159.8275036391
7
STANDARD
40
3.5000000000
1
13.5
41
0.7143000000
72
0
100
AcDbText
0
LINE
5
257
100
AcDbEntity
8
0
100
AcDbLine
62
2
6
CONTINUOUS
10
160.0421442270
20
136.9694253227
11
160.0421442270
21
160.4525036391
0
LINE
5
258
100
AcDbEntity
8
0
100
AcDbLine
62
2
6
CONTINUOUS
10
146.5421442270
20
136.9694253227
11
146.5421442270
21
160.4525036391
0
LINE
5
259
100
AcDbEntity
8
0
100
AcDbLine
62
2
6
CONTINUOUS
10
160.0421442270
20
158.9525036391
11
153.2921442270
21
158.9525036391
0
LINE
5
25A
100
AcDbEntity
8
0
100
AcDbLine
62
2
6
CONTINUOUS
10
153.2921442270
20
158.9525036391
11
178.7814562521
21
158.9525036391
0
LINE
5
25B
100
AcDbEntity
8
0
100
AcDbLine
62
2
6
CONTINUOUS
10
146.5421442270
20
158.9525036391
11
153.2921442270
21
158.9525036391
0
INSERT
5
25C
100
AcDbEntity
8
0
100
AcDbBlockReference
62
2
6
CONTINUOUS
2
_FILLED
10
160.0421442270
20
158.9525036391
41
  3.500000
42
  3.500000
43
  3.500000
0
INSERT
5
25D
100
AcDbEntity
8
0
100
AcDbBlockReference
62
2
6
CONTINUOUS
2
_FILLED
10
146.5421442270
20
158.9525036391
41
  3.500000
42
  3.500000
43
  3.500000
50
180.000000
0
ENDBLK
5
25E
100
AcDbEntity
8
0
6
BYBLOCK
62
0
100
AcDbBlockEnd
0
BLOCK
5
25F
100
AcDbEntity
8
0
100
AcDbBlockBegin
62
2
6
CONTINUOUS
2
*D8
70
65
10
0.0000000000
20
0.0000000000
3
*D8
1

0
TEXT
5
260
100
AcDbEntity
8
0
100
AcDbText
62
2
6
CONTINUOUS
10
136.2025303927
20
144.8897221687
7
STANDARD
40
3.5000000000
1
3
50
90.0000000000
41
0.7143000000
72
0
100
AcDbText
0
LINE
5
261
100
AcDbEntity
8
0
100
AcDbLine
62
2
6
CONTINUOUS
10
147.0421442270
20
139.4694253227
11
135.5775303927
21
139.4694253227
0
LINE
5
262
100
AcDbEntity
8
0
100
AcDbLine
62
2
6
CONTINUOUS
10
147.0421442270
20
136.4694253227
11
135.5775303927
21
136.4694253227
0
LINE
5
263
100
AcDbEntity
8
0
100
AcDbLine
62
2
6
CONTINUOUS
10
137.0775303927
20
139.4694253227
11
137.0775303927
21
147.3897721687
0
LINE
5
264
100
AcDbEntity
8
0
100
AcDbLine
62
2
6
CONTINUOUS
10
137.0775303927
20
147.3897721687
11
137.0775303927
21
137.9694253227
0
LINE
5
265
100
AcDbEntity
8
0
100
AcDbLine
62
2
6
CONTINUOUS
10
137.0775303927
20
136.4694253227
11
137.0775303927
21
128.4694253227
0
LINE
5
266
100
AcDbEntity
8
0
100
AcDbLine
62
2
6
CONTINUOUS
10
137.0775303927
20
128.4694253227
11
137.0775303927
21
137.9694253227
0
INSERT
5
267
100
AcDbEntity
8
0
100
AcDbBlockReference
62
2
6
CONTINUOUS
2
_FILLED
10
137.0775303927
20
139.4694253227
41
  3.500000
42
  3.500000
43
  3.500000
50
270.000000
0
INSERT
5
268
100
AcDbEntity
8
0
100
AcDbBlockReference
62
2
6
CONTINUOUS
2
_FILLED
10
137.0775303927
20
136.4694253227
41
  3.500000
42
  3.500000
43
  3.500000
50
 90.000000
0
ENDBLK
5
269
100
AcDbEntity
8
0
6
BYBLOCK
62
0
100
AcDbBlockEnd
0
BLOCK
5
26A
100
AcDbEntity
8
0
100
AcDbBlockBegin
62
2
6
CONTINUOUS
2
*D9
70
65
10
0.0000000000
20
0.0000000000
3
*D9
1

0
TEXT
5
26B
100
AcDbEntity
8
0
100
AcDbText
62
2
6
CONTINUOUS
10
129.5214851265
20
129.1956296610
7
STANDARD
40
3.5000000000
1
17
50
90.0000000000
41
0.7143000000
72
0
100
AcDbText
0
LINE
5
26C
100
AcDbEntity
8
0
100
AcDbLine
62
2
6
CONTINUOUS
10
146.0421442270
20
122.4694253227
11
128.8964851265
21
122.4694253227
0
LINE
5
26D
100
AcDbEntity
8
0
100
AcDbLine
62
2
6
CONTINUOUS
10
146.0421442270
20
139.4694253227
11
128.8964851265
21
139.4694253227
0
LINE
5
26E
100
AcDbEntity
8
0
100
AcDbLine
62
2
6
CONTINUOUS
10
130.3964851265
20
122.4694253227
11
130.3964851265
21
130.9694253227
0
LINE
5
26F
100
AcDbEntity
8
0
100
AcDbLine
62
2
6
CONTINUOUS
10
130.3964851265
20
139.4694253227
11
130.3964851265
21
130.9694253227
0
INSERT
5
270
100
AcDbEntity
8
0
100
AcDbBlockReference
62
2
6
CONTINUOUS
2
_FILLED
10
130.3964851265
20
122.4694253227
41
  3.500000
42
  3.500000
43
  3.500000
50
270.000000
0
INSERT
5
271
100
AcDbEntity
8
0
100
AcDbBlockReference
62
2
6
CONTINUOUS
2
_FILLED
10
130.3964851265
20
139.4694253227
41
  3.500000
42
  3.500000
43
  3.500000
50
 90.000000
0
ENDBLK
5
272
100
AcDbEntity
8
0
6
BYBLOCK
62
0
100
AcDbBlockEnd
0
BLOCK
5
273
100
AcDbEntity
8
0
100
AcDbBlockBegin
2
_FILLED
70
64
10
0.0000000000
20
0.0000000000
3
_FILLED
1

0
SOLID
5
274
100
AcDbEntity
8
0
6
BYBLOCK
62
0
100
AcDbTrace
10
0.0000000000
20
0.0000000000
11
-1.0000000000
21
0.1857142857
12
-1.0000000000
22
-0.1857142857
13
-1.0000000000
23
-0.1857142857
0
ENDBLK
5
275
100
AcDbEntity
8
0
6
BYBLOCK
62
0
100
AcDbBlockEnd
0
ENDSEC
0
SECTION
2
ENTITIES
0
DIMENSION
5
276
100
AcDbEntity
8
0
100
AcDbDimension
62
2
6
CONTINUOUS
2
*D0
10
182.5520425753
20
139.4694253227
11
179.9270425753
21
175.0020481679
70
160
42
100.000000
3
DIMSTYLE_1
100
AcDbAlignedDimension
13
160.7921442270
23
239.4694253227
14
159.7921442270
24
139.4694253227
50
270.000000
100
AcDbRotatedDimension
0
DIMENSION
5
277
100
AcDbEntity
8
0
100
AcDbDimension
62
2
6
CONTINUOUS
2
*D1
10
182.5520425753
20
110.9694253227
11
179.9270425753
21
125.2879550451
70
160
42
28.500000
3
DIMSTYLE_2
100
AcDbAlignedDimension
13
159.5421442270
23
139.4694253227
14
159.7921442270
24
110.9694253227
50
270.000000
100
AcDbRotatedDimension
0
DIMENSION
5
278
100
AcDbEntity
8
0
100
AcDbDimension
62
2
6
CONTINUOUS
2
*D2
10
75.9781923086
20
89.0926065435
11
62.6962365767
21
91.7176065435
70
160
42
27.000000
3
DIMSTYLE_2
100
AcDbAlignedDimension
13
48.9781923086
23
104.0400583271
14
75.9781923086
24
104.0400583271
100
AcDbRotatedDimension
0
DIMENSION
5
279
100
AcDbEntity
8
0
100
AcDbDimension
62
2
6
CONTINUOUS
2
*D3
10
86.2450175296
20
117.2194253227
11
83.6200175296
21
128.7766633345
70
160
42
22.250000
3
DIMSTYLE_2
100
AcDbAlignedDimension
13
72.4781923086
23
139.4694253227
14
62.9781923086
24
117.2194253227
50
270.000000
100
AcDbRotatedDimension
0
DIMENSION
5
27A
100
AcDbEntity
8
0
100
AcDbDimension
62
2
6
CONTINUOUS
2
*D4
10
99.2902822878
20
102.4694253227
11
96.6652822878
21
120.2729368793
70
160
42
37.000000
3
DIMSTYLE_1
100
AcDbAlignedDimension
13
72.4781923086
23
139.4694253227
14
75.9781923086
24
102.4694253227
50
270.000000
100
AcDbRotatedDimension
0
DIMENSION
5
27B
100
AcDbEntity
8
0
100
AcDbDimension
62
2
6
CONTINUOUS
2
*D5
10
160.2921442270
20
245.4744897959
11
153.0102040816
21
248.0994897959
70
160
42
14.000000
1
%%c<>
3
DIMSTYLE_2
100
AcDbAlignedDimension
13
146.2921442270
23
239.9694253227
14
160.2921442270
24
239.9694253227
100
AcDbRotatedDimension
0
DIMENSION
5
27C
100
AcDbEntity
8
0
100
AcDbDimension
62
2
6
CONTINUOUS
2
*D6
10
147.5421442270
20
149.3361686617
11
171.3742431057
21
151.9611686617
70
160
42
11.500000
1
%%c<>
3
DIMSTYLE_3
100
AcDbAlignedDimension
13
159.0421442270
23
139.9694253227
14
147.5421442270
24
139.9694253227
50
180.000000
100
AcDbRotatedDimension
0
DIMENSION
5
27D
100
AcDbEntity
8
0
100
AcDbDimension
62
2
6
CONTINUOUS
2
*D7
10
146.5421442270
20
158.9525036391
11
171.4480229188
21
161.5775036391
70
160
42
13.500000
1
%%c<>
3
DIMSTYLE_3
100
AcDbAlignedDimension
13
160.0421442270
23
136.9694253227
14
146.5421442270
24
136.9694253227
50
180.000000
100
AcDbRotatedDimension
0
DIMENSION
5
27E
100
AcDbEntity
8
0
100
AcDbDimension
62
2
6
CONTINUOUS
2
*D8
10
137.0775303927
20
136.4694253227
11
134.4525303927
21
146.1397471687
70
160
42
3.000000
3
DIMSTYLE_4
100
AcDbAlignedDimension
13
147.0421442270
23
139.4694253227
14
147.0421442270
24
136.4694253227
50
270.000000
100
AcDbRotatedDimension
0
DIMENSION
5
27F
100
AcDbEntity
8
0
100
AcDbDimension
62
2
6
CONTINUOUS
2
*D9
10
130.3964851265
20
139.4694253227
11
127.7714851265
21
131.6956796610
70
160
42
17.000000
3
DIMSTYLE_3
100
AcDbAlignedDimension
13
146.0421442270
23
122.4694253227
14
146.0421442270
24
139.4694253227
50
90.000000
100
AcDbRotatedDimension
0
MTEXT
5
280
100
AcDbEntity
8
0
100
AcDbMText
62
2
6
CONTINUOUS
7
STANDARD
71
1
72
1
10
141.2997094825
20
91.8265660632
30
0.0000000000
11
1.0000000000
21
0.0000000000
31
0.0000000000
1
SEZIONE A-A
40
3.5000000000
41
27.5005500000
0
LINE
5
281
100
AcDbEntity
8
0
100
AcDbLine
62
7
6
CONTINUOUS
10
0.0000000000
20
0.0000000000
11
210.0000000000
21
0.0000000000
0
LINE
5
282
100
AcDbEntity
8
0
100
AcDbLine
62
7
6
CONTINUOUS
10
0.0000000000
20
0.0000000000
11
0.0000000000
21
297.0000000000
0
LINE
5
283
100
AcDbEntity
8
0
100
AcDbLine
62
7
6
CONTINUOUS
10
210.0000000000
20
0.0000000000
11
210.0000000000
21
297.0000000000
0
LINE
5
284
100
AcDbEntity
8
0
100
AcDbLine
62
7
6
CONTINUOUS
10
0.0000000000
20
297.0000000000
11
210.0000000000
21
297.0000000000
0
LINE
5
285
100
AcDbEntity
8
0
100
AcDbLine
62
7
6
CONTINUOUS
10
146.2590759186
20
102.4694253227
11
141.2014147675
21
102.4694253227
0
LINE
5
286
100
AcDbEntity
8
0
100
AcDbLine
62
7
6
CONTINUOUS
10
160.3252125354
20
102.4694253227
11
165.3828736866
21
102.4694253227
0
LINE
5
287
100
AcDbEntity
8
0
100
AcDbLine
62
7
6
CONTINUOUS
10
147.2921442270
20
110.9694253227
11
159.2921442270
21
110.9694253227
0
LINE
5
288
100
AcDbEntity
8
0
100
AcDbLine
62
7
6
CONTINUOUS
10
166.7921442270
20
112.9694253227
11
161.7921442270
21
112.9694253227
0
LINE
5
289
100
AcDbEntity
8
0
100
AcDbLine
62
7
6
CONTINUOUS
10
139.7921442270
20
112.9694253227
11
144.7921442270
21
112.9694253227
0
LINE
5
28A
100
AcDbEntity
8
0
100
AcDbLine
62
7
6
CONTINUOUS
10
144.7921442270
20
114.7194253227
11
161.7921442270
21
114.7194253227
0
LINE
5
28B
100
AcDbEntity
8
0
100
AcDbLine
62
2
6
CONTINUOUS
10
142.1590780853
20
102.4694253227
11
141.0293490075
21
103.5991544005
0
LINE
5
28C
100
AcDbEntity
8
0
100
AcDbLine
62
2
6
CONTINUOUS
10
143.5732916477
20
102.4694253227
11
140.7752537248
21
105.2674632455
0
LINE
5
28D
100
AcDbEntity
8
0
100
AcDbLine
62
2
6
CONTINUOUS
10
146.2921442270
20
237.9687916867
11
147.7927778629
21
239.4694253227
0
LINE
5
28E
100
AcDbEntity
8
0
100
AcDbLine
62
7
6
CONTINUOUS
10
144.7921442270
20
119.7194253227
11
161.7921442270
21
119.7194253227
0
LINE
5
28F
100
AcDbEntity
8
0
100
AcDbLine
62
2
6
CONTINUOUS
10
144.9875052100
20
102.4694253227
11
140.5211584422
21
106.9357720905
0
LINE
5
290
100
AcDbEntity
8
0
100
AcDbLine
62
2
6
CONTINUOUS
10
146.2334469209
20
102.6376971742
11
140.2670631596
21
108.6040809355
0
LINE
5
291
100
AcDbEntity
8
0
100
AcDbLine
62
2
6
CONTINUOUS
10
145.9793516382
20
104.3060060192
11
140.0129678770
21
110.2723897805
0
LINE
5
292
100
AcDbEntity
8
0
100
AcDbLine
62
2
6
CONTINUOUS
10
145.7252563556
20
105.9743148642
11
139.7921442270
21
111.9074269928
0
LINE
5
293
100
AcDbEntity
8
0
100
AcDbLine
62
2
6
CONTINUOUS
10
146.2921442270
20
235.1403645620
11
150.6212049877
21
239.4694253227
0
LINE
5
294
100
AcDbEntity
8
0
100
AcDbLine
62
2
6
CONTINUOUS
10
146.2921442270
20
232.3119374372
11
153.4496321124
21
239.4694253227
0
LINE
5
295
100
AcDbEntity
8
0
100
AcDbLine
62
2
6
CONTINUOUS
10
146.2921442270
20
229.4835103125
11
156.2780592372
21
239.4694253227
0
LINE
5
296
100
AcDbEntity
8
0
100
AcDbLine
62
7
6
CONTINUOUS
10
166.7921442270
20
121.4694253227
11
161.7921442270
21
121.4694253227
0
LINE
5
297
100
AcDbEntity
8
0
100
AcDbLine
62
7
6
CONTINUOUS
10
139.7921442270
20
121.4694253227
11
144.7921442270
21
121.4694253227
0
LINE
5
298
100
AcDbEntity
8
0
100
AcDbLine
62
7
6
CONTINUOUS
10
146.5421442270
20
122.4694253227
11
160.0421442270
21
122.4694253227
0
LINE
5
299
100
AcDbEntity
8
0
100
AcDbLine
62
2
6
CONTINUOUS
10
145.4711610730
20
107.6426237092
11
140.1443594595
21
112.9694253227
0
LINE
5
29A
100
AcDbEntity
8
0
100
AcDbLine
62
2
6
CONTINUOUS
10
145.3105167702
20
109.2174815744
11
141.5585730219
21
112.9694253227
0
LINE
5
29B
100
AcDbEntity
8
0
100
AcDbLine
62
2
6
CONTINUOUS
10
145.7291968283
20
110.2130150786
11
142.9727865843
21
112.9694253227
0
LINE
5
29C
100
AcDbEntity
8
0
100
AcDbLine
62
2
6
CONTINUOUS
10
146.5377721427
20
110.8186533266
11
144.3870001466
21
112.9694253227
0
LINE
5
29D
100
AcDbEntity
8
0
100
AcDbLine
62
2
6
CONTINUOUS
10
147.8012137090
20
110.9694253227
11
144.7921442270
21
113.9784948047
0
LINE
5
29E
100
AcDbEntity
8
0
100
AcDbLine
62
2
6
CONTINUOUS
10
146.2921442270
20
226.6550831878
11
159.1064863619
21
239.4694253227
0
LINE
5
29F
100
AcDbEntity
8
0
100
AcDbLine
62
2
6
CONTINUOUS
10
146.2921442270
20
223.8266560630
11
160.2921442270
21
237.8266560630
0
LINE
5
2A0
100
AcDbEntity
8
0
100
AcDbLine
62
2
6
CONTINUOUS
10
149.2154272714
20
110.9694253227
11
145.4654272714
21
114.7194253227
0
LINE
5
2A1
100
AcDbEntity
8
0
100
AcDbLine
62
2
6
CONTINUOUS
10
150.6296408338
20
110.9694253227
11
146.8796408338
21
114.7194253227
0
LINE
5
2A2
100
AcDbEntity
8
0
100
AcDbLine
62
2
6
CONTINUOUS
10
140.1296408338
20
121.4694253227
11
139.7921442270
21
121.8069219294
0
LINE
5
2A3
100
AcDbEntity
8
0
100
AcDbLine
62
2
6
CONTINUOUS
10
152.0438543961
20
110.9694253227
11
148.2938543961
21
114.7194253227
0
LINE
5
2A4
100
AcDbEntity
8
0
100
AcDbLine
62
2
6
CONTINUOUS
10
141.5438543961
20
121.4694253227
11
139.8305223036
21
123.1827574152
0
LINE
5
2A5
100
AcDbEntity
8
0
100
AcDbLine
62
2
6
CONTINUOUS
10
161.6478449746
20
102.4694253227
11
160.5000325218
21
103.6172377755
0
LINE
5
2A6
100
AcDbEntity
8
0
100
AcDbLine
62
2
6
CONTINUOUS
10
153.2921442270
20
111.1353490541
11
149.7080679585
21
114.7194253227
0
LINE
5
2A7
100
AcDbEntity
8
0
100
AcDbLine
62
2
6
CONTINUOUS
10
142.9580679585
20
121.4694253227
11
140.1072162614
21
124.3202770197
0
LINE
5
2A8
100
AcDbEntity
8
0
100
AcDbLine
62
2
6
CONTINUOUS
10
163.0620585370
20
102.4694253227
11
160.6869573154
21
104.8445265442
0
LINE
5
2A9
100
AcDbEntity
8
0
100
AcDbLine
62
2
6
CONTINUOUS
10
154.5620585370
20
110.9694253227
11
153.2921442270
21
112.2393396326
0
LINE
5
2AA
100
AcDbEntity
8
0
100
AcDbLine
62
2
6
CONTINUOUS
10
153.2921442270
20
112.5495626165
11
151.1222815209
21
114.7194253227
0
LINE
5
2AB
100
AcDbEntity
8
0
100
AcDbLine
62
2
6
CONTINUOUS
10
146.1222815209
20
119.7194253227
11
144.7921442270
21
121.0495626165
0
LINE
5
2AC
100
AcDbEntity
8
0
100
AcDbLine
62
2
6
CONTINUOUS
10
144.3722815209
20
121.4694253227
11
140.3839102193
21
125.4577966242
0
LINE
5
2AD
100
AcDbEntity
8
0
100
AcDbLine
62
2
6
CONTINUOUS
10
146.2921442270
20
220.9982289383
11
160.2921442270
21
234.9982289383
0
LINE
5
2AE
100
AcDbEntity
8
0
100
AcDbLine
62
2
6
CONTINUOUS
10
146.2921442270
20
218.1698018135
11
160.2921442270
21
232.1698018135
0
LINE
5
2AF
100
AcDbEntity
8
0
100
AcDbLine
62
7
6
CONTINUOUS
10
146.2921442270
20
130.4694253227
11
160.2921442270
21
130.4694253227
0
LINE
5
2B0
100
AcDbEntity
8
0
100
AcDbLine
62
2
6
CONTINUOUS
10
164.4762720994
20
102.4694253227
11
160.8738821090
21
106.0718153130
0
LINE
5
2B1
100
AcDbEntity
8
0
100
AcDbLine
62
2
6
CONTINUOUS
10
155.9762720994
20
110.9694253227
11
153.2921442270
21
113.6535531950
0
LINE
5
2B2
100
AcDbEntity
8
0
100
AcDbLine
62
2
6
CONTINUOUS
10
153.2921442270
20
113.9637761789
11
152.5364950832
21
114.7194253227
0
LINE
5
2B3
100
AcDbEntity
8
0
100
AcDbLine
62
2
6
CONTINUOUS
10
147.5364950832
20
119.7194253227
11
140.6606041771
21
126.5953162288
0
LINE
5
2B4
100
AcDbEntity
8
0
100
AcDbLine
62
2
6
CONTINUOUS
10
165.4499677000
20
102.9099432844
11
161.0608069027
21
107.2991040817
0
LINE
5
2B5
100
AcDbEntity
8
0
100
AcDbLine
62
2
6
CONTINUOUS
10
157.3904856617
20
110.9694253227
11
153.6404856617
21
114.7194253227
0
LINE
5
2B6
100
AcDbEntity
8
0
100
AcDbLine
62
2
6
CONTINUOUS
10
148.9507086456
20
119.7194253227
11
140.9372981350
21
127.7328358333
0
LINE
5
2B7
100
AcDbEntity
8
0
100
AcDbLine
62
2
6
CONTINUOUS
10
165.6368924936
20
104.1372320532
11
161.2477316963
21
108.5263928505
0
LINE
5
2B8
100
AcDbEntity
8
0
100
AcDbLine
62
2
6
CONTINUOUS
10
158.8046992241
20
110.9694253227
11
155.0546992241
21
114.7194253227
0
LINE
5
2B9
100
AcDbEntity
8
0
100
AcDbLine
62
2
6
CONTINUOUS
10
150.3649222080
20
119.7194253227
11
147.6149222080
21
122.4694253227
0
LINE
5
2BA
100
AcDbEntity
8
0
100
AcDbLine
62
2
6
CONTINUOUS
10
146.5421442270
20
123.5422033036
11
141.2139920929
21
128.8703554378
0
LINE
5
2BB
100
AcDbEntity
8
0
100
AcDbLine
62
2
6
CONTINUOUS
10
165.8238172872
20
105.3645208219
11
156.4689127865
21
114.7194253227
0
LINE
5
2BC
100
AcDbEntity
8
0
100
AcDbLine
62
2
6
CONTINUOUS
10
151.7791357704
20
119.7194253227
11
149.0291357704
21
122.4694253227
0
LINE
5
2BD
100
AcDbEntity
8
0
100
AcDbLine
62
2
6
CONTINUOUS
10
146.5421442270
20
124.9564168660
11
141.4906860507
21
130.0078750423
0
LINE
5
2BE
100
AcDbEntity
8
0
100
AcDbLine
62
2
6
CONTINUOUS
10
146.2921442270
20
215.3413746888
11
160.2921442270
21
229.3413746888
0
LINE
5
2BF
100
AcDbEntity
8
0
100
AcDbLine
62
2
6
CONTINUOUS
10
146.2921442270
20
212.5129475640
11
160.2921442270
21
226.5129475640
0
LINE
5
2C0
100
AcDbEntity
8
0
100
AcDbLine
62
2
6
CONTINUOUS
10
146.2921442270
20
209.6845204393
11
160.2921442270
21
223.6845204393
0
LINE
5
2C1
100
AcDbEntity
8
0
100
AcDbLine
62
7
6
CONTINUOUS
10
146.2921442270
20
136.4694253227
11
147.5421442270
21
136.4694253227
0
LINE
5
2C2
100
AcDbEntity
8
0
100
AcDbLine
62
7
6
CONTINUOUS
10
159.0421442270
20
136.4694253227
11
160.2921442270
21
136.4694253227
0
LINE
5
2C3
100
AcDbEntity
8
0
100
AcDbLine
62
2
6
CONTINUOUS
10
166.0107420809
20
106.5918095907
11
157.8831263489
21
114.7194253227
0
LINE
5
2C4
100
AcDbEntity
8
0
100
AcDbLine
62
2
6
CONTINUOUS
10
153.1933493327
20
119.7194253227
11
150.4433493327
21
122.4694253227
0
LINE
5
2C5
100
AcDbEntity
8
0
100
AcDbLine
62
2
6
CONTINUOUS
10
146.5421442270
20
126.3706304284
11
141.7673800086
21
131.1453946468
0
LINE
5
2C6
100
AcDbEntity
8
0
100
AcDbLine
62
2
6
CONTINUOUS
10
166.1976668745
20
107.8190983594
11
159.2973399112
21
114.7194253227
0
LINE
5
2C7
100
AcDbEntity
8
0
100
AcDbLine
62
2
6
CONTINUOUS
10
154.2973399112
20
119.7194253227
11
153.2921442270
21
120.7246210069
0
LINE
5
2C8
100
AcDbEntity
8
0
100
AcDbLine
62
2
6
CONTINUOUS
10
153.2921442270
20
121.0348439908
11
151.8575628951
21
122.4694253227
0
LINE
5
2C9
100
AcDbEntity
8
0
100
AcDbLine
62
2
6
CONTINUOUS
10
146.5421442270
20
127.7848439908
11
142.0440739664
21
132.2829142513
0
LINE
5
2CA
100
AcDbEntity
8
0
100
AcDbLine
62
2
6
CONTINUOUS
10
166.3845916681
20
109.0463871282
11
162.4615534736
21
112.9694253227
0
LINE
5
2CB
100
AcDbEntity
8
0
100
AcDbLine
62
2
6
CONTINUOUS
10
161.7921442270
20
113.6388345693
11
160.7115534736
21
114.7194253227
0
LINE
5
2CC
100
AcDbEntity
8
0
100
AcDbLine
62
2
6
CONTINUOUS
10
155.7115534736
20
119.7194253227
11
153.2921442270
21
122.1388345693
0
LINE
5
2CD
100
AcDbEntity
8
0
100
AcDbLine
62
2
6
CONTINUOUS
10
153.2921442270
20
122.4490575531
11
153.2717764575
21
122.4694253227
0
LINE
5
2CE
100
AcDbEntity
8
0
100
AcDbLine
62
2
6
CONTINUOUS
10
146.5421442270
20
129.1990575531
11
142.3207679243
21
133.4204338559
0
LINE
5
2CF
100
AcDbEntity
8
0
100
AcDbLine
62
2
6
CONTINUOUS
10
166.5715164617
20
110.2736758969
11
163.8757670360
21
112.9694253227
0
LINE
5
2D0
100
AcDbEntity
8
0
100
AcDbLine
62
2
6
CONTINUOUS
10
157.1257670360
20
119.7194253227
11
154.3757670360
21
122.4694253227
0
LINE
5
2D1
100
AcDbEntity
8
0
100
AcDbLine
62
2
6
CONTINUOUS
10
146.5421442270
20
130.6132711155
11
142.5974618821
21
134.5579534604
0
LINE
5
2D2
100
AcDbEntity
8
0
100
AcDbLine
62
2
6
CONTINUOUS
10
166.7584412554
20
111.5009646657
11
165.2899805984
21
112.9694253227
0
LINE
5
2D3
100
AcDbEntity
8
0
100
AcDbLine
62
2
6
CONTINUOUS
10
158.5399805984
20
119.7194253227
11
155.7899805984
21
122.4694253227
0
LINE
5
2D4
100
AcDbEntity
8
0
100
AcDbLine
62
2
6
CONTINUOUS
10
146.5421442270
20
132.0274846779
11
142.8741558400
21
135.6954730649
0
LINE
5
2D5
100
AcDbEntity
8
0
100
AcDbLine
62
2
6
CONTINUOUS
10
146.2921442270
20
206.8560933145
11
160.2921442270
21
220.8560933145
0
LINE
5
2D6
100
AcDbEntity
8
0
100
AcDbLine
62
2
6
CONTINUOUS
10
146.2921442270
20
204.0276661898
11
160.2921442270
21
218.0276661898
0
LINE
5
2D7
100
AcDbEntity
8
0
100
AcDbLine
62
7
6
CONTINUOUS
10
147.5421442270
20
139.4694253227
11
143.7921442270
21
139.4694253227
0
LINE
5
2D8
100
AcDbEntity
8
0
100
AcDbLine
62
7
6
CONTINUOUS
10
159.0421442270
20
139.4694253227
11
162.7921442270
21
139.4694253227
0
LINE
5
2D9
100
AcDbEntity
8
0
100
AcDbLine
62
2
6
CONTINUOUS
10
166.7921442270
20
112.8814752564
11
166.7041941607
21
112.9694253227
0
LINE
5
2DA
100
AcDbEntity
8
0
100
AcDbLine
62
2
6
CONTINUOUS
10
159.9541941607
20
119.7194253227
11
157.2041941607
21
122.4694253227
0
LINE
5
2DB
100
AcDbEntity
8
0
100
AcDbLine
62
2
6
CONTINUOUS
10
146.5421442270
20
133.4416982402
11
143.1508497978
21
136.8329926694
0
LINE
5
2DC
100
AcDbEntity
8
0
100
AcDbLine
62
2
6
CONTINUOUS
10
161.3684077231
20
119.7194253227
11
158.6184077231
21
122.4694253227
0
LINE
5
2DD
100
AcDbEntity
8
0
100
AcDbLine
62
2
6
CONTINUOUS
10
146.5421442270
20
134.8559118026
11
143.4275437557
21
137.9705122739
0
LINE
5
2DE
100
AcDbEntity
8
0
100
AcDbLine
62
2
6
CONTINUOUS
10
161.7921442270
20
120.7099023811
11
160.0326212855
21
122.4694253227
0
LINE
5
2DF
100
AcDbEntity
8
0
100
AcDbLine
62
2
6
CONTINUOUS
10
146.5421442270
20
136.2701253650
11
143.7042377136
21
139.1080318785
0
LINE
5
2E0
100
AcDbEntity
8
0
100
AcDbLine
62
2
6
CONTINUOUS
10
162.4468348479
20
121.4694253227
11
160.0421442270
21
123.8741159435
0
LINE
5
2E1
100
AcDbEntity
8
0
100
AcDbLine
62
2
6
CONTINUOUS
10
147.5421442270
20
136.6843389274
11
144.7570578317
21
139.4694253227
0
LINE
5
2E2
100
AcDbEntity
8
0
100
AcDbLine
62
2
6
CONTINUOUS
10
163.8610484102
20
121.4694253227
11
160.0421442270
21
125.2883295059
0
LINE
5
2E3
100
AcDbEntity
8
0
100
AcDbLine
62
2
6
CONTINUOUS
10
147.5421442270
20
138.0985524897
11
146.1712713941
21
139.4694253227
0
LINE
5
2E4
100
AcDbEntity
8
0
100
AcDbLine
62
2
6
CONTINUOUS
10
146.2921442270
20
201.1992390650
11
160.2921442270
21
215.1992390650
0
LINE
5
2E5
100
AcDbEntity
8
0
100
AcDbLine
62
2
6
CONTINUOUS
10
146.2921442270
20
198.3708119403
11
160.2921442270
21
212.3708119403
0
LINE
5
2E6
100
AcDbEntity
8
0
100
AcDbLine
62
2
6
CONTINUOUS
10
165.2752619726
20
121.4694253227
11
160.0421442270
21
126.7025430682
0
LINE
5
2E7
100
AcDbEntity
8
0
100
AcDbLine
62
2
6
CONTINUOUS
10
166.6894755350
20
121.4694253227
11
160.0421442270
21
128.1167566306
0
LINE
5
2E8
100
AcDbEntity
8
0
100
AcDbLine
62
2
6
CONTINUOUS
10
166.7921442270
20
122.7809701930
11
160.0421442270
21
129.5309701930
0
LINE
5
2E9
100
AcDbEntity
8
0
100
AcDbLine
62
2
6
CONTINUOUS
10
166.4160075879
20
124.5713203944
11
160.0421442270
21
130.9451837554
0
LINE
5
2EA
100
AcDbEntity
8
0
100
AcDbLine
62
2
6
CONTINUOUS
10
146.2921442270
20
195.5423848155
11
160.2921442270
21
209.5423848155
0
LINE
5
2EB
100
AcDbEntity
8
0
100
AcDbLine
62
2
6
CONTINUOUS
10
146.2921442270
20
192.7139576908
11
160.2921442270
21
206.7139576908
0
LINE
5
2EC
100
AcDbEntity
8
0
100
AcDbLine
62
2
6
CONTINUOUS
10
146.2921442270
20
189.8855305661
11
160.2921442270
21
203.8855305661
0
LINE
5
2ED
100
AcDbEntity
8
0
100
AcDbLine
62
2
6
CONTINUOUS
10
165.9614389429
20
126.4401026019
11
160.0421442270
21
132.3593973177
0
LINE
5
2EE
100
AcDbEntity
8
0
100
AcDbLine
62
2
6
CONTINUOUS
10
165.5068702978
20
128.3088848093
11
160.0421442270
21
133.7736108801
0
LINE
5
2EF
100
AcDbEntity
8
0
100
AcDbLine
62
2
6
CONTINUOUS
10
165.0523016528
20
130.1776670167
11
160.0421442270
21
135.1878244425
0
LINE
5
2F0
100
AcDbEntity
8
0
100
AcDbLine
62
2
6
CONTINUOUS
10
164.5977330077
20
132.0464492241
11
159.0421442270
21
137.6020380049
0
LINE
5
2F1
100
AcDbEntity
8
0
100
AcDbLine
62
2
6
CONTINUOUS
10
164.1431643627
20
133.9152314316
11
159.0421442270
21
139.0162515672
0
LINE
5
2F2
100
AcDbEntity
8
0
100
AcDbLine
62
7
6
CONTINUOUS
10
139.7921442270
20
111.7222476628
11
141.2014147675
21
102.4694253227
0
LINE
5
2F3
100
AcDbEntity
8
0
100
AcDbLine
62
7
6
CONTINUOUS
10
139.7921442270
20
111.7222476628
11
139.7921442270
21
123.0249808782
0
LINE
5
2F4
100
AcDbEntity
8
0
100
AcDbLine
62
2
6
CONTINUOUS
10
146.2921442270
20
187.0571034413
11
160.2921442270
21
201.0571034413
0
LINE
5
2F5
100
AcDbEntity
8
0
100
AcDbLine
62
2
6
CONTINUOUS
10
146.2921442270
20
184.2286763166
11
160.2921442270
21
198.2286763166
0
LINE
5
2F6
100
AcDbEntity
8
0
100
AcDbLine
62
2
6
CONTINUOUS
10
163.6885957176
20
135.7840136390
11
160.0031840340
21
139.4694253227
0
LINE
5
2F7
100
AcDbEntity
8
0
100
AcDbLine
62
2
6
CONTINUOUS
10
163.2340270726
20
137.6527958464
11
161.4173975963
21
139.4694253227
0
LINE
5
2F8
100
AcDbEntity
8
0
100
AcDbLine
62
7
6
CONTINUOUS
10
146.2590759186
20
102.4694253227
11
145.3149457352
21
108.6682839536
0
LINE
5
2F9
100
AcDbEntity
8
0
100
AcDbLine
62
2
6
CONTINUOUS
10
146.2921442270
20
181.4002491918
11
160.2921442270
21
195.4002491918
0
LINE
5
2FA
100
AcDbEntity
8
0
100
AcDbLine
62
2
6
CONTINUOUS
10
146.2921442270
20
178.5718220671
11
160.2921442270
21
192.5718220671
0
LINE
5
2FB
100
AcDbEntity
8
0
100
AcDbLine
62
7
6
CONTINUOUS
10
144.7921442270
20
112.9694253227
11
144.7921442270
21
121.4694253227
0
LINE
5
2FC
100
AcDbEntity
8
0
100
AcDbLine
62
7
6
CONTINUOUS
10
146.2921442270
20
130.4694253227
11
146.2921442270
21
136.4694253227
0
LINE
5
2FD
100
AcDbEntity
8
0
100
AcDbLine
62
7
6
CONTINUOUS
10
146.2921442270
20
139.4694253227
11
146.2921442270
21
239.4694253227
0
LINE
5
2FE
100
AcDbEntity
8
0
100
AcDbLine
62
7
6
CONTINUOUS
10
146.5421442270
20
136.4694253227
11
146.5421442270
21
122.4694253227
0
LINE
5
2FF
100
AcDbEntity
8
0
100
AcDbLine
62
7
6
CONTINUOUS
10
147.2921442270
20
136.4694253227
11
147.2921442270
21
139.4694253227
0
LINE
5
300
100
AcDbEntity
8
0
100
AcDbLine
62
7
6
CONTINUOUS
10
147.5421442270
20
139.4694253227
11
147.5421442270
21
136.4694253227
0
LINE
5
301
100
AcDbEntity
8
0
100
AcDbLine
62
2
6
CONTINUOUS
10
146.2921442270
20
175.7433949423
11
160.2921442270
21
189.7433949423
0
LINE
5
302
100
AcDbEntity
8
0
100
AcDbLine
62
2
6
CONTINUOUS
10
146.2921442270
20
172.9149678176
11
160.2921442270
21
186.9149678176
0
LINE
5
303
100
AcDbEntity
8
0
100
AcDbLine
62
2
6
CONTINUOUS
10
146.2921442270
20
170.0865406928
11
160.2921442270
21
184.0865406928
0
LINE
5
304
100
AcDbEntity
8
0
100
AcDbLine
62
7
6
CONTINUOUS
10
153.2921442270
20
110.9694253227
11
153.2921442270
21
130.4694253227
0
LINE
5
305
100
AcDbEntity
8
0
100
AcDbLine
62
7
6
CONTINUOUS
10
143.7921442270
20
139.4694253227
11
139.7921442270
21
123.0249808782
0
LINE
5
306
100
AcDbEntity
8
0
100
AcDbLine
62
2
6
CONTINUOUS
10
146.2921442270
20
167.2581135681
11
160.2921442270
21
181.2581135681
0
LINE
5
307
100
AcDbEntity
8
0
100
AcDbLine
62
2
6
CONTINUOUS
10
146.2921442270
20
164.4296864433
11
160.2921442270
21
178.4296864433
0
LINE
5
308
100
AcDbEntity
8
0
100
AcDbLine
62
2
6
CONTINUOUS
10
146.2921442270
20
161.6012593186
11
160.2921442270
21
175.6012593186
0
LINE
5
309
100
AcDbEntity
8
0
100
AcDbLine
62
2
6
CONTINUOUS
10
146.2921442270
20
158.7728321938
11
160.2921442270
21
172.7728321938
0
LINE
5
30A
100
AcDbEntity
8
0
100
AcDbLine
62
7
6
CONTINUOUS
10
162.7921442270
20
139.4694253227
11
166.7921442270
21
123.0249808782
0
LINE
5
30B
100
AcDbEntity
8
0
100
AcDbLine
62
7
6
CONTINUOUS
10
159.0421442270
20
139.4694253227
11
159.0421442270
21
136.4694253227
0
LINE
5
30C
100
AcDbEntity
8
0
100
AcDbLine
62
7
6
CONTINUOUS
10
159.2921442270
20
136.4694253227
11
159.2921442270
21
139.4694253227
0
LINE
5
30D
100
AcDbEntity
8
0
100
AcDbLine
62
7
6
CONTINUOUS
10
160.0421442270
20
136.4694253227
11
160.0421442270
21
122.4694253227
0
LINE
5
30E
100
AcDbEntity
8
0
100
AcDbLine
62
7
6
CONTINUOUS
10
160.2921442270
20
130.4694253227
11
160.2921442270
21
136.4694253227
0
LINE
5
30F
100
AcDbEntity
8
0
100
AcDbLine
62
7
6
CONTINUOUS
10
160.2921442270
20
139.4694253227
11
160.2921442270
21
239.4694253227
0
LINE
5
310
100
AcDbEntity
8
0
100
AcDbLine
62
7
6
CONTINUOUS
10
161.7921442270
20
112.9694253227
11
161.7921442270
21
121.4694253227
0
LINE
5
311
100
AcDbEntity
8
0
100
AcDbLine
62
2
6
CONTINUOUS
10
146.2921442270
20
155.9444050691
11
160.2921442270
21
169.9444050691
0
LINE
5
312
100
AcDbEntity
8
0
100
AcDbLine
62
2
6
CONTINUOUS
10
146.2921442270
20
153.1159779444
11
160.2921442270
21
167.1159779444
0
LINE
5
313
100
AcDbEntity
8
0
100
AcDbLine
62
2
6
CONTINUOUS
10
146.2921442270
20
150.2875508196
11
160.2921442270
21
164.2875508196
0
LINE
5
314
100
AcDbEntity
8
0
100
AcDbLine
62
7
6
CONTINUOUS
10
166.7921442270
20
123.0249808782
11
166.7921442270
21
111.7222476628
0
LINE
5
315
100
AcDbEntity
8
0
100
AcDbLine
62
2
6
CONTINUOUS
10
146.2921442270
20
147.4591236949
11
160.2921442270
21
161.4591236949
0
LINE
5
316
100
AcDbEntity
8
0
100
AcDbLine
62
2
6
CONTINUOUS
10
146.2921442270
20
144.6306965701
11
160.2921442270
21
158.6306965701
0
LINE
5
317
100
AcDbEntity
8
0
100
AcDbLine
62
7
6
CONTINUOUS
10
160.3252125354
20
102.4694253227
11
161.2693427188
21
108.6682839536
0
LINE
5
318
100
AcDbEntity
8
0
100
AcDbLine
62
2
6
CONTINUOUS
10
146.2921442270
20
141.8022694454
11
160.2921442270
21
155.8022694454
0
LINE
5
319
100
AcDbEntity
8
0
100
AcDbLine
62
2
6
CONTINUOUS
10
146.7877272290
20
139.4694253227
11
160.2921442270
21
152.9738423206
0
LINE
5
31A
100
AcDbEntity
8
0
100
AcDbLine
62
7
6
CONTINUOUS
10
166.7921442270
20
111.7222476628
11
165.3828736866
21
102.4694253227
0
LINE
5
31B
100
AcDbEntity
8
0
100
AcDbLine
62
2
6
CONTINUOUS
10
146.2921442270
20
136.1454151959
11
146.6161543538
21
136.4694253227
0
LINE
5
31C
100
AcDbEntity
8
0
100
AcDbLine
62
2
6
CONTINUOUS
10
147.2921442270
20
137.1454151959
11
160.2921442270
21
150.1454151959
0
LINE
5
31D
100
AcDbEntity
8
0
100
AcDbLine
62
2
6
CONTINUOUS
10
146.2921442270
20
133.3169880711
11
160.2921442270
21
147.3169880711
0
LINE
5
31E
100
AcDbEntity
8
0
100
AcDbLine
62
2
6
CONTINUOUS
10
146.2921442270
20
130.4885609464
11
160.2921442270
21
144.4885609464
0
LINE
5
31F
100
AcDbEntity
8
0
100
AcDbLine
62
2
6
CONTINUOUS
10
149.1014357280
20
130.4694253227
11
160.2921442270
21
141.6601338216
0
LINE
5
320
100
AcDbEntity
8
0
100
AcDbLine
62
2
6
CONTINUOUS
10
151.9298628528
20
130.4694253227
11
159.2921442270
21
137.8317066969
0
LINE
5
321
100
AcDbEntity
8
0
100
AcDbLine
62
2
6
CONTINUOUS
10
154.7582899775
20
130.4694253227
11
160.2921442270
21
136.0032795721
0
LINE
5
322
100
AcDbEntity
8
0
100
AcDbLine
62
2
6
CONTINUOUS
10
157.5867171023
20
130.4694253227
11
160.2921442270
21
133.1748524474
0
LINE
5
323
100
AcDbEntity
8
0
100
AcDbLine
62
7
6
CONTINUOUS
10
146.2921442270
20
239.4694253227
11
160.2921442270
21
239.4694253227
0
LINE
5
324
100
AcDbEntity
8
0
100
AcDbLine
62
7
6
CONTINUOUS
10
48.9781923086
20
102.4694253227
11
75.9781923086
21
102.4694253227
0
LINE
5
325
100
AcDbEntity
8
0
100
AcDbLine
62
7
6
CONTINUOUS
10
71.5219851373
20
111.7222476628
11
53.4343994800
21
111.7222476628
0
LINE
5
326
100
AcDbEntity
8
0
100
AcDbLine
62
7
6
CONTINUOUS
10
71.9781923086
20
139.4694253227
11
52.9781923086
21
139.4694253227
0
LINE
5
327
100
AcDbEntity
8
0
100
AcDbLine
62
7
6
CONTINUOUS
10
48.9781923086
20
102.4694253227
11
48.9781923086
21
123.0249808782
0
LINE
5
328
100
AcDbEntity
8
0
100
AcDbLine
62
7
6
CONTINUOUS
10
49.4781923086
20
102.4694253227
11
49.4781923086
21
104.6163973877
0
LINE
5
329
100
AcDbEntity
8
0
100
AcDbLine
62
7
6
CONTINUOUS
10
55.4781923086
20
139.4694253227
11
55.4781923086
21
239.4694253227
0
LINE
5
32A
100
AcDbEntity
8
0
100
AcDbLine
62
7
6
CONTINUOUS
10
52.9781923086
20
139.4694253227
11
48.9781923086
21
123.0249808782
0
LINE
5
32B
100
AcDbEntity
8
0
100
AcDbLine
62
7
6
CONTINUOUS
10
71.9781923086
20
139.4694253227
11
75.9781923086
21
123.0249808782
0
LINE
5
32C
100
AcDbEntity
8
0
100
AcDbLine
62
7
6
CONTINUOUS
10
69.4781923086
20
139.4694253227
11
69.4781923086
21
239.4694253227
0
LINE
5
32D
100
AcDbEntity
8
0
100
AcDbLine
62
7
6
CONTINUOUS
10
75.4781923086
20
104.6163973877
11
75.4781923086
21
102.4694253227
0
LINE
5
32E
100
AcDbEntity
8
0
100
AcDbLine
62
7
6
CONTINUOUS
10
75.9781923086
20
123.0249808782
11
75.9781923086
21
102.4694253227
0
LINE
5
32F
100
AcDbEntity
8
0
100
AcDbLine
62
7
6
CONTINUOUS
10
55.4781923086
20
239.4694253227
11
69.4781923086
21
239.4694253227
0
ARC
5
330
100
AcDbEntity
8
0
100
AcDbCircle
62
7
6
CONTINUOUS
10
147.2921442270
20
108.9694253227
40
2.0000000000
100
AcDbArc
50
90.0000000000
51
188.6600000000
0
ARC
5
331
100
AcDbEntity
8
0
100
AcDbCircle
62
7
6
CONTINUOUS
10
159.2921442270
20
108.9694253227
40
2.0000000000
100
AcDbArc
50
351.3400000000
51
90.0000000000
0
CIRCLE
5
332
100
AcDbEntity
8
0
100
AcDbCircle
62
7
6
CONTINUOUS
10
62.4781923086
20
117.2194253227
40
2.5000000000
0
CIRCLE
5
333
100
AcDbEntity
8
0
100
AcDbCircle
62
7
6
CONTINUOUS
10
62.4781923086
20
117.2194253227
40
4.2500000000
0
SPLINE
5
334
100
AcDbEntity
8
0
100
AcDbSpline
62
7
6
CONTINUOUS
70
0
71
3
72
19
73
15
74
13
42
0.0000001000
43
0.0000001000
44
0.0000000001
12
0.4476040622
22
-0.9288944472
32
0.0000000000
13
-0.0000000000
23
1.0311131318
33
0.0000000000
40
0.0000000000
40
0.0000000000
40
0.0000000000
40
0.0000000000
40
0.1214467516
40
0.2318745507
40
0.3318238333
40
0.4194294629
40
0.4944284554
40
0.5567079429
40
0.6069619628
40
0.6591759381
40
0.7247286239
40
0.8036390853
40
0.8956731674
40
1.0000000000
40
1.0000000000
40
1.0000000000
40
1.0000000000
10
75.4781923086
20
104.6163973877
30
0.0000000000
10
75.4963123284
20
104.5787936499
30
0.0000000000
10
75.5323231565
20
104.5076647011
30
0.0000000000
10
75.5888236587
20
104.4085221010
30
0.0000000000
10
75.6451195767
20
104.3228819537
30
0.0000000000
10
75.7010918671
20
104.2518198634
30
0.0000000000
10
75.7568380635
20
104.1979928219
30
0.0000000000
10
75.8123721095
20
104.1631235556
30
0.0000000000
10
75.8733053025
20
104.1599258984
30
0.0000000000
10
75.9198459803
20
104.2007476773
30
0.0000000000
10
75.9475346351
20
104.2630327398
30
0.0000000000
10
75.9661845724
20
104.3424684066
30
0.0000000000
10
75.9762985223
20
104.4366812119
30
0.0000000000
10
75.9781923086
20
104.5042007381
30
0.0000000000
10
75.9781923086
20
104.5400583271
30
0.0000000000
11
75.4781923086
21
104.6163973877
31
0.0000000000
11
75.5349866303
21
104.5047918730
31
0.0000000000
11
75.5916889409
21
104.4060510159
31
0.0000000000
11
75.6487437879
21
104.3202261618
31
0.0000000000
11
75.7054174145
21
104.2498852312
31
0.0000000000
11
75.7619677386
21
104.1971370743
31
0.0000000000
11
75.8184744201
21
104.1666273481
31
0.0000000000
11
75.8702916254
21
104.1664303235
31
0.0000000000
11
75.9129979445
21
104.1992137961
31
0.0000000000
11
75.9438121469
21
104.2593735432
31
0.0000000000
11
75.9636154844
21
104.3382924307
31
0.0000000000
11
75.9746779883
21
104.4325429804
31
0.0000000000
11
75.9781923086
21
104.5400583271
31
0.0000000000
0
SPLINE
5
335
100
AcDbEntity
8
0
100
AcDbSpline
62
7
6
CONTINUOUS
70
0
71
3
72
10
73
6
74
4
42
0.0000001000
43
0.0000001000
44
0.0000000001
12
-3.5328932424
22
7.3316691969
32
0.0000000000
13
-4.5037609838
23
6.7787052507
33
0.0000000000
40
0.0000000000
40
0.0000000000
40
0.0000000000
40
0.0000000000
40
0.3645107488
40
0.6967584567
40
1.0000000000
40
1.0000000000
40
1.0000000000
40
1.0000000000
10
75.4781923086
20
104.6163973877
30
0.0000000000
10
75.0489331216
20
105.5072214640
30
0.0000000000
10
74.2006706361
20
107.1969628477
30
0.0000000000
10
72.8859409958
20
109.5707867534
30
0.0000000000
10
71.9772276145
20
111.0370526488
30
0.0000000000
10
71.5219851373
20
111.7222476628
30
0.0000000000
11
75.4781923086
21
104.6163973877
31
0.0000000000
11
74.1428399068
21
107.2654184946
31
0.0000000000
11
72.8277924424
21
109.6280870757
31
0.0000000000
11
71.5219851373
21
111.7222476628
31
0.0000000000
0
SPLINE
5
336
100
AcDbEntity
8
0
100
AcDbSpline
62
7
6
CONTINUOUS
70
0
71
3
72
30
73
26
74
24
42
0.0000001000
43
0.0000001000
44
0.0000000001
12
-12.0756513887
22
27.6302853090
32
0.0000000000
13
-12.0756513887
23
-27.6302853090
33
0.0000000000
40
0.0000000000
40
0.0000000000
40
0.0000000000
40
0.0000000000
40
0.0715294607
40
0.1361946745
40
0.1946191923
40
0.2473576929
40
0.2948659662
40
0.3375096599
40
0.3756083052
40
0.4094545590
40
0.4393347755
40
0.4655223621
40
0.4888613863
40
0.5111424112
40
0.5345050113
40
0.5607300592
40
0.5906691483
40
0.6245623858
40
0.6626920836
40
0.7053508567
40
0.7528552447
40
0.8055702922
40
0.8639536822
40
0.9285574908
40
1.0000000000
40
1.0000000000
40
1.0000000000
40
1.0000000000
10
71.5219851373
20
111.7222476628
30
0.0000000000
10
71.2340635269
20
112.3810407985
30
0.0000000000
10
70.6707813077
20
113.6289314246
30
0.0000000000
10
69.8127654932
20
115.3872640683
30
0.0000000000
10
68.9808941903
20
116.9470581241
30
0.0000000000
10
68.1692523598
20
118.3206485539
30
0.0000000000
10
67.3724749276
20
119.5166322880
30
0.0000000000
10
66.5861160534
20
120.5396371373
30
0.0000000000
10
65.8071716283
20
121.3904767427
30
0.0000000000
10
65.0352901937
20
122.0665387460
30
0.0000000000
10
64.2756890187
20
122.5630076346
30
0.0000000000
10
63.5381893349
20
122.8801315052
30
0.0000000000
10
62.8271993215
20
123.0306130313
30
0.0000000000
10
62.1288401134
20
123.0306019951
30
0.0000000000
10
61.4172569914
20
122.8798907172
30
0.0000000000
10
60.6787440266
20
122.5620310419
30
0.0000000000
10
59.9181824254
20
122.0643749398
30
0.0000000000
10
59.1456372587
20
121.3869803833
30
0.0000000000
10
58.3664672666
20
120.5350815228
30
0.0000000000
10
57.5802309743
20
119.5114508562
30
0.0000000000
10
56.7838450157
20
118.3153578331
30
0.0000000000
10
55.9728032052
20
116.9422148860
30
0.0000000000
10
55.1417019031
20
115.3834473215
30
0.0000000000
10
54.2846217403
20
113.6267787827
30
0.0000000000
10
53.7219710916
20
112.3802399666
30
0.0000000000
10
53.4343994800
20
111.7222476628
30
0.0000000000
11
71.5219851373
21
111.7222476628
31
0.0000000000
11
70.6321422629
21
113.6870237068
31
0.0000000000
11
69.7742973417
21
115.4380889578
31
0.0000000000
11
68.9421989454
21
116.9909192795
31
0.0000000000
11
68.1297107872
21
118.3579657911
31
0.0000000000
11
67.3314473408
21
119.5475012305
31
0.0000000000
11
66.5432414276
21
120.5634716492
31
0.0000000000
11
65.7624734911
21
121.4061992435
31
0.0000000000
11
64.9896291957
21
122.0727761886
31
0.0000000000
11
64.2311246519
21
122.5590659213
31
0.0000000000
11
63.5032350982
21
122.8652257390
31
0.0000000000
11
62.8140685014
21
123.0078062754
31
0.0000000000
11
62.1422100589
21
123.0077954292
31
0.0000000000
11
61.4523657575
21
122.8649816950
31
0.0000000000
11
60.7235328802
21
122.5581512099
31
0.0000000000
11
59.9637721912
21
122.0705318115
31
0.0000000000
11
59.1902183129
21
121.4026086386
31
0.0000000000
11
58.4092195031
21
120.5588186715
31
0.0000000000
11
57.6211200063
21
119.5421903144
31
0.0000000000
11
56.8232513673
21
118.3525310893
31
0.0000000000
11
56.0113815153
21
116.9859398048
31
0.0000000000
11
55.1800496758
21
115.4341057204
31
0.0000000000
11
54.3231260831
21
113.6846509747
31
0.0000000000
11
53.4343994800
21
111.7222476628
31
0.0000000000
0
SPLINE
5
337
100
AcDbEntity
8
0
100
AcDbSpline
62
7
6
CONTINUOUS
70
0
71
3
72
10
73
6
74
4
42
0.0000001000
43
0.0000001000
44
0.0000000001
12
-4.5037611328
22
-6.7787054750
32
0.0000000000
13
-3.5328933593
23
-7.3316694395
33
0.0000000000
40
0.0000000000
40
0.0000000000
40
0.0000000000
40
0.0000000000
40
0.3029252462
40
0.6351479406
40
1.0000000000
40
1.0000000000
40
1.0000000000
40
1.0000000000
10
53.4343994800
20
111.7222476628
30
0.0000000000
10
52.9796318299
20
111.0377673211
30
0.0000000000
10
52.0713603011
20
109.5723198312
30
0.0000000000
10
50.7565265696
20
107.1985525835
30
0.0000000000
10
49.9078534479
20
105.5080556190
30
0.0000000000
10
49.4781923086
20
104.6163973877
30
0.0000000000
11
53.4343994800
21
111.7222476628
31
0.0000000000
11
52.1298971554
21
109.6303068727
31
0.0000000000
11
50.8148436738
21
107.2678745218
31
0.0000000000
11
49.4781923086
21
104.6163973877
31
0.0000000000
0
SPLINE
5
338
100
AcDbEntity
8
0
100
AcDbSpline
62
7
6
CONTINUOUS
70
0
71
3
72
19
73
15
74
13
42
0.0000001000
43
0.0000001000
44
0.0000000001
12
0.0000000000
22
-1.0310464541
32
0.0000000000
13
0.4475751176
23
0.9288343796
33
0.0000000000
40
0.0000000000
40
0.0000000000
40
0.0000000000
40
0.0000000000
40
0.1066149441
40
0.2019721915
40
0.2815963028
40
0.3457034137
40
0.3983011530
40
0.4503445739
40
0.5134613996
40
0.5893441553
40
0.6748770632
40
0.7721255558
40
0.8807435416
40
1.0000000000
40
1.0000000000
40
1.0000000000
40
1.0000000000
10
48.9781923086
20
104.5400583271
30
0.0000000000
10
48.9781923086
20
104.5034166737
30
0.0000000000
10
48.9801859646
20
104.4339792019
30
0.0000000000
10
48.9908591528
20
104.3375986159
30
0.0000000000
10
49.0106447265
20
104.2575513415
30
0.0000000000
10
49.0396843168
20
104.1957586617
30
0.0000000000
10
49.0893532941
20
104.1576313781
30
0.0000000000
10
49.1508303160
20
104.1661427584
30
0.0000000000
10
49.2058214120
20
104.2032090800
30
0.0000000000
10
49.2605747161
20
104.2579911196
30
0.0000000000
10
49.3150793607
20
104.3284070397
30
0.0000000000
10
49.3698264290
20
104.4123561728
30
0.0000000000
10
49.4250368660
20
104.5095647944
30
0.0000000000
10
49.4604002342
20
104.5794742215
30
0.0000000000
10
49.4781923086
20
104.6163973877
30
0.0000000000
11
48.9781923086
21
104.5400583271
31
0.0000000000
11
48.9818746670
21
104.4301950617
31
0.0000000000
11
48.9937862235
21
104.3326015417
31
0.0000000000
11
49.0148029816
21
104.2532411298
31
0.0000000000
11
49.0465430003
21
104.1952632138
31
0.0000000000
11
49.0914233014
21
104.1648209939
31
0.0000000000
11
49.1449233174
21
104.1689509311
31
0.0000000000
11
49.2008859692
21
104.2021641325
31
0.0000000000
11
49.2570393172
21
104.2566442873
31
0.0000000000
11
49.3116965444
21
104.3258525358
31
0.0000000000
11
49.3668606050
21
104.4095815080
31
0.0000000000
11
49.4224730601
21
104.5067877696
31
0.0000000000
11
49.4781923086
21
104.6163973877
31
0.0000000000
0
ENDSEC
0
SECTION
2
OBJECTS
0
DICTIONARY
5
C
100
AcDbDictionary
280
0
281
1
3
ACAD_GROUP
350
D
3
ACAD_MLINESTYLE
350
17
3
ACAD_LAYOUT
350
1A
3
ACAD_PLOTSETTINGS
350
19
3
ACAD_PLOTSTYLENAME
350
E
0
DICTIONARY
5
D
102
{ACAD_REACTORS
330
C
102
}
100
AcDbDictionary
280
0
281
1
0
ACDBDICTIONARYWDFLT
5
E
102
{ACAD_REACTORS
330
C
102
}
100
AcDbDictionary
281
1
3
Normal
350
F
100
AcDbDictionaryWithDefault
340
F
0
DICTIONARY
5
17
102
{ACAD_REACTORS
330
C
102
}
100
AcDbDictionary
280
0
281
1
3
Standard
350
18
0
DICTIONARY
5
19
102
{ACAD_REACTORS
330
C
102
}
100
AcDbDictionary
281
1
0
DICTIONARY
5
1A
102
{ACAD_REACTORS
330
C
102
}
100
AcDbDictionary
281
1
3
Layout1
350
1E
3
Model
350
22
0
ACDBPLACEHOLDER
5
F
102
{ACAD_REACTORS
330
E
102
}
0
MLINESTYLE
5
18
102
{ACAD_REACTORS
330
17
102
}
100
AcDbMlineStyle
2
STANDARD
70
0
3

62
256
51
90.0
52
90.0
71
2
49
0.5
62
256
6
BYLAYER
49
-0.5
62
256
6
BYLAYER
0
LAYOUT
5
1E
102
{ACAD_REACTORS
330
1A
102
}
100
AcDbPlotSettings
1

2

4

6

40
0.0
41
0.0
42
0.0
43
0.0
44
0.0
45
0.0
46
0.0
47
0.0
48
0.0
49
0.0
140
0.0
141
0.0
142
1.0
143
1.0
70
0
72
0
73
0
74
0
7

75
0
147
1.0
148
0.0
149
0.0
100
AcDbLayout
1
Layout1
70
0
71
0
10
0.0
20
0.0
11
0.0
21
0.0
12
0.0
22
0.0
32
0.0
14
0.0
24
0.0
34
0.0
15
0.0
25
0.0
35
0.0
146
0.0
13
0.0
23
0.0
33
0.0
16
0.0
26
0.0
36
0.0
17
0.0
27
0.0
37
0.0
76
0
330
1B
331
0
345
0
346
0
0
LAYOUT
5
22
102
{ACAD_REACTORS
330
1A
102
}
100
AcDbPlotSettings
1

2

4

6

40
0.0
41
0.0
42
0.0
43
0.0
44
0.0
45
0.0
46
0.0
47
0.0
48
0.0
49
0.0
140
0.0
141
0.0
142
1.0
143
1.0
70
0
72
0
73
0
74
0
7

75
0
147
1.0
148
0.0
149
0.0
100
AcDbLayout
1
Model
70
0
71
0
10
0.0
20
0.0
11
0.0
21
0.0
12
0.0
22
0.0
32
0.0
14
0.0
24
0.0
34
0.0
15
0.0
25
0.0
35
0.0
146
0.0
13
0.0
23
0.0
33
0.0
16
0.0
26
0.0
36
0.0
17
0.0
27
0.0
37
0.0
76
0
330
1F
331
0
345
0
346
0
0
ENDSEC
0
EOF
