0
SECTION
2
HEADER
9
$ACADVER
1
AC1015
9
$DWGCODEPAGE
3
ANSI_1252
9
$EXTMAX
10
210.0000000000
20
297.0000000000
30
0.0000000000
9
$EXTMIN
10
0.0000000000
20
0.0000000000
30
0.0000000000
9
$LIMMIN
10
0.0000000000
20
0.0000000000
9
$LIMMAX
10
210.0000000000
20
297.0000000000
9
$VIEWCTR
10
105.0000000000
20
148.5000000000
9
$VIEWSIZE
40
297.0000000000
9
$CLAYER
8
0
9
$LTSCALE
40
19.3600000000
9
$CELTYPE
6
BYLAYER
9
$DIMSCALE
40
1
9
$DIMASZ
40
3.5000000000
9
$DIMEXO
40
2.2000000000
9
$DIMDLI
40
13.3760000000
9
$DIMEXE
40
6.3360000000
9
$DIMCEN
40
3.1680000000
9
$DIMLFAC
40
1.0000000000
9
$DIMBLK
1
_FILLED
9
$DIMTXT
40
3.5000000000
9
$DIMTOL
70
1
9
$DIMLIM
70
0
9
$DIMTFAC
40
1.0000000000
9
$DIMTP
40
0.0010000000
9
$DIMTM
40
0.0010000000
9
$PDMODE
70
3
9
$PDSIZE
40
0.3125000000
9
$HANDSEED
5
2A6
9
$MEASUREMENT
70
1
9
$INSUNITS
70
4
0
ENDSEC
0
SECTION
2
CLASSES
0
CLASS
1
ACDBDICTIONARYWDFLT
2
AcDbDictionaryWithDefault
3
AutoCAD 2000
90
0
280
0
281
0
0
CLASS
1
ACDBPLACEHOLDER
2
AcDbPlaceHolder
3
AutoCAD 2000
90
0
280
0
281
0
0
CLASS
1
LAYOUT
2
AcDbLayout
3
AutoCAD 2000
90
0
280
0
281
0
0
ENDSEC
0
SECTION
2
TABLES
0
TABLE
2
VPORT
5
8
100
AcDbSymbolTable
70
2
0
VPORT
5
1F4
100
AcDbSymbolTableRecord
100
AcDbViewportTableRecord
2
*ACTIVE
70
0
10
0.0
20
0.0
11
1.0
21
1.0
12
105.0000000000
22
148.5000000000
13
0.0
23
0.0
14
1.0
24
1.0
15
0.0
25
0.0
16
0.0
26
0.0
36
1.0
17
0.0
27
0.0
37
0.0
40
297.0000000000
41
0.7070707071
42
50.0
43
0.0
44
0.0
50
0.0
51
0.0
71
0
72
100
73
1
74
1
75
0
76
0
77
0
78
0
0
ENDTAB
0
TABLE
2
LTYPE
5
5
100
AcDbSymbolTable
70
6
0
LTYPE
5
14
100
AcDbSymbolTableRecord
100
AcDbLinetypeTableRecord
2
BYBLOCK
70
0
3

72
65
73
0
40
0.0
0
LTYPE
5
15
100
AcDbSymbolTableRecord
100
AcDbLinetypeTableRecord
2
BYLAYER
70
0
3

72
65
73
0
40
0.0
0
LTYPE
5
16
100
AcDbSymbolTableRecord
100
AcDbLinetypeTableRecord
2
CONTINUOUS
70
64
3
Solid line
72
65
73
0
40
0
0
LTYPE
5
1F5
100
AcDbSymbolTableRecord
100
AcDbLinetypeTableRecord
2
CENTER
70
64
3
____ _ ____ _ ____ _ ____ _ ____ _ ____ _ ____
72
65
73
4
40
0.6
49
0.375
74
0
49
-0.075
74
0
49
0.075
74
0
49
-0.075
74
0
0
LTYPE
5
1F6
100
AcDbSymbolTableRecord
100
AcDbLinetypeTableRecord
2
HIDDEN
70
64
3
- - - - - - - - - - - - - - - - - - - -
72
65
73
2
40
0.2
49
0.1
74
0
49
-0.1
74
0
0
LTYPE
5
1F7
100
AcDbSymbolTableRecord
100
AcDbLinetypeTableRecord
2
PHANTOM
70
64
3
_____ _ _ _____ _ _ _____ _ _ _____
72
65
73
6
40
0.8
49
0.45
74
0
49
-0.05
74
0
49
0.1
74
0
49
-0.05
74
0
49
0.1
74
0
49
-0.05
74
0
0
LTYPE
5
1F8
100
AcDbSymbolTableRecord
100
AcDbLinetypeTableRecord
2
DOT
70
64
3
. . . . . . . . . . . . . . . . . . . .
72
65
73
2
40
0.2
49
0.1
74
0
49
-0.1
74
0
0
LTYPE
5
1F9
100
AcDbSymbolTableRecord
100
AcDbLinetypeTableRecord
2
DASHED
70
64
3
- - - - - - - - - - - - - - - - - - - -
72
65
73
2
40
0.2
49
0.1
74
0
49
-0.1
74
0
0
ENDTAB
0
TABLE
2
LAYER
5
2
100
AcDbSymbolTable
70
36
0
LAYER
5
10
100
AcDbSymbolTableRecord
100
AcDbLayerTableRecord
2
0
70
0
62
7
6
CONTINUOUS
370
-3
390
F
0
LAYER
5
1FA
100
AcDbSymbolTableRecord
100
AcDbLayerTableRecord
2
DEFAULT_1
70
0
62
7
6
CENTER
370
-3
390
F
0
LAYER
5
1FB
100
AcDbSymbolTableRecord
100
AcDbLayerTableRecord
2
DEFAULT_2
70
0
62
8
6
HIDDEN
370
-3
390
F
0
LAYER
5
1FC
100
AcDbSymbolTableRecord
100
AcDbLayerTableRecord
2
DEFAULT_3
70
0
62
7
6
PHANTOM
370
-3
390
F
0
LAYER
5
1FD
100
AcDbSymbolTableRecord
100
AcDbLayerTableRecord
2
ASSI
70
0
62
7
6
CONTINUOUS
370
-3
390
F
0
LAYER
5
1FE
100
AcDbSymbolTableRecord
100
AcDbLayerTableRecord
2
PIANI
70
0
62
7
6
CONTINUOUS
370
-3
390
F
0
ENDTAB
0
TABLE
2
STYLE
5
3
100
AcDbSymbolTable
70
1
0
STYLE
5
11
100
AcDbSymbolTableRecord
100
AcDbTextStyleTableRecord
2
STANDARD
70
0
40
0.0
41
0.7143000000
50
0.0
71
0
42
0.2
3
txt
4

0
ENDTAB
0
TABLE
2
VIEW
5
6
100
AcDbSymbolTable
70
0
0
ENDTAB
0
TABLE
2
UCS
5
7
100
AcDbSymbolTable
70
0
0
ENDTAB
0
TABLE
2
APPID
5
9
100
AcDbSymbolTable
70
1
0
APPID
5
1FF
100
AcDbSymbolTableRecord
100
AcDbRegAppTableRecord
2
ACAD
70
0
0
ENDTAB
0
TABLE
2
BLOCK_RECORD
5
1
100
AcDbSymbolTable
70
0
0
BLOCK_RECORD
5
1F
100
AcDbSymbolTableRecord
100
AcDbBlockTableRecord
2
*MODEL_SPACE
0
BLOCK_RECORD
5
1B
100
AcDbSymbolTableRecord
100
AcDbBlockTableRecord
2
*PAPER_SPACE
0
BLOCK_RECORD
5
200
100
AcDbSymbolTableRecord
100
AcDbBlockTableRecord
2
_FILLED
0
BLOCK_RECORD
5
201
100
AcDbSymbolTableRecord
100
AcDbBlockTableRecord
2
*D0
0
BLOCK_RECORD
5
202
100
AcDbSymbolTableRecord
100
AcDbBlockTableRecord
2
*D1
0
BLOCK_RECORD
5
203
100
AcDbSymbolTableRecord
100
AcDbBlockTableRecord
2
*D2
0
BLOCK_RECORD
5
204
100
AcDbSymbolTableRecord
100
AcDbBlockTableRecord
2
*D3
0
BLOCK_RECORD
5
205
100
AcDbSymbolTableRecord
100
AcDbBlockTableRecord
2
*D4
0
BLOCK_RECORD
5
206
100
AcDbSymbolTableRecord
100
AcDbBlockTableRecord
2
*D5
0
ENDTAB
0
TABLE
2
DIMSTYLE
5
A
100
AcDbSymbolTable
70
1
100
AcDbDimStyleTable
71
0
0
DIMSTYLE
105
207
100
AcDbSymbolTableRecord
100
AcDbDimStyleTableRecord
2
STANDARD
70
0
3

4

40
1.0
41
3.5000000000
42
0.0625
43
0.38
44
0.18
45
0.0
46
0.0
47
0.0010000000
48
0.0010000000
140
3.5000000000
141
0.09
142
0.0
143
25.4
144
1.0000000000
145
0.0
146
1.0000000000
147
0.09
71
1
72
0
73
0
74
0
75
0
76
0
77
1
78
8
170
0
171
2
172
0
173
0
174
0
175
0
176
0
177
0
178
0
270
2
271
3
272
3
273
2
274
2
275
0
280
0
281
0
282
0
283
1
284
8
285
0
286
0
287
3
288
0
340
11
341
200
342
200
343
200
344
200
0
DIMSTYLE
105
208
100
AcDbSymbolTableRecord
100
AcDbDimStyleTableRecord
2
DIMSTYLE_1
70
0
3

4

40
1.0
41
3.5000000000
42
0.0625
43
0.38
44
0.18
45
0.0
46
0.0
47
0.1500000000
48
0.1500000000
140
3.5000000000
141
0.09
142
0.0
143
25.4
144
1.0000000000
145
0.0
146
1.0000000000
147
0.09
71
0
72
0
73
0
74
0
75
0
76
0
77
1
78
8
170
0
171
2
172
0
173
0
174
0
175
0
176
0
177
0
178
0
270
2
271
3
272
3
273
2
274
2
275
0
280
0
281
0
282
0
283
1
284
8
285
0
286
0
287
3
288
0
340
11
341
200
342
200
343
200
344
200
0
DIMSTYLE
105
209
100
AcDbSymbolTableRecord
100
AcDbDimStyleTableRecord
2
DIMSTYLE_2
70
0
3

4

40
1.0
41
3.5000000000
42
0.0625
43
0.38
44
0.18
45
0.0
46
0.0
47
0.1000000000
48
0.1000000000
140
3.5000000000
141
0.09
142
0.0
143
25.4
144
1.0000000000
145
0.0
146
1.0000000000
147
0.09
71
0
72
0
73
0
74
0
75
0
76
0
77
1
78
8
170
0
171
2
172
0
173
0
174
0
175
0
176
0
177
0
178
0
270
2
271
3
272
3
273
2
274
2
275
0
280
0
281
0
282
0
283
1
284
8
285
0
286
0
287
3
288
0
340
11
341
200
342
200
343
200
344
200
0
DIMSTYLE
105
20A
100
AcDbSymbolTableRecord
100
AcDbDimStyleTableRecord
2
DIMSTYLE_3
70
0
3

4

40
1.0
41
3.5000000000
42
0.0625
43
0.38
44
0.18
45
0.0
46
0.0
47
0.1000000000
48
0.1000000000
140
3.5000000000
141
0.09
142
0.0
143
25.4
144
1.0000000000
145
0.0
146
1.0000000000
147
0.09
71
0
72
0
73
0
74
0
75
0
76
0
77
1
78
8
170
0
171
2
172
0
173
0
174
0
175
0
176
0
177
0
178
0
270
2
271
3
272
3
273
2
274
2
275
0
280
0
281
0
282
0
283
1
284
8
285
0
286
0
287
3
288
0
340
11
341
200
342
200
343
200
344
200
0
ENDTAB
0
ENDSEC
0
SECTION
2
BLOCKS
0
BLOCK
5
20
100
AcDbEntity
8
0
100
AcDbBlockBegin
2
*MODEL_SPACE
70
0
10
0.0
20
0.0
30
0.0
3
*MODEL_SPACE
1

0
ENDBLK
5
21
100
AcDbEntity
8
0
100
AcDbBlockEnd
0
BLOCK
5
1C
100
AcDbEntity
8
0
100
AcDbBlockBegin
2
*PAPER_SPACE
70
0
10
0.0
20
0.0
30
0.0
3
*PAPER_SPACE
1

0
ENDBLK
5
1D
100
AcDbEntity
8
0
100
AcDbBlockEnd
0
BLOCK
5
20B
100
AcDbEntity
8
0
100
AcDbBlockBegin
62
2
6
CONTINUOUS
2
*D0
70
65
10
0.0000000000
20
0.0000000000
3
*D0
1

0
TEXT
5
20C
100
AcDbEntity
8
0
100
AcDbText
62
2
6
CONTINUOUS
10
110.8874236509
20
232.9986643360
7
STANDARD
40
3.5000000000
1
73
41
0.7143000000
72
0
100
AcDbText
0
LINE
5
20D
100
AcDbEntity
8
0
100
AcDbLine
62
2
6
CONTINUOUS
10
151.1399197593
20
212.3043038023
11
151.1399197593
21
233.6236643360
0
LINE
5
20E
100
AcDbEntity
8
0
100
AcDbLine
62
2
6
CONTINUOUS
10
78.1399197593
20
200.9257773320
11
78.1399197593
21
233.6236643360
0
LINE
5
20F
100
AcDbEntity
8
0
100
AcDbLine
62
2
6
CONTINUOUS
10
151.1399197593
20
232.1236643360
11
114.6399197593
21
232.1236643360
0
LINE
5
210
100
AcDbEntity
8
0
100
AcDbLine
62
2
6
CONTINUOUS
10
78.1399197593
20
232.1236643360
11
114.6399197593
21
232.1236643360
0
INSERT
5
211
100
AcDbEntity
8
0
100
AcDbBlockReference
62
2
6
CONTINUOUS
2
_FILLED
10
151.1399197593
20
232.1236643360
41
  3.500000
42
  3.500000
43
  3.500000
0
INSERT
5
212
100
AcDbEntity
8
0
100
AcDbBlockReference
62
2
6
CONTINUOUS
2
_FILLED
10
78.1399197593
20
232.1236643360
41
  3.500000
42
  3.500000
43
  3.500000
50
180.000000
0
ENDBLK
5
213
100
AcDbEntity
8
0
6
BYBLOCK
62
0
100
AcDbBlockEnd
0
BLOCK
5
214
100
AcDbEntity
8
0
100
AcDbBlockBegin
62
2
6
CONTINUOUS
2
*D1
70
65
10
0.0000000000
20
0.0000000000
3
*D1
1

0
TEXT
5
215
100
AcDbEntity
8
0
100
AcDbText
62
2
6
CONTINUOUS
10
69.6812895082
20
196.3247481840
7
STANDARD
40
3.5000000000
1
29.5
50
90.0000000000
41
0.7143000000
72
0
100
AcDbText
0
LINE
5
216
100
AcDbEntity
8
0
100
AcDbLine
62
2
6
CONTINUOUS
10
101.4497902199
20
215.1757773320
11
69.0562895082
21
215.1757773320
0
LINE
5
217
100
AcDbEntity
8
0
100
AcDbLine
62
2
6
CONTINUOUS
10
101.4497902199
20
185.6757773320
11
69.0562895082
21
185.6757773320
0
LINE
5
218
100
AcDbEntity
8
0
100
AcDbLine
62
2
6
CONTINUOUS
10
70.5562895082
20
215.1757773320
11
70.5562895082
21
200.4257773320
0
LINE
5
219
100
AcDbEntity
8
0
100
AcDbLine
62
2
6
CONTINUOUS
10
70.5562895082
20
185.6757773320
11
70.5562895082
21
200.4257773320
0
INSERT
5
21A
100
AcDbEntity
8
0
100
AcDbBlockReference
62
2
6
CONTINUOUS
2
_FILLED
10
70.5562895082
20
215.1757773320
41
  3.500000
42
  3.500000
43
  3.500000
50
 90.000000
0
INSERT
5
21B
100
AcDbEntity
8
0
100
AcDbBlockReference
62
2
6
CONTINUOUS
2
_FILLED
10
70.5562895082
20
185.6757773320
41
  3.500000
42
  3.500000
43
  3.500000
50
270.000000
0
ENDBLK
5
21C
100
AcDbEntity
8
0
6
BYBLOCK
62
0
100
AcDbBlockEnd
0
BLOCK
5
21D
100
AcDbEntity
8
0
100
AcDbBlockBegin
62
2
6
CONTINUOUS
2
*D2
70
65
10
0.0000000000
20
0.0000000000
3
*D2
1

0
TEXT
5
21E
100
AcDbEntity
8
0
100
AcDbText
62
2
6
CONTINUOUS
10
71.2636075365
20
116.2955910105
7
STANDARD
40
3.5000000000
1
22
50
90.0000000000
41
0.7143000000
72
0
100
AcDbText
0
LINE
5
21F
100
AcDbEntity
8
0
100
AcDbLine
62
2
6
CONTINUOUS
10
77.6399197593
20
128.9182547643
11
70.6386075365
21
128.9182547643
0
LINE
5
220
100
AcDbEntity
8
0
100
AcDbLine
62
2
6
CONTINUOUS
10
77.6399197593
20
106.9182547643
11
70.6386075365
21
106.9182547643
0
LINE
5
221
100
AcDbEntity
8
0
100
AcDbLine
62
2
6
CONTINUOUS
10
72.1386075365
20
128.9182547643
11
72.1386075365
21
117.9182547643
0
LINE
5
222
100
AcDbEntity
8
0
100
AcDbLine
62
2
6
CONTINUOUS
10
72.1386075365
20
106.9182547643
11
72.1386075365
21
117.9182547643
0
INSERT
5
223
100
AcDbEntity
8
0
100
AcDbBlockReference
62
2
6
CONTINUOUS
2
_FILLED
10
72.1386075365
20
128.9182547643
41
  3.500000
42
  3.500000
43
  3.500000
50
 90.000000
0
INSERT
5
224
100
AcDbEntity
8
0
100
AcDbBlockReference
62
2
6
CONTINUOUS
2
_FILLED
10
72.1386075365
20
106.9182547643
41
  3.500000
42
  3.500000
43
  3.500000
50
270.000000
0
ENDBLK
5
225
100
AcDbEntity
8
0
6
BYBLOCK
62
0
100
AcDbBlockEnd
0
BLOCK
5
226
100
AcDbEntity
8
0
100
AcDbBlockBegin
62
2
6
CONTINUOUS
2
*D3
70
65
10
0.0000000000
20
0.0000000000
3
*D3
1

0
TEXT
5
227
100
AcDbEntity
8
0
100
AcDbText
62
2
6
CONTINUOUS
10
84.6728857166
20
82.3417973305
7
STANDARD
40
3.5000000000
1
%%c
50
62.9900268251
41
1.3333333333
72
0
100
AcDbText
0
TEXT
5
228
100
AcDbEntity
8
0
100
AcDbText
62
2
6
CONTINUOUS
10
86.7922317831
20
86.4994589363
7
STANDARD
40
3.5000000000
1
12.7
50
62.9900268251
41
0.7143000000
72
0
100
AcDbText
0
LINE
5
229
100
AcDbEntity
8
0
100
AcDbLine
62
2
6
CONTINUOUS
10
100.9060952902
20
112.2608652221
11
103.7899197593
21
117.9182547643
0
LINE
5
22A
100
AcDbEntity
8
0
100
AcDbLine
62
2
6
CONTINUOUS
10
103.7899197593
20
117.9182547643
11
85.4524472677
21
81.9444199430
0
LINE
5
22B
100
AcDbEntity
8
0
100
AcDbLine
62
2
6
CONTINUOUS
10
106.6737442283
20
123.5756443064
11
103.7899197593
21
117.9182547643
0
INSERT
5
22C
100
AcDbEntity
8
0
100
AcDbBlockReference
62
2
6
CONTINUOUS
2
_FILLED
10
100.9060952902
20
112.2608652221
41
  3.500000
42
  3.500000
43
  3.500000
50
242.990027
0
INSERT
5
22D
100
AcDbEntity
8
0
100
AcDbBlockReference
62
2
6
CONTINUOUS
2
_FILLED
10
106.6737442283
20
123.5756443064
41
  3.500000
42
  3.500000
43
  3.500000
50
 62.990027
0
ENDBLK
5
22E
100
AcDbEntity
8
0
6
BYBLOCK
62
0
100
AcDbBlockEnd
0
BLOCK
5
22F
100
AcDbEntity
8
0
100
AcDbBlockBegin
62
2
6
CONTINUOUS
2
*D4
70
65
10
0.0000000000
20
0.0000000000
3
*D4
1

0
TEXT
5
230
100
AcDbEntity
8
0
100
AcDbText
62
2
6
CONTINUOUS
10
138.7731037800
20
181.5879428480
7
STANDARD
40
3.5000000000
1
%%c
50
-60.5678155378
41
1.3333333333
72
0
100
AcDbText
0
TEXT
5
231
100
AcDbEntity
8
0
100
AcDbText
62
2
6
CONTINUOUS
10
141.0662713867
20
177.5235658840
7
STANDARD
40
3.5000000000
1
12.7
50
-60.5678155378
41
0.7143000000
72
0
100
AcDbText
0
LINE
5
232
100
AcDbEntity
8
0
100
AcDbLine
62
2
6
CONTINUOUS
10
130.2602656812
20
194.8953215346
11
127.1399197593
21
200.4257773320
0
LINE
5
233
100
AcDbEntity
8
0
100
AcDbLine
62
2
6
CONTINUOUS
10
127.1399197593
20
200.4257773320
11
145.2182295703
21
168.3840435616
0
LINE
5
234
100
AcDbEntity
8
0
100
AcDbLine
62
2
6
CONTINUOUS
10
124.0195738373
20
205.9562331294
11
127.1399197593
21
200.4257773320
0
INSERT
5
235
100
AcDbEntity
8
0
100
AcDbBlockReference
62
2
6
CONTINUOUS
2
_FILLED
10
130.2602656812
20
194.8953215346
41
  3.500000
42
  3.500000
43
  3.500000
50
299.432184
0
INSERT
5
236
100
AcDbEntity
8
0
100
AcDbBlockReference
62
2
6
CONTINUOUS
2
_FILLED
10
124.0195738373
20
205.9562331294
41
  3.500000
42
  3.500000
43
  3.500000
50
119.432184
0
ENDBLK
5
237
100
AcDbEntity
8
0
6
BYBLOCK
62
0
100
AcDbBlockEnd
0
BLOCK
5
238
100
AcDbEntity
8
0
100
AcDbBlockBegin
62
2
6
CONTINUOUS
2
*D5
70
65
10
0.0000000000
20
0.0000000000
3
*D5
1

0
TEXT
5
239
100
AcDbEntity
8
0
100
AcDbText
62
2
6
CONTINUOUS
10
163.9685305918
20
112.9602811434
7
STANDARD
40
3.5000000000
1
29.5
50
90.0000000000
41
0.7143000000
72
0
100
AcDbText
0
LINE
5
23A
100
AcDbEntity
8
0
100
AcDbLine
62
2
6
CONTINUOUS
10
133.8102114866
20
132.6682547643
11
166.3435305918
21
132.6682547643
0
LINE
5
23B
100
AcDbEntity
8
0
100
AcDbLine
62
2
6
CONTINUOUS
10
133.8102114866
20
103.1682547643
11
166.3435305918
21
103.1682547643
0
LINE
5
23C
100
AcDbEntity
8
0
100
AcDbLine
62
2
6
CONTINUOUS
10
164.8435305918
20
132.6682547643
11
164.8435305918
21
117.9182547643
0
LINE
5
23D
100
AcDbEntity
8
0
100
AcDbLine
62
2
6
CONTINUOUS
10
164.8435305918
20
103.1682547643
11
164.8435305918
21
117.9182547643
0
INSERT
5
23E
100
AcDbEntity
8
0
100
AcDbBlockReference
62
2
6
CONTINUOUS
2
_FILLED
10
164.8435305918
20
132.6682547643
41
  3.500000
42
  3.500000
43
  3.500000
50
 90.000000
0
INSERT
5
23F
100
AcDbEntity
8
0
100
AcDbBlockReference
62
2
6
CONTINUOUS
2
_FILLED
10
164.8435305918
20
103.1682547643
41
  3.500000
42
  3.500000
43
  3.500000
50
270.000000
0
ENDBLK
5
240
100
AcDbEntity
8
0
6
BYBLOCK
62
0
100
AcDbBlockEnd
0
BLOCK
5
241
100
AcDbEntity
8
0
100
AcDbBlockBegin
2
_FILLED
70
64
10
0.0000000000
20
0.0000000000
3
_FILLED
1

0
SOLID
5
242
100
AcDbEntity
8
0
6
BYBLOCK
62
0
100
AcDbTrace
10
0.0000000000
20
0.0000000000
11
-1.0000000000
21
0.1857142857
12
-1.0000000000
22
-0.1857142857
13
-1.0000000000
23
-0.1857142857
0
ENDBLK
5
243
100
AcDbEntity
8
0
6
BYBLOCK
62
0
100
AcDbBlockEnd
0
ENDSEC
0
SECTION
2
ENTITIES
0
DIMENSION
5
244
100
AcDbEntity
8
0
100
AcDbDimension
62
2
6
CONTINUOUS
2
*D0
10
78.1399197593
20
232.1236643360
11
113.3874736509
21
234.7486643360
70
160
42
73.000000
3
DIMSTYLE_1
100
AcDbAlignedDimension
13
151.1399197593
23
212.3043038023
14
78.1399197593
24
200.9257773320
50
180.000000
100
AcDbRotatedDimension
0
DIMENSION
5
245
100
AcDbEntity
8
0
100
AcDbDimension
62
2
6
CONTINUOUS
2
*D1
10
70.5562895082
20
185.6757773320
11
67.9312895082
21
201.3248481840
70
160
42
29.500000
3
DIMSTYLE_2
100
AcDbAlignedDimension
13
101.4497902199
23
215.1757773320
14
101.4497902199
24
185.6757773320
50
270.000000
100
AcDbRotatedDimension
0
DIMENSION
5
246
100
AcDbEntity
8
0
100
AcDbDimension
62
2
6
CONTINUOUS
2
*D2
10
72.1386075365
20
106.9182547643
11
69.5136075365
21
118.7956410105
70
160
42
22.000000
3
DIMSTYLE_2
100
AcDbAlignedDimension
13
77.6399197593
23
128.9182547643
14
77.6399197593
24
106.9182547643
50
270.000000
100
AcDbRotatedDimension
0
DIMENSION
5
247
100
AcDbEntity
8
0
100
AcDbDimension
62
2
6
CONTINUOUS
2
*D3
10
100.9060952902
20
112.2608652221
11
86.4442089906
21
89.6701094358
70
163
42
12.700000
1
<>
3
DIMSTYLE_3
100
AcDbDiametricDimension
15
106.6737442283
25
123.5756443064
0
DIMENSION
5
248
100
AcDbEntity
8
0
100
AcDbDimension
62
2
6
CONTINUOUS
2
*D4
10
130.2602656812
20
194.8953215346
11
143.9008433771
21
176.0609155204
70
163
42
12.700000
1
<>
3
DIMSTYLE_3
100
AcDbDiametricDimension
15
124.0195738373
25
205.9562331294
0
DIMENSION
5
249
100
AcDbEntity
8
0
100
AcDbDimension
62
2
6
CONTINUOUS
2
*D5
10
164.8435305918
20
103.1682547643
11
162.2185305918
21
117.9603811434
70
160
42
29.500000
3
DIMSTYLE_2
100
AcDbAlignedDimension
13
133.8102114866
23
132.6682547643
14
133.8102114866
24
103.1682547643
50
270.000000
100
AcDbRotatedDimension
0
MTEXT
5
24A
100
AcDbEntity
8
0
100
AcDbMText
62
2
6
CONTINUOUS
7
STANDARD
71
1
72
1
10
99.8114343029
20
83.0491775326
30
0.0000000000
11
1.0000000000
21
0.0000000000
31
0.0000000000
1
SEZIONE B-B
40
3.5000000000
41
27.5005500000
0
LINE
5
24B
100
AcDbEntity
8
0
100
AcDbLine
62
7
6
CONTINUOUS
10
0.0000000000
20
0.0000000000
11
210.0000000000
21
0.0000000000
0
LINE
5
24C
100
AcDbEntity
8
0
100
AcDbLine
62
7
6
CONTINUOUS
10
0.0000000000
20
0.0000000000
11
0.0000000000
21
297.0000000000
0
LINE
5
24D
100
AcDbEntity
8
0
100
AcDbLine
62
7
6
CONTINUOUS
10
210.0000000000
20
0.0000000000
11
210.0000000000
21
297.0000000000
0
LINE
5
24E
100
AcDbEntity
8
0
100
AcDbLine
62
7
6
CONTINUOUS
10
0.0000000000
20
297.0000000000
11
210.0000000000
21
297.0000000000
0
LINE
5
24F
100
AcDbEntity
8
0
100
AcDbLine
62
7
6
CONTINUOUS
10
128.9392357244
20
185.8061005872
11
149.4617570423
21
189.1521638455
0
LINE
5
250
100
AcDbEntity
8
0
100
AcDbLine
62
7
6
CONTINUOUS
10
100.3406037941
20
213.1757773320
11
100.3406037941
21
187.6757773320
0
LINE
5
251
100
AcDbEntity
8
0
100
AcDbLine
62
7
6
CONTINUOUS
10
128.6173984393
20
187.7800359361
11
136.3896065737
21
189.0472437842
0
LINE
5
252
100
AcDbEntity
8
0
100
AcDbLine
62
7
6
CONTINUOUS
10
92.8902755395
20
185.6757773320
11
127.3300492987
21
185.6757773320
0
LINE
5
253
100
AcDbEntity
8
0
100
AcDbLine
62
7
6
CONTINUOUS
10
101.9497902199
20
185.6757773320
11
101.9497902199
21
215.1757773320
0
LINE
5
254
100
AcDbEntity
8
0
100
AcDbLine
62
7
6
CONTINUOUS
10
92.5680824741
20
187.6757773320
11
127.3300492987
21
187.6757773320
0
LINE
5
255
100
AcDbEntity
8
0
100
AcDbLine
62
7
6
CONTINUOUS
10
133.3102114866
20
198.9257773320
11
151.1399197593
21
198.9257773320
0
LINE
5
256
100
AcDbEntity
8
0
100
AcDbLine
62
7
6
CONTINUOUS
10
133.3102114866
20
201.9257773320
11
151.1399197593
21
201.9257773320
0
LINE
5
257
100
AcDbEntity
8
0
100
AcDbLine
62
7
6
CONTINUOUS
10
127.3300492987
20
187.6757773320
11
127.3300492986
21
185.6757773320
0
LINE
5
258
100
AcDbEntity
8
0
100
AcDbLine
62
7
6
CONTINUOUS
10
127.3300492987
20
213.1757773320
11
127.3300492987
21
215.1757773320
0
LINE
5
259
100
AcDbEntity
8
0
100
AcDbLine
62
7
6
CONTINUOUS
10
128.6173984393
20
213.0715187278
11
128.9392357244
21
215.0454540768
0
LINE
5
25A
100
AcDbEntity
8
0
100
AcDbLine
62
7
6
CONTINUOUS
10
127.3300492987
20
213.1757773320
11
92.5680824741
21
213.1757773320
0
LINE
5
25B
100
AcDbEntity
8
0
100
AcDbLine
62
7
6
CONTINUOUS
10
128.6173984393
20
187.7800359361
11
128.9392357244
21
185.8061005872
0
LINE
5
25C
100
AcDbEntity
8
0
100
AcDbLine
62
7
6
CONTINUOUS
10
127.3300492987
20
215.1757773320
11
92.8899197595
21
215.1757773320
0
LINE
5
25D
100
AcDbEntity
8
0
100
AcDbLine
62
7
6
CONTINUOUS
10
136.3896063745
20
211.8043109123
11
128.6173984393
21
213.0715187278
0
LINE
5
25E
100
AcDbEntity
8
0
100
AcDbLine
62
7
6
CONTINUOUS
10
149.4617570423
20
211.6993908185
11
128.9392357244
21
215.0454540768
0
LINE
5
25F
100
AcDbEntity
8
0
100
AcDbLine
62
7
6
CONTINUOUS
10
136.3899197593
20
211.8042598170
11
136.7117570444
21
213.7781951659
0
LINE
5
260
100
AcDbEntity
8
0
100
AcDbLine
62
7
6
CONTINUOUS
10
136.3899197593
20
189.0472948470
11
136.7117570444
21
187.0733594981
0
LINE
5
261
100
AcDbEntity
8
0
100
AcDbLine
62
7
6
CONTINUOUS
10
136.3896065737
20
189.0472437842
11
136.3899197593
21
198.9257773320
0
LINE
5
262
100
AcDbEntity
8
0
100
AcDbLine
62
7
6
CONTINUOUS
10
136.3899197593
20
201.9257773320
11
136.3896063745
21
211.8043109123
0
LINE
5
263
100
AcDbEntity
8
0
100
AcDbLine
62
7
6
CONTINUOUS
10
151.1399197593
20
191.1260988633
11
151.1399197593
21
198.9257773320
0
LINE
5
264
100
AcDbEntity
8
0
100
AcDbLine
62
7
6
CONTINUOUS
10
151.1399197593
20
201.9257773320
11
151.1399197593
21
209.7254557963
0
LINE
5
265
100
AcDbEntity
8
0
100
AcDbLine
62
7
6
CONTINUOUS
10
78.1399197593
20
127.2179329127
11
78.1399197593
21
119.4182547643
0
LINE
5
266
100
AcDbEntity
8
0
100
AcDbLine
62
7
6
CONTINUOUS
10
78.1399197593
20
116.4182547643
11
78.1399197593
21
108.6185766159
0
LINE
5
267
100
AcDbEntity
8
0
100
AcDbLine
62
7
6
CONTINUOUS
10
81.1399197593
20
106.4291243295
11
81.1399197593
21
111.3082547643
0
LINE
5
268
100
AcDbEntity
8
0
100
AcDbLine
62
7
6
CONTINUOUS
10
81.1399197593
20
124.5282547643
11
81.1399197593
21
129.4073851991
0
LINE
5
269
100
AcDbEntity
8
0
100
AcDbLine
62
2
6
CONTINUOUS
10
78.4599192744
20
128.2989822452
11
79.0650461423
21
128.9041091130
0
LINE
5
26A
100
AcDbEntity
8
0
100
AcDbLine
62
7
6
CONTINUOUS
10
83.6399197593
20
111.3082547643
11
83.6399197593
21
116.4182547643
0
LINE
5
26B
100
AcDbEntity
8
0
100
AcDbLine
62
7
6
CONTINUOUS
10
83.6399197593
20
119.4182547643
11
83.6399197593
21
124.5282547643
0
LINE
5
26C
100
AcDbEntity
8
0
100
AcDbLine
62
2
6
CONTINUOUS
10
78.1399197593
20
122.7845014819
11
81.1399197593
21
125.7845014819
0
LINE
5
26D
100
AcDbEntity
8
0
100
AcDbLine
62
7
6
CONTINUOUS
10
89.6399197593
20
111.3082547643
11
89.6399197593
21
116.4182547643
0
LINE
5
26E
100
AcDbEntity
8
0
100
AcDbLine
62
7
6
CONTINUOUS
10
89.6399197593
20
119.4182547643
11
89.6399197593
21
124.5282547643
0
LINE
5
26F
100
AcDbEntity
8
0
100
AcDbLine
62
2
6
CONTINUOUS
10
79.9681542898
20
119.4182547643
11
83.6399197593
21
123.0900202338
0
LINE
5
270
100
AcDbEntity
8
0
100
AcDbLine
62
7
6
CONTINUOUS
10
92.1399197593
20
104.6356460686
11
92.1399197593
21
111.3082547643
0
LINE
5
271
100
AcDbEntity
8
0
100
AcDbLine
62
7
6
CONTINUOUS
10
92.1399197593
20
124.5282547643
11
92.1399197593
21
131.2008634599
0
LINE
5
272
100
AcDbEntity
8
0
100
AcDbLine
62
2
6
CONTINUOUS
10
78.1399197593
20
112.3955389856
11
82.1626355379
21
116.4182547643
0
LINE
5
273
100
AcDbEntity
8
0
100
AcDbLine
62
2
6
CONTINUOUS
10
89.6399197593
20
123.8955389856
11
90.2726355379
21
124.5282547643
0
LINE
5
274
100
AcDbEntity
8
0
100
AcDbLine
62
2
6
CONTINUOUS
10
92.1399197593
20
126.3955389856
11
97.8813464039
21
132.1369656303
0
LINE
5
275
100
AcDbEntity
8
0
100
AcDbLine
62
2
6
CONTINUOUS
10
78.4661920472
20
107.5273300255
11
81.1399197593
21
110.2010577375
0
LINE
5
276
100
AcDbEntity
8
0
100
AcDbLine
62
2
6
CONTINUOUS
10
82.2471167860
20
111.3082547643
11
83.6399197593
21
112.7010577375
0
LINE
5
277
100
AcDbEntity
8
0
100
AcDbLine
62
2
6
CONTINUOUS
10
90.3571167860
20
119.4182547643
11
103.6071167860
21
132.6682547643
0
LINE
5
278
100
AcDbEntity
8
0
100
AcDbLine
62
7
6
CONTINUOUS
10
100.3406037941
20
103.2985780195
11
79.8180825239
21
106.6446412701
0
LINE
5
279
100
AcDbEntity
8
0
100
AcDbLine
62
2
6
CONTINUOUS
10
89.6399197593
20
113.5065764894
11
92.5515980341
21
116.4182547643
0
LINE
5
27A
100
AcDbEntity
8
0
100
AcDbLine
62
2
6
CONTINUOUS
10
95.5515980341
20
119.4182547643
11
108.8015980341
21
132.6682547643
0
LINE
5
27B
100
AcDbEntity
8
0
100
AcDbLine
62
7
6
CONTINUOUS
10
101.9497902199
20
103.1682547643
11
136.3899197593
21
103.1682547643
0
LINE
5
27C
100
AcDbEntity
8
0
100
AcDbLine
62
2
6
CONTINUOUS
10
92.1399197593
20
110.8120952413
11
97.6486206599
21
116.3207961420
0
LINE
5
27D
100
AcDbEntity
8
0
100
AcDbLine
62
2
6
CONTINUOUS
10
105.3876007307
20
124.0597762127
11
113.9960792823
21
132.6682547643
0
LINE
5
27E
100
AcDbEntity
8
0
100
AcDbLine
62
2
6
CONTINUOUS
10
92.1399197593
20
105.6176139932
11
99.6403931530
21
113.1180873869
0
LINE
5
27F
100
AcDbEntity
8
0
100
AcDbLine
62
2
6
CONTINUOUS
10
108.5911507837
20
122.0688450176
11
119.1905605304
21
132.6682547643
0
LINE
5
280
100
AcDbEntity
8
0
100
AcDbLine
62
7
6
CONTINUOUS
10
81.1399197593
20
111.3082547643
11
92.1399197593
21
111.3082547643
0
LINE
5
281
100
AcDbEntity
8
0
100
AcDbLine
62
2
6
CONTINUOUS
10
95.7618938319
20
104.0451068177
11
103.3111324771
21
111.5943454629
0
LINE
5
282
100
AcDbEntity
8
0
100
AcDbLine
62
2
6
CONTINUOUS
10
110.1157791337
20
118.3989921195
11
120.7899197593
21
129.0731327451
0
LINE
5
283
100
AcDbEntity
8
0
100
AcDbLine
62
2
6
CONTINUOUS
10
100.2281767742
20
103.3169085119
11
120.7899197593
21
123.8786514970
0
LINE
5
284
100
AcDbEntity
8
0
100
AcDbLine
62
7
6
CONTINUOUS
10
78.1399197593
20
116.4182547643
11
97.6196280320
21
116.4182547643
0
LINE
5
285
100
AcDbEntity
8
0
100
AcDbLine
62
7
6
CONTINUOUS
10
97.6196280320
20
119.4182547643
11
78.1399197593
21
119.4182547643
0
LINE
5
286
100
AcDbEntity
8
0
100
AcDbLine
62
2
6
CONTINUOUS
10
105.2740042747
20
103.1682547643
11
120.7899197593
21
118.6841702489
0
LINE
5
287
100
AcDbEntity
8
0
100
AcDbLine
62
7
6
CONTINUOUS
10
120.7899197593
20
132.6682547643
11
120.7899197593
21
103.1682547643
0
LINE
5
288
100
AcDbEntity
8
0
100
AcDbLine
62
2
6
CONTINUOUS
10
110.4684855228
20
103.1682547643
11
120.7899197593
21
113.4896890007
0
LINE
5
289
100
AcDbEntity
8
0
100
AcDbLine
62
7
6
CONTINUOUS
10
81.1399197593
20
124.5282547643
11
92.1399197593
21
124.5282547643
0
LINE
5
28A
100
AcDbEntity
8
0
100
AcDbLine
62
2
6
CONTINUOUS
10
115.6629667709
20
103.1682547643
11
120.7899197593
21
108.2952077526
0
LINE
5
28B
100
AcDbEntity
8
0
100
AcDbLine
62
7
6
CONTINUOUS
10
101.9497902199
20
132.6682547643
11
136.3899197593
21
132.6682547643
0
LINE
5
28C
100
AcDbEntity
8
0
100
AcDbLine
62
7
6
CONTINUOUS
10
133.3102114866
20
132.6682547643
11
133.3102114866
21
103.1682547643
0
LINE
5
28D
100
AcDbEntity
8
0
100
AcDbLine
62
7
6
CONTINUOUS
10
79.8180825239
20
129.1918682585
11
100.3406037941
21
132.5379315091
0
ARC
5
28E
100
AcDbEntity
8
0
100
AcDbCircle
62
7
6
CONTINUOUS
10
149.1399197571
20
209.7254554695
40
2.0000000000
100
AcDbArc
50
0.0000000039
51
80.7397784688
0
ARC
5
28F
100
AcDbEntity
8
0
100
AcDbCircle
62
7
6
CONTINUOUS
10
149.1399197571
20
191.1260991945
40
2.0000000000
100
AcDbArc
50
279.2602215312
51
359.9999999961
0
ARC
5
290
100
AcDbEntity
8
0
100
AcDbCircle
62
7
6
CONTINUOUS
10
92.8899197593
20
200.4257773320
40
14.7500000000
100
AcDbArc
50
89.9988032320
51
270.0013820127
0
CIRCLE
5
291
100
AcDbEntity
8
0
100
AcDbCircle
62
7
6
CONTINUOUS
10
86.6399197593
20
200.4257773320
40
5.5000000000
0
ARC
5
292
100
AcDbEntity
8
0
100
AcDbCircle
62
7
6
CONTINUOUS
10
127.3300492987
20
195.6757773320
40
10.0000000000
100
AcDbArc
50
270.0000000000
51
279.2602215312
0
ARC
5
293
100
AcDbEntity
8
0
100
AcDbCircle
62
7
6
CONTINUOUS
10
127.3300492987
20
205.1757773320
40
10.0000000000
100
AcDbArc
50
80.7397784688
51
90.0000000000
0
CIRCLE
5
294
100
AcDbEntity
8
0
100
AcDbCircle
62
7
6
CONTINUOUS
10
86.6399197593
20
200.4257773320
40
3.0000000000
0
ARC
5
295
100
AcDbEntity
8
0
100
AcDbCircle
62
7
6
CONTINUOUS
10
127.1399197593
20
200.4257773320
40
6.3500000000
100
AcDbArc
50
13.6635763633
51
346.3364236367
0
ARC
5
296
100
AcDbEntity
8
0
100
AcDbCircle
62
7
6
CONTINUOUS
10
127.3300492987
20
195.6757773320
40
8.0000001126
100
AcDbArc
50
270.0000000000
51
279.2602215312
0
ARC
5
297
100
AcDbEntity
8
0
100
AcDbCircle
62
7
6
CONTINUOUS
10
127.3300492987
20
205.1757773320
40
8.0000001126
100
AcDbArc
50
80.7397784688
51
90.0000000000
0
ARC
5
298
100
AcDbEntity
8
0
100
AcDbCircle
62
7
6
CONTINUOUS
10
80.1399198091
20
108.6185766190
40
2.0000000000
100
AcDbArc
50
180.0000000896
51
260.7397784688
0
ARC
5
299
100
AcDbEntity
8
0
100
AcDbCircle
62
7
6
CONTINUOUS
10
80.1399198091
20
127.2179329096
40
2.0000000000
100
AcDbArc
50
99.2602215312
51
179.9999999104
0
ARC
5
29A
100
AcDbEntity
8
0
100
AcDbCircle
62
7
6
CONTINUOUS
10
101.9497902199
20
113.1682547643
40
10.0000000000
100
AcDbArc
50
260.7397784688
51
270.0000000000
0
ARC
5
29B
100
AcDbEntity
8
0
100
AcDbCircle
62
7
6
CONTINUOUS
10
101.9497902199
20
122.6682547643
40
10.0000000000
100
AcDbArc
50
90.0000000000
51
99.2602215312
0
ARC
5
29C
100
AcDbEntity
8
0
100
AcDbCircle
62
7
6
CONTINUOUS
10
136.3899197593
20
117.9182547643
40
14.7500000000
100
AcDbArc
50
270.0000000000
51
90.0000000000
0
CIRCLE
5
29D
100
AcDbEntity
8
0
100
AcDbCircle
62
7
6
CONTINUOUS
10
142.6399197593
20
117.9182547643
40
3.0000000000
0
ARC
5
29E
100
AcDbEntity
8
0
100
AcDbCircle
62
7
6
CONTINUOUS
10
103.7899197593
20
117.9182547643
40
6.3500000000
100
AcDbArc
50
193.6635763633
51
166.3364236367
0
SPLINE
5
29F
100
AcDbEntity
8
0
100
AcDbSpline
62
7
6
CONTINUOUS
70
0
71
3
72
13
73
9
74
7
42
0.0000001000
43
0.0000001000
44
0.0000000001
12
0.0000000000
22
-2.0652687112
32
0.0000000000
13
2.0652687112
23
0.0000000000
33
0.0000000000
40
0.0000000000
40
0.0000000000
40
0.0000000000
40
0.0000000000
40
0.2506958229
40
0.4847729915
40
0.6868577348
40
0.8441017917
40
0.9478891496
40
1.0000000000
40
1.0000000000
40
1.0000000000
40
1.0000000000
10
100.3406037941
20
187.6757773320
30
0.0000000000
10
100.3406037941
20
187.5031925856
30
0.0000000000
10
100.3472609753
20
187.1695696539
30
0.0000000000
10
100.3783140812
20
186.6969061783
30
0.0000000000
10
100.4238543596
20
186.2927410595
30
0.0000000000
10
100.4902512780
20
185.9747215458
30
0.0000000000
10
100.5470709882
20
185.7785761807
30
0.0000000000
10
100.6265667764
20
185.6757773320
30
0.0000000000
10
100.6624410793
20
185.6757773320
30
0.0000000000
11
100.3406037941
21
187.6757773320
31
0.0000000000
11
100.3515701336
21
187.1581392427
31
0.0000000000
11
100.3837218144
21
186.6757773330
31
0.0000000000
11
100.4348677525
21
186.2615637694
31
0.0000000000
11
100.5015224369
21
185.9437265236
31
0.0000000000
11
100.5791434606
21
185.7439256791
31
0.0000000000
11
100.6624410793
21
185.6757773320
31
0.0000000000
0
SPLINE
5
2A0
100
AcDbEntity
8
0
100
AcDbSpline
62
7
6
CONTINUOUS
70
0
71
3
72
13
73
9
74
7
42
0.0000001000
43
0.0000001000
44
0.0000000001
12
0.0000000000
22
-2.0652687111
32
0.0000000000
13
2.0652687111
23
0.0000000000
33
0.0000000000
40
0.0000000000
40
0.0000000000
40
0.0000000000
40
0.0000000000
40
0.2506958234
40
0.4847729920
40
0.6868577348
40
0.8441017913
40
0.9478891495
40
1.0000000000
40
1.0000000000
40
1.0000000000
40
1.0000000000
10
92.5680824741
20
187.6757773320
30
0.0000000000
10
92.5680824741
20
187.5031925853
30
0.0000000000
10
92.5747396553
20
187.1695696533
30
0.0000000000
10
92.6057927613
20
186.6969061778
30
0.0000000000
10
92.6513330397
20
186.2927410595
30
0.0000000000
10
92.7177299580
20
185.9747215461
30
0.0000000000
10
92.7745496682
20
185.7785761812
30
0.0000000000
10
92.8540454563
20
185.6757773320
30
0.0000000000
10
92.8899197593
20
185.6757773320
30
0.0000000000
11
92.5680824741
21
187.6757773320
31
0.0000000000
11
92.5790488137
21
187.1581392418
31
0.0000000000
11
92.6112004945
21
186.6757773320
31
0.0000000000
11
92.6623464326
21
186.2615637696
31
0.0000000000
11
92.7290011168
21
185.9437265244
31
0.0000000000
11
92.8066221406
21
185.7439256794
31
0.0000000000
11
92.8899197593
21
185.6757773320
31
0.0000000000
0
SPLINE
5
2A1
100
AcDbEntity
8
0
100
AcDbSpline
62
7
6
CONTINUOUS
70
0
71
3
72
17
73
13
74
11
42
0.0000001000
43
0.0000001000
44
0.0000000001
12
0.0000000680
22
0.0000007841
32
0.0000000000
13
-14.7503257448
23
2.0787706387
33
0.0000000000
40
0.0000000000
40
0.0000000000
40
0.0000000000
40
0.0000000000
40
0.0121893593
40
0.0484876998
40
0.1080847033
40
0.1896289076
40
0.2912353146
40
0.4105282293
40
0.5446598065
40
0.6902228529
40
0.8433427104
40
1.0000000000
40
1.0000000000
40
1.0000000000
40
1.0000000000
10
151.1399197593
20
209.7254554696
30
0.0000000000
10
151.1399197595
20
209.7254554728
30
0.0000000000
10
150.7562139916
20
209.7795334445
30
0.0000000000
10
150.3638267307
20
209.8348349357
30
0.0000000000
10
149.4136214981
20
209.9687530453
30
0.0000000000
10
148.2534310327
20
210.1322656664
30
0.0000000000
10
146.7539364170
20
210.3435981896
30
0.0000000000
10
145.0125848516
20
210.5890177703
30
0.0000000000
10
143.0494911562
20
210.8656866224
30
0.0000000000
10
140.9218564463
20
211.1655504965
30
0.0000000000
10
138.6829291954
20
211.4810882833
30
0.0000000000
10
137.1598550588
20
211.6957522777
30
0.0000000000
10
136.3896063748
20
211.8043038023
30
0.0000000000
11
151.1399197593
21
209.7254554696
31
0.0000000000
11
150.9601242608
21
209.7507951381
31
0.0000000000
11
150.4247123224
21
209.8262539627
31
0.0000000000
11
149.5456377758
21
209.9501472050
31
0.0000000000
11
148.3428351125
21
210.1196653789
31
0.0000000000
11
146.8441086389
21
210.3308897907
31
0.0000000000
11
145.0845006284
21
210.5788819149
31
0.0000000000
11
143.1060176048
21
210.8577208650
31
0.0000000000
11
140.9589170074
21
211.1603254916
31
0.0000000000
11
138.7003506011
21
211.4786362725
31
0.0000000000
11
136.3896063748
21
211.8043038023
31
0.0000000000
0
SPLINE
5
2A2
100
AcDbEntity
8
0
100
AcDbSpline
62
7
6
CONTINUOUS
70
0
71
3
72
13
73
9
74
7
42
0.0000001000
43
0.0000001000
44
0.0000000001
12
-0.0000000223
22
2.0652687091
32
0.0000000000
13
2.0652687091
23
0.0000000000
33
0.0000000000
40
0.0000000000
40
0.0000000000
40
0.0000000000
40
0.0000000000
40
0.2506955605
40
0.4847726361
40
0.6868574302
40
0.8441016139
40
0.9478890936
40
1.0000000000
40
1.0000000000
40
1.0000000000
40
1.0000000000
10
92.5680824741
20
213.1757773320
30
0.0000000000
10
92.5680824723
20
213.3483618975
30
0.0000000000
10
92.5747396388
20
213.6819845840
30
0.0000000000
10
92.6057926990
20
214.1546478524
30
0.0000000000
10
92.6513329433
20
214.5588130291
30
0.0000000000
10
92.7177298578
20
214.8768327676
30
0.0000000000
10
92.7745495776
20
215.0729783136
30
0.0000000000
10
92.8540454180
20
215.1757773320
30
0.0000000000
10
92.8899197595
20
215.1757773320
30
0.0000000000
11
92.5680824741
21
213.1757773320
31
0.0000000000
11
92.5790487855
21
213.6934148792
31
0.0000000000
11
92.6112004186
21
214.1757765992
31
0.0000000000
11
92.6623463237
21
214.5899902719
31
0.0000000000
11
92.7290010102
21
214.9078277848
31
0.0000000000
11
92.8066220748
21
215.1076288828
31
0.0000000000
11
92.8899197595
21
215.1757773320
31
0.0000000000
0
SPLINE
5
2A3
100
AcDbEntity
8
0
100
AcDbSpline
62
7
6
CONTINUOUS
70
0
71
3
72
13
73
9
74
7
42
0.0000001000
43
0.0000001000
44
0.0000000001
12
0.0000000000
22
2.0652687112
32
0.0000000000
13
2.0652687112
23
0.0000000000
33
0.0000000000
40
0.0000000000
40
0.0000000000
40
0.0000000000
40
0.0000000000
40
0.2506958234
40
0.4847729920
40
0.6868577348
40
0.8441017913
40
0.9478891495
40
1.0000000000
40
1.0000000000
40
1.0000000000
40
1.0000000000
10
100.3406037941
20
213.1757773320
30
0.0000000000
10
100.3406037941
20
213.3483620787
30
0.0000000000
10
100.3472609753
20
213.6819850107
30
0.0000000000
10
100.3783140813
20
214.1546484862
30
0.0000000000
10
100.4238543597
20
214.5588136045
30
0.0000000000
10
100.4902512779
20
214.8768331178
30
0.0000000000
10
100.5470709880
20
215.0729784829
30
0.0000000000
10
100.6265667763
20
215.1757773320
30
0.0000000000
10
100.6624410793
20
215.1757773320
30
0.0000000000
11
100.3406037941
21
213.1757773320
31
0.0000000000
11
100.3515701337
21
213.6934154222
31
0.0000000000
11
100.3837218144
21
214.1757773320
31
0.0000000000
11
100.4348677525
21
214.5899908944
31
0.0000000000
11
100.5015224367
21
214.9078281396
31
0.0000000000
11
100.5791434605
21
215.1076289846
31
0.0000000000
11
100.6624410793
21
215.1757773320
31
0.0000000000
0
SPLINE
5
2A4
100
AcDbEntity
8
0
100
AcDbSpline
62
7
6
CONTINUOUS
70
0
71
3
72
17
73
13
74
11
42
0.0000001000
43
0.0000001000
44
0.0000000001
12
14.7503255735
22
2.0787705497
32
0.0000000000
13
-0.0000000650
23
0.0000007846
33
0.0000000000
40
0.0000000000
40
0.0000000000
40
0.0000000000
40
0.0000000000
40
0.1566573049
40
0.3097771633
40
0.4553402099
40
0.5894717865
40
0.7087646999
40
0.8103711048
40
0.8919153065
40
0.9515123067
40
0.9878106436
40
1.0000000000
40
1.0000000000
40
1.0000000000
40
1.0000000000
10
136.3896065739
20
189.0472508896
30
0.0000000000
10
137.1598553242
20
189.1558024202
30
0.0000000000
10
138.6829295211
20
189.3704664290
30
0.0000000000
10
140.9218568259
20
189.6860042198
30
0.0000000000
10
143.0494915123
20
189.9858680923
30
0.0000000000
10
145.0125851747
20
190.2625369390
30
0.0000000000
10
146.7539367004
20
190.5079565144
30
0.0000000000
10
148.2534312648
20
190.7192890303
30
0.0000000000
10
149.4136216869
20
190.8828016453
30
0.0000000000
10
150.3638268353
20
191.0167197430
30
0.0000000000
10
150.7562140968
20
191.0720212343
30
0.0000000000
10
151.1399197595
20
191.1260991912
30
0.0000000000
10
151.1399197593
20
191.1260991943
30
0.0000000000
11
136.3896065739
21
189.0472508896
31
0.0000000000
11
138.7003509973
21
189.3729184477
31
0.0000000000
11
140.9589173902
21
189.6912292260
31
0.0000000000
11
143.1060179640
21
189.9938338498
31
0.0000000000
11
145.0845009546
21
190.2726727950
31
0.0000000000
11
146.8441089237
21
190.5206649135
31
0.0000000000
11
148.3428353492
21
190.7318893185
31
0.0000000000
11
149.5456379585
21
190.9014074847
31
0.0000000000
11
150.4247124468
21
191.0253007188
31
0.0000000000
11
150.9601243238
21
191.1007595348
31
0.0000000000
11
151.1399197593
21
191.1260991943
31
0.0000000000
0
SPLINE
5
2A5
100
AcDbEntity
8
0
100
AcDbSpline
62
7
6
CONTINUOUS
70
0
71
3
72
27
73
23
74
21
42
0.0000001000
43
0.0000001000
44
0.0000000001
12
-40.0141368898
22
-0.0018450839
32
0.0000000000
13
40.0141368774
23
-0.0020974016
33
0.0000000000
40
0.0000000000
40
0.0000000000
40
0.0000000000
40
0.0000000000
40
0.0500535760
40
0.1002358490
40
0.1504648116
40
0.2006484261
40
0.2507335899
40
0.3007229416
40
0.3506292100
40
0.4004638848
40
0.4502455250
40
0.4999991339
40
0.5497526912
40
0.5995341817
40
0.6493686964
40
0.6992748557
40
0.7492640492
40
0.7993488375
40
0.8495323406
40
0.8997626314
40
0.9499479571
40
1.0000000000
40
1.0000000000
40
1.0000000000
40
1.0000000000
10
92.5680824741
20
213.1757773320
30
0.0000000000
10
91.9004655938
20
213.1757465476
30
0.0000000000
10
90.5611380079
20
213.0703570045
30
0.0000000000
10
88.6022012762
20
212.5989879938
30
0.0000000000
10
86.7394819628
20
211.8250736457
30
0.0000000000
10
85.0227112876
20
210.7688695193
30
0.0000000000
10
83.4952816704
20
209.4585712430
30
0.0000000000
10
82.1942497946
20
207.9281634514
30
0.0000000000
10
81.1501205940
20
206.2161308134
30
0.0000000000
10
80.3869810629
20
204.3647436461
30
0.0000000000
10
79.9221601620
20
202.4190551001
30
0.0000000000
10
79.7660611202
20
200.4258131970
30
0.0000000000
10
79.9221490177
20
198.4325724454
30
0.0000000000
10
80.3869574457
20
196.4868859539
30
0.0000000000
10
81.1500830933
20
194.6354991780
30
0.0000000000
10
82.1941977997
20
192.9234644787
30
0.0000000000
10
83.4952129534
20
191.3930537487
30
0.0000000000
10
85.0226257420
20
190.0827495431
30
0.0000000000
10
86.7393960506
20
189.0265228950
30
0.0000000000
10
88.6021642922
20
188.2525773879
30
0.0000000000
10
90.5611380711
20
187.7811917468
30
0.0000000000
10
91.9004860421
20
187.6758123251
30
0.0000000000
10
92.5680824741
20
187.6757773320
30
0.0000000000
11
92.5680824741
21
213.1757773320
31
0.0000000000
11
90.5714189800
21
213.0184700234
31
0.0000000000
11
88.6191147518
21
212.5488174023
31
0.0000000000
11
86.7630868598
21
211.7776285815
31
0.0000000000
11
85.0527807068
21
210.7254243086
31
0.0000000000
11
83.5316747675
21
209.4205442172
31
0.0000000000
11
82.2360868180
21
207.8965445448
31
0.0000000000
11
81.1963061735
21
206.1916426408
31
0.0000000000
11
80.4363712410
21
204.3480321004
31
0.0000000000
11
79.9735183125
21
202.4105829733
31
0.0000000000
11
79.8180825241
21
200.4258123655
31
0.0000000000
11
79.9735072108
21
198.4410429642
31
0.0000000000
11
80.4363474528
21
196.5035969605
31
0.0000000000
11
81.1962682854
21
194.6599875407
31
0.0000000000
11
82.2360351650
21
192.9550823528
31
0.0000000000
11
83.5316080529
21
191.4310781890
31
0.0000000000
11
85.0526922241
21
190.1261957927
31
0.0000000000
11
86.7629851425
21
189.0739785217
31
0.0000000000
11
88.6190572298
21
188.3027575563
31
0.0000000000
11
90.5714796878
21
187.8330741491
31
0.0000000000
11
92.5680824741
21
187.6757773320
31
0.0000000000
0
ENDSEC
0
SECTION
2
OBJECTS
0
DICTIONARY
5
C
100
AcDbDictionary
280
0
281
1
3
ACAD_GROUP
350
D
3
ACAD_MLINESTYLE
350
17
3
ACAD_LAYOUT
350
1A
3
ACAD_PLOTSETTINGS
350
19
3
ACAD_PLOTSTYLENAME
350
E
0
DICTIONARY
5
D
102
{ACAD_REACTORS
330
C
102
}
100
AcDbDictionary
280
0
281
1
0
ACDBDICTIONARYWDFLT
5
E
102
{ACAD_REACTORS
330
C
102
}
100
AcDbDictionary
281
1
3
Normal
350
F
100
AcDbDictionaryWithDefault
340
F
0
DICTIONARY
5
17
102
{ACAD_REACTORS
330
C
102
}
100
AcDbDictionary
280
0
281
1
3
Standard
350
18
0
DICTIONARY
5
19
102
{ACAD_REACTORS
330
C
102
}
100
AcDbDictionary
281
1
0
DICTIONARY
5
1A
102
{ACAD_REACTORS
330
C
102
}
100
AcDbDictionary
281
1
3
Layout1
350
1E
3
Model
350
22
0
ACDBPLACEHOLDER
5
F
102
{ACAD_REACTORS
330
E
102
}
0
MLINESTYLE
5
18
102
{ACAD_REACTORS
330
17
102
}
100
AcDbMlineStyle
2
STANDARD
70
0
3

62
256
51
90.0
52
90.0
71
2
49
0.5
62
256
6
BYLAYER
49
-0.5
62
256
6
BYLAYER
0
LAYOUT
5
1E
102
{ACAD_REACTORS
330
1A
102
}
100
AcDbPlotSettings
1

2

4

6

40
0.0
41
0.0
42
0.0
43
0.0
44
0.0
45
0.0
46
0.0
47
0.0
48
0.0
49
0.0
140
0.0
141
0.0
142
1.0
143
1.0
70
0
72
0
73
0
74
0
7

75
0
147
1.0
148
0.0
149
0.0
100
AcDbLayout
1
Layout1
70
0
71
0
10
0.0
20
0.0
11
0.0
21
0.0
12
0.0
22
0.0
32
0.0
14
0.0
24
0.0
34
0.0
15
0.0
25
0.0
35
0.0
146
0.0
13
0.0
23
0.0
33
0.0
16
0.0
26
0.0
36
0.0
17
0.0
27
0.0
37
0.0
76
0
330
1B
331
0
345
0
346
0
0
LAYOUT
5
22
102
{ACAD_REACTORS
330
1A
102
}
100
AcDbPlotSettings
1

2

4

6

40
0.0
41
0.0
42
0.0
43
0.0
44
0.0
45
0.0
46
0.0
47
0.0
48
0.0
49
0.0
140
0.0
141
0.0
142
1.0
143
1.0
70
0
72
0
73
0
74
0
7

75
0
147
1.0
148
0.0
149
0.0
100
AcDbLayout
1
Model
70
0
71
0
10
0.0
20
0.0
11
0.0
21
0.0
12
0.0
22
0.0
32
0.0
14
0.0
24
0.0
34
0.0
15
0.0
25
0.0
35
0.0
146
0.0
13
0.0
23
0.0
33
0.0
16
0.0
26
0.0
36
0.0
17
0.0
27
0.0
37
0.0
76
0
330
1F
331
0
345
0
346
0
0
ENDSEC
0
EOF
