0
SECTION
2
HEADER
9
$ACADVER
1
AC1015
9
$DWGCODEPAGE
3
ANSI_1252
9
$EXTMAX
10
210.0000000000
20
297.0000000000
30
0.0000000000
9
$EXTMIN
10
0.0000000000
20
0.0000000000
30
0.0000000000
9
$LIMMIN
10
0.0000000000
20
0.0000000000
9
$LIMMAX
10
210.0000000000
20
297.0000000000
9
$VIEWCTR
10
105.0000000000
20
148.5000000000
9
$VIEWSIZE
40
297.0000000000
9
$CLAYER
8
0
9
$LTSCALE
40
19.3600000000
9
$CELTYPE
6
BYLAYER
9
$DIMSCALE
40
1
9
$DIMASZ
40
3.5000000000
9
$DIMEXO
40
2.2000000000
9
$DIMDLI
40
13.3760000000
9
$DIMEXE
40
6.3360000000
9
$DIMCEN
40
3.1680000000
9
$DIMLFAC
40
1.0000000000
9
$DIMBLK
1
_FILLED
9
$DIMTXT
40
3.5000000000
9
$DIMTOL
70
1
9
$DIMLIM
70
0
9
$DIMTFAC
40
1.0000000000
9
$DIMTP
40
0.0010000000
9
$DIMTM
40
0.0010000000
9
$PDMODE
70
3
9
$PDSIZE
40
0.3125000000
9
$HANDSEED
5
2F9
9
$MEASUREMENT
70
1
9
$INSUNITS
70
4
0
ENDSEC
0
SECTION
2
CLASSES
0
CLASS
1
ACDBDICTIONARYWDFLT
2
AcDbDictionaryWithDefault
3
AutoCAD 2000
90
0
280
0
281
0
0
CLASS
1
ACDBPLACEHOLDER
2
AcDbPlaceHolder
3
AutoCAD 2000
90
0
280
0
281
0
0
CLASS
1
LAYOUT
2
AcDbLayout
3
AutoCAD 2000
90
0
280
0
281
0
0
ENDSEC
0
SECTION
2
TABLES
0
TABLE
2
VPORT
5
8
100
AcDbSymbolTable
70
2
0
VPORT
5
1F4
100
AcDbSymbolTableRecord
100
AcDbViewportTableRecord
2
*ACTIVE
70
0
10
0.0
20
0.0
11
1.0
21
1.0
12
105.0000000000
22
148.5000000000
13
0.0
23
0.0
14
1.0
24
1.0
15
0.0
25
0.0
16
0.0
26
0.0
36
1.0
17
0.0
27
0.0
37
0.0
40
297.0000000000
41
0.7070707071
42
50.0
43
0.0
44
0.0
50
0.0
51
0.0
71
0
72
100
73
1
74
1
75
0
76
0
77
0
78
0
0
ENDTAB
0
TABLE
2
LTYPE
5
5
100
AcDbSymbolTable
70
6
0
LTYPE
5
14
100
AcDbSymbolTableRecord
100
AcDbLinetypeTableRecord
2
BYBLOCK
70
0
3

72
65
73
0
40
0.0
0
LTYPE
5
15
100
AcDbSymbolTableRecord
100
AcDbLinetypeTableRecord
2
BYLAYER
70
0
3

72
65
73
0
40
0.0
0
LTYPE
5
16
100
AcDbSymbolTableRecord
100
AcDbLinetypeTableRecord
2
CONTINUOUS
70
64
3
Solid line
72
65
73
0
40
0
0
LTYPE
5
1F5
100
AcDbSymbolTableRecord
100
AcDbLinetypeTableRecord
2
CENTER
70
64
3
____ _ ____ _ ____ _ ____ _ ____ _ ____ _ ____
72
65
73
4
40
0.6
49
0.375
74
0
49
-0.075
74
0
49
0.075
74
0
49
-0.075
74
0
0
LTYPE
5
1F6
100
AcDbSymbolTableRecord
100
AcDbLinetypeTableRecord
2
HIDDEN
70
64
3
- - - - - - - - - - - - - - - - - - - -
72
65
73
2
40
0.2
49
0.1
74
0
49
-0.1
74
0
0
LTYPE
5
1F7
100
AcDbSymbolTableRecord
100
AcDbLinetypeTableRecord
2
PHANTOM
70
64
3
_____ _ _ _____ _ _ _____ _ _ _____
72
65
73
6
40
0.8
49
0.45
74
0
49
-0.05
74
0
49
0.1
74
0
49
-0.05
74
0
49
0.1
74
0
49
-0.05
74
0
0
LTYPE
5
1F8
100
AcDbSymbolTableRecord
100
AcDbLinetypeTableRecord
2
DOT
70
64
3
. . . . . . . . . . . . . . . . . . . .
72
65
73
2
40
0.2
49
0.1
74
0
49
-0.1
74
0
0
LTYPE
5
1F9
100
AcDbSymbolTableRecord
100
AcDbLinetypeTableRecord
2
DASHED
70
64
3
- - - - - - - - - - - - - - - - - - - -
72
65
73
2
40
0.2
49
0.1
74
0
49
-0.1
74
0
0
ENDTAB
0
TABLE
2
LAYER
5
2
100
AcDbSymbolTable
70
36
0
LAYER
5
10
100
AcDbSymbolTableRecord
100
AcDbLayerTableRecord
2
0
70
0
62
7
6
CONTINUOUS
370
-3
390
F
0
LAYER
5
1FA
100
AcDbSymbolTableRecord
100
AcDbLayerTableRecord
2
DEFAULT_1
70
0
62
7
6
CENTER
370
-3
390
F
0
LAYER
5
1FB
100
AcDbSymbolTableRecord
100
AcDbLayerTableRecord
2
DEFAULT_2
70
0
62
8
6
HIDDEN
370
-3
390
F
0
LAYER
5
1FC
100
AcDbSymbolTableRecord
100
AcDbLayerTableRecord
2
DEFAULT_3
70
0
62
7
6
PHANTOM
370
-3
390
F
0
LAYER
5
1FD
100
AcDbSymbolTableRecord
100
AcDbLayerTableRecord
2
ASSI
70
0
62
7
6
CONTINUOUS
370
-3
390
F
0
LAYER
5
1FE
100
AcDbSymbolTableRecord
100
AcDbLayerTableRecord
2
PIANI
70
0
62
7
6
CONTINUOUS
370
-3
390
F
0
ENDTAB
0
TABLE
2
STYLE
5
3
100
AcDbSymbolTable
70
1
0
STYLE
5
11
100
AcDbSymbolTableRecord
100
AcDbTextStyleTableRecord
2
STANDARD
70
0
40
0.0
41
0.7143000000
50
0.0
71
0
42
0.2
3
txt
4

0
ENDTAB
0
TABLE
2
VIEW
5
6
100
AcDbSymbolTable
70
0
0
ENDTAB
0
TABLE
2
UCS
5
7
100
AcDbSymbolTable
70
0
0
ENDTAB
0
TABLE
2
APPID
5
9
100
AcDbSymbolTable
70
1
0
APPID
5
1FF
100
AcDbSymbolTableRecord
100
AcDbRegAppTableRecord
2
ACAD
70
0
0
ENDTAB
0
TABLE
2
BLOCK_RECORD
5
1
100
AcDbSymbolTable
70
0
0
BLOCK_RECORD
5
1F
100
AcDbSymbolTableRecord
100
AcDbBlockTableRecord
2
*MODEL_SPACE
0
BLOCK_RECORD
5
1B
100
AcDbSymbolTableRecord
100
AcDbBlockTableRecord
2
*PAPER_SPACE
0
BLOCK_RECORD
5
200
100
AcDbSymbolTableRecord
100
AcDbBlockTableRecord
2
_FILLED
0
BLOCK_RECORD
5
201
100
AcDbSymbolTableRecord
100
AcDbBlockTableRecord
2
*D0
0
BLOCK_RECORD
5
202
100
AcDbSymbolTableRecord
100
AcDbBlockTableRecord
2
*D1
0
BLOCK_RECORD
5
203
100
AcDbSymbolTableRecord
100
AcDbBlockTableRecord
2
*D2
0
BLOCK_RECORD
5
204
100
AcDbSymbolTableRecord
100
AcDbBlockTableRecord
2
*D3
0
BLOCK_RECORD
5
205
100
AcDbSymbolTableRecord
100
AcDbBlockTableRecord
2
*D4
0
BLOCK_RECORD
5
206
100
AcDbSymbolTableRecord
100
AcDbBlockTableRecord
2
*D5
0
BLOCK_RECORD
5
207
100
AcDbSymbolTableRecord
100
AcDbBlockTableRecord
2
*D6
0
ENDTAB
0
TABLE
2
DIMSTYLE
5
A
100
AcDbSymbolTable
70
1
100
AcDbDimStyleTable
71
0
0
DIMSTYLE
105
208
100
AcDbSymbolTableRecord
100
AcDbDimStyleTableRecord
2
STANDARD
70
0
3

4

40
1.0
41
3.5000000000
42
0.0625
43
0.38
44
0.18
45
0.0
46
0.0
47
0.0010000000
48
0.0010000000
140
3.5000000000
141
0.09
142
0.0
143
25.4
144
1.0000000000
145
0.0
146
1.0000000000
147
0.09
71
1
72
0
73
0
74
0
75
0
76
0
77
1
78
8
170
0
171
2
172
0
173
0
174
0
175
0
176
0
177
0
178
0
270
2
271
3
272
3
273
2
274
2
275
0
280
0
281
0
282
0
283
1
284
8
285
0
286
0
287
3
288
0
340
11
341
200
342
200
343
200
344
200
0
DIMSTYLE
105
209
100
AcDbSymbolTableRecord
100
AcDbDimStyleTableRecord
2
DIMSTYLE_1
70
0
3

4

40
1.0
41
3.5000000000
42
0.0625
43
0.38
44
0.18
45
0.0
46
0.0
47
0.1000000000
48
0.1000000000
140
3.5000000000
141
0.09
142
0.0
143
25.4
144
1.0000000000
145
0.0
146
1.0000000000
147
0.09
71
0
72
0
73
0
74
0
75
0
76
0
77
1
78
8
170
0
171
2
172
0
173
0
174
0
175
0
176
0
177
0
178
0
270
2
271
3
272
3
273
2
274
2
275
0
280
0
281
0
282
0
283
1
284
8
285
0
286
0
287
3
288
0
340
11
341
200
342
200
343
200
344
200
0
DIMSTYLE
105
20A
100
AcDbSymbolTableRecord
100
AcDbDimStyleTableRecord
2
DIMSTYLE_2
70
0
3

4

40
1.0
41
3.5000000000
42
0.0625
43
0.38
44
0.18
45
0.0
46
0.0
47
0.1500000000
48
0.1500000000
140
3.5000000000
141
0.09
142
0.0
143
25.4
144
1.0000000000
145
0.0
146
1.0000000000
147
0.09
71
0
72
0
73
0
74
0
75
0
76
0
77
1
78
8
170
0
171
2
172
0
173
0
174
0
175
0
176
0
177
0
178
0
270
2
271
3
272
3
273
2
274
2
275
0
280
0
281
0
282
0
283
1
284
8
285
0
286
0
287
3
288
0
340
11
341
200
342
200
343
200
344
200
0
DIMSTYLE
105
20B
100
AcDbSymbolTableRecord
100
AcDbDimStyleTableRecord
2
DIMSTYLE_3
70
0
3

4

40
1.0
41
3.5000000000
42
0.0625
43
0.38
44
0.18
45
0.0
46
0.0
47
0.1000000000
48
0.1000000000
140
3.5000000000
141
0.09
142
0.0
143
25.4
144
1.0000000000
145
0.0
146
1.0000000000
147
0.09
71
0
72
0
73
0
74
0
75
0
76
0
77
1
78
8
170
0
171
2
172
0
173
0
174
0
175
0
176
0
177
0
178
0
270
2
271
3
272
3
273
2
274
2
275
0
280
0
281
0
282
0
283
1
284
8
285
0
286
0
287
3
288
0
340
11
341
200
342
200
343
200
344
200
0
ENDTAB
0
ENDSEC
0
SECTION
2
BLOCKS
0
BLOCK
5
20
100
AcDbEntity
8
0
100
AcDbBlockBegin
2
*MODEL_SPACE
70
0
10
0.0
20
0.0
30
0.0
3
*MODEL_SPACE
1

0
ENDBLK
5
21
100
AcDbEntity
8
0
100
AcDbBlockEnd
0
BLOCK
5
1C
100
AcDbEntity
8
0
100
AcDbBlockBegin
2
*PAPER_SPACE
70
0
10
0.0
20
0.0
30
0.0
3
*PAPER_SPACE
1

0
ENDBLK
5
1D
100
AcDbEntity
8
0
100
AcDbBlockEnd
0
BLOCK
5
20C
100
AcDbEntity
8
0
100
AcDbBlockBegin
62
2
6
CONTINUOUS
2
*D0
70
65
10
0.0000000000
20
0.0000000000
3
*D0
1

0
TEXT
5
20D
100
AcDbEntity
8
0
100
AcDbText
62
2
6
CONTINUOUS
10
55.3567517954
20
204.7915450604
7
STANDARD
40
3.5000000000
1
29.5
50
90.0000000000
41
0.7143000000
72
0
100
AcDbText
0
LINE
5
20E
100
AcDbEntity
8
0
100
AcDbLine
62
2
6
CONTINUOUS
10
90.9196006712
20
223.7996489468
11
54.7317517954
21
223.7996489468
0
LINE
5
20F
100
AcDbEntity
8
0
100
AcDbLine
62
2
6
CONTINUOUS
10
90.9196006712
20
194.2996489468
11
54.7317517954
21
194.2996489468
0
LINE
5
210
100
AcDbEntity
8
0
100
AcDbLine
62
2
6
CONTINUOUS
10
56.2317517954
20
223.7996489468
11
56.2317517954
21
209.0496489468
0
LINE
5
211
100
AcDbEntity
8
0
100
AcDbLine
62
2
6
CONTINUOUS
10
56.2317517954
20
194.2996489468
11
56.2317517954
21
209.0496489468
0
INSERT
5
212
100
AcDbEntity
8
0
100
AcDbBlockReference
62
2
6
CONTINUOUS
2
_FILLED
10
56.2317517954
20
223.7996489468
41
  3.500000
42
  3.500000
43
  3.500000
50
 90.000000
0
INSERT
5
213
100
AcDbEntity
8
0
100
AcDbBlockReference
62
2
6
CONTINUOUS
2
_FILLED
10
56.2317517954
20
194.2996489468
41
  3.500000
42
  3.500000
43
  3.500000
50
270.000000
0
ENDBLK
5
214
100
AcDbEntity
8
0
6
BYBLOCK
62
0
100
AcDbBlockEnd
0
BLOCK
5
215
100
AcDbEntity
8
0
100
AcDbBlockBegin
62
2
6
CONTINUOUS
2
*D1
70
65
10
0.0000000000
20
0.0000000000
3
*D1
1

0
TEXT
5
216
100
AcDbEntity
8
0
100
AcDbText
62
2
6
CONTINUOUS
10
153.9823817966
20
205.8146721485
7
STANDARD
40
3.5000000000
1
22
50
90.0000000000
41
0.7143000000
72
0
100
AcDbText
0
LINE
5
217
100
AcDbEntity
8
0
100
AcDbLine
62
2
6
CONTINUOUS
10
140.7642928786
20
220.0496489468
11
156.3573817966
21
220.0496489468
0
LINE
5
218
100
AcDbEntity
8
0
100
AcDbLine
62
2
6
CONTINUOUS
10
140.7642928786
20
198.0496489468
11
156.3573817966
21
198.0496489468
0
LINE
5
219
100
AcDbEntity
8
0
100
AcDbLine
62
2
6
CONTINUOUS
10
154.8573817966
20
220.0496489468
11
154.8573817966
21
209.0496489468
0
LINE
5
21A
100
AcDbEntity
8
0
100
AcDbLine
62
2
6
CONTINUOUS
10
154.8573817966
20
198.0496489468
11
154.8573817966
21
209.0496489468
0
INSERT
5
21B
100
AcDbEntity
8
0
100
AcDbBlockReference
62
2
6
CONTINUOUS
2
_FILLED
10
154.8573817966
20
220.0496489468
41
  3.500000
42
  3.500000
43
  3.500000
50
 90.000000
0
INSERT
5
21C
100
AcDbEntity
8
0
100
AcDbBlockReference
62
2
6
CONTINUOUS
2
_FILLED
10
154.8573817966
20
198.0496489468
41
  3.500000
42
  3.500000
43
  3.500000
50
270.000000
0
ENDBLK
5
21D
100
AcDbEntity
8
0
6
BYBLOCK
62
0
100
AcDbBlockEnd
0
BLOCK
5
21E
100
AcDbEntity
8
0
100
AcDbBlockBegin
62
2
6
CONTINUOUS
2
*D2
70
65
10
0.0000000000
20
0.0000000000
3
*D2
1

0
TEXT
5
21F
100
AcDbEntity
8
0
100
AcDbText
62
2
6
CONTINUOUS
10
104.4393884349
20
238.0717702021
7
STANDARD
40
3.5000000000
1
73
41
0.7143000000
72
0
100
AcDbText
0
LINE
5
220
100
AcDbEntity
8
0
100
AcDbLine
62
2
6
CONTINUOUS
10
140.2642928786
20
220.8300696043
11
140.2642928786
21
238.6967702021
0
LINE
5
221
100
AcDbEntity
8
0
100
AcDbLine
62
2
6
CONTINUOUS
10
67.2642928786
20
209.5496489468
11
67.2642928786
21
238.6967702021
0
LINE
5
222
100
AcDbEntity
8
0
100
AcDbLine
62
2
6
CONTINUOUS
10
140.2642928786
20
237.1967702021
11
103.7642928786
21
237.1967702021
0
LINE
5
223
100
AcDbEntity
8
0
100
AcDbLine
62
2
6
CONTINUOUS
10
67.2642928786
20
237.1967702021
11
103.7642928786
21
237.1967702021
0
INSERT
5
224
100
AcDbEntity
8
0
100
AcDbBlockReference
62
2
6
CONTINUOUS
2
_FILLED
10
140.2642928786
20
237.1967702021
41
  3.500000
42
  3.500000
43
  3.500000
0
INSERT
5
225
100
AcDbEntity
8
0
100
AcDbBlockReference
62
2
6
CONTINUOUS
2
_FILLED
10
67.2642928786
20
237.1967702021
41
  3.500000
42
  3.500000
43
  3.500000
50
180.000000
0
ENDBLK
5
226
100
AcDbEntity
8
0
6
BYBLOCK
62
0
100
AcDbBlockEnd
0
BLOCK
5
227
100
AcDbEntity
8
0
100
AcDbBlockBegin
62
2
6
CONTINUOUS
2
*D3
70
65
10
0.0000000000
20
0.0000000000
3
*D3
1

0
TEXT
5
228
100
AcDbEntity
8
0
100
AcDbText
62
2
6
CONTINUOUS
10
54.2080339751
20
118.4736059911
7
STANDARD
40
3.5000000000
1
29.5
50
90.0000000000
41
0.7143000000
72
0
100
AcDbText
0
LINE
5
229
100
AcDbEntity
8
0
100
AcDbLine
62
2
6
CONTINUOUS
10
90.7642928786
20
137.6532096289
11
53.5830339751
21
137.6532096289
0
LINE
5
22A
100
AcDbEntity
8
0
100
AcDbLine
62
2
6
CONTINUOUS
10
90.7642928786
20
108.1532096289
11
53.5830339751
21
108.1532096289
0
LINE
5
22B
100
AcDbEntity
8
0
100
AcDbLine
62
2
6
CONTINUOUS
10
55.0830339751
20
137.6532096289
11
55.0830339751
21
122.9032096289
0
LINE
5
22C
100
AcDbEntity
8
0
100
AcDbLine
62
2
6
CONTINUOUS
10
55.0830339751
20
108.1532096289
11
55.0830339751
21
122.9032096289
0
INSERT
5
22D
100
AcDbEntity
8
0
100
AcDbBlockReference
62
2
6
CONTINUOUS
2
_FILLED
10
55.0830339751
20
137.6532096289
41
  3.500000
42
  3.500000
43
  3.500000
50
 90.000000
0
INSERT
5
22E
100
AcDbEntity
8
0
100
AcDbBlockReference
62
2
6
CONTINUOUS
2
_FILLED
10
55.0830339751
20
108.1532096289
41
  3.500000
42
  3.500000
43
  3.500000
50
270.000000
0
ENDBLK
5
22F
100
AcDbEntity
8
0
6
BYBLOCK
62
0
100
AcDbBlockEnd
0
BLOCK
5
230
100
AcDbEntity
8
0
100
AcDbBlockBegin
62
2
6
CONTINUOUS
2
*D4
70
65
10
0.0000000000
20
0.0000000000
3
*D4
1

0
TEXT
5
231
100
AcDbEntity
8
0
100
AcDbText
62
2
6
CONTINUOUS
10
126.7633633100
20
187.3478654159
7
STANDARD
40
3.5000000000
1
%%c
50
-66.2628464523
41
1.3333333333
72
0
100
AcDbText
0
TEXT
5
232
100
AcDbEntity
8
0
100
AcDbText
62
2
6
CONTINUOUS
10
128.6418901005
20
183.0759905493
7
STANDARD
40
3.5000000000
1
14
50
-66.2628464523
41
0.7143000000
72
0
100
AcDbText
0
LINE
5
233
100
AcDbEntity
8
0
100
AcDbLine
62
2
6
CONTINUOUS
10
119.0820830647
20
202.6418366464
11
116.2642928786
21
209.0496489468
0
LINE
5
234
100
AcDbEntity
8
0
100
AcDbLine
62
2
6
CONTINUOUS
10
116.2642928786
20
209.0496489468
11
129.8536610927
21
178.1466664504
0
LINE
5
235
100
AcDbEntity
8
0
100
AcDbLine
62
2
6
CONTINUOUS
10
113.4465026926
20
215.4574612473
11
116.2642928786
21
209.0496489468
0
LINE
5
236
100
AcDbEntity
8
0
100
AcDbLine
62
2
6
CONTINUOUS
10
116.2642928786
20
209.0496489468
11
110.2261710521
21
222.7806753035
0
INSERT
5
237
100
AcDbEntity
8
0
100
AcDbBlockReference
62
2
6
CONTINUOUS
2
_FILLED
10
119.0820830644
20
202.6418366471
41
  3.500000
42
  3.500000
43
  3.500000
50
113.737723
0
INSERT
5
238
100
AcDbEntity
8
0
100
AcDbBlockReference
62
2
6
CONTINUOUS
2
_FILLED
10
113.4465026929
20
215.4574612466
41
  3.500000
42
  3.500000
43
  3.500000
50
293.736791
0
ENDBLK
5
239
100
AcDbEntity
8
0
6
BYBLOCK
62
0
100
AcDbBlockEnd
0
BLOCK
5
23A
100
AcDbEntity
8
0
100
AcDbBlockBegin
62
2
6
CONTINUOUS
2
*D5
70
65
10
0.0000000000
20
0.0000000000
3
*D5
1

0
TEXT
5
23B
100
AcDbEntity
8
0
100
AcDbText
62
2
6
CONTINUOUS
10
99.6125883355
20
103.9360556019
7
STANDARD
40
3.5000000000
1
%%c
50
-68.6634944574
41
1.3333333333
72
0
100
AcDbText
0
TEXT
5
23C
100
AcDbEntity
8
0
100
AcDbText
62
2
6
CONTINUOUS
10
101.3105306246
20
99.5892441543
7
STANDARD
40
3.5000000000
1
14
50
-68.6634944574
41
0.7143000000
72
0
100
AcDbText
0
LINE
5
23D
100
AcDbEntity
8
0
100
AcDbLine
62
2
6
CONTINUOUS
10
93.8112063125
20
116.3829924569
11
91.2642928786
21
122.9032096289
0
LINE
5
23E
100
AcDbEntity
8
0
100
AcDbLine
62
2
6
CONTINUOUS
10
91.2642928786
20
122.9032096289
11
102.3147637438
21
94.6134888496
0
LINE
5
23F
100
AcDbEntity
8
0
100
AcDbLine
62
2
6
CONTINUOUS
10
88.7173794447
20
129.4234268009
11
91.2642928786
21
122.9032096289
0
LINE
5
240
100
AcDbEntity
8
0
100
AcDbLine
62
2
6
CONTINUOUS
10
91.2642928786
20
122.9032096289
11
85.8066212351
21
136.8751035675
0
INSERT
5
241
100
AcDbEntity
8
0
100
AcDbBlockReference
62
2
6
CONTINUOUS
2
_FILLED
10
93.8112063123
20
116.3829924575
41
  3.500000
42
  3.500000
43
  3.500000
50
111.335782
0
INSERT
5
242
100
AcDbEntity
8
0
100
AcDbBlockReference
62
2
6
CONTINUOUS
2
_FILLED
10
88.7173794450
20
129.4234268002
41
  3.500000
42
  3.500000
43
  3.500000
50
291.335782
0
ENDBLK
5
243
100
AcDbEntity
8
0
6
BYBLOCK
62
0
100
AcDbBlockEnd
0
BLOCK
5
244
100
AcDbEntity
8
0
100
AcDbBlockBegin
62
2
6
CONTINUOUS
2
*D6
70
65
10
0.0000000000
20
0.0000000000
3
*D6
1

0
TEXT
5
245
100
AcDbEntity
8
0
100
AcDbText
62
2
6
CONTINUOUS
10
100.5581245236
20
180.2676780341
7
STANDARD
40
3.5000000000
1
25
41
0.7143000000
72
0
100
AcDbText
0
LINE
5
246
100
AcDbEntity
8
0
100
AcDbLine
62
2
6
CONTINUOUS
10
91.2642928786
20
185.9890835626
11
91.2642928786
21
177.8926780341
0
LINE
5
247
100
AcDbEntity
8
0
100
AcDbLine
62
2
6
CONTINUOUS
10
116.2642928786
20
187.7942115659
11
116.2642928786
21
177.8926780341
0
LINE
5
248
100
AcDbEntity
8
0
100
AcDbLine
62
2
6
CONTINUOUS
10
91.2642928786
20
179.3926780341
11
103.7642928786
21
179.3926780341
0
LINE
5
249
100
AcDbEntity
8
0
100
AcDbLine
62
2
6
CONTINUOUS
10
116.2642928786
20
179.3926780341
11
103.7642928786
21
179.3926780341
0
INSERT
5
24A
100
AcDbEntity
8
0
100
AcDbBlockReference
62
2
6
CONTINUOUS
2
_FILLED
10
91.2642928786
20
179.3926780341
41
  3.500000
42
  3.500000
43
  3.500000
50
180.000000
0
INSERT
5
24B
100
AcDbEntity
8
0
100
AcDbBlockReference
62
2
6
CONTINUOUS
2
_FILLED
10
116.2642928786
20
179.3926780341
41
  3.500000
42
  3.500000
43
  3.500000
0
ENDBLK
5
24C
100
AcDbEntity
8
0
6
BYBLOCK
62
0
100
AcDbBlockEnd
0
BLOCK
5
24D
100
AcDbEntity
8
0
100
AcDbBlockBegin
2
_FILLED
70
64
10
0.0000000000
20
0.0000000000
3
_FILLED
1

0
SOLID
5
24E
100
AcDbEntity
8
0
6
BYBLOCK
62
0
100
AcDbTrace
10
0.0000000000
20
0.0000000000
11
-1.0000000000
21
0.1857142857
12
-1.0000000000
22
-0.1857142857
13
-1.0000000000
23
-0.1857142857
0
ENDBLK
5
24F
100
AcDbEntity
8
0
6
BYBLOCK
62
0
100
AcDbBlockEnd
0
ENDSEC
0
SECTION
2
ENTITIES
0
DIMENSION
5
250
100
AcDbEntity
8
0
100
AcDbDimension
62
2
6
CONTINUOUS
2
*D0
10
56.2317517954
20
194.2996489468
11
53.6067517954
21
209.7916450604
70
160
42
29.500000
3
DIMSTYLE_1
100
AcDbAlignedDimension
13
90.9196006712
23
223.7996489468
14
90.9196006712
24
194.2996489468
50
270.000000
100
AcDbRotatedDimension
0
DIMENSION
5
251
100
AcDbEntity
8
0
100
AcDbDimension
62
2
6
CONTINUOUS
2
*D1
10
154.8573817966
20
198.0496489468
11
152.2323817966
21
208.3147221485
70
160
42
22.000000
3
DIMSTYLE_1
100
AcDbAlignedDimension
13
140.7642928786
23
220.0496489468
14
140.7642928786
24
198.0496489468
50
270.000000
100
AcDbRotatedDimension
0
DIMENSION
5
252
100
AcDbEntity
8
0
100
AcDbDimension
62
2
6
CONTINUOUS
2
*D2
10
67.2642928786
20
237.1967702021
11
106.9394384349
21
239.8217702021
70
160
42
73.000000
3
DIMSTYLE_2
100
AcDbAlignedDimension
13
140.2642928786
23
220.8300696043
14
67.2642928786
24
209.5496489468
50
180.000000
100
AcDbRotatedDimension
0
DIMENSION
5
253
100
AcDbEntity
8
0
100
AcDbDimension
62
2
6
CONTINUOUS
2
*D3
10
55.0830339751
20
108.1532096289
11
52.4580339751
21
123.4737059911
70
160
42
29.500000
3
DIMSTYLE_1
100
AcDbAlignedDimension
13
90.7642928786
23
137.6532096289
14
90.7642928786
24
108.1532096289
50
270.000000
100
AcDbRotatedDimension
0
DIMENSION
5
254
100
AcDbEntity
8
0
100
AcDbDimension
62
2
6
CONTINUOUS
2
*D4
10
119.0820830644
20
202.6418366471
11
130.3109535450
21
183.6278253662
70
163
42
14.000000
1
<>
3
DIMSTYLE_3
100
AcDbDiametricDimension
15
113.4465026929
25
215.4574612466
0
DIMENSION
5
255
100
AcDbEntity
8
0
100
AcDbDimension
62
2
6
CONTINUOUS
2
*D5
10
93.8112063123
20
116.3829924575
11
103.0012439057
21
100.0706826737
70
163
42
14.000000
1
<>
3
DIMSTYLE_3
100
AcDbDiametricDimension
15
88.7173794450
25
129.4234268002
0
DIMENSION
5
256
100
AcDbEntity
8
0
100
AcDbDimension
62
2
6
CONTINUOUS
2
*D6
10
116.2642928786
20
179.3926780341
11
103.0581745236
21
182.0176780341
70
160
42
25.000000
3
DIMSTYLE_1
100
AcDbAlignedDimension
13
91.2642928786
23
185.9890835626
14
116.2642928786
24
187.7942115659
100
AcDbRotatedDimension
0
LINE
5
257
100
AcDbEntity
8
0
100
AcDbLine
62
7
6
CONTINUOUS
10
0.0000000000
20
0.0000000000
11
210.0000000000
21
0.0000000000
0
LINE
5
258
100
AcDbEntity
8
0
100
AcDbLine
62
7
6
CONTINUOUS
10
0.0000000000
20
0.0000000000
11
0.0000000000
21
297.0000000000
0
LINE
5
259
100
AcDbEntity
8
0
100
AcDbLine
62
7
6
CONTINUOUS
10
210.0000000000
20
0.0000000000
11
210.0000000000
21
297.0000000000
0
LINE
5
25A
100
AcDbEntity
8
0
100
AcDbLine
62
7
6
CONTINUOUS
10
0.0000000000
20
297.0000000000
11
210.0000000000
21
297.0000000000
0
LINE
5
25B
100
AcDbEntity
8
0
100
AcDbLine
62
7
6
CONTINUOUS
10
68.7642928786
20
215.5303896452
11
68.7642928786
21
215.5248290810
0
LINE
5
25C
100
AcDbEntity
8
0
100
AcDbLine
62
7
6
CONTINUOUS
10
68.7642928786
20
202.5744687108
11
68.7642928786
21
202.5689082484
0
LINE
5
25D
100
AcDbEntity
8
0
100
AcDbLine
62
7
6
CONTINUOUS
10
72.6466014250
20
209.0496489468
11
74.2054471518
21
211.7496489468
0
LINE
5
25E
100
AcDbEntity
8
0
100
AcDbLine
62
7
6
CONTINUOUS
10
72.8775415327
20
209.0496489468
11
74.3209172057
21
211.5496489468
0
LINE
5
25F
100
AcDbEntity
8
0
100
AcDbLine
62
7
6
CONTINUOUS
10
74.2054471518
20
206.3496489468
11
72.6466014250
21
209.0496489468
0
LINE
5
260
100
AcDbEntity
8
0
100
AcDbLine
62
7
6
CONTINUOUS
10
74.3209172057
20
206.5496489468
11
72.8775415327
21
209.0496489468
0
LINE
5
261
100
AcDbEntity
8
0
100
AcDbLine
62
7
6
CONTINUOUS
10
77.3231386054
20
211.7496489468
11
77.2076685516
21
211.5496489468
0
LINE
5
262
100
AcDbEntity
8
0
100
AcDbLine
62
7
6
CONTINUOUS
10
74.2054471518
20
206.3496489468
11
74.3209172057
21
206.5496489468
0
LINE
5
263
100
AcDbEntity
8
0
100
AcDbLine
62
7
6
CONTINUOUS
10
74.2054471518
20
211.7496489468
11
74.3209172057
21
211.5496489468
0
LINE
5
264
100
AcDbEntity
8
0
100
AcDbLine
62
7
6
CONTINUOUS
10
77.3231386054
20
206.3496489468
11
77.2076685516
21
206.5496489468
0
LINE
5
265
100
AcDbEntity
8
0
100
AcDbLine
62
7
6
CONTINUOUS
10
78.6510442246
20
209.0496489468
11
77.2076685516
21
206.5496489468
0
LINE
5
266
100
AcDbEntity
8
0
100
AcDbLine
62
7
6
CONTINUOUS
10
78.8819843323
20
209.0496489468
11
77.3231386054
21
206.3496489468
0
LINE
5
267
100
AcDbEntity
8
0
100
AcDbLine
62
7
6
CONTINUOUS
10
77.2076685516
20
211.5496489468
11
78.6510442246
21
209.0496489468
0
LINE
5
268
100
AcDbEntity
8
0
100
AcDbLine
62
7
6
CONTINUOUS
10
77.3231386054
20
211.7496489468
11
78.8819843323
21
209.0496489468
0
LINE
5
269
100
AcDbEntity
8
0
100
AcDbLine
62
7
6
CONTINUOUS
10
116.2642928786
20
194.2996489468
11
138.5730466371
21
197.7853917216
0
LINE
5
26A
100
AcDbEntity
8
0
100
AcDbLine
62
7
6
CONTINUOUS
10
116.1089850861
20
196.2996489468
11
125.5142928786
21
197.7692282894
0
LINE
5
26B
100
AcDbEntity
8
0
100
AcDbLine
62
7
6
CONTINUOUS
10
116.2642928786
20
194.2996489468
11
82.0142928786
21
194.2996489468
0
LINE
5
26C
100
AcDbEntity
8
DEFAULT_1
100
AcDbLine
62
2
6
CENTER
10
91.2642928786
20
229.8121556430
11
91.2642928786
21
221.7996489468
0
LINE
5
26D
100
AcDbEntity
8
DEFAULT_1
100
AcDbLine
62
2
6
CENTER
10
91.2642928786
20
196.2996489468
11
91.2642928786
21
186.4890835626
0
LINE
5
26E
100
AcDbEntity
8
0
100
AcDbLine
62
7
6
CONTINUOUS
10
91.2642928786
20
196.2996489468
11
91.2642928786
21
221.7996489468
0
LINE
5
26F
100
AcDbEntity
8
0
100
AcDbLine
62
7
6
CONTINUOUS
10
116.1089850861
20
196.2996489468
11
81.7055391181
21
196.2996489468
0
LINE
5
270
100
AcDbEntity
8
0
100
AcDbLine
62
7
6
CONTINUOUS
10
77.3231386054
20
206.3496489468
11
74.2054471518
21
206.3496489468
0
LINE
5
271
100
AcDbEntity
8
0
100
AcDbLine
62
7
6
CONTINUOUS
10
77.2076685516
20
206.5496489468
11
74.3209172057
21
206.5496489468
0
LINE
5
272
100
AcDbEntity
8
0
100
AcDbLine
62
7
6
CONTINUOUS
10
123.1016900442
20
207.5496489468
11
124.6016900442
21
207.5496489468
0
LINE
5
273
100
AcDbEntity
8
0
100
AcDbLine
62
7
6
CONTINUOUS
10
138.7642928786
20
207.5496489468
11
140.2642949640
21
207.5496489468
0
LINE
5
274
100
AcDbEntity
8
0
100
AcDbLine
62
7
6
CONTINUOUS
10
124.6016900442
20
208.0496489468
11
138.7642928786
21
208.0496489468
0
LINE
5
275
100
AcDbEntity
8
0
100
AcDbLine
62
7
6
CONTINUOUS
10
78.8819843323
20
209.0496489468
11
78.6510442246
21
209.0496489468
0
LINE
5
276
100
AcDbEntity
8
DEFAULT_1
100
AcDbLine
62
2
6
CENTER
10
116.2642928786
20
209.0496489468
11
78.8819843323
21
209.0496489468
0
LINE
5
277
100
AcDbEntity
8
DEFAULT_1
100
AcDbLine
62
2
6
CENTER
10
78.6510442246
20
209.0496489468
11
72.8775415327
21
209.0496489468
0
LINE
5
278
100
AcDbEntity
8
DEFAULT_1
100
AcDbLine
62
2
6
CENTER
10
72.6466014250
20
209.0496489468
11
63.7804689003
21
209.0496489468
0
LINE
5
279
100
AcDbEntity
8
0
100
AcDbLine
62
7
6
CONTINUOUS
10
72.6466014250
20
209.0496489468
11
72.8775415327
21
209.0496489468
0
LINE
5
27A
100
AcDbEntity
8
DEFAULT_1
100
AcDbLine
62
2
6
CENTER
10
116.2642928786
20
209.0496489468
11
144.8471265053
21
209.0496489468
0
LINE
5
27B
100
AcDbEntity
8
0
100
AcDbLine
62
7
6
CONTINUOUS
10
124.6016900442
20
210.0496489468
11
138.7642928786
21
210.0496489468
0
LINE
5
27C
100
AcDbEntity
8
0
100
AcDbLine
62
7
6
CONTINUOUS
10
140.2642949640
20
210.5496489468
11
138.7642928786
21
210.5496489468
0
LINE
5
27D
100
AcDbEntity
8
0
100
AcDbLine
62
7
6
CONTINUOUS
10
124.6016900442
20
210.5496489468
11
123.1016900442
21
210.5496489468
0
LINE
5
27E
100
AcDbEntity
8
0
100
AcDbLine
62
7
6
CONTINUOUS
10
74.3209172057
20
211.5496489468
11
77.2076685516
21
211.5496489468
0
LINE
5
27F
100
AcDbEntity
8
0
100
AcDbLine
62
7
6
CONTINUOUS
10
74.2054471518
20
211.7496489468
11
77.3231386054
21
211.7496489468
0
LINE
5
280
100
AcDbEntity
8
DEFAULT_1
100
AcDbLine
62
2
6
CENTER
10
116.2642928786
20
209.0496489468
11
116.2642928786
21
188.2942115659
0
LINE
5
281
100
AcDbEntity
8
DEFAULT_1
100
AcDbLine
62
2
6
CENTER
10
116.2642928786
20
209.0496489468
11
116.2642928786
21
229.4839505515
0
LINE
5
282
100
AcDbEntity
8
0
100
AcDbLine
62
7
6
CONTINUOUS
10
135.7842928786
20
220.7496489468
11
136.7642928786
21
220.7496489468
0
LINE
5
283
100
AcDbEntity
8
0
100
AcDbLine
62
7
6
CONTINUOUS
10
133.8642928786
20
221.0496489468
11
136.4642928786
21
221.0496489468
0
LINE
5
284
100
AcDbEntity
8
0
100
AcDbLine
62
7
6
CONTINUOUS
10
81.7055391181
20
221.7996489468
11
116.1089850861
21
221.7996489468
0
LINE
5
285
100
AcDbEntity
8
0
100
AcDbLine
62
7
6
CONTINUOUS
10
82.0142928786
20
223.7996489468
11
116.2642928786
21
223.7996489468
0
LINE
5
286
100
AcDbEntity
8
0
100
AcDbLine
62
7
6
CONTINUOUS
10
125.5142928786
20
220.3300696043
11
116.1089850861
21
221.7996489468
0
LINE
5
287
100
AcDbEntity
8
0
100
AcDbLine
62
7
6
CONTINUOUS
10
138.5730466371
20
220.3139061721
11
116.2642928786
21
223.7996489468
0
LINE
5
288
100
AcDbEntity
8
0
100
AcDbLine
62
7
6
CONTINUOUS
10
124.6016900442
20
207.5496489468
11
124.6016900442
21
208.0496489468
0
LINE
5
289
100
AcDbEntity
8
0
100
AcDbLine
62
7
6
CONTINUOUS
10
124.6016900442
20
210.0496489468
11
124.6016900442
21
210.5496489468
0
LINE
5
28A
100
AcDbEntity
8
0
100
AcDbLine
62
7
6
CONTINUOUS
10
125.5142928786
20
220.3300696043
11
125.8230466392
21
222.3060936718
0
LINE
5
28B
100
AcDbEntity
8
0
100
AcDbLine
62
7
6
CONTINUOUS
10
125.5142928786
20
197.7692282894
11
125.8230466392
21
195.7932042219
0
LINE
5
28C
100
AcDbEntity
8
0
100
AcDbLine
62
7
6
CONTINUOUS
10
125.5142928786
20
197.7692282894
11
125.5142928786
21
208.0496489468
0
LINE
5
28D
100
AcDbEntity
8
0
100
AcDbLine
62
7
6
CONTINUOUS
10
125.5142928786
20
210.0496489468
11
125.5142928786
21
220.3300696043
0
LINE
5
28E
100
AcDbEntity
8
0
100
AcDbLine
62
7
6
CONTINUOUS
10
128.7642928786
20
210.0496489468
11
128.7642928786
21
208.0496489468
0
LINE
5
28F
100
AcDbEntity
8
0
100
AcDbLine
62
7
6
CONTINUOUS
10
134.7642928786
20
210.0496489468
11
134.7642928786
21
208.0496489468
0
LINE
5
290
100
AcDbEntity
8
0
100
AcDbLine
62
7
6
CONTINUOUS
10
136.7642928786
20
220.5965239468
11
136.7642928786
21
220.7496489468
0
LINE
5
291
100
AcDbEntity
8
0
100
AcDbLine
62
7
6
CONTINUOUS
10
138.7642928786
20
207.5496489468
11
138.7642928786
21
208.0496489468
0
LINE
5
292
100
AcDbEntity
8
0
100
AcDbLine
62
7
6
CONTINUOUS
10
138.7642928786
20
210.0496489468
11
138.7642928786
21
210.5496489468
0
LINE
5
293
100
AcDbEntity
8
0
100
AcDbLine
62
7
6
CONTINUOUS
10
140.2642928786
20
199.7600999972
11
140.2642928786
21
207.5496489468
0
LINE
5
294
100
AcDbEntity
8
0
100
AcDbLine
62
7
6
CONTINUOUS
10
140.2642928786
20
210.5496489468
11
140.2642928786
21
218.3391978965
0
LINE
5
295
100
AcDbEntity
8
0
100
AcDbLine
62
7
6
CONTINUOUS
10
67.2642928786
20
132.1927585785
11
67.2642928786
21
124.4032096289
0
LINE
5
296
100
AcDbEntity
8
0
100
AcDbLine
62
7
6
CONTINUOUS
10
67.2642928786
20
121.4032096289
11
67.2642928786
21
113.6136606793
0
LINE
5
297
100
AcDbEntity
8
0
100
AcDbLine
62
7
6
CONTINUOUS
10
68.7642928786
20
124.4032096289
11
68.7642928786
21
123.9032096289
0
LINE
5
298
100
AcDbEntity
8
0
100
AcDbLine
62
7
6
CONTINUOUS
10
68.7642928786
20
121.9032096289
11
68.7642928786
21
121.4032096289
0
LINE
5
299
100
AcDbEntity
8
0
100
AcDbLine
62
7
6
CONTINUOUS
10
70.7642928786
20
111.3563346289
11
70.7642928786
21
111.2032096289
0
LINE
5
29A
100
AcDbEntity
8
0
100
AcDbLine
62
7
6
CONTINUOUS
10
72.7642928786
20
121.9032096289
11
72.7642928786
21
123.9032096289
0
LINE
5
29B
100
AcDbEntity
8
0
100
AcDbLine
62
7
6
CONTINUOUS
10
78.7642928786
20
121.9032096289
11
78.7642928786
21
123.9032096289
0
LINE
5
29C
100
AcDbEntity
8
0
100
AcDbLine
62
7
6
CONTINUOUS
10
82.0142928786
20
134.1836302863
11
82.0142928786
21
123.9032096289
0
LINE
5
29D
100
AcDbEntity
8
0
100
AcDbLine
62
7
6
CONTINUOUS
10
82.0142928786
20
121.9032096289
11
82.0142928786
21
111.6227889715
0
LINE
5
29E
100
AcDbEntity
8
0
100
AcDbLine
62
7
6
CONTINUOUS
10
83.4242928786
20
124.4032096289
11
83.4242928786
21
123.9032096289
0
LINE
5
29F
100
AcDbEntity
8
0
100
AcDbLine
62
7
6
CONTINUOUS
10
83.4242928786
20
121.9032096289
11
83.4242928786
21
121.4032096289
0
LINE
5
2A0
100
AcDbEntity
8
0
100
AcDbLine
62
7
6
CONTINUOUS
10
82.0142928786
20
111.6227889715
11
81.7055391181
21
109.6467649040
0
LINE
5
2A1
100
AcDbEntity
8
0
100
AcDbLine
62
7
6
CONTINUOUS
10
82.0142928786
20
134.1836302863
11
81.7055391181
21
136.1596543538
0
LINE
5
2A2
100
AcDbEntity
8
0
100
AcDbLine
62
7
6
CONTINUOUS
10
68.9555391201
20
111.6389524037
11
91.2642928786
21
108.1532096289
0
LINE
5
2A3
100
AcDbEntity
8
0
100
AcDbLine
62
7
6
CONTINUOUS
10
91.2642928786
20
108.1532096289
11
125.5142928786
21
108.1532096289
0
LINE
5
2A4
100
AcDbEntity
8
0
100
AcDbLine
62
7
6
CONTINUOUS
10
82.0142928786
20
111.6227889715
11
91.4196006712
21
110.1532096289
0
LINE
5
2A5
100
AcDbEntity
8
DEFAULT_1
100
AcDbLine
62
2
6
CENTER
10
91.2642928786
20
122.9032096289
11
91.2642928786
21
100.4993495848
0
LINE
5
2A6
100
AcDbEntity
8
DEFAULT_1
100
AcDbLine
62
2
6
CENTER
10
91.2642928786
20
122.9032096289
11
91.2642928786
21
145.6275496686
0
LINE
5
2A7
100
AcDbEntity
8
0
100
AcDbLine
62
7
6
CONTINUOUS
10
91.4196006712
20
110.1532096289
11
125.8230466392
21
110.1532096289
0
LINE
5
2A8
100
AcDbEntity
8
0
100
AcDbLine
62
7
6
CONTINUOUS
10
73.6642928786
20
110.9032096289
11
71.0642928786
21
110.9032096289
0
LINE
5
2A9
100
AcDbEntity
8
0
100
AcDbLine
62
7
6
CONTINUOUS
10
71.7442928786
20
111.2032096289
11
70.7642928786
21
111.2032096289
0
LINE
5
2AA
100
AcDbEntity
8
0
100
AcDbLine
62
7
6
CONTINUOUS
10
133.3231386054
20
120.2032096289
11
130.2054471518
21
120.2032096289
0
LINE
5
2AB
100
AcDbEntity
8
0
100
AcDbLine
62
7
6
CONTINUOUS
10
133.2076685516
20
120.4032096289
11
130.3209172057
21
120.4032096289
0
LINE
5
2AC
100
AcDbEntity
8
0
100
AcDbLine
62
7
6
CONTINUOUS
10
67.2642907933
20
121.4032096289
11
68.7642928786
21
121.4032096289
0
LINE
5
2AD
100
AcDbEntity
8
0
100
AcDbLine
62
7
6
CONTINUOUS
10
83.4242928786
20
121.4032096289
11
84.4268957130
21
121.4032096289
0
LINE
5
2AE
100
AcDbEntity
8
0
100
AcDbLine
62
7
6
CONTINUOUS
10
68.7642928786
20
121.9032096289
11
83.4242928786
21
121.9032096289
0
LINE
5
2AF
100
AcDbEntity
8
0
100
AcDbLine
62
7
6
CONTINUOUS
10
134.8819843323
20
122.9032096289
11
134.6510442246
21
122.9032096289
0
LINE
5
2B0
100
AcDbEntity
8
DEFAULT_1
100
AcDbLine
62
2
6
CENTER
10
91.2642928786
20
122.9032096289
11
61.6471358054
21
122.9032096289
0
LINE
5
2B1
100
AcDbEntity
8
DEFAULT_1
100
AcDbLine
62
2
6
CENTER
10
91.2642928786
20
122.9032096289
11
128.6466014250
21
122.9032096289
0
LINE
5
2B2
100
AcDbEntity
8
DEFAULT_1
100
AcDbLine
62
2
6
CENTER
10
134.8819843323
20
122.9032096289
11
143.6984086850
21
122.9032096289
0
LINE
5
2B3
100
AcDbEntity
8
DEFAULT_1
100
AcDbLine
62
2
6
CENTER
10
128.8775415327
20
122.9032096289
11
134.6510442246
21
122.9032096289
0
LINE
5
2B4
100
AcDbEntity
8
0
100
AcDbLine
62
7
6
CONTINUOUS
10
128.6466014250
20
122.9032096289
11
128.8775415327
21
122.9032096289
0
LINE
5
2B5
100
AcDbEntity
8
0
100
AcDbLine
62
7
6
CONTINUOUS
10
68.7642928786
20
123.9032096289
11
83.4242928786
21
123.9032096289
0
LINE
5
2B6
100
AcDbEntity
8
0
100
AcDbLine
62
7
6
CONTINUOUS
10
84.4268957130
20
124.4032096289
11
83.4242928786
21
124.4032096289
0
LINE
5
2B7
100
AcDbEntity
8
0
100
AcDbLine
62
7
6
CONTINUOUS
10
68.7642928786
20
124.4032096289
11
67.2642907933
21
124.4032096289
0
LINE
5
2B8
100
AcDbEntity
8
0
100
AcDbLine
62
7
6
CONTINUOUS
10
130.3209172057
20
125.4032096289
11
133.2076685516
21
125.4032096289
0
LINE
5
2B9
100
AcDbEntity
8
0
100
AcDbLine
62
7
6
CONTINUOUS
10
130.2054471518
20
125.6032096289
11
133.3231386054
21
125.6032096289
0
LINE
5
2BA
100
AcDbEntity
8
0
100
AcDbLine
62
7
6
CONTINUOUS
10
116.2642928786
20
135.6532096289
11
116.2642928786
21
110.1532096289
0
LINE
5
2BB
100
AcDbEntity
8
DEFAULT_1
100
AcDbLine
62
2
6
CENTER
10
116.2642928786
20
100.0070419476
11
116.2642928786
21
110.1532096289
0
LINE
5
2BC
100
AcDbEntity
8
DEFAULT_1
100
AcDbLine
62
2
6
CENTER
10
116.2642928786
20
135.6532096289
11
116.2642928786
21
145.2993445771
0
LINE
5
2BD
100
AcDbEntity
8
0
100
AcDbLine
62
7
6
CONTINUOUS
10
91.4196006712
20
135.6532096289
11
125.8230466392
21
135.6532096289
0
LINE
5
2BE
100
AcDbEntity
8
0
100
AcDbLine
62
7
6
CONTINUOUS
10
91.4196006712
20
135.6532096289
11
82.0142928786
21
134.1836302863
0
LINE
5
2BF
100
AcDbEntity
8
0
100
AcDbLine
62
7
6
CONTINUOUS
10
91.2642928786
20
137.6532096289
11
125.5142928786
21
137.6532096289
0
LINE
5
2C0
100
AcDbEntity
8
0
100
AcDbLine
62
7
6
CONTINUOUS
10
91.2642928786
20
137.6532096289
11
68.9555391201
21
134.1674668541
0
LINE
5
2C1
100
AcDbEntity
8
0
100
AcDbLine
62
7
6
CONTINUOUS
10
128.6466014250
20
122.9032096289
11
130.2054471518
21
125.6032096289
0
LINE
5
2C2
100
AcDbEntity
8
0
100
AcDbLine
62
7
6
CONTINUOUS
10
128.8775415327
20
122.9032096289
11
130.3209172057
21
125.4032096289
0
LINE
5
2C3
100
AcDbEntity
8
0
100
AcDbLine
62
7
6
CONTINUOUS
10
130.2054471518
20
120.2032096289
11
128.6466014250
21
122.9032096289
0
LINE
5
2C4
100
AcDbEntity
8
0
100
AcDbLine
62
7
6
CONTINUOUS
10
130.3209172057
20
120.4032096289
11
128.8775415327
21
122.9032096289
0
LINE
5
2C5
100
AcDbEntity
8
0
100
AcDbLine
62
7
6
CONTINUOUS
10
133.3231386054
20
125.6032096289
11
133.2076685516
21
125.4032096289
0
LINE
5
2C6
100
AcDbEntity
8
0
100
AcDbLine
62
7
6
CONTINUOUS
10
130.2054471518
20
120.2032096289
11
130.3209172057
21
120.4032096289
0
LINE
5
2C7
100
AcDbEntity
8
0
100
AcDbLine
62
7
6
CONTINUOUS
10
130.2054471518
20
125.6032096289
11
130.3209172057
21
125.4032096289
0
LINE
5
2C8
100
AcDbEntity
8
0
100
AcDbLine
62
7
6
CONTINUOUS
10
133.3231386054
20
120.2032096289
11
133.2076685516
21
120.4032096289
0
LINE
5
2C9
100
AcDbEntity
8
0
100
AcDbLine
62
7
6
CONTINUOUS
10
134.6510442246
20
122.9032096289
11
133.2076685516
21
120.4032096289
0
LINE
5
2CA
100
AcDbEntity
8
0
100
AcDbLine
62
7
6
CONTINUOUS
10
134.8819843323
20
122.9032096289
11
133.3231386054
21
120.2032096289
0
LINE
5
2CB
100
AcDbEntity
8
0
100
AcDbLine
62
7
6
CONTINUOUS
10
133.2076685516
20
125.4032096289
11
134.6510442246
21
122.9032096289
0
LINE
5
2CC
100
AcDbEntity
8
0
100
AcDbLine
62
7
6
CONTINUOUS
10
133.3231386054
20
125.6032096289
11
134.8819843323
21
122.9032096289
0
LINE
5
2CD
100
AcDbEntity
8
0
100
AcDbLine
62
7
6
CONTINUOUS
10
138.7642928786
20
116.4224689305
11
138.7642928786
21
116.4280294947
0
LINE
5
2CE
100
AcDbEntity
8
0
100
AcDbLine
62
7
6
CONTINUOUS
10
138.7642928786
20
129.3783898649
11
138.7642928786
21
129.3839503273
0
CIRCLE
5
2CF
100
AcDbEntity
8
0
100
AcDbCircle
62
7
6
CONTINUOUS
10
75.7642928786
20
209.0496489468
40
5.0000000000
0
ARC
5
2D0
100
AcDbEntity
8
0
100
AcDbCircle
62
7
6
CONTINUOUS
10
136.4642928786
20
220.7496489468
40
0.3000000000
100
AcDbArc
50
0.0000000000
51
90.0000000000
0
ARC
5
2D1
100
AcDbEntity
8
0
100
AcDbCircle
62
7
6
CONTINUOUS
10
138.2642928766
20
218.3378821046
40
2.0000000000
100
AcDbArc
50
0.0000000034
51
81.1193408495
0
ARC
5
2D2
100
AcDbEntity
8
0
100
AcDbCircle
62
7
6
CONTINUOUS
10
138.2642928766
20
199.7614157891
40
2.0000000000
100
AcDbArc
50
278.8806591505
51
359.9999999966
0
ARC
5
2D3
100
AcDbEntity
8
0
100
AcDbCircle
62
7
6
CONTINUOUS
10
82.0142928786
20
209.0496489468
40
14.7500000000
100
AcDbArc
50
90.0000000000
51
270.0000000000
0
CIRCLE
5
2D4
100
AcDbEntity
8
0
100
AcDbCircle
62
7
6
CONTINUOUS
10
75.7642928786
20
209.0496489468
40
5.8000000000
0
ARC
5
2D5
100
AcDbEntity
8
0
100
AcDbCircle
62
7
6
CONTINUOUS
10
116.2642928786
20
209.0496489468
40
7.0000000000
100
AcDbArc
50
12.3736251162
51
347.6263748838
0
CIRCLE
5
2D6
100
AcDbEntity
8
0
100
AcDbCircle
62
7
6
CONTINUOUS
10
75.7642928786
20
209.0496489468
40
4.7000000000
0
ARC
5
2D7
100
AcDbEntity
8
0
100
AcDbCircle
62
7
6
CONTINUOUS
10
116.2642928786
20
209.0496489468
40
7.5000000000
100
AcDbArc
50
11.5370669795
51
348.4627427648
0
ARC
5
2D8
100
AcDbEntity
8
0
100
AcDbCircle
62
7
6
CONTINUOUS
10
71.0642928786
20
111.2032096289
40
0.3000000000
100
AcDbArc
50
180.0000000000
51
270.0000000000
0
CIRCLE
5
2D9
100
AcDbEntity
8
0
100
AcDbCircle
62
7
6
CONTINUOUS
10
131.7642928786
20
122.9032096289
40
5.0000000000
0
ARC
5
2DA
100
AcDbEntity
8
0
100
AcDbCircle
62
7
6
CONTINUOUS
10
69.2642928807
20
113.6149764712
40
2.0000000000
100
AcDbArc
50
180.0000000034
51
261.1193408495
0
ARC
5
2DB
100
AcDbEntity
8
0
100
AcDbCircle
62
7
6
CONTINUOUS
10
69.2642928807
20
132.1914427866
40
2.0000000000
100
AcDbArc
50
98.8806591505
51
179.9999999966
0
ARC
5
2DC
100
AcDbEntity
8
0
100
AcDbCircle
62
7
6
CONTINUOUS
10
125.5142928786
20
122.9032096289
40
14.7500000000
100
AcDbArc
50
270.0000000000
51
90.0000000000
0
CIRCLE
5
2DD
100
AcDbEntity
8
0
100
AcDbCircle
62
7
6
CONTINUOUS
10
131.7642928786
20
122.9032096289
40
5.8000000000
0
ARC
5
2DE
100
AcDbEntity
8
0
100
AcDbCircle
62
7
6
CONTINUOUS
10
91.2642928786
20
122.9032096289
40
7.0000000000
100
AcDbArc
50
192.3736251162
51
167.6263748838
0
CIRCLE
5
2DF
100
AcDbEntity
8
0
100
AcDbCircle
62
7
6
CONTINUOUS
10
131.7642928786
20
122.9032096289
40
4.7000000000
0
ARC
5
2E0
100
AcDbEntity
8
0
100
AcDbCircle
62
7
6
CONTINUOUS
10
91.2642928786
20
122.9032096289
40
7.5000000000
100
AcDbArc
50
191.5370906508
51
168.4629522043
0
SPLINE
5
2E1
100
AcDbEntity
8
0
100
AcDbSpline
62
7
6
CONTINUOUS
70
0
71
3
72
9
73
5
74
3
42
0.0000001000
43
0.0000001000
44
0.0000000001
12
1.9226752553
22
0.2596731772
32
0.0000000000
13
1.9226736024
23
0.2596854149
33
0.0000000000
40
0.0000000000
40
0.0000000000
40
0.0000000000
40
0.0000000000
40
0.5632055439
40
1.0000000000
40
1.0000000000
40
1.0000000000
40
1.0000000000
10
125.5142928786
20
197.7692282894
30
0.0000000000
10
125.8752466663
20
197.8179780804
30
0.0000000000
10
126.5161378571
20
197.9045399595
30
0.0000000000
10
127.1570288563
20
197.9911032571
30
0.0000000000
10
127.4369665797
20
198.0289129737
30
0.0000000000
11
125.5142928786
21
197.7692282894
31
0.0000000000
11
126.5971535490
21
197.9154827908
31
0.0000000000
11
127.4369665797
21
198.0289129737
31
0.0000000000
0
SPLINE
5
2E2
100
AcDbEntity
8
0
100
AcDbSpline
62
7
6
CONTINUOUS
70
0
71
3
72
27
73
23
74
21
42
0.0000001000
43
0.0000001000
44
0.0000000001
12
12.8176310742
22
1.7312100398
32
0.0000000000
13
-0.0000009934
23
0.0000073606
33
0.0000000000
40
0.0000000000
40
0.0000000000
40
0.0000000000
40
0.0000000000
40
0.0185054006
40
0.1015944149
40
0.1832975368
40
0.2631780404
40
0.3407957294
40
0.4157190247
40
0.4875458481
40
0.5559013009
40
0.6204275944
40
0.6807847997
40
0.7366600309
40
0.7877688744
40
0.8338537832
40
0.8746839220
40
0.9100566809
40
0.9397986790
40
0.9637650663
40
0.9818402565
40
0.9939373315
40
1.0000000000
40
1.0000000000
40
1.0000000000
40
1.0000000000
10
127.4369665797
20
198.0289129737
30
0.0000000000
10
127.5160317125
20
198.0395918855
30
0.0000000000
10
127.9500983274
20
198.0982186903
30
0.0000000000
10
128.7332456663
20
198.2039897285
30
0.0000000000
10
129.7786199014
20
198.3451852526
30
0.0000000000
10
130.8006190364
20
198.4832132663
30
0.0000000000
10
131.7936490260
20
198.6173438919
30
0.0000000000
10
132.7522715044
20
198.7468109712
30
0.0000000000
10
133.6713186572
20
198.8709473129
30
0.0000000000
10
134.5459461633
20
198.9890715307
30
0.0000000000
10
135.3715668314
20
199.1005862444
30
0.0000000000
10
136.1438695611
20
199.2048953758
30
0.0000000000
10
136.8588332054
20
199.3014584373
30
0.0000000000
10
137.5128582342
20
199.3897988786
30
0.0000000000
10
138.1024712411
20
199.4694253308
30
0.0000000000
10
138.6252651190
20
199.5400470922
30
0.0000000000
10
139.0769725397
20
199.6010431364
30
0.0000000000
10
139.4603031884
20
199.6528306676
30
0.0000000000
10
139.7596322461
20
199.6932460153
30
0.0000000000
10
140.0089874044
20
199.7269356523
30
0.0000000000
10
140.1267338306
20
199.7428311061
30
0.0000000000
10
140.2545856182
20
199.7601023511
30
0.0000000000
10
140.2545856162
20
199.7601023660
30
0.0000000000
11
127.4369665797
21
198.0289129737
31
0.0000000000
11
127.6741620018
21
198.0609495322
31
0.0000000000
11
128.7391667653
21
198.2047908646
31
0.0000000000
11
129.7864073521
21
198.3462352999
31
0.0000000000
11
130.8102866705
21
198.4845215779
31
0.0000000000
11
131.8051613089
21
198.6188960543
31
0.0000000000
11
132.7655009833
21
198.7486001941
31
0.0000000000
11
133.6861505790
21
198.8729484540
31
0.0000000000
11
134.5623060125
21
198.9912827091
31
0.0000000000
11
135.3893802062
21
199.1029915098
31
0.0000000000
11
136.1630167828
21
199.2074811270
31
0.0000000000
11
136.8792050906
21
199.3042113447
31
0.0000000000
11
137.5342992831
21
199.3926922894
31
0.0000000000
11
138.1249991058
21
199.4724715143
31
0.0000000000
11
138.6483443629
21
199.5431600127
31
0.0000000000
11
139.1017399807
21
199.6043929221
31
0.0000000000
11
139.4829614303
21
199.6558863404
31
0.0000000000
11
139.7901543615
21
199.6973725951
31
0.0000000000
11
140.0218350678
21
199.7286676020
31
0.0000000000
11
140.1768912911
21
199.7496073747
31
0.0000000000
11
140.2545856162
21
199.7601023660
31
0.0000000000
0
SPLINE
5
2E3
100
AcDbEntity
8
0
100
AcDbSpline
62
7
6
CONTINUOUS
70
0
71
3
72
20
73
16
74
14
42
0.0000001000
43
0.0000001000
44
0.0000000001
12
0.1553077926
22
-2.0000000000
32
0.0000000000
13
0.1553077926
23
-2.0000000000
33
0.0000000000
40
0.0000000000
40
0.0000000000
40
0.0000000000
40
0.0000000000
40
0.1206176619
40
0.2394692726
40
0.3548368866
40
0.4651987383
40
0.5685164479
40
0.6636891402
40
0.7489344269
40
0.8234098040
40
0.8857108293
40
0.9352095810
40
0.9710157236
40
0.9927330000
40
1.0000000000
40
1.0000000000
40
1.0000000000
40
1.0000000000
10
116.1089850861
20
196.2996489468
30
0.0000000000
10
116.1152293737
20
196.2192371723
30
0.0000000000
10
116.1276265217
20
196.0595909905
30
0.0000000000
10
116.1459961662
20
195.8230330662
30
0.0000000000
10
116.1638348750
20
195.5933123485
30
0.0000000000
10
116.1808694052
20
195.3739475650
30
0.0000000000
10
116.1968584591
20
195.1680460626
30
0.0000000000
10
116.2115472469
20
194.9788889369
30
0.0000000000
10
116.2247428884
20
194.8089600328
30
0.0000000000
10
116.2362367879
20
194.6609455733
30
0.0000000000
10
116.2458801155
20
194.5367621373
30
0.0000000000
10
116.2535215654
20
194.4383581909
30
0.0000000000
10
116.2590620244
20
194.3670100770
30
0.0000000000
10
116.2624161767
20
194.3238164644
30
0.0000000000
10
116.2639166714
20
194.3044936135
30
0.0000000000
10
116.2642928786
20
194.2996489468
30
0.0000000000
11
116.1089850861
21
196.2996489468
31
0.0000000000
11
116.1277179489
21
196.0584136231
31
0.0000000000
11
116.1461765302
21
195.8207104017
31
0.0000000000
11
116.1640940196
21
195.5899751737
31
0.0000000000
11
116.1812340752
21
195.3692514703
31
0.0000000000
11
116.1972801206
21
195.1626160511
31
0.0000000000
11
116.2120611814
21
194.9722706665
31
0.0000000000
11
116.2253004387
21
194.8017800930
31
0.0000000000
11
116.2368670451
21
194.6528293388
31
0.0000000000
11
116.2465428798
21
194.5282272882
31
0.0000000000
11
116.2542304217
21
194.4292297848
31
0.0000000000
11
116.2597913947
21
194.3576174996
31
0.0000000000
11
116.2631642569
21
194.3141829468
31
0.0000000000
11
116.2642928786
21
194.2996489468
31
0.0000000000
0
SPLINE
5
2E4
100
AcDbEntity
8
0
100
AcDbSpline
62
7
6
CONTINUOUS
70
0
71
3
72
20
73
16
74
14
42
0.0000001000
43
0.0000001000
44
0.0000000001
12
-2.0196334664
22
0.0000000000
32
0.0000000000
13
0.0000000000
23
2.0196334664
33
0.0000000000
40
0.0000000000
40
0.0000000000
40
0.0000000000
40
0.0000000000
40
0.0117603293
40
0.0351989090
40
0.0719129025
40
0.1218775264
40
0.1843115658
40
0.2586104662
40
0.3433987889
40
0.4378440956
40
0.5401627987
40
0.6493011508
40
0.7632947520
40
0.8808307112
40
1.0000000000
40
1.0000000000
40
1.0000000000
40
1.0000000000
10
91.4196006712
20
194.2996489468
30
0.0000000000
10
91.4116834863
20
194.2996489468
30
0.0000000000
10
91.3936389383
20
194.3215782853
30
0.0000000000
10
91.3795054700
20
194.3654342048
30
0.0000000000
10
91.3614162803
20
194.4386517224
30
0.0000000000
10
91.3455391135
20
194.5373295226
30
0.0000000000
10
91.3297355400
20
194.6622140580
30
0.0000000000
10
91.3153804152
20
194.8106075950
30
0.0000000000
10
91.3023441271
20
194.9808178499
30
0.0000000000
10
91.2909882733
20
195.1700227294
30
0.0000000000
10
91.2814363837
20
195.3757451039
30
0.0000000000
10
91.2738610858
20
195.5947151571
30
0.0000000000
10
91.2683645390
20
195.8239948669
30
0.0000000000
10
91.2650347911
20
196.0600691996
30
0.0000000000
10
91.2642928786
20
196.2194228522
30
0.0000000000
10
91.2642928786
20
196.2996489468
30
0.0000000000
11
91.4196006712
21
194.2996489468
31
0.0000000000
11
91.4008678084
21
194.3142508712
31
0.0000000000
11
91.3824092271
21
194.3578410599
31
0.0000000000
11
91.3644917376
21
194.4297924990
31
0.0000000000
11
91.3473516821
21
194.5292364142
31
0.0000000000
11
91.3313056366
21
194.6543051548
31
0.0000000000
11
91.3165245759
21
194.8036319346
31
0.0000000000
11
91.3032853186
21
194.9743607153
31
0.0000000000
11
91.2917187122
21
195.1647545999
31
0.0000000000
11
91.2820428774
21
195.3711742260
31
0.0000000000
11
91.2743553356
21
195.5914595949
31
0.0000000000
11
91.2687943626
21
195.8216177158
31
0.0000000000
11
91.2654215004
21
196.0589733092
31
0.0000000000
11
91.2642928786
21
196.2996489468
31
0.0000000000
0
SPLINE
5
2E5
100
AcDbEntity
8
0
100
AcDbSpline
62
7
6
CONTINUOUS
70
0
71
3
72
20
73
16
74
14
42
0.0000001000
43
0.0000001000
44
0.0000000001
12
-2.0196334664
22
0.0000000000
32
0.0000000000
13
0.0000000000
23
-2.0196334664
33
0.0000000000
40
0.0000000000
40
0.0000000000
40
0.0000000000
40
0.0000000000
40
0.0117603293
40
0.0351989090
40
0.0719129025
40
0.1218775264
40
0.1843115658
40
0.2586104662
40
0.3433987889
40
0.4378440956
40
0.5401627987
40
0.6493011508
40
0.7632947520
40
0.8808307112
40
1.0000000000
40
1.0000000000
40
1.0000000000
40
1.0000000000
10
91.4196006712
20
223.7996489468
30
0.0000000000
10
91.4116834863
20
223.7996489468
30
0.0000000000
10
91.3936389383
20
223.7777196084
30
0.0000000000
10
91.3795054700
20
223.7338636889
30
0.0000000000
10
91.3614162803
20
223.6606461713
30
0.0000000000
10
91.3455391135
20
223.5619683711
30
0.0000000000
10
91.3297355400
20
223.4370838356
30
0.0000000000
10
91.3153804152
20
223.2886902987
30
0.0000000000
10
91.3023441271
20
223.1184800438
30
0.0000000000
10
91.2909882733
20
222.9292751643
30
0.0000000000
10
91.2814363837
20
222.7235527898
30
0.0000000000
10
91.2738610858
20
222.5045827366
30
0.0000000000
10
91.2683645390
20
222.2753030268
30
0.0000000000
10
91.2650347911
20
222.0392286941
30
0.0000000000
10
91.2642928786
20
221.8798750415
30
0.0000000000
10
91.2642928786
20
221.7996489468
30
0.0000000000
11
91.4196006712
21
223.7996489468
31
0.0000000000
11
91.4008678084
21
223.7850470224
31
0.0000000000
11
91.3824092271
21
223.7414568338
31
0.0000000000
11
91.3644917376
21
223.6695053947
31
0.0000000000
11
91.3473516821
21
223.5700614794
31
0.0000000000
11
91.3313056366
21
223.4449927389
31
0.0000000000
11
91.3165245759
21
223.2956659591
31
0.0000000000
11
91.3032853186
21
223.1249371784
31
0.0000000000
11
91.2917187122
21
222.9345432938
31
0.0000000000
11
91.2820428774
21
222.7281236677
31
0.0000000000
11
91.2743553356
21
222.5078382988
31
0.0000000000
11
91.2687943626
21
222.2776801779
31
0.0000000000
11
91.2654215004
21
222.0403245845
31
0.0000000000
11
91.2642928786
21
221.7996489468
31
0.0000000000
0
SPLINE
5
2E6
100
AcDbEntity
8
0
100
AcDbSpline
62
7
6
CONTINUOUS
70
0
71
3
72
20
73
16
74
14
42
0.0000001000
43
0.0000001000
44
0.0000000001
12
-2.0648636153
22
0.0000000000
32
0.0000000000
13
-0.0000000000
23
-2.0648636153
33
0.0000000000
40
0.0000000000
40
0.0000000000
40
0.0000000000
40
0.0000000000
40
0.0193577149
40
0.0469248709
40
0.0857580271
40
0.1365068599
40
0.1989584651
40
0.2724792154
40
0.3561647362
40
0.4489075638
40
0.5494378072
40
0.6563540772
40
0.7681508508
40
0.8832446562
40
1.0000000000
40
1.0000000000
40
1.0000000000
40
1.0000000000
10
82.0142928786
20
223.7996489468
30
0.0000000000
10
82.0009691982
20
223.7996489468
30
0.0000000000
10
81.9694493788
20
223.7842660148
30
0.0000000000
10
81.9345368005
20
223.7358499708
30
0.0000000000
10
81.8999467968
20
223.6627738239
30
0.0000000000
10
81.8671786847
20
223.5631935445
30
0.0000000000
10
81.8360182603
20
223.4384497696
30
0.0000000000
10
81.8072891322
20
223.2899549315
30
0.0000000000
10
81.7813782575
20
223.1198471765
30
0.0000000000
10
81.7587389627
20
222.9305409153
30
0.0000000000
10
81.7397183658
20
222.7247804664
30
0.0000000000
10
81.7246148703
20
222.5055508902
30
0.0000000000
10
81.7136592626
20
222.2760411510
30
0.0000000000
10
81.7070187471
20
222.0395932832
30
0.0000000000
10
81.7055391181
20
221.8800102340
30
0.0000000000
10
81.7055391181
20
221.7996489468
30
0.0000000000
11
82.0142928786
21
223.7996489468
31
0.0000000000
11
81.9770767253
21
223.7850666949
31
0.0000000000
11
81.9404032672
21
223.7415325811
31
0.0000000000
11
81.9048072859
21
223.6696814308
31
0.0000000000
11
81.8708078512
21
223.5705609957
31
0.0000000000
11
81.8389007512
21
223.4456166749
31
0.0000000000
11
81.8095512634
21
223.2966704379
31
0.0000000000
11
81.7831873695
21
223.1258942565
31
0.0000000000
11
81.7601935144
21
222.9357784319
31
0.0000000000
11
81.7409050001
21
222.7290952802
31
0.0000000000
11
81.7256030968
21
222.5088587078
31
0.0000000000
11
81.7145109407
21
222.2782802619
31
0.0000000000
11
81.7077902805
21
222.0407222977
31
0.0000000000
11
81.7055391181
21
221.7996489468
31
0.0000000000
0
SPLINE
5
2E7
100
AcDbEntity
8
0
100
AcDbSpline
62
7
6
CONTINUOUS
70
0
71
3
72
20
73
16
74
14
42
0.0000001000
43
0.0000001000
44
0.0000000001
12
0.1553077926
22
2.0000000000
32
0.0000000000
13
0.1553077926
23
2.0000000000
33
0.0000000000
40
0.0000000000
40
0.0000000000
40
0.0000000000
40
0.0000000000
40
0.1206176619
40
0.2394692726
40
0.3548368866
40
0.4651987383
40
0.5685164479
40
0.6636891402
40
0.7489344269
40
0.8234098040
40
0.8857108293
40
0.9352095810
40
0.9710157236
40
0.9927330000
40
1.0000000000
40
1.0000000000
40
1.0000000000
40
1.0000000000
10
116.1089850861
20
221.7996489468
30
0.0000000000
10
116.1152293737
20
221.8800607214
30
0.0000000000
10
116.1276265217
20
222.0397069031
30
0.0000000000
10
116.1459961662
20
222.2762648275
30
0.0000000000
10
116.1638348750
20
222.5059855451
30
0.0000000000
10
116.1808694052
20
222.7253503287
30
0.0000000000
10
116.1968584591
20
222.9312518310
30
0.0000000000
10
116.2115472469
20
223.1204089568
30
0.0000000000
10
116.2247428884
20
223.2903378609
30
0.0000000000
10
116.2362367879
20
223.4383523203
30
0.0000000000
10
116.2458801155
20
223.5625357564
30
0.0000000000
10
116.2535215654
20
223.6609397028
30
0.0000000000
10
116.2590620244
20
223.7322878166
30
0.0000000000
10
116.2624161767
20
223.7754814293
30
0.0000000000
10
116.2639166714
20
223.7948042802
30
0.0000000000
10
116.2642928786
20
223.7996489468
30
0.0000000000
11
116.1089850861
21
221.7996489468
31
0.0000000000
11
116.1277179489
21
222.0408842706
31
0.0000000000
11
116.1461765302
21
222.2785874920
31
0.0000000000
11
116.1640940196
21
222.5093227200
31
0.0000000000
11
116.1812340752
21
222.7300464234
31
0.0000000000
11
116.1972801206
21
222.9366818426
31
0.0000000000
11
116.2120611814
21
223.1270272272
31
0.0000000000
11
116.2253004387
21
223.2975178007
31
0.0000000000
11
116.2368670451
21
223.4464685548
31
0.0000000000
11
116.2465428798
21
223.5710706055
31
0.0000000000
11
116.2542304217
21
223.6700681089
31
0.0000000000
11
116.2597913947
21
223.7416803941
31
0.0000000000
11
116.2631642569
21
223.7851149469
31
0.0000000000
11
116.2642928786
21
223.7996489468
31
0.0000000000
0
SPLINE
5
2E8
100
AcDbEntity
8
0
100
AcDbSpline
62
7
6
CONTINUOUS
70
0
71
3
72
28
73
24
74
22
42
0.0000001000
43
0.0000001000
44
0.0000000001
12
14.7402540442
22
-1.9907898393
32
0.0000000000
13
0.0000011416
23
0.0000084586
33
0.0000000000
40
0.0000000000
40
0.0000000000
40
0.0000000000
40
0.0000000000
40
0.0734590998
40
0.1465219714
40
0.2187709318
40
0.2898149416
40
0.3592741512
40
0.4267658429
40
0.4919147683
40
0.5543713491
40
0.6138096400
40
0.6699185761
40
0.7224025823
40
0.7709896116
40
0.8154323828
40
0.8555069758
40
0.8910127083
40
0.9217734113
40
0.9476383063
40
0.9684814393
40
0.9842023908
40
0.9947255959
40
1.0000000000
40
1.0000000000
40
1.0000000000
40
1.0000000000
10
125.5142928786
20
220.3300696043
30
0.0000000000
10
125.8752281430
20
220.2813223944
30
0.0000000000
10
126.5951511884
20
220.1840861093
30
0.0000000000
10
127.6700628635
20
220.0389003749
30
0.0000000000
10
128.7331094533
20
219.8953266222
30
0.0000000000
10
129.7784485919
20
219.7541357121
30
0.0000000000
10
130.8004147079
20
219.6161122585
30
0.0000000000
10
131.7934137820
20
219.4819858089
30
0.0000000000
10
132.7520082227
20
219.3525224322
30
0.0000000000
10
133.6710309873
20
219.2283895279
30
0.0000000000
10
134.5456384968
20
219.1102678022
30
0.0000000000
10
135.3712442900
20
218.9987553611
30
0.0000000000
10
136.1435376278
20
218.8944471908
30
0.0000000000
10
136.8584978979
20
218.7978848959
30
0.0000000000
10
137.5125259400
20
218.7095437427
30
0.0000000000
10
138.1021488988
20
218.6299162000
30
0.0000000000
10
138.6249605316
20
218.5592918733
30
0.0000000000
10
139.0766921269
20
218.4982926139
30
0.0000000000
10
139.4600585526
20
218.4465003693
30
0.0000000000
10
139.7594201071
20
218.4060803744
30
0.0000000000
10
140.0088476473
20
218.3723813416
30
0.0000000000
10
140.1265891794
20
218.3564861345
30
0.0000000000
10
140.2545510490
20
218.3392002577
30
0.0000000000
10
140.2545510510
20
218.3392002726
30
0.0000000000
11
125.5142928786
21
220.3300696043
31
0.0000000000
11
126.5970979553
21
220.1838226696
31
0.0000000000
11
127.6740621560
21
220.0383617950
31
0.0000000000
11
128.7390296806
21
219.8945255534
31
0.0000000000
11
129.7862356103
21
219.7530857610
31
0.0000000000
11
130.8100815949
21
219.6148040318
31
0.0000000000
11
131.8049251282
21
219.4804337581
31
0.0000000000
11
132.7652364974
21
219.3507334107
31
0.0000000000
11
133.6858614260
21
219.2263885273
31
0.0000000000
11
134.5619966030
21
219.1080569391
31
0.0000000000
11
135.3890558212
21
218.9963502483
31
0.0000000000
11
136.1626828908
21
218.8918618080
31
0.0000000000
11
136.8788676307
21
218.7951321757
31
0.0000000000
11
137.5339646643
21
218.7066507388
31
0.0000000000
11
138.1246742961
21
218.6268702812
31
0.0000000000
11
138.6480369411
21
218.5561793684
31
0.0000000000
11
139.1014577630
21
218.4949430913
31
0.0000000000
11
139.4827120415
21
218.4434452649
31
0.0000000000
11
139.7899454555
21
218.4019534820
31
0.0000000000
11
140.0216756701
21
218.3706518866
31
0.0000000000
11
140.1767906099
21
218.3497040552
31
0.0000000000
11
140.2545510510
21
218.3392002726
31
0.0000000000
0
SPLINE
5
2E9
100
AcDbEntity
8
0
100
AcDbSpline
62
7
6
CONTINUOUS
70
0
71
3
72
49
73
45
74
43
42
0.0000001000
43
0.0000001000
44
0.0000000001
12
-40.0459317899
22
0.0017989970
32
0.0000000000
13
40.0459317872
23
0.0018573628
33
0.0000000000
40
0.0000000000
40
0.0000000000
40
0.0000000000
40
0.0000000000
40
0.0238254807
40
0.0477430067
40
0.0717095493
40
0.0956884250
40
0.1196487742
40
0.1435867803
40
0.1675093676
40
0.1914136763
40
0.2152915285
40
0.2391407131
40
0.2629630787
40
0.2867596836
40
0.3105301191
40
0.3342753802
40
0.3579973064
40
0.3816985194
40
0.4053815174
40
0.4290495326
40
0.4527059132
40
0.4763544872
40
0.4999990767
40
0.5236436651
40
0.5472922394
40
0.5709486190
40
0.5946166337
40
0.6182996297
40
0.6420008407
40
0.6657227672
40
0.6894680274
40
0.7132384600
40
0.7370350584
40
0.7608574233
40
0.7847066116
40
0.8085844753
40
0.8324887805
40
0.8564113127
40
0.8803492632
40
0.9043097760
40
0.9282891211
40
0.9522562378
40
0.9761742621
40
1.0000000000
40
1.0000000000
40
1.0000000000
40
1.0000000000
10
81.7055391181
20
196.2996489468
30
0.0000000000
10
81.3875012594
20
196.2996632342
30
0.0000000000
10
80.7499445240
20
196.3235950313
30
0.0000000000
10
79.7978989794
20
196.4309794598
30
0.0000000000
10
78.8545659319
20
196.6101242160
30
0.0000000000
10
77.9268314204
20
196.8598229968
30
0.0000000000
10
77.0209003234
20
197.1785706380
30
0.0000000000
10
76.1421334479
20
197.5640973317
30
0.0000000000
10
75.2955129952
20
198.0142750413
30
0.0000000000
10
74.4857102898
20
198.5262322282
30
0.0000000000
10
73.7174057180
20
199.0969408396
30
0.0000000000
10
72.9947978985
20
199.7228300221
30
0.0000000000
10
72.3218307688
20
200.4002804248
30
0.0000000000
10
71.7020444582
20
201.1253142277
30
0.0000000000
10
71.1387177480
20
201.8937586965
30
0.0000000000
10
70.6348095789
20
202.7012323150
30
0.0000000000
10
70.1928439637
20
203.5431605827
30
0.0000000000
10
69.8151521093
20
204.4149052348
30
0.0000000000
10
69.5034908332
20
205.3116152419
30
0.0000000000
10
69.2595743205
20
206.2284495763
30
0.0000000000
10
69.0843989872
20
207.1603946388
30
0.0000000000
10
68.9790483499
20
208.1024739901
30
0.0000000000
10
68.9437869133
20
209.0496119003
30
0.0000000000
10
68.9790426796
20
209.9967500539
30
0.0000000000
10
69.0843884182
20
210.9388299023
30
0.0000000000
10
69.2595574659
20
211.8707761542
30
0.0000000000
10
69.5034697754
20
212.7876115381
30
0.0000000000
10
69.8151244947
20
213.6843237770
30
0.0000000000
10
70.1928126961
20
214.5560699436
30
0.0000000000
10
70.6347718799
20
215.3980015571
30
0.0000000000
10
71.1386768224
20
216.2054771290
30
0.0000000000
10
71.7019975126
20
216.9739258415
30
0.0000000000
10
72.3217808471
20
217.6989620135
30
0.0000000000
10
72.9947427323
20
218.3764175510
30
0.0000000000
10
73.7173481138
20
219.0023098607
30
0.0000000000
10
74.4856486079
20
219.5730242055
30
0.0000000000
10
75.2954485095
20
220.0849846708
30
0.0000000000
10
76.1420643473
20
220.5351677634
30
0.0000000000
10
77.0208299343
20
220.9206992092
30
0.0000000000
10
77.9267663142
20
221.2394550558
30
0.0000000000
10
78.8545152684
20
221.4891623654
30
0.0000000000
10
79.7978678579
20
221.6683148278
30
0.0000000000
10
80.7499310160
20
221.7757023596
30
0.0000000000
10
81.3874978268
20
221.7996341958
30
0.0000000000
10
81.7055391181
20
221.7996489468
30
0.0000000000
11
81.7055391181
21
196.2996489468
31
0.0000000000
11
80.7520953484
21
196.3353938230
31
0.0000000000
11
79.8003366680
21
196.4427973334
31
0.0000000000
11
78.8574203483
21
196.6218306609
31
0.0000000000
11
77.9301692625
21
196.8714259720
31
0.0000000000
11
77.0250335915
21
197.1898557302
31
0.0000000000
11
76.1471935253
21
197.5750163030
31
0.0000000000
11
75.3013229690
21
198.0247622379
31
0.0000000000
11
74.4922011697
21
198.5363171014
31
0.0000000000
11
73.7245811538
21
199.1064913562
31
0.0000000000
11
73.0026773533
21
199.7317912020
31
0.0000000000
11
72.3303423248
21
200.4085927175
31
0.0000000000
11
71.7111308559
21
201.1329576915
31
0.0000000000
11
71.1483389959
21
201.9006793367
31
0.0000000000
11
70.6449014043
21
202.7073784779
31
0.0000000000
11
70.2033767668
21
203.5485042801
31
0.0000000000
11
69.8260248716
21
204.4194043280
31
0.0000000000
11
69.5146932914
21
205.3152557998
31
0.0000000000
11
69.2709793307
21
206.2311941060
31
0.0000000000
11
69.0960126630
21
207.1622382307
31
0.0000000000
11
68.9907233448
21
208.1033962568
31
0.0000000000
11
68.9555391202
21
209.0496119558
31
0.0000000000
11
68.9907178023
21
209.9958278134
31
0.0000000000
11
69.0960018664
21
210.9369864431
31
0.0000000000
11
69.2709628237
21
211.8680315975
31
0.0000000000
11
69.5146718503
21
212.7839712004
31
0.0000000000
11
69.8259977412
21
213.6798245601
31
0.0000000000
11
70.2033450251
21
214.5507265225
31
0.0000000000
11
70.6448642498
21
215.3918551740
31
0.0000000000
11
71.1482976314
21
216.1985569042
31
0.0000000000
11
71.7110844492
21
216.9662821013
31
0.0000000000
11
72.3302919643
21
217.6906501124
31
0.0000000000
11
73.0026225849
21
218.3674559672
31
0.0000000000
11
73.7245232017
21
218.9927597124
31
0.0000000000
11
74.4921399797
21
219.5629391051
31
0.0000000000
11
75.3012589053
21
220.0744982443
31
0.0000000000
11
76.1471246431
21
220.5242485470
31
0.0000000000
11
77.0249604784
21
220.9094132103
31
0.0000000000
11
77.9301004495
21
221.2278505001
31
0.0000000000
11
78.8573684541
21
221.4774552750
31
0.0000000000
11
79.8003066938
21
221.6564963820
31
0.0000000000
11
80.7520850705
21
221.7639033509
31
0.0000000000
11
81.7055391181
21
221.7996489468
31
0.0000000000
0
SPLINE
5
2EA
100
AcDbEntity
8
0
100
AcDbSpline
62
7
6
CONTINUOUS
70
0
71
3
72
20
73
16
74
14
42
0.0000001000
43
0.0000001000
44
0.0000000001
12
-2.0648636198
22
0.0000000000
32
0.0000000000
13
0.0000000166
23
2.0648636198
33
0.0000000000
40
0.0000000000
40
0.0000000000
40
0.0000000000
40
0.0000000000
40
0.0193577160
40
0.0469248725
40
0.0857580288
40
0.1365068616
40
0.1989584666
40
0.2724792165
40
0.3561647369
40
0.4489075640
40
0.5494378069
40
0.6563540764
40
0.7681508496
40
0.8832446550
40
1.0000000000
40
1.0000000000
40
1.0000000000
40
1.0000000000
10
82.0142928786
20
194.2996489468
30
0.0000000000
10
82.0009691975
20
194.2996489468
30
0.0000000000
10
81.9694493766
20
194.3150318782
30
0.0000000000
10
81.9345367958
20
194.3634479223
30
0.0000000000
10
81.8999467907
20
194.4365240692
30
0.0000000000
10
81.8671786775
20
194.5361043485
30
0.0000000000
10
81.8360182525
20
194.6608481230
30
0.0000000000
10
81.8072891242
20
194.8093429607
30
0.0000000000
10
81.7813782498
20
194.9794507154
30
0.0000000000
10
81.7587389556
20
195.1687569761
30
0.0000000000
10
81.7397183596
20
195.3745174245
30
0.0000000000
10
81.7246148653
20
195.5937470002
30
0.0000000000
10
81.7136592591
20
195.8232567394
30
0.0000000000
10
81.7070187453
20
196.0597046083
30
0.0000000000
10
81.7055391174
20
196.2192876588
30
0.0000000000
10
81.7055391181
20
196.2996489468
30
0.0000000000
11
82.0142928786
21
194.2996489468
31
0.0000000000
11
81.9770767229
21
194.3142311987
31
0.0000000000
11
81.9404032627
21
194.3577653124
31
0.0000000000
11
81.9048072799
21
194.4296164625
31
0.0000000000
11
81.8708078441
21
194.5287368973
31
0.0000000000
11
81.8389007435
21
194.6536812178
31
0.0000000000
11
81.8095512556
21
194.8026274544
31
0.0000000000
11
81.7831873618
21
194.9734036354
31
0.0000000000
11
81.7601935073
21
195.1635194596
31
0.0000000000
11
81.7409049940
21
195.3702026106
31
0.0000000000
11
81.7256030919
21
195.5904391825
31
0.0000000000
11
81.7145109373
21
195.8210176282
31
0.0000000000
11
81.7077902786
21
196.0585755932
31
0.0000000000
11
81.7055391181
21
196.2996489468
31
0.0000000000
0
SPLINE
5
2EB
100
AcDbEntity
8
0
100
AcDbSpline
62
7
6
CONTINUOUS
70
0
71
3
72
42
73
38
74
36
42
0.0000001000
43
0.0000001000
44
0.0000000001
12
0.0025592947
22
19.7853428058
32
0.0000000000
13
0.0028463720
23
-19.7853427665
33
0.0000000000
40
0.0000000000
40
0.0000000000
40
0.0000000000
40
0.0000000000
40
0.0280136895
40
0.0562358764
40
0.0845955475
40
0.1130311471
40
0.1414868870
40
0.1699554969
40
0.1984648460
40
0.2270268537
40
0.2556290740
40
0.2842636826
40
0.3129337244
40
0.3416415556
40
0.3703831334
40
0.3991522983
40
0.4279441001
40
0.4567527003
40
0.4855721456
40
0.5143948897
40
0.5432143271
40
0.5720229564
40
0.6008148167
40
0.6295840184
40
0.6583255458
40
0.6870333986
40
0.7157035212
40
0.7443383534
40
0.7729407316
40
0.8015025678
40
0.8300108689
40
0.8584792745
40
0.8869388680
40
0.9153826791
40
0.9437517098
40
0.9719818537
40
1.0000000000
40
1.0000000000
40
1.0000000000
40
1.0000000000
10
69.3871044385
20
209.0496489468
30
0.0000000000
10
69.3871283369
20
209.2344024299
30
0.0000000000
10
69.4035449788
20
209.6054833462
30
0.0000000000
10
69.4771247454
20
210.1592296397
30
0.0000000000
10
69.6003634979
20
210.7069912562
30
0.0000000000
10
69.7723016945
20
211.2430791264
30
0.0000000000
10
69.9917741983
20
211.7623104087
30
0.0000000000
10
70.2568726793
20
212.2603443675
30
0.0000000000
10
70.5658401115
20
212.7332654090
30
0.0000000000
10
70.9164697711
20
213.1773044271
30
0.0000000000
10
71.3060402371
20
213.5887521268
30
0.0000000000
10
71.7315697141
20
213.9639678939
30
0.0000000000
10
72.1896017907
20
214.2999219691
30
0.0000000000
10
72.6766885357
20
214.5935364074
30
0.0000000000
10
73.1887843515
20
214.8424693424
30
0.0000000000
10
73.7218158569
20
215.0442665803
30
0.0000000000
10
74.2712879694
20
215.1973310545
30
0.0000000000
10
74.8326867314
20
215.3001075229
30
0.0000000000
10
75.4012750562
20
215.3517710289
30
0.0000000000
10
75.9722808490
20
215.3518106089
30
0.0000000000
10
76.5408730829
20
215.3001871866
30
0.0000000000
10
77.1022858445
20
215.1974856671
30
0.0000000000
10
77.6517713474
20
215.0444647681
30
0.0000000000
10
78.1848264206
20
214.8427302851
30
0.0000000000
10
78.6969473406
20
214.5938476523
30
0.0000000000
10
79.1840619114
20
214.3002797638
30
0.0000000000
10
79.6421368594
20
213.9643797027
30
0.0000000000
10
80.0676966923
20
213.5891942860
30
0.0000000000
10
80.4573238853
20
213.1777980490
30
0.0000000000
10
80.8079785756
20
212.7337879593
30
0.0000000000
10
81.1170095566
20
212.2609197045
30
0.0000000000
10
81.3821489255
20
211.7628877630
30
0.0000000000
10
81.6017178959
20
211.2436124366
30
0.0000000000
10
81.7737335411
20
210.7074001496
30
0.0000000000
10
81.8970516224
20
210.1594832972
30
0.0000000000
10
81.9706566135
20
209.6055943267
30
0.0000000000
10
81.9870778551
20
209.2344318227
30
0.0000000000
10
81.9871044385
20
209.0496489468
30
0.0000000000
11
69.3871044385
21
209.0496489468
31
0.0000000000
11
69.4115480754
21
209.6033701396
31
0.0000000000
11
69.4851667129
21
210.1568815015
31
0.0000000000
11
69.6082865678
21
210.7043129979
31
0.0000000000
11
69.7801391403
21
211.2400317267
31
0.0000000000
11
69.9993062303
21
211.7586280894
31
0.0000000000
11
70.2639862411
21
212.2558279317
31
0.0000000000
11
70.5724952026
21
212.7280504266
31
0.0000000000
11
70.9226969699
21
213.1715670973
31
0.0000000000
11
71.3117943541
21
213.5824824138
31
0.0000000000
11
71.7367140867
21
213.9572050891
31
0.0000000000
11
72.1941389120
21
214.2926618614
31
0.0000000000
11
72.6805655219
21
214.5859307874
31
0.0000000000
11
73.1920219522
21
214.8345042394
31
0.0000000000
11
73.7243441834
21
215.0360744609
31
0.0000000000
11
74.2731140041
21
215.1889118642
31
0.0000000000
11
74.8337804828
21
215.2915737330
31
0.0000000000
11
75.4016443552
21
215.3431648105
31
0.0000000000
11
75.9719122303
21
215.3431978817
31
0.0000000000
11
76.5397807098
21
215.2916592622
31
0.0000000000
11
77.1004594749
21
215.1890613164
31
0.0000000000
11
77.6492449412
21
215.0362757892
31
0.0000000000
11
78.1815896547
21
214.8347628943
31
0.0000000000
11
78.6930703674
21
214.5862416910
31
0.0000000000
11
79.1795267457
21
214.2930213198
31
0.0000000000
11
79.6369895676
21
213.9576136610
31
0.0000000000
11
80.0619474907
21
213.5829276060
31
0.0000000000
11
80.4510937404
21
213.1720542629
31
0.0000000000
11
80.8013336035
21
212.7285719996
31
0.0000000000
11
81.1098873774
21
212.2564035545
31
0.0000000000
11
81.3746104325
21
211.7592312070
31
0.0000000000
11
81.5938635098
21
211.2405884139
31
0.0000000000
11
81.7658073894
21
210.7047283550
31
0.0000000000
11
81.8890028193
21
210.1571240499
31
0.0000000000
11
81.9626529620
21
209.6034580588
31
0.0000000000
11
81.9871044385
21
209.0496489468
31
0.0000000000
0
SPLINE
5
2EC
100
AcDbEntity
8
0
100
AcDbSpline
62
7
6
CONTINUOUS
70
0
71
3
72
42
73
38
74
36
42
0.0000001000
43
0.0000001000
44
0.0000000001
12
-0.0025980660
22
-19.7853427846
32
0.0000000000
13
-0.0027929878
23
19.7853427580
33
0.0000000000
40
0.0000000000
40
0.0000000000
40
0.0000000000
40
0.0000000000
40
0.0280124090
40
0.0562327747
40
0.0845905753
40
0.1130247446
40
0.1414799234
40
0.1699486731
40
0.1984582231
40
0.2270202139
40
0.2556223775
40
0.2842570002
40
0.3129270877
40
0.3416349369
40
0.3703765244
40
0.3991457054
40
0.4279375317
40
0.4567461562
40
0.4855656252
40
0.5143883959
40
0.5432078628
40
0.5720165199
40
0.6008084071
40
0.6295776460
40
0.6583192190
40
0.6870271079
40
0.7156972345
40
0.7443320989
40
0.7729345845
40
0.8014964992
40
0.8300046836
40
0.8584730033
40
0.8869330994
40
0.9153781578
40
0.9437488339
40
0.9719806198
40
1.0000000000
40
1.0000000000
40
1.0000000000
40
1.0000000000
10
81.9871044385
20
209.0496489468
30
0.0000000000
10
81.9870801791
20
208.8649039085
30
0.0000000000
10
81.9706605215
20
208.4938438188
30
0.0000000000
10
81.8970955221
20
207.9401288412
30
0.0000000000
10
81.7738679386
20
207.3923993618
30
0.0000000000
10
81.6019495243
20
206.8563320628
30
0.0000000000
10
81.3824898011
20
206.3371086180
30
0.0000000000
10
81.1174042410
20
205.8390695531
30
0.0000000000
10
80.8084458467
20
205.3661399221
30
0.0000000000
10
80.4578242463
20
204.9220935433
30
0.0000000000
10
80.0682636327
20
204.5106370102
30
0.0000000000
10
79.6427409198
20
204.1354135684
30
0.0000000000
10
79.1847165359
20
203.7994481410
30
0.0000000000
10
78.6976346689
20
203.5058246272
30
0.0000000000
10
78.1855443132
20
203.2568798640
30
0.0000000000
10
77.6525163541
20
203.0550722332
30
0.0000000000
10
77.1030471407
20
202.9019958475
30
0.0000000000
10
76.5416499661
20
202.7992079501
30
0.0000000000
10
75.9730622218
20
202.7475326890
30
0.0000000000
10
75.4020559052
20
202.7474814839
30
0.0000000000
10
74.8334620458
20
202.7990932819
30
0.0000000000
10
74.2720467367
20
202.9017838559
30
0.0000000000
10
73.7225573766
20
203.0547932667
30
0.0000000000
10
73.1894979369
20
203.2565181896
30
0.0000000000
10
72.6773707867
20
203.5053898478
30
0.0000000000
10
72.1902506630
20
203.7989496037
30
0.0000000000
10
71.7321677969
20
204.1348396526
30
0.0000000000
10
71.3066006251
20
204.5100182332
30
0.0000000000
10
70.9169639659
20
204.9214074268
30
0.0000000000
10
70.5663004858
20
205.3654112505
30
0.0000000000
10
70.2572614945
20
205.8382731589
30
0.0000000000
10
69.9921091124
20
206.3363005284
30
0.0000000000
10
69.7725295527
20
206.8555832896
30
0.0000000000
10
69.6004955464
20
207.3918133395
30
0.0000000000
10
69.4771681411
20
207.9397587740
30
0.0000000000
10
69.4035489404
20
208.4936760895
30
0.0000000000
10
69.3871305244
20
208.8648579332
30
0.0000000000
10
69.3871044385
20
209.0496489468
30
0.0000000000
11
81.9871044385
21
209.0496489468
31
0.0000000000
11
81.9626602696
21
208.4959531362
31
0.0000000000
11
81.8890528979
21
207.9424766276
31
0.0000000000
11
81.7659474650
21
207.3950798236
31
0.0000000000
11
81.5941136814
21
206.8593847871
31
0.0000000000
11
81.3749605128
21
206.3407945916
31
0.0000000000
11
81.1102904950
21
205.8435862979
31
0.0000000000
11
80.8017896159
21
205.3713537771
31
0.0000000000
11
80.4515970443
21
204.9278302697
31
0.0000000000
11
80.0625093839
21
204.5169072906
31
0.0000000000
11
79.6375969204
21
204.1421759518
31
0.0000000000
11
79.1801787842
21
203.8067085324
31
0.0000000000
11
78.6937577012
21
203.5134297516
31
0.0000000000
11
78.1823064364
21
203.2648452302
31
0.0000000000
11
77.6499879858
21
203.0632641263
31
0.0000000000
11
77.1012208938
21
202.9104151238
31
0.0000000000
11
76.5405560438
21
202.8077416873
31
0.0000000000
11
75.9726927647
21
202.7561389308
31
0.0000000000
11
75.4024243631
21
202.7560942098
31
0.0000000000
11
74.8345542547
21
202.8076213190
31
0.0000000000
11
74.2738728894
21
202.9102081118
31
0.0000000000
11
73.7250837801
21
203.0629825350
31
0.0000000000
11
73.1927344496
21
203.2644853148
31
0.0000000000
11
72.6812477839
21
203.5129963259
31
0.0000000000
11
72.1947852408
21
203.8062078525
31
0.0000000000
11
71.7373153840
21
204.1416060479
31
0.0000000000
11
71.3123498857
21
204.5162844747
31
0.0000000000
11
70.9231939958
21
204.9271516137
31
0.0000000000
11
70.5729447009
21
205.3706284085
31
0.0000000000
11
70.2643831411
21
205.8427890041
31
0.0000000000
11
69.9996502908
21
206.3399542100
31
0.0000000000
11
69.7803850195
21
206.8586026447
31
0.0000000000
11
69.6084242505
21
207.3944832021
31
0.0000000000
11
69.4852161452
21
207.9421180232
31
0.0000000000
11
69.4115553891
21
208.4958153746
31
0.0000000000
11
69.3871044385
21
209.0496489468
31
0.0000000000
0
SPLINE
5
2ED
100
AcDbEntity
8
0
100
AcDbSpline
62
7
6
CONTINUOUS
70
0
71
3
72
28
73
24
74
22
42
0.0000001000
43
0.0000001000
44
0.0000000001
12
-14.7402540442
22
1.9907898393
32
0.0000000000
13
-0.0000011416
23
-0.0000084586
33
0.0000000000
40
0.0000000000
40
0.0000000000
40
0.0000000000
40
0.0000000000
40
0.0734590998
40
0.1465219714
40
0.2187709318
40
0.2898149416
40
0.3592741512
40
0.4267658429
40
0.4919147683
40
0.5543713491
40
0.6138096400
40
0.6699185761
40
0.7224025823
40
0.7709896116
40
0.8154323828
40
0.8555069758
40
0.8910127083
40
0.9217734113
40
0.9476383063
40
0.9684814393
40
0.9842023908
40
0.9947255959
40
1.0000000000
40
1.0000000000
40
1.0000000000
40
1.0000000000
10
82.0142928786
20
111.6227889715
30
0.0000000000
10
81.6533576143
20
111.6715361813
30
0.0000000000
10
80.9334345689
20
111.7687724664
30
0.0000000000
10
79.8585228937
20
111.9139582008
30
0.0000000000
10
78.7954763040
20
112.0575319535
30
0.0000000000
10
77.7501371653
20
112.1987228636
30
0.0000000000
10
76.7281710494
20
112.3367463172
30
0.0000000000
10
75.7351719753
20
112.4708727668
30
0.0000000000
10
74.7765775345
20
112.6003361436
30
0.0000000000
10
73.8575547700
20
112.7244690478
30
0.0000000000
10
72.9829472604
20
112.8425907735
30
0.0000000000
10
72.1573414672
20
112.9541032147
30
0.0000000000
10
71.3850481295
20
113.0584113850
30
0.0000000000
10
70.6700878594
20
113.1549736798
30
0.0000000000
10
70.0160598173
20
113.2433148330
30
0.0000000000
10
69.4264368584
20
113.3229423758
30
0.0000000000
10
68.9036252257
20
113.3935667024
30
0.0000000000
10
68.4518936303
20
113.4545659618
30
0.0000000000
10
68.0685272047
20
113.5063582064
30
0.0000000000
10
67.7691656502
20
113.5467782013
30
0.0000000000
10
67.5197381100
20
113.5804772342
30
0.0000000000
10
67.4019965778
20
113.5963724413
30
0.0000000000
10
67.2740347083
20
113.6136583180
30
0.0000000000
10
67.2740347063
20
113.6136583031
30
0.0000000000
11
82.0142928786
21
111.6227889715
31
0.0000000000
11
80.9314878020
21
111.7690359061
31
0.0000000000
11
79.8545236013
21
111.9144967807
31
0.0000000000
11
78.7895560767
21
112.0583330223
31
0.0000000000
11
77.7423501470
21
112.1997728147
31
0.0000000000
11
76.7185041624
21
112.3380545439
31
0.0000000000
11
75.7236606290
21
112.4724248176
31
0.0000000000
11
74.7633492599
21
112.6021251651
31
0.0000000000
11
73.8427243313
21
112.7264700484
31
0.0000000000
11
72.9665891543
21
112.8448016366
31
0.0000000000
11
72.1395299361
21
112.9565083275
31
0.0000000000
11
71.3659028665
21
113.0609967677
31
0.0000000000
11
70.6497181265
21
113.1577264000
31
0.0000000000
11
69.9946210930
21
113.2462078369
31
0.0000000000
11
69.4039114612
21
113.3259882946
31
0.0000000000
11
68.8805488161
21
113.3966792073
31
0.0000000000
11
68.4271279943
21
113.4579154844
31
0.0000000000
11
68.0458737157
21
113.5094133108
31
0.0000000000
11
67.7386403018
21
113.5509050937
31
0.0000000000
11
67.5069100872
21
113.5822066891
31
0.0000000000
11
67.3517951473
21
113.6031545205
31
0.0000000000
11
67.2740347063
21
113.6136583031
31
0.0000000000
0
SPLINE
5
2EE
100
AcDbEntity
8
0
100
AcDbSpline
62
7
6
CONTINUOUS
70
0
71
3
72
20
73
16
74
14
42
0.0000001000
43
0.0000001000
44
0.0000000001
12
2.0648636198
22
0.0000000000
32
0.0000000000
13
-0.0000000166
23
-2.0648636198
33
0.0000000000
40
0.0000000000
40
0.0000000000
40
0.0000000000
40
0.0000000000
40
0.0193577160
40
0.0469248725
40
0.0857580288
40
0.1365068616
40
0.1989584666
40
0.2724792165
40
0.3561647369
40
0.4489075640
40
0.5494378069
40
0.6563540764
40
0.7681508496
40
0.8832446550
40
1.0000000000
40
1.0000000000
40
1.0000000000
40
1.0000000000
10
125.5142928786
20
137.6532096289
30
0.0000000000
10
125.5276165598
20
137.6532096289
30
0.0000000000
10
125.5591363807
20
137.6378266975
30
0.0000000000
10
125.5940489615
20
137.5894106535
30
0.0000000000
10
125.6286389666
20
137.5163345065
30
0.0000000000
10
125.6614070798
20
137.4167542273
30
0.0000000000
10
125.6925675047
20
137.2920104527
30
0.0000000000
10
125.7212966330
20
137.1435156150
30
0.0000000000
10
125.7472075075
20
136.9734078604
30
0.0000000000
10
125.7698468016
20
136.7841015997
30
0.0000000000
10
125.7888673977
20
136.5783411512
30
0.0000000000
10
125.8039708919
20
136.3591115755
30
0.0000000000
10
125.8149264982
20
136.1296018363
30
0.0000000000
10
125.8215670120
20
135.8931539674
30
0.0000000000
10
125.8230466398
20
135.7335709170
30
0.0000000000
10
125.8230466392
20
135.6532096289
30
0.0000000000
11
125.5142928786
21
137.6532096289
31
0.0000000000
11
125.5515090343
21
137.6386273770
31
0.0000000000
11
125.5881824945
21
137.5950932633
31
0.0000000000
11
125.6237784773
21
137.5232421132
31
0.0000000000
11
125.6577779132
21
137.4241216784
31
0.0000000000
11
125.6896850138
21
137.2991773579
31
0.0000000000
11
125.7190345017
21
137.1502311214
31
0.0000000000
11
125.7453983954
21
136.9794549404
31
0.0000000000
11
125.7683922500
21
136.7893391161
31
0.0000000000
11
125.7876807633
21
136.5826559651
31
0.0000000000
11
125.8029826654
21
136.3624193932
31
0.0000000000
11
125.8140748200
21
136.1318409476
31
0.0000000000
11
125.8207954786
21
135.8942829826
31
0.0000000000
11
125.8230466392
21
135.6532096289
31
0.0000000000
0
SPLINE
5
2EF
100
AcDbEntity
8
0
100
AcDbSpline
62
7
6
CONTINUOUS
70
0
71
3
72
9
73
5
74
3
42
0.0000001000
43
0.0000001000
44
0.0000000001
12
-1.9226752553
22
-0.2596731772
32
0.0000000000
13
-1.9226736024
23
-0.2596854149
33
0.0000000000
40
0.0000000000
40
0.0000000000
40
0.0000000000
40
0.0000000000
40
0.5632055439
40
1.0000000000
40
1.0000000000
40
1.0000000000
40
1.0000000000
10
82.0142928786
20
134.1836302863
30
0.0000000000
10
81.6533390910
20
134.1348804953
30
0.0000000000
10
81.0124479002
20
134.0483186162
30
0.0000000000
10
80.3715569010
20
133.9617553186
30
0.0000000000
10
80.0916191775
20
133.9239456021
30
0.0000000000
11
82.0142928786
21
134.1836302863
31
0.0000000000
11
80.9314322083
21
134.0373757849
31
0.0000000000
11
80.0916191775
21
133.9239456021
31
0.0000000000
0
SPLINE
5
2F0
100
AcDbEntity
8
0
100
AcDbSpline
62
7
6
CONTINUOUS
70
0
71
3
72
27
73
23
74
21
42
0.0000001000
43
0.0000001000
44
0.0000000001
12
-12.8176310742
22
-1.7312100398
32
0.0000000000
13
0.0000009934
23
-0.0000073606
33
0.0000000000
40
0.0000000000
40
0.0000000000
40
0.0000000000
40
0.0000000000
40
0.0185054006
40
0.1015944149
40
0.1832975368
40
0.2631780404
40
0.3407957294
40
0.4157190247
40
0.4875458481
40
0.5559013009
40
0.6204275944
40
0.6807847997
40
0.7366600309
40
0.7877688744
40
0.8338537832
40
0.8746839220
40
0.9100566809
40
0.9397986790
40
0.9637650663
40
0.9818402565
40
0.9939373315
40
1.0000000000
40
1.0000000000
40
1.0000000000
40
1.0000000000
10
80.0916191775
20
133.9239456021
30
0.0000000000
10
80.0125540448
20
133.9132666903
30
0.0000000000
10
79.5784874299
20
133.8546398855
30
0.0000000000
10
78.7953400910
20
133.7488688472
30
0.0000000000
10
77.7499658559
20
133.6076733231
30
0.0000000000
10
76.7279667208
20
133.4696453095
30
0.0000000000
10
75.7349367313
20
133.3355146838
30
0.0000000000
10
74.7763142529
20
133.2060476045
30
0.0000000000
10
73.8572671001
20
133.0819112628
30
0.0000000000
10
72.9826395939
20
132.9637870450
30
0.0000000000
10
72.1570189258
20
132.8522723313
30
0.0000000000
10
71.3847161962
20
132.7479631999
30
0.0000000000
10
70.6697525519
20
132.6514001384
30
0.0000000000
10
70.0157275231
20
132.5630596971
30
0.0000000000
10
69.4261145162
20
132.4834332449
30
0.0000000000
10
68.9033206383
20
132.4128114835
30
0.0000000000
10
68.4516132176
20
132.3518154393
30
0.0000000000
10
68.0682825689
20
132.3000279081
30
0.0000000000
10
67.7689535112
20
132.2596125605
30
0.0000000000
10
67.5195983528
20
132.2259229234
30
0.0000000000
10
67.4018519267
20
132.2100274696
30
0.0000000000
10
67.2740001391
20
132.1927562246
30
0.0000000000
10
67.2740001411
20
132.1927562098
30
0.0000000000
11
80.0916191775
21
133.9239456021
31
0.0000000000
11
79.8544237555
21
133.8919090435
31
0.0000000000
11
78.7894189919
21
133.7480677112
31
0.0000000000
11
77.7421784052
21
133.6066232758
31
0.0000000000
11
76.7182990868
21
133.4683369978
31
0.0000000000
11
75.7234244484
21
133.3339625214
31
0.0000000000
11
74.7630847740
21
133.2042583817
31
0.0000000000
11
73.8424351783
21
133.0799101217
31
0.0000000000
11
72.9662797448
21
132.9615758666
31
0.0000000000
11
72.1392055511
21
132.8498670660
31
0.0000000000
11
71.3655689745
21
132.7453774487
31
0.0000000000
11
70.6493806666
21
132.6486472310
31
0.0000000000
11
69.9942864742
21
132.5601662863
31
0.0000000000
11
69.4035866515
21
132.4803870614
31
0.0000000000
11
68.8802413944
21
132.4096985630
31
0.0000000000
11
68.4268457766
21
132.3484656537
31
0.0000000000
11
68.0456243269
21
132.2969722353
31
0.0000000000
11
67.7384313958
21
132.2554859807
31
0.0000000000
11
67.5067506894
21
132.2241909738
31
0.0000000000
11
67.3516944661
21
132.2032512011
31
0.0000000000
11
67.2740001411
21
132.1927562098
31
0.0000000000
0
SPLINE
5
2F1
100
AcDbEntity
8
0
100
AcDbSpline
62
7
6
CONTINUOUS
70
0
71
3
72
20
73
16
74
14
42
0.0000001000
43
0.0000001000
44
0.0000000001
12
-0.1553077926
22
2.0000000000
32
0.0000000000
13
-0.1553077926
23
2.0000000000
33
0.0000000000
40
0.0000000000
40
0.0000000000
40
0.0000000000
40
0.0000000000
40
0.1206176619
40
0.2394692726
40
0.3548368866
40
0.4651987383
40
0.5685164479
40
0.6636891402
40
0.7489344269
40
0.8234098040
40
0.8857108293
40
0.9352095810
40
0.9710157236
40
0.9927330000
40
1.0000000000
40
1.0000000000
40
1.0000000000
40
1.0000000000
10
91.4196006712
20
135.6532096289
30
0.0000000000
10
91.4133563836
20
135.7336214035
30
0.0000000000
10
91.4009592356
20
135.8932675852
30
0.0000000000
10
91.3825895910
20
136.1298255096
30
0.0000000000
10
91.3647508823
20
136.3595462272
30
0.0000000000
10
91.3477163521
20
136.5789110107
30
0.0000000000
10
91.3317272982
20
136.7848125131
30
0.0000000000
10
91.3170385104
20
136.9739696388
30
0.0000000000
10
91.3038428689
20
137.1438985429
30
0.0000000000
10
91.2923489694
20
137.2919130024
30
0.0000000000
10
91.2827056417
20
137.4160964385
30
0.0000000000
10
91.2750641919
20
137.5145003849
30
0.0000000000
10
91.2695237329
20
137.5858484987
30
0.0000000000
10
91.2661695805
20
137.6290421113
30
0.0000000000
10
91.2646690859
20
137.6483649622
30
0.0000000000
10
91.2642928786
20
137.6532096289
30
0.0000000000
11
91.4196006712
21
135.6532096289
31
0.0000000000
11
91.4008678084
21
135.8944449526
31
0.0000000000
11
91.3824092271
21
136.1321481740
31
0.0000000000
11
91.3644917376
21
136.3628834021
31
0.0000000000
11
91.3473516821
21
136.5836071054
31
0.0000000000
11
91.3313056366
21
136.7902425246
31
0.0000000000
11
91.3165245759
21
136.9805879092
31
0.0000000000
11
91.3032853186
21
137.1510784827
31
0.0000000000
11
91.2917187122
21
137.3000292369
31
0.0000000000
11
91.2820428774
21
137.4246312875
31
0.0000000000
11
91.2743553356
21
137.5236287909
31
0.0000000000
11
91.2687943626
21
137.5952410761
31
0.0000000000
11
91.2654215004
21
137.6386756290
31
0.0000000000
11
91.2642928786
21
137.6532096289
31
0.0000000000
0
SPLINE
5
2F2
100
AcDbEntity
8
0
100
AcDbSpline
62
7
6
CONTINUOUS
70
0
71
3
72
20
73
16
74
14
42
0.0000001000
43
0.0000001000
44
0.0000000001
12
0.0000000000
22
2.0196334664
32
0.0000000000
13
-2.0196334664
23
0.0000000000
33
0.0000000000
40
0.0000000000
40
0.0000000000
40
0.0000000000
40
0.0000000000
40
0.1191692888
40
0.2367052480
40
0.3506988492
40
0.4598372013
40
0.5621559044
40
0.6566012111
40
0.7413895338
40
0.8156884342
40
0.8781224736
40
0.9280870975
40
0.9648010910
40
0.9882396707
40
1.0000000000
40
1.0000000000
40
1.0000000000
40
1.0000000000
10
116.2642928786
20
135.6532096289
30
0.0000000000
10
116.2642928786
20
135.7334357235
30
0.0000000000
10
116.2635509662
20
135.8927893762
30
0.0000000000
10
116.2602212183
20
136.1288637088
30
0.0000000000
10
116.2547246715
20
136.3581434186
30
0.0000000000
10
116.2471493735
20
136.5771134718
30
0.0000000000
10
116.2375974839
20
136.7828358464
30
0.0000000000
10
116.2262416302
20
136.9720407258
30
0.0000000000
10
116.2132053421
20
137.1422509807
30
0.0000000000
10
116.1988502172
20
137.2906445177
30
0.0000000000
10
116.1830466437
20
137.4155290531
30
0.0000000000
10
116.1671694770
20
137.5142068533
30
0.0000000000
10
116.1490802873
20
137.5874243709
30
0.0000000000
10
116.1349468190
20
137.6312802904
30
0.0000000000
10
116.1169022709
20
137.6532096289
30
0.0000000000
10
116.1089850861
20
137.6532096289
30
0.0000000000
11
116.2642928786
21
135.6532096289
31
0.0000000000
11
116.2631642569
21
135.8938852665
31
0.0000000000
11
116.2597913947
21
136.1312408599
31
0.0000000000
11
116.2542304217
21
136.3613989808
31
0.0000000000
11
116.2465428798
21
136.5816843498
31
0.0000000000
11
116.2368670451
21
136.7881039758
31
0.0000000000
11
116.2253004387
21
136.9784978604
31
0.0000000000
11
116.2120611814
21
137.1492266411
31
0.0000000000
11
116.1972801206
21
137.2985534209
31
0.0000000000
11
116.1812340752
21
137.4236221615
31
0.0000000000
11
116.1640940196
21
137.5230660768
31
0.0000000000
11
116.1461765302
21
137.5950175159
31
0.0000000000
11
116.1277179489
21
137.6386077045
31
0.0000000000
11
116.1089850861
21
137.6532096289
31
0.0000000000
0
SPLINE
5
2F3
100
AcDbEntity
8
0
100
AcDbSpline
62
7
6
CONTINUOUS
70
0
71
3
72
20
73
16
74
14
42
0.0000001000
43
0.0000001000
44
0.0000000001
12
2.0648636153
22
0.0000000000
32
0.0000000000
13
0.0000000000
23
2.0648636153
33
0.0000000000
40
0.0000000000
40
0.0000000000
40
0.0000000000
40
0.0000000000
40
0.0193577149
40
0.0469248709
40
0.0857580271
40
0.1365068599
40
0.1989584651
40
0.2724792154
40
0.3561647362
40
0.4489075638
40
0.5494378072
40
0.6563540772
40
0.7681508508
40
0.8832446562
40
1.0000000000
40
1.0000000000
40
1.0000000000
40
1.0000000000
10
125.5142928786
20
108.1532096289
30
0.0000000000
10
125.5276165591
20
108.1532096289
30
0.0000000000
10
125.5591363785
20
108.1685925609
30
0.0000000000
10
125.5940489568
20
108.2170086049
30
0.0000000000
10
125.6286389605
20
108.2900847518
30
0.0000000000
10
125.6614070725
20
108.3896650313
30
0.0000000000
10
125.6925674970
20
108.5144088061
30
0.0000000000
10
125.7212966251
20
108.6629036442
30
0.0000000000
10
125.7472074998
20
108.8330113992
30
0.0000000000
10
125.7698467945
20
109.0223176604
30
0.0000000000
10
125.7888673915
20
109.2280781093
30
0.0000000000
10
125.8039708870
20
109.4473076855
30
0.0000000000
10
125.8149264947
20
109.6768174247
30
0.0000000000
10
125.8215670101
20
109.9132652925
30
0.0000000000
10
125.8230466392
20
110.0728483418
30
0.0000000000
10
125.8230466392
20
110.1532096289
30
0.0000000000
11
125.5142928786
21
108.1532096289
31
0.0000000000
11
125.5515090320
21
108.1677918808
31
0.0000000000
11
125.5881824901
21
108.2113259947
31
0.0000000000
11
125.6237784713
21
108.2831771449
31
0.0000000000
11
125.6577779061
21
108.3822975800
31
0.0000000000
11
125.6896850061
21
108.5072419008
31
0.0000000000
11
125.7190344938
21
108.6561881378
31
0.0000000000
11
125.7453983878
21
108.8269643192
31
0.0000000000
11
125.7683922429
21
109.0170801439
31
0.0000000000
11
125.7876807572
21
109.2237632955
31
0.0000000000
11
125.8029826605
21
109.4439998679
31
0.0000000000
11
125.8140748165
21
109.6745783138
31
0.0000000000
11
125.8207954768
21
109.9121362781
31
0.0000000000
11
125.8230466392
21
110.1532096289
31
0.0000000000
0
SPLINE
5
2F4
100
AcDbEntity
8
0
100
AcDbSpline
62
7
6
CONTINUOUS
70
0
71
3
72
20
73
16
74
14
42
0.0000001000
43
0.0000001000
44
0.0000000001
12
2.0196334664
22
0.0000000000
32
0.0000000000
13
0.0000000000
23
2.0196334664
33
0.0000000000
40
0.0000000000
40
0.0000000000
40
0.0000000000
40
0.0000000000
40
0.0117603293
40
0.0351989090
40
0.0719129025
40
0.1218775264
40
0.1843115658
40
0.2586104662
40
0.3433987889
40
0.4378440956
40
0.5401627987
40
0.6493011508
40
0.7632947520
40
0.8808307112
40
1.0000000000
40
1.0000000000
40
1.0000000000
40
1.0000000000
10
116.1089850861
20
108.1532096289
30
0.0000000000
10
116.1169022709
20
108.1532096289
30
0.0000000000
10
116.1349468190
20
108.1751389674
30
0.0000000000
10
116.1490802873
20
108.2189948869
30
0.0000000000
10
116.1671694770
20
108.2922124044
30
0.0000000000
10
116.1830466437
20
108.3908902046
30
0.0000000000
10
116.1988502172
20
108.5157747401
30
0.0000000000
10
116.2132053421
20
108.6641682771
30
0.0000000000
10
116.2262416302
20
108.8343785319
30
0.0000000000
10
116.2375974839
20
109.0235834114
30
0.0000000000
10
116.2471493735
20
109.2293057860
30
0.0000000000
10
116.2547246715
20
109.4482758391
30
0.0000000000
10
116.2602212183
20
109.6775555490
30
0.0000000000
10
116.2635509662
20
109.9136298816
30
0.0000000000
10
116.2642928786
20
110.0729835342
30
0.0000000000
10
116.2642928786
20
110.1532096289
30
0.0000000000
11
116.1089850861
21
108.1532096289
31
0.0000000000
11
116.1277179489
21
108.1678115533
31
0.0000000000
11
116.1461765302
21
108.2114017419
31
0.0000000000
11
116.1640940196
21
108.2833531810
31
0.0000000000
11
116.1812340752
21
108.3827970963
31
0.0000000000
11
116.1972801206
21
108.5078658368
31
0.0000000000
11
116.2120611814
21
108.6571926166
31
0.0000000000
11
116.2253004387
21
108.8279213973
31
0.0000000000
11
116.2368670451
21
109.0183152820
31
0.0000000000
11
116.2465428798
21
109.2247349080
31
0.0000000000
11
116.2542304217
21
109.4450202769
31
0.0000000000
11
116.2597913947
21
109.6751783978
31
0.0000000000
11
116.2631642569
21
109.9125339912
31
0.0000000000
11
116.2642928786
21
110.1532096289
31
0.0000000000
0
SPLINE
5
2F5
100
AcDbEntity
8
0
100
AcDbSpline
62
7
6
CONTINUOUS
70
0
71
3
72
49
73
45
74
43
42
0.0000001000
43
0.0000001000
44
0.0000000001
12
40.0459317899
22
-0.0017989970
32
0.0000000000
13
-40.0459317872
23
-0.0018573628
33
0.0000000000
40
0.0000000000
40
0.0000000000
40
0.0000000000
40
0.0000000000
40
0.0238254807
40
0.0477430067
40
0.0717095493
40
0.0956884250
40
0.1196487742
40
0.1435867803
40
0.1675093676
40
0.1914136763
40
0.2152915285
40
0.2391407131
40
0.2629630787
40
0.2867596836
40
0.3105301191
40
0.3342753802
40
0.3579973064
40
0.3816985194
40
0.4053815174
40
0.4290495326
40
0.4527059132
40
0.4763544872
40
0.4999990767
40
0.5236436651
40
0.5472922394
40
0.5709486190
40
0.5946166337
40
0.6182996297
40
0.6420008407
40
0.6657227672
40
0.6894680274
40
0.7132384600
40
0.7370350584
40
0.7608574233
40
0.7847066116
40
0.8085844753
40
0.8324887805
40
0.8564113127
40
0.8803492632
40
0.9043097760
40
0.9282891211
40
0.9522562378
40
0.9761742621
40
1.0000000000
40
1.0000000000
40
1.0000000000
40
1.0000000000
10
125.8230466392
20
135.6532096289
30
0.0000000000
10
126.1410844979
20
135.6531953416
30
0.0000000000
10
126.7786412333
20
135.6292635445
30
0.0000000000
10
127.7306867778
20
135.5218791159
30
0.0000000000
10
128.6740198254
20
135.3427343597
30
0.0000000000
10
129.6017543368
20
135.0930355789
30
0.0000000000
10
130.5076854339
20
134.7742879378
30
0.0000000000
10
131.3864523093
20
134.3887612441
30
0.0000000000
10
132.2330727621
20
133.9385835345
30
0.0000000000
10
133.0428754675
20
133.4266263476
30
0.0000000000
10
133.8111800392
20
132.8559177361
30
0.0000000000
10
134.5337878588
20
132.2300285536
30
0.0000000000
10
135.2067549885
20
131.5525781510
30
0.0000000000
10
135.8265412990
20
130.8275443480
30
0.0000000000
10
136.3898680093
20
130.0590998793
30
0.0000000000
10
136.8937761784
20
129.2516262608
30
0.0000000000
10
137.3357417935
20
128.4096979930
30
0.0000000000
10
137.7134336480
20
127.5379533409
30
0.0000000000
10
138.0250949241
20
126.6412433338
30
0.0000000000
10
138.2690114368
20
125.7244089994
30
0.0000000000
10
138.4441867701
20
124.7924639369
30
0.0000000000
10
138.5495374074
20
123.8503845857
30
0.0000000000
10
138.5847988440
20
122.9032466754
30
0.0000000000
10
138.5495430777
20
121.9561085218
30
0.0000000000
10
138.4441973391
20
121.0140286734
30
0.0000000000
10
138.2690282914
20
120.0820824216
30
0.0000000000
10
138.0251159818
20
119.1652470376
30
0.0000000000
10
137.7134612626
20
118.2685347987
30
0.0000000000
10
137.3357730612
20
117.3967886322
30
0.0000000000
10
136.8938138774
20
116.5548570186
30
0.0000000000
10
136.3899089348
20
115.7473814467
30
0.0000000000
10
135.8265882447
20
114.9789327342
30
0.0000000000
10
135.2068049101
20
114.2538965622
30
0.0000000000
10
134.5338430250
20
113.5764410247
30
0.0000000000
10
133.8112376435
20
112.9505487150
30
0.0000000000
10
133.0429371494
20
112.3798343702
30
0.0000000000
10
132.2331372477
20
111.8678739050
30
0.0000000000
10
131.3865214100
20
111.4176908124
30
0.0000000000
10
130.5077558230
20
111.0321593666
30
0.0000000000
10
129.6018194431
20
110.7134035199
30
0.0000000000
10
128.6740704889
20
110.4636962104
30
0.0000000000
10
127.7307178993
20
110.2845437480
30
0.0000000000
10
126.7786547413
20
110.1771562162
30
0.0000000000
10
126.1410879305
20
110.1532243799
30
0.0000000000
10
125.8230466392
20
110.1532096289
30
0.0000000000
11
125.8230466392
21
135.6532096289
31
0.0000000000
11
126.7764904089
21
135.6174647527
31
0.0000000000
11
127.7282490893
21
135.5100612423
31
0.0000000000
11
128.6711654090
21
135.3310279149
31
0.0000000000
11
129.5984164947
21
135.0814326038
31
0.0000000000
11
130.5035521658
21
134.7630028456
31
0.0000000000
11
131.3813922320
21
134.3778422727
31
0.0000000000
11
132.2272627883
21
133.9280963379
31
0.0000000000
11
133.0363845876
21
133.4165414743
31
0.0000000000
11
133.8040046034
21
132.8463672195
31
0.0000000000
11
134.5259084040
21
132.2210673738
31
0.0000000000
11
135.1982434325
21
131.5442658583
31
0.0000000000
11
135.8174549013
21
130.8199008843
31
0.0000000000
11
136.3802467614
21
130.0521792391
31
0.0000000000
11
136.8836843529
21
129.2454800978
31
0.0000000000
11
137.3252089905
21
128.4043542956
31
0.0000000000
11
137.7025608856
21
127.5334542477
31
0.0000000000
11
138.0138924659
21
126.6376027759
31
0.0000000000
11
138.2576064266
21
125.7216644697
31
0.0000000000
11
138.4325730943
21
124.7906203451
31
0.0000000000
11
138.5378624125
21
123.8494623189
31
0.0000000000
11
138.5730466371
21
122.9032466199
31
0.0000000000
11
138.5378679550
21
121.9570307623
31
0.0000000000
11
138.4325838908
21
121.0158721326
31
0.0000000000
11
138.2576229336
21
120.0848269782
31
0.0000000000
11
138.0139139069
21
119.1688873753
31
0.0000000000
11
137.7025880160
21
118.2730340156
31
0.0000000000
11
137.3252407322
21
117.4021320532
31
0.0000000000
11
136.8837215074
21
116.5610034017
31
0.0000000000
11
136.3802881259
21
115.7543016715
31
0.0000000000
11
135.8175013081
21
114.9865764744
31
0.0000000000
11
135.1982937929
21
114.2622084633
31
0.0000000000
11
134.5259631724
21
113.5854026086
31
0.0000000000
11
133.8040625555
21
112.9600988634
31
0.0000000000
11
133.0364457776
21
112.3899194706
31
0.0000000000
11
132.2273268520
21
111.8783603314
31
0.0000000000
11
131.3814611142
21
111.4286100287
31
0.0000000000
11
130.5036252788
21
111.0434453655
31
0.0000000000
11
129.5984853078
21
110.7250080756
31
0.0000000000
11
128.6712173032
21
110.4754033007
31
0.0000000000
11
127.7282790635
21
110.2963621937
31
0.0000000000
11
126.7765006868
21
110.1889552248
31
0.0000000000
11
125.8230466392
21
110.1532096289
31
0.0000000000
0
SPLINE
5
2F6
100
AcDbEntity
8
0
100
AcDbSpline
62
7
6
CONTINUOUS
70
0
71
3
72
20
73
16
74
14
42
0.0000001000
43
0.0000001000
44
0.0000000001
12
-0.1553077926
22
-2.0000000000
32
0.0000000000
13
-0.1553077926
23
-2.0000000000
33
0.0000000000
40
0.0000000000
40
0.0000000000
40
0.0000000000
40
0.0000000000
40
0.1206176619
40
0.2394692726
40
0.3548368866
40
0.4651987383
40
0.5685164479
40
0.6636891402
40
0.7489344269
40
0.8234098040
40
0.8857108293
40
0.9352095810
40
0.9710157236
40
0.9927330000
40
1.0000000000
40
1.0000000000
40
1.0000000000
40
1.0000000000
10
91.4196006712
20
110.1532096289
30
0.0000000000
10
91.4133563836
20
110.0727978543
30
0.0000000000
10
91.4009592356
20
109.9131516726
30
0.0000000000
10
91.3825895910
20
109.6765937482
30
0.0000000000
10
91.3647508823
20
109.4468730306
30
0.0000000000
10
91.3477163521
20
109.2275082471
30
0.0000000000
10
91.3317272982
20
109.0216067447
30
0.0000000000
10
91.3170385104
20
108.8324496189
30
0.0000000000
10
91.3038428689
20
108.6625207148
30
0.0000000000
10
91.2923489694
20
108.5145062554
30
0.0000000000
10
91.2827056417
20
108.3903228193
30
0.0000000000
10
91.2750641919
20
108.2919188729
30
0.0000000000
10
91.2695237329
20
108.2205707591
30
0.0000000000
10
91.2661695805
20
108.1773771464
30
0.0000000000
10
91.2646690859
20
108.1580542955
30
0.0000000000
10
91.2642928786
20
108.1532096289
30
0.0000000000
11
91.4196006712
21
110.1532096289
31
0.0000000000
11
91.4008678084
21
109.9119743051
31
0.0000000000
11
91.3824092271
21
109.6742710837
31
0.0000000000
11
91.3644917376
21
109.4435358557
31
0.0000000000
11
91.3473516821
21
109.2228121523
31
0.0000000000
11
91.3313056366
21
109.0161767332
31
0.0000000000
11
91.3165245759
21
108.8258313486
31
0.0000000000
11
91.3032853186
21
108.6553407750
31
0.0000000000
11
91.2917187122
21
108.5063900209
31
0.0000000000
11
91.2820428774
21
108.3817879702
31
0.0000000000
11
91.2743553356
21
108.2827904668
31
0.0000000000
11
91.2687943626
21
108.2111781816
31
0.0000000000
11
91.2654215004
21
108.1677436288
31
0.0000000000
11
91.2642928786
21
108.1532096289
31
0.0000000000
0
SPLINE
5
2F7
100
AcDbEntity
8
0
100
AcDbSpline
62
7
6
CONTINUOUS
70
0
71
3
72
42
73
38
74
36
42
0.0000001000
43
0.0000001000
44
0.0000000001
12
0.0025980660
22
19.7853427846
32
0.0000000000
13
0.0027929878
23
-19.7853427580
33
0.0000000000
40
0.0000000000
40
0.0000000000
40
0.0000000000
40
0.0000000000
40
0.0280124090
40
0.0562327747
40
0.0845905753
40
0.1130247446
40
0.1414799234
40
0.1699486731
40
0.1984582231
40
0.2270202139
40
0.2556223775
40
0.2842570002
40
0.3129270877
40
0.3416349369
40
0.3703765244
40
0.3991457054
40
0.4279375317
40
0.4567461562
40
0.4855656252
40
0.5143883959
40
0.5432078628
40
0.5720165199
40
0.6008084071
40
0.6295776460
40
0.6583192190
40
0.6870271079
40
0.7156972345
40
0.7443320989
40
0.7729345845
40
0.8014964992
40
0.8300046836
40
0.8584730033
40
0.8869330994
40
0.9153781578
40
0.9437488339
40
0.9719806198
40
1.0000000000
40
1.0000000000
40
1.0000000000
40
1.0000000000
10
125.5414813188
20
122.9032096289
30
0.0000000000
10
125.5415055781
20
123.0879546673
30
0.0000000000
10
125.5579252358
20
123.4590147569
30
0.0000000000
10
125.6314902352
20
124.0127297345
30
0.0000000000
10
125.7547178187
20
124.5604592140
30
0.0000000000
10
125.9266362330
20
125.0965265129
30
0.0000000000
10
126.1460959561
20
125.6157499577
30
0.0000000000
10
126.4111815163
20
126.1137890226
30
0.0000000000
10
126.7201399106
20
126.5867186536
30
0.0000000000
10
127.0707615110
20
127.0307650325
30
0.0000000000
10
127.4603221245
20
127.4422215655
30
0.0000000000
10
127.8858448375
20
127.8174450073
30
0.0000000000
10
128.3438692214
20
128.1534104347
30
0.0000000000
10
128.8309510884
20
128.4470339485
30
0.0000000000
10
129.3430414440
20
128.6959787117
30
0.0000000000
10
129.8760694032
20
128.8977863426
30
0.0000000000
10
130.4255386166
20
129.0508627282
30
0.0000000000
10
130.9869357912
20
129.1536506257
30
0.0000000000
10
131.5555235355
20
129.2053258868
30
0.0000000000
10
132.1265298521
20
129.2053770918
30
0.0000000000
10
132.6951237115
20
129.1537652938
30
0.0000000000
10
133.2565390206
20
129.0510747198
30
0.0000000000
10
133.8060283807
20
128.8980653090
30
0.0000000000
10
134.3390878204
20
128.6963403862
30
0.0000000000
10
134.8512149706
20
128.4474687279
30
0.0000000000
10
135.3383350942
20
128.1539089721
30
0.0000000000
10
135.7964179603
20
127.8180189231
30
0.0000000000
10
136.2219851322
20
127.4428403425
30
0.0000000000
10
136.6116217913
20
127.0314511489
30
0.0000000000
10
136.9622852715
20
126.5874473253
30
0.0000000000
10
137.2713242628
20
126.1145854169
30
0.0000000000
10
137.5364766449
20
125.6165580473
30
0.0000000000
10
137.7560562046
20
125.0972752861
30
0.0000000000
10
137.9280902108
20
124.5610452362
30
0.0000000000
10
138.0514176162
20
124.0130998017
30
0.0000000000
10
138.1250368169
20
123.4591824863
30
0.0000000000
10
138.1414552328
20
123.0880006426
30
0.0000000000
10
138.1414813188
20
122.9032096289
30
0.0000000000
11
125.5414813188
21
122.9032096289
31
0.0000000000
11
125.5659254876
21
123.4569054396
31
0.0000000000
11
125.6395328594
21
124.0103819482
31
0.0000000000
11
125.7626382923
21
124.5577787522
31
0.0000000000
11
125.9344720759
21
125.0934737886
31
0.0000000000
11
126.1536252445
21
125.6120639841
31
0.0000000000
11
126.4182952622
21
126.1092722778
31
0.0000000000
11
126.7267961414
21
126.5815047986
31
0.0000000000
11
127.0769887130
21
127.0250283060
31
0.0000000000
11
127.4660763734
21
127.4359512851
31
0.0000000000
11
127.8909888369
21
127.8106826239
31
0.0000000000
11
128.3484069731
21
128.1461500433
31
0.0000000000
11
128.8348280561
21
128.4394288241
31
0.0000000000
11
129.3462793209
21
128.6880133456
31
0.0000000000
11
129.8785977715
21
128.8895944494
31
0.0000000000
11
130.4273648635
21
129.0424434519
31
0.0000000000
11
130.9880297134
21
129.1451168885
31
0.0000000000
11
131.5558929925
21
129.1967196449
31
0.0000000000
11
132.1261613942
21
129.1967643659
31
0.0000000000
11
132.6940315026
21
129.1452372568
31
0.0000000000
11
133.2547128679
21
129.0426504639
31
0.0000000000
11
133.8035019772
21
128.8898760408
31
0.0000000000
11
134.3358513077
21
128.6883732609
31
0.0000000000
11
134.8473379734
21
128.4398622498
31
0.0000000000
11
135.3338005165
21
128.1466507233
31
0.0000000000
11
135.7912703733
21
127.8112525278
31
0.0000000000
11
136.2162358716
21
127.4365741011
31
0.0000000000
11
136.6053917614
21
127.0257069620
31
0.0000000000
11
136.9556410563
21
126.5822301672
31
0.0000000000
11
137.2642026162
21
126.1100695717
31
0.0000000000
11
137.5289354665
21
125.6129043657
31
0.0000000000
11
137.7482007378
21
125.0942559310
31
0.0000000000
11
137.9201615068
21
124.5583753737
31
0.0000000000
11
138.0433696121
21
124.0107405525
31
0.0000000000
11
138.1170303682
21
123.4570432011
31
0.0000000000
11
138.1414813188
21
122.9032096289
31
0.0000000000
0
SPLINE
5
2F8
100
AcDbEntity
8
0
100
AcDbSpline
62
7
6
CONTINUOUS
70
0
71
3
72
42
73
38
74
36
42
0.0000001000
43
0.0000001000
44
0.0000000001
12
-0.0025592947
22
-19.7853428058
32
0.0000000000
13
-0.0028463720
23
19.7853427665
33
0.0000000000
40
0.0000000000
40
0.0000000000
40
0.0000000000
40
0.0000000000
40
0.0280136895
40
0.0562358764
40
0.0845955475
40
0.1130311471
40
0.1414868870
40
0.1699554969
40
0.1984648460
40
0.2270268537
40
0.2556290740
40
0.2842636826
40
0.3129337244
40
0.3416415556
40
0.3703831334
40
0.3991522983
40
0.4279441001
40
0.4567527003
40
0.4855721456
40
0.5143948897
40
0.5432143271
40
0.5720229564
40
0.6008148167
40
0.6295840184
40
0.6583255458
40
0.6870333986
40
0.7157035212
40
0.7443383534
40
0.7729407316
40
0.8015025678
40
0.8300108689
40
0.8584792745
40
0.8869388680
40
0.9153826791
40
0.9437517098
40
0.9719818537
40
1.0000000000
40
1.0000000000
40
1.0000000000
40
1.0000000000
10
138.1414813188
20
122.9032096289
30
0.0000000000
10
138.1414574203
20
122.7184561458
30
0.0000000000
10
138.1250407785
20
122.3473752295
30
0.0000000000
10
138.0514610119
20
121.7936289360
30
0.0000000000
10
137.9282222594
20
121.2458673196
30
0.0000000000
10
137.7562840627
20
120.7097794493
30
0.0000000000
10
137.5368115590
20
120.1905481671
30
0.0000000000
10
137.2717130780
20
119.6925142082
30
0.0000000000
10
136.9627456457
20
119.2195931668
30
0.0000000000
10
136.6121159862
20
118.7755541486
30
0.0000000000
10
136.2225455202
20
118.3641064489
30
0.0000000000
10
135.7970160432
20
117.9888906818
30
0.0000000000
10
135.3389839666
20
117.6529366066
30
0.0000000000
10
134.8518972216
20
117.3593221683
30
0.0000000000
10
134.3398014058
20
117.1103892334
30
0.0000000000
10
133.8067699004
20
116.9085919954
30
0.0000000000
10
133.2572977879
20
116.7555275212
30
0.0000000000
10
132.6958990259
20
116.6527510528
30
0.0000000000
10
132.1273107010
20
116.6010875468
30
0.0000000000
10
131.5563049083
20
116.6010479669
30
0.0000000000
10
130.9877126744
20
116.6526713891
30
0.0000000000
10
130.4262999128
20
116.7553729086
30
0.0000000000
10
129.8768144099
20
116.9083938076
30
0.0000000000
10
129.3437593367
20
117.1101282906
30
0.0000000000
10
128.8316384167
20
117.3590109234
30
0.0000000000
10
128.3445238458
20
117.6525788119
30
0.0000000000
10
127.8864488979
20
117.9884788731
30
0.0000000000
10
127.4608890650
20
118.3636642898
30
0.0000000000
10
127.0712618719
20
118.7750605268
30
0.0000000000
10
126.7206071817
20
119.2190706164
30
0.0000000000
10
126.4115762007
20
119.6919388712
30
0.0000000000
10
126.1464368318
20
120.1899708127
30
0.0000000000
10
125.9268678614
20
120.7092461391
30
0.0000000000
10
125.7548522161
20
121.2454584261
30
0.0000000000
10
125.6315341349
20
121.7933752785
30
0.0000000000
10
125.5579291438
20
122.3472642490
30
0.0000000000
10
125.5415079021
20
122.7184267530
30
0.0000000000
10
125.5414813188
20
122.9032096289
30
0.0000000000
11
138.1414813188
21
122.9032096289
31
0.0000000000
11
138.1170376819
21
122.3494884361
31
0.0000000000
11
138.0434190444
21
121.7959770743
31
0.0000000000
11
137.9202991895
21
121.2485455779
31
0.0000000000
11
137.7484466170
21
120.7128268490
31
0.0000000000
11
137.5292795270
21
120.1942304863
31
0.0000000000
11
137.2645995161
21
119.6970306440
31
0.0000000000
11
136.9560905547
21
119.2248081491
31
0.0000000000
11
136.6058887874
21
118.7812914784
31
0.0000000000
11
136.2167914031
21
118.3703761619
31
0.0000000000
11
135.7918716706
21
117.9956534866
31
0.0000000000
11
135.3344468453
21
117.6601967143
31
0.0000000000
11
134.8480202354
21
117.3669277883
31
0.0000000000
11
134.3365638050
21
117.1183543363
31
0.0000000000
11
133.8042415738
21
116.9167841149
31
0.0000000000
11
133.2554717531
21
116.7639467116
31
0.0000000000
11
132.6948052745
21
116.6612848428
31
0.0000000000
11
132.1269414021
21
116.6096937653
31
0.0000000000
11
131.5566735269
21
116.6096606941
31
0.0000000000
11
130.9888050475
21
116.6611993135
31
0.0000000000
11
130.4281262824
21
116.7637972594
31
0.0000000000
11
129.8793408161
21
116.9165827865
31
0.0000000000
11
129.3469961026
21
117.1180956814
31
0.0000000000
11
128.8355153899
21
117.3666168848
31
0.0000000000
11
128.3490590116
21
117.6598372559
31
0.0000000000
11
127.8915961897
21
117.9952449147
31
0.0000000000
11
127.4666382666
21
118.3699309697
31
0.0000000000
11
127.0774920168
21
118.7808043128
31
0.0000000000
11
126.7272521537
21
119.2242865761
31
0.0000000000
11
126.4186983799
21
119.6964550213
31
0.0000000000
11
126.1539753248
21
120.1936273687
31
0.0000000000
11
125.9347222475
21
120.7122701619
31
0.0000000000
11
125.7627783679
21
121.2481302208
31
0.0000000000
11
125.6395829380
21
121.7957345259
31
0.0000000000
11
125.5659327953
21
122.3494005169
31
0.0000000000
11
125.5414813188
21
122.9032096289
31
0.0000000000
0
ENDSEC
0
SECTION
2
OBJECTS
0
DICTIONARY
5
C
100
AcDbDictionary
280
0
281
1
3
ACAD_GROUP
350
D
3
ACAD_MLINESTYLE
350
17
3
ACAD_LAYOUT
350
1A
3
ACAD_PLOTSETTINGS
350
19
3
ACAD_PLOTSTYLENAME
350
E
0
DICTIONARY
5
D
102
{ACAD_REACTORS
330
C
102
}
100
AcDbDictionary
280
0
281
1
0
ACDBDICTIONARYWDFLT
5
E
102
{ACAD_REACTORS
330
C
102
}
100
AcDbDictionary
281
1
3
Normal
350
F
100
AcDbDictionaryWithDefault
340
F
0
DICTIONARY
5
17
102
{ACAD_REACTORS
330
C
102
}
100
AcDbDictionary
280
0
281
1
3
Standard
350
18
0
DICTIONARY
5
19
102
{ACAD_REACTORS
330
C
102
}
100
AcDbDictionary
281
1
0
DICTIONARY
5
1A
102
{ACAD_REACTORS
330
C
102
}
100
AcDbDictionary
281
1
3
Layout1
350
1E
3
Model
350
22
0
ACDBPLACEHOLDER
5
F
102
{ACAD_REACTORS
330
E
102
}
0
MLINESTYLE
5
18
102
{ACAD_REACTORS
330
17
102
}
100
AcDbMlineStyle
2
STANDARD
70
0
3

62
256
51
90.0
52
90.0
71
2
49
0.5
62
256
6
BYLAYER
49
-0.5
62
256
6
BYLAYER
0
LAYOUT
5
1E
102
{ACAD_REACTORS
330
1A
102
}
100
AcDbPlotSettings
1

2

4

6

40
0.0
41
0.0
42
0.0
43
0.0
44
0.0
45
0.0
46
0.0
47
0.0
48
0.0
49
0.0
140
0.0
141
0.0
142
1.0
143
1.0
70
0
72
0
73
0
74
0
7

75
0
147
1.0
148
0.0
149
0.0
100
AcDbLayout
1
Layout1
70
0
71
0
10
0.0
20
0.0
11
0.0
21
0.0
12
0.0
22
0.0
32
0.0
14
0.0
24
0.0
34
0.0
15
0.0
25
0.0
35
0.0
146
0.0
13
0.0
23
0.0
33
0.0
16
0.0
26
0.0
36
0.0
17
0.0
27
0.0
37
0.0
76
0
330
1B
331
0
345
0
346
0
0
LAYOUT
5
22
102
{ACAD_REACTORS
330
1A
102
}
100
AcDbPlotSettings
1

2

4

6

40
0.0
41
0.0
42
0.0
43
0.0
44
0.0
45
0.0
46
0.0
47
0.0
48
0.0
49
0.0
140
0.0
141
0.0
142
1.0
143
1.0
70
0
72
0
73
0
74
0
7

75
0
147
1.0
148
0.0
149
0.0
100
AcDbLayout
1
Model
70
0
71
0
10
0.0
20
0.0
11
0.0
21
0.0
12
0.0
22
0.0
32
0.0
14
0.0
24
0.0
34
0.0
15
0.0
25
0.0
35
0.0
146
0.0
13
0.0
23
0.0
33
0.0
16
0.0
26
0.0
36
0.0
17
0.0
27
0.0
37
0.0
76
0
330
1F
331
0
345
0
346
0
0
ENDSEC
0
EOF
