0
SECTION
2
HEADER
9
$EXTMAX
10
210.0000000000
20
297.0000000000
30
0.0000000000
9
$EXTMIN
10
0.0000000000
20
0.0000000000
30
0.0000000000
9
$LIMMIN
10
0.0000000000
20
0.0000000000
9
$LIMMAX
10
210.0000000000
20
297.0000000000
9
$VIEWCTR
10
105.0000000000
20
148.5000000000
9
$VIEWSIZE
40
297.0000000000
9
$CLAYER
8
0
9
$LTSCALE
40
19.3600000000
9
$CELTYPE
6
BYLAYER
9
$DIMSCALE
40
1
9
$DIMASZ
40
3.5000000000
9
$DIMEXO
40
2.2000000000
9
$DIMDLI
40
13.3760000000
9
$DIMEXE
40
6.3360000000
9
$DIMCEN
40
3.1680000000
9
$DIMLFAC
40
1.0000000000
9
$DIMBLK
1
_FILLED
9
$DIMTXT
40
3.5000000000
9
$PDMODE
70
3
9
$PDSIZE
40
0.3125000000
0
ENDSEC
0
SECTION
2
TABLES
0
TABLE
2
LTYPE
70
6
0
LTYPE
2
BYBLOCK
70
0
3

72
65
73
0
40
0.0
0
LTYPE
2
BYLAYER
70
0
3

72
65
73
0
40
0.0
0
LTYPE
2
CONTINUOUS
70
64
3
Solid line
72
65
73
0
40
0
0
LTYPE
2
CENTER
70
64
3
____ _ ____ _ ____ _ ____ _ ____ _ ____ _ ____
72
65
73
4
40
0.6
49
0.375
49
-0.075
49
0.075
49
-0.075
0
LTYPE
2
HIDDEN
70
64
3
- - - - - - - - - - - - - - - - - - - -
72
65
73
2
40
0.2
49
0.1
49
-0.1
0
LTYPE
2
PHANTOM
70
64
3
_____ _ _ _____ _ _ _____ _ _ _____
72
65
73
6
40
0.8
49
0.45
49
-0.05
49
0.1
49
-0.05
49
0.1
49
-0.05
0
LTYPE
2
DOT
70
64
3
. . . . . . . . . . . . . . . . . . . .
72
65
73
2
40
0.2
49
0.1
49
-0.1
0
LTYPE
2
DASHED
70
64
3
- - - - - - - - - - - - - - - - - - - -
72
65
73
2
40
0.2
49
0.1
49
-0.1
0
ENDTAB
0
TABLE
2
LAYER
70
36
0
LAYER
2
0
70
0
62
7
6
CONTINUOUS
0
LAYER
2
DEFAULT_1
70
0
62
7
6
CENTER
0
LAYER
2
DEFAULT_2
70
0
62
8
6
HIDDEN
0
LAYER
2
DEFAULT_3
70
0
62
7
6
PHANTOM
0
LAYER
2
ASSI
70
0
62
7
6
CONTINUOUS
0
LAYER
2
PIANI
70
0
62
7
6
CONTINUOUS
0
ENDTAB
0
TABLE
2
STYLE
70
1
0
STYLE
2
STANDARD
70
0
40
0.0
41
0.7143000000
50
0.0
71
0
42
0.2
3
txt
4

0
ENDTAB
0
ENDSEC
0
SECTION
2
BLOCKS
0
BLOCK
8
0
62
2
6
CONTINUOUS
2
*D0
70
65
10
0.0000000000
20
0.0000000000
0
TEXT
8
0
62
2
6
CONTINUOUS
10
64.3266051906
20
58.2736655572
7
STANDARD
40
3.5000000000
1
57.14
41
0.7143000000
72
0
0
LINE
8
0
62
2
6
CONTINUOUS
10
40.2414343029
20
85.0659023111
11
40.2414343029
21
55.8986655572
0
LINE
8
0
62
2
6
CONTINUOUS
10
97.3814343029
20
85.0659023111
11
97.3814343029
21
55.8986655572
0
LINE
8
0
62
2
6
CONTINUOUS
10
40.2414343029
20
57.3986655572
11
68.8114343029
21
57.3986655572
0
LINE
8
0
62
2
6
CONTINUOUS
10
97.3814343029
20
57.3986655572
11
68.8114343029
21
57.3986655572
0
INSERT
8
0
62
2
6
CONTINUOUS
2
_FILLED
10
40.2414343029
20
57.3986655572
41
  3.500000
42
  3.500000
43
  3.500000
50
180.000000
0
INSERT
8
0
62
2
6
CONTINUOUS
2
_FILLED
10
97.3814343029
20
57.3986655572
41
  3.500000
42
  3.500000
43
  3.500000
0
ENDBLK
8
0
6
BYBLOCK
62
0
0
BLOCK
8
0
62
2
6
CONTINUOUS
2
*D1
70
65
10
0.0000000000
20
0.0000000000
0
TEXT
8
0
62
2
6
CONTINUOUS
10
113.1558024072
20
87.5686561184
7
STANDARD
40
3.5000000000
1
35
50
90.0000000000
41
0.7143000000
72
0
0
LINE
8
0
62
2
6
CONTINUOUS
10
95.3114343029
20
73.3104618249
11
115.5308024072
21
73.3104618249
0
LINE
8
0
62
2
6
CONTINUOUS
10
71.8822731462
20
108.2391871219
11
115.5308024072
21
108.2391871219
0
LINE
8
0
62
2
6
CONTINUOUS
10
114.0308024072
20
73.3104618249
11
114.0308024072
21
90.7748244734
0
LINE
8
0
62
2
6
CONTINUOUS
10
114.0308024072
20
108.2391871219
11
114.0308024072
21
90.7748244734
0
INSERT
8
0
62
2
6
CONTINUOUS
2
_FILLED
10
114.0308024072
20
73.3104618249
41
  3.500000
42
  3.500000
43
  3.500000
50
270.000000
0
INSERT
8
0
62
2
6
CONTINUOUS
2
_FILLED
10
114.0308024072
20
108.2391871219
41
  3.500000
42
  3.500000
43
  3.500000
50
 90.000000
0
ENDBLK
8
0
6
BYBLOCK
62
0
0
BLOCK
8
0
62
2
6
CONTINUOUS
2
*D2
70
65
10
0.0000000000
20
0.0000000000
0
TEXT
8
0
62
2
6
CONTINUOUS
10
33.6619007021
20
181.6302911735
7
STANDARD
40
3.5000000000
1
24.6
50
90.0000000000
41
0.7143000000
72
0
0
LINE
8
0
62
2
6
CONTINUOUS
10
41.3468014924
20
199.1069207623
11
33.0369007021
21
199.1069207623
0
LINE
8
0
62
2
6
CONTINUOUS
10
41.3468014924
20
174.5069207623
11
33.0369007021
21
174.5069207623
0
LINE
8
0
62
2
6
CONTINUOUS
10
34.5369007021
20
199.1069207623
11
34.5369007021
21
186.8069207623
0
LINE
8
0
62
2
6
CONTINUOUS
10
34.5369007021
20
174.5069207623
11
34.5369007021
21
186.8069207623
0
INSERT
8
0
62
2
6
CONTINUOUS
2
_FILLED
10
34.5369007021
20
199.1069207623
41
  3.500000
42
  3.500000
43
  3.500000
50
 90.000000
0
INSERT
8
0
62
2
6
CONTINUOUS
2
_FILLED
10
34.5369007021
20
174.5069207623
41
  3.500000
42
  3.500000
43
  3.500000
50
270.000000
0
ENDBLK
8
0
6
BYBLOCK
62
0
0
BLOCK
8
0
62
2
6
CONTINUOUS
2
*D3
70
65
10
0.0000000000
20
0.0000000000
0
TEXT
8
0
62
2
6
CONTINUOUS
10
154.1703828040
20
213.5507210075
7
STANDARD
40
3.5000000000
1
35
41
0.7143000000
72
0
0
LINE
8
0
62
2
6
CONTINUOUS
10
174.6221421093
20
197.9157442917
11
174.6221421093
21
214.1757210075
0
LINE
8
0
62
2
6
CONTINUOUS
10
139.6934168123
20
190.5007879545
11
139.6934168123
21
214.1757210075
0
LINE
8
0
62
2
6
CONTINUOUS
10
174.6221421093
20
212.6757210075
11
157.1577794608
21
212.6757210075
0
LINE
8
0
62
2
6
CONTINUOUS
10
139.6934168123
20
212.6757210075
11
157.1577794608
21
212.6757210075
0
INSERT
8
0
62
2
6
CONTINUOUS
2
_FILLED
10
174.6221421093
20
212.6757210075
41
  3.500000
42
  3.500000
43
  3.500000
0
INSERT
8
0
62
2
6
CONTINUOUS
2
_FILLED
10
139.6934168123
20
212.6757210075
41
  3.500000
42
  3.500000
43
  3.500000
50
180.000000
0
ENDBLK
8
0
6
BYBLOCK
62
0
0
BLOCK
8
0
62
2
6
CONTINUOUS
2
*D4
70
65
10
0.0000000000
20
0.0000000000
0
TEXT
8
0
62
2
6
CONTINUOUS
10
183.6569323590
20
185.4392093698
7
STANDARD
40
3.5000000000
1
8
50
90.0000000000
41
0.7143000000
72
0
0
LINE
8
0
62
2
6
CONTINUOUS
10
171.8721421093
20
190.8069207623
11
186.0319323590
21
190.8069207623
0
LINE
8
0
62
2
6
CONTINUOUS
10
171.8721421093
20
182.8069207623
11
186.0319323590
21
182.8069207623
0
LINE
8
0
62
2
6
CONTINUOUS
10
184.5319323590
20
190.8069207623
11
184.5319323590
21
186.8069207623
0
LINE
8
0
62
2
6
CONTINUOUS
10
184.5319323590
20
182.8069207623
11
184.5319323590
21
186.8069207623
0
INSERT
8
0
62
2
6
CONTINUOUS
2
_FILLED
10
184.5319323590
20
190.8069207623
41
  3.500000
42
  3.500000
43
  3.500000
50
 90.000000
0
INSERT
8
0
62
2
6
CONTINUOUS
2
_FILLED
10
184.5319323590
20
182.8069207623
41
  3.500000
42
  3.500000
43
  3.500000
50
270.000000
0
ENDBLK
8
0
6
BYBLOCK
62
0
0
BLOCK
8
0
2
_FILLED
70
64
10
0.0000000000
20
0.0000000000
0
SOLID
8
0
6
BYBLOCK
62
0
10
0.0000000000
20
0.0000000000
11
-1.0000000000
21
0.1857142857
12
-1.0000000000
22
-0.1857142857
13
-1.0000000000
23
-0.1857142857
0
ENDBLK
8
0
6
BYBLOCK
62
0
0
ENDSEC
0
SECTION
2
ENTITIES
0
DIMENSION
8
0
62
2
6
CONTINUOUS
2
*D0
10
97.3814343029
20
57.3986655572
11
70.5767301906
21
60.0236655572
70
128
13
40.2414343029
23
85.0659023111
14
97.3814343029
24
85.0659023111
0
DIMENSION
8
0
62
2
6
CONTINUOUS
2
*D1
10
114.0308024072
20
108.2391871219
11
111.4058024072
21
90.0687061184
70
128
13
95.3114343029
23
73.3104618249
14
71.8822731462
24
108.2391871219
50
90.000000
0
DIMENSION
8
0
62
2
6
CONTINUOUS
2
*D2
10
34.5369007021
20
174.5069207623
11
31.9119007021
21
186.6303911735
70
128
13
41.3468014924
23
199.1069207623
14
41.3468014924
24
174.5069207623
50
270.000000
0
DIMENSION
8
0
62
2
6
CONTINUOUS
2
*D3
10
139.6934168123
20
212.6757210075
11
156.6704328040
21
215.3007210075
70
128
13
174.6221421093
23
197.9157442917
14
139.6934168123
24
190.5007879545
50
180.000000
0
DIMENSION
8
0
62
2
6
CONTINUOUS
2
*D4
10
184.5319323590
20
182.8069207623
11
181.9069323590
21
186.6892343698
70
128
13
171.8721421093
23
190.8069207623
14
171.8721421093
24
182.8069207623
50
270.000000
0
TEXT
8
0
62
2
6
CONTINUOUS
10
145.0761468078
20
164.0224309664
7
STANDARD
40
3.5000000000
1
SEZIONE 
41
0.7143000000
72
0
0
TEXT
8
0
62
2
6
CONTINUOUS
10
165.0765468078
20
164.0224309664
7
STANDARD
40
3.5000000000
1
A-A
41
0.7143000000
72
0
0
LINE
8
0
62
7
6
CONTINUOUS
10
0.0000000000
20
0.0000000000
11
210.0000000000
21
0.0000000000
0
LINE
8
0
62
7
6
CONTINUOUS
10
0.0000000000
20
0.0000000000
11
0.0000000000
21
297.0000000000
0
LINE
8
0
62
7
6
CONTINUOUS
10
210.0000000000
20
0.0000000000
11
210.0000000000
21
297.0000000000
0
LINE
8
0
62
7
6
CONTINUOUS
10
0.0000000000
20
297.0000000000
11
210.0000000000
21
297.0000000000
0
LINE
8
0
62
7
6
CONTINUOUS
10
42.8114343029
20
73.3104618249
11
40.2414343029
21
85.5659023111
0
LINE
8
0
62
7
6
CONTINUOUS
10
40.2414343029
20
85.5659023111
11
40.2414343029
21
98.4715764141
0
LINE
8
0
62
7
6
CONTINUOUS
10
94.8114343029
20
73.3104618249
11
42.8114343029
21
73.3104618249
0
LINE
8
0
62
7
6
CONTINUOUS
10
56.0614343029
20
95.3104618249
11
56.0614343029
21
86.8104618249
0
LINE
8
0
62
7
6
CONTINUOUS
10
95.7760671134
20
77.9104618249
11
41.8468014924
21
77.9104618249
0
LINE
8
0
62
7
6
CONTINUOUS
10
56.0614343029
20
86.8104618249
11
81.5614343029
21
86.8104618249
0
LINE
8
0
62
7
6
CONTINUOUS
10
81.5614343029
20
95.3104618249
11
56.0614343029
21
95.3104618249
0
LINE
8
0
62
7
6
CONTINUOUS
10
97.3814343029
20
96.4104618249
11
40.2414343029
21
96.4104618249
0
LINE
8
0
62
7
6
CONTINUOUS
10
81.5614343029
20
86.8104618249
11
81.5614343029
21
95.3104618249
0
LINE
8
0
62
7
6
CONTINUOUS
10
83.8364135042
20
105.8104618249
11
53.7864551016
21
105.8104618249
0
POLYLINE
8
0
62
7
6
CONTINUOUS
66
1
70
0
0
VERTEX
8
0
62
7
6
CONTINUOUS
10
71.3822731462
20
108.2391871219
0
VERTEX
8
0
62
7
6
CONTINUOUS
10
71.0976210225
20
108.1622613175
0
VERTEX
8
0
62
7
6
CONTINUOUS
10
70.7998061470
20
108.0951753948
0
VERTEX
8
0
62
7
6
CONTINUOUS
10
70.4876196797
20
108.0378046466
0
VERTEX
8
0
62
7
6
CONTINUOUS
10
70.1646881409
20
107.9905231946
0
VERTEX
8
0
62
7
6
CONTINUOUS
10
69.8335838594
20
107.9536572402
0
VERTEX
8
0
62
7
6
CONTINUOUS
10
69.4962605690
20
107.9272258385
0
VERTEX
8
0
62
7
6
CONTINUOUS
10
69.1548526197
20
107.9113580727
0
VERTEX
8
0
62
7
6
CONTINUOUS
10
68.8113904923
20
107.9060500603
0
VERTEX
8
0
62
7
6
CONTINUOUS
10
68.4679307937
20
107.9113606977
0
VERTEX
8
0
62
7
6
CONTINUOUS
10
68.1265294949
20
107.9272307306
0
VERTEX
8
0
62
7
6
CONTINUOUS
10
67.7892170714
20
107.9536636171
0
VERTEX
8
0
62
7
6
CONTINUOUS
10
67.4581266162
20
107.9905301171
0
VERTEX
8
0
62
7
6
CONTINUOUS
10
67.1352116802
20
108.0378106537
0
VERTEX
8
0
62
7
6
CONTINUOUS
10
66.8230413658
20
108.0951796953
0
VERTEX
8
0
62
7
6
CONTINUOUS
10
66.5252384947
20
108.1622636775
0
VERTEX
8
0
62
7
6
CONTINUOUS
10
66.2405954596
20
108.2391871219
0
SEQEND
0
LINE
8
0
62
7
6
CONTINUOUS
10
97.3814343029
20
85.5659023111
11
97.3814343029
21
98.4715764141
0
LINE
8
0
62
7
6
CONTINUOUS
10
94.8114343029
20
73.3104618249
11
97.3814343029
21
85.5659023111
0
LINE
8
0
62
7
6
CONTINUOUS
10
40.2414343029
20
174.5069207623
11
40.2414343029
21
199.1069207623
0
LINE
8
0
62
7
6
CONTINUOUS
10
42.8114343029
20
184.4750759990
11
42.8114343029
21
176.1980972329
0
LINE
8
0
62
7
6
CONTINUOUS
10
42.8114343029
20
189.1387655256
11
42.8114343029
21
197.4157442917
0
POLYLINE
8
0
62
7
6
CONTINUOUS
66
1
70
0
0
VERTEX
8
0
62
7
6
CONTINUOUS
10
42.8114343029
20
184.4750759990
0
VERTEX
8
0
62
7
6
CONTINUOUS
10
42.7564325218
20
184.1473117508
0
VERTEX
8
0
62
7
6
CONTINUOUS
10
42.6950707437
20
183.8511767402
0
VERTEX
8
0
62
7
6
CONTINUOUS
10
42.6269733053
20
183.5851503834
0
VERTEX
8
0
62
7
6
CONTINUOUS
10
42.5532671964
20
183.3537944319
0
VERTEX
8
0
62
7
6
CONTINUOUS
10
42.4746285484
20
183.1605599165
0
VERTEX
8
0
62
7
6
CONTINUOUS
10
42.3920342740
20
183.0072584163
0
VERTEX
8
0
62
7
6
CONTINUOUS
10
42.3063339554
20
182.8966330359
0
VERTEX
8
0
62
7
6
CONTINUOUS
10
42.2185857158
20
182.8293402296
0
VERTEX
8
0
62
7
6
CONTINUOUS
10
42.1299008912
20
182.8071472750
0
SEQEND
0
POLYLINE
8
0
62
7
6
CONTINUOUS
66
1
70
0
0
VERTEX
8
0
62
7
6
CONTINUOUS
10
42.8114343029
20
189.1387655256
0
VERTEX
8
0
62
7
6
CONTINUOUS
10
42.7564325218
20
189.4665297738
0
VERTEX
8
0
62
7
6
CONTINUOUS
10
42.6950707437
20
189.7626647844
0
VERTEX
8
0
62
7
6
CONTINUOUS
10
42.6269733053
20
190.0286911412
0
VERTEX
8
0
62
7
6
CONTINUOUS
10
42.5532671964
20
190.2600470927
0
VERTEX
8
0
62
7
6
CONTINUOUS
10
42.4746285484
20
190.4532816081
0
VERTEX
8
0
62
7
6
CONTINUOUS
10
42.3920342740
20
190.6065831083
0
VERTEX
8
0
62
7
6
CONTINUOUS
10
42.3063339554
20
190.7172084887
0
VERTEX
8
0
62
7
6
CONTINUOUS
10
42.2185857158
20
190.7845012949
0
VERTEX
8
0
62
7
6
CONTINUOUS
10
42.1299008912
20
190.8066942495
0
SEQEND
0
LINE
8
0
62
7
6
CONTINUOUS
10
42.8114343029
20
176.1980972329
11
41.8468014924
21
174.5069207623
0
LINE
8
0
62
7
6
CONTINUOUS
10
42.8114343029
20
197.4157442917
11
41.8468014924
21
199.1069207623
0
LINE
8
0
62
7
6
CONTINUOUS
10
40.2414343029
20
174.5069207623
11
97.3814343029
21
174.5069207623
0
POLYLINE
8
0
62
7
6
CONTINUOUS
66
1
70
0
0
VERTEX
8
0
62
7
6
CONTINUOUS
10
95.4929677147
20
182.8071472750
0
VERTEX
8
0
62
7
6
CONTINUOUS
10
95.5818991811
20
182.8294648079
0
VERTEX
8
0
62
7
6
CONTINUOUS
10
95.6696442202
20
182.8968818262
0
VERTEX
8
0
62
7
6
CONTINUOUS
10
95.7553390000
20
183.0076298202
0
VERTEX
8
0
62
7
6
CONTINUOUS
10
95.8379251999
20
183.1610516129
0
VERTEX
8
0
62
7
6
CONTINUOUS
10
95.9165532167
20
183.3544022032
0
VERTEX
8
0
62
7
6
CONTINUOUS
10
95.9902459623
20
183.5858683261
0
VERTEX
8
0
62
7
6
CONTINUOUS
10
96.0583275704
20
183.8519975950
0
VERTEX
8
0
62
7
6
CONTINUOUS
10
96.1199596600
20
184.1500278282
0
VERTEX
8
0
62
7
6
CONTINUOUS
10
96.1746526874
20
184.4760751465
0
VERTEX
8
0
62
7
6
CONTINUOUS
10
96.2217416427
20
184.8267026149
0
VERTEX
8
0
62
7
6
CONTINUOUS
10
96.2609145431
20
185.1978072187
0
VERTEX
8
0
62
7
6
CONTINUOUS
10
96.2916874813
20
185.5855366087
0
VERTEX
8
0
62
7
6
CONTINUOUS
10
96.3139112215
20
185.9857018532
0
VERTEX
8
0
62
7
6
CONTINUOUS
10
96.3272364083
20
186.3921457734
0
VERTEX
8
0
62
7
6
CONTINUOUS
10
96.3317794934
20
186.8069207623
0
SEQEND
0
LINE
8
0
62
7
6
CONTINUOUS
10
42.8114343029
20
176.1980972329
11
94.8114343029
21
176.1980972329
0
POLYLINE
8
0
62
7
6
CONTINUOUS
66
1
70
0
0
VERTEX
8
0
62
7
6
CONTINUOUS
10
42.1299008912
20
182.8071472750
0
VERTEX
8
0
62
7
6
CONTINUOUS
10
42.0409694247
20
182.8294648079
0
VERTEX
8
0
62
7
6
CONTINUOUS
10
41.9532243856
20
182.8968818262
0
VERTEX
8
0
62
7
6
CONTINUOUS
10
41.8675296058
20
183.0076298202
0
VERTEX
8
0
62
7
6
CONTINUOUS
10
41.7849434059
20
183.1610516129
0
VERTEX
8
0
62
7
6
CONTINUOUS
10
41.7063153891
20
183.3544022032
0
VERTEX
8
0
62
7
6
CONTINUOUS
10
41.6326226435
20
183.5858683261
0
VERTEX
8
0
62
7
6
CONTINUOUS
10
41.5645410354
20
183.8519975950
0
VERTEX
8
0
62
7
6
CONTINUOUS
10
41.5029089458
20
184.1500278282
0
VERTEX
8
0
62
7
6
CONTINUOUS
10
41.4482159184
20
184.4760751465
0
VERTEX
8
0
62
7
6
CONTINUOUS
10
41.4011269632
20
184.8267026149
0
VERTEX
8
0
62
7
6
CONTINUOUS
10
41.3619540628
20
185.1978072187
0
VERTEX
8
0
62
7
6
CONTINUOUS
10
41.3311811246
20
185.5855366087
0
VERTEX
8
0
62
7
6
CONTINUOUS
10
41.3089573843
20
185.9857018532
0
VERTEX
8
0
62
7
6
CONTINUOUS
10
41.2956321976
20
186.3921457734
0
VERTEX
8
0
62
7
6
CONTINUOUS
10
41.2910891125
20
186.8069207623
0
SEQEND
0
LINE
8
0
62
7
6
CONTINUOUS
10
42.8114343029
20
184.4750759990
11
94.8114343029
21
184.4750759990
0
LINE
8
0
62
7
6
CONTINUOUS
10
40.2414343029
20
186.8069207623
11
97.3814343029
21
186.8069207623
0
LINE
8
0
62
7
6
CONTINUOUS
10
94.8114343029
20
189.1387655256
11
42.8114343029
21
189.1387655256
0
POLYLINE
8
0
62
7
6
CONTINUOUS
66
1
70
0
0
VERTEX
8
0
62
7
6
CONTINUOUS
10
42.1299008912
20
190.8066942495
0
VERTEX
8
0
62
7
6
CONTINUOUS
10
42.0409694247
20
190.7843767167
0
VERTEX
8
0
62
7
6
CONTINUOUS
10
41.9532243856
20
190.7169596984
0
VERTEX
8
0
62
7
6
CONTINUOUS
10
41.8675296058
20
190.6062117044
0
VERTEX
8
0
62
7
6
CONTINUOUS
10
41.7849434059
20
190.4527899116
0
VERTEX
8
0
62
7
6
CONTINUOUS
10
41.7063153891
20
190.2594393214
0
VERTEX
8
0
62
7
6
CONTINUOUS
10
41.6326226435
20
190.0279731985
0
VERTEX
8
0
62
7
6
CONTINUOUS
10
41.5645410354
20
189.7618439296
0
VERTEX
8
0
62
7
6
CONTINUOUS
10
41.5029089458
20
189.4638136963
0
VERTEX
8
0
62
7
6
CONTINUOUS
10
41.4482159184
20
189.1377663781
0
VERTEX
8
0
62
7
6
CONTINUOUS
10
41.4011269632
20
188.7871389096
0
VERTEX
8
0
62
7
6
CONTINUOUS
10
41.3619540628
20
188.4160343058
0
VERTEX
8
0
62
7
6
CONTINUOUS
10
41.3311811246
20
188.0283049159
0
VERTEX
8
0
62
7
6
CONTINUOUS
10
41.3089573843
20
187.6281396714
0
VERTEX
8
0
62
7
6
CONTINUOUS
10
41.2956321976
20
187.2216957511
0
VERTEX
8
0
62
7
6
CONTINUOUS
10
41.2910891125
20
186.8069207623
0
SEQEND
0
LINE
8
0
62
7
6
CONTINUOUS
10
94.8114343029
20
197.4157442917
11
42.8114343029
21
197.4157442917
0
POLYLINE
8
0
62
7
6
CONTINUOUS
66
1
70
0
0
VERTEX
8
0
62
7
6
CONTINUOUS
10
95.4929677147
20
190.8066942495
0
VERTEX
8
0
62
7
6
CONTINUOUS
10
95.5818991811
20
190.7843767167
0
VERTEX
8
0
62
7
6
CONTINUOUS
10
95.6696442202
20
190.7169596984
0
VERTEX
8
0
62
7
6
CONTINUOUS
10
95.7553390000
20
190.6062117044
0
VERTEX
8
0
62
7
6
CONTINUOUS
10
95.8379251999
20
190.4527899116
0
VERTEX
8
0
62
7
6
CONTINUOUS
10
95.9165532167
20
190.2594393214
0
VERTEX
8
0
62
7
6
CONTINUOUS
10
95.9902459623
20
190.0279731985
0
VERTEX
8
0
62
7
6
CONTINUOUS
10
96.0583275704
20
189.7618439296
0
VERTEX
8
0
62
7
6
CONTINUOUS
10
96.1199596600
20
189.4638136963
0
VERTEX
8
0
62
7
6
CONTINUOUS
10
96.1746526874
20
189.1377663781
0
VERTEX
8
0
62
7
6
CONTINUOUS
10
96.2217416427
20
188.7871389096
0
VERTEX
8
0
62
7
6
CONTINUOUS
10
96.2609145431
20
188.4160343058
0
VERTEX
8
0
62
7
6
CONTINUOUS
10
96.2916874813
20
188.0283049159
0
VERTEX
8
0
62
7
6
CONTINUOUS
10
96.3139112215
20
187.6281396714
0
VERTEX
8
0
62
7
6
CONTINUOUS
10
96.3272364083
20
187.2216957511
0
VERTEX
8
0
62
7
6
CONTINUOUS
10
96.3317794934
20
186.8069207623
0
SEQEND
0
LINE
8
0
62
7
6
CONTINUOUS
10
40.2414343029
20
199.1069207623
11
97.3814343029
21
199.1069207623
0
LINE
8
0
62
7
6
CONTINUOUS
10
94.8114343029
20
197.4157442917
11
95.7760671134
21
199.1069207623
0
LINE
8
0
62
7
6
CONTINUOUS
10
94.8114343029
20
176.1980972329
11
95.7760671134
21
174.5069207623
0
LINE
8
0
62
7
6
CONTINUOUS
10
94.8114343029
20
184.4750759990
11
94.8114343029
21
176.1980972329
0
LINE
8
0
62
7
6
CONTINUOUS
10
94.8114343029
20
189.1387655256
11
94.8114343029
21
197.4157442917
0
POLYLINE
8
0
62
7
6
CONTINUOUS
66
1
70
0
0
VERTEX
8
0
62
7
6
CONTINUOUS
10
94.8114343029
20
189.1387655256
0
VERTEX
8
0
62
7
6
CONTINUOUS
10
94.8664360840
20
189.4665297738
0
VERTEX
8
0
62
7
6
CONTINUOUS
10
94.9277978621
20
189.7626647844
0
VERTEX
8
0
62
7
6
CONTINUOUS
10
94.9958953006
20
190.0286911412
0
VERTEX
8
0
62
7
6
CONTINUOUS
10
95.0696014094
20
190.2600470927
0
VERTEX
8
0
62
7
6
CONTINUOUS
10
95.1482400574
20
190.4532816081
0
VERTEX
8
0
62
7
6
CONTINUOUS
10
95.2308343318
20
190.6065831083
0
VERTEX
8
0
62
7
6
CONTINUOUS
10
95.3165346504
20
190.7172084887
0
VERTEX
8
0
62
7
6
CONTINUOUS
10
95.4042828900
20
190.7845012949
0
VERTEX
8
0
62
7
6
CONTINUOUS
10
95.4929677147
20
190.8066942495
0
SEQEND
0
POLYLINE
8
0
62
7
6
CONTINUOUS
66
1
70
0
0
VERTEX
8
0
62
7
6
CONTINUOUS
10
94.8114343029
20
184.4750759990
0
VERTEX
8
0
62
7
6
CONTINUOUS
10
94.8664360840
20
184.1473117508
0
VERTEX
8
0
62
7
6
CONTINUOUS
10
94.9277978621
20
183.8511767402
0
VERTEX
8
0
62
7
6
CONTINUOUS
10
94.9958953006
20
183.5851503834
0
VERTEX
8
0
62
7
6
CONTINUOUS
10
95.0696014094
20
183.3537944319
0
VERTEX
8
0
62
7
6
CONTINUOUS
10
95.1482400574
20
183.1605599165
0
VERTEX
8
0
62
7
6
CONTINUOUS
10
95.2308343318
20
183.0072584163
0
VERTEX
8
0
62
7
6
CONTINUOUS
10
95.3165346504
20
182.8966330359
0
VERTEX
8
0
62
7
6
CONTINUOUS
10
95.4042828900
20
182.8293402296
0
VERTEX
8
0
62
7
6
CONTINUOUS
10
95.4929677147
20
182.8071472750
0
SEQEND
0
LINE
8
0
62
7
6
CONTINUOUS
10
97.3814343029
20
174.5069207623
11
97.3814343029
21
199.1069207623
0
POLYLINE
8
0
62
7
6
CONTINUOUS
66
1
70
0
0
VERTEX
8
0
62
7
6
CONTINUOUS
10
139.8036393209
20
186.8069207623
0
VERTEX
8
0
62
7
6
CONTINUOUS
10
139.8021678784
20
187.1749230015
0
VERTEX
8
0
62
7
6
CONTINUOUS
10
139.7978686102
20
187.5373045825
0
VERTEX
8
0
62
7
6
CONTINUOUS
10
139.7908049333
20
187.8956463743
0
VERTEX
8
0
62
7
6
CONTINUOUS
10
139.7812655631
20
188.2452057699
0
VERTEX
8
0
62
7
6
CONTINUOUS
10
139.7695333300
20
188.5825645743
0
VERTEX
8
0
62
7
6
CONTINUOUS
10
139.7560279101
20
188.9053304208
0
VERTEX
8
0
62
7
6
CONTINUOUS
10
139.7411666522
20
189.2106482227
0
VERTEX
8
0
62
7
6
CONTINUOUS
10
139.7254492293
20
189.4964879446
0
VERTEX
8
0
62
7
6
CONTINUOUS
10
139.7094256424
20
189.7594951388
0
VERTEX
8
0
62
7
6
CONTINUOUS
10
139.6934168123
20
190.0007879545
0
SEQEND
0
POLYLINE
8
0
62
7
6
CONTINUOUS
66
1
70
0
0
VERTEX
8
0
62
7
6
CONTINUOUS
10
139.6934168123
20
183.6130535700
0
VERTEX
8
0
62
7
6
CONTINUOUS
10
139.7094456750
20
183.8546518240
0
VERTEX
8
0
62
7
6
CONTINUOUS
10
139.7254900691
20
184.1180566655
0
VERTEX
8
0
62
7
6
CONTINUOUS
10
139.7412285262
20
184.4043838990
0
VERTEX
8
0
62
7
6
CONTINUOUS
10
139.7561083820
20
184.7102861110
0
VERTEX
8
0
62
7
6
CONTINUOUS
10
139.7696296866
20
185.0338669536
0
VERTEX
8
0
62
7
6
CONTINUOUS
10
139.7813666394
20
185.3718890332
0
VERTEX
8
0
62
7
6
CONTINUOUS
10
139.7908848564
20
185.7216643620
0
VERTEX
8
0
62
7
6
CONTINUOUS
10
139.7979176688
20
186.0796483741
0
VERTEX
8
0
62
7
6
CONTINUOUS
10
139.8021916820
20
186.4408454373
0
VERTEX
8
0
62
7
6
CONTINUOUS
10
139.8036393209
20
186.8069207623
0
SEQEND
0
LINE
8
0
62
7
6
CONTINUOUS
10
139.6934168123
20
190.0007879545
11
142.1221421093
21
196.6069207623
0
LINE
8
0
62
7
6
CONTINUOUS
10
142.1221421093
20
177.0069207623
11
139.6934168123
21
183.6130535700
0
LINE
8
0
62
7
6
CONTINUOUS
10
151.5221421093
20
174.5069207623
11
142.1221421093
21
177.0069207623
0
LINE
8
0
62
7
6
CONTINUOUS
10
151.5221421093
20
174.5069207623
11
170.0221421093
21
174.5069207623
0
LINE
8
0
62
7
6
CONTINUOUS
10
146.6221421093
20
179.2452764991
11
146.6221421093
21
194.3685650255
0
LINE
8
0
62
2
6
CONTINUOUS
10
140.4425582907
20
181.5753887489
11
141.5740903040
21
182.7069207623
0
LINE
8
0
62
7
6
CONTINUOUS
10
146.6221421093
20
179.2452764991
11
152.6221421093
21
179.2452764991
0
LINE
8
0
62
2
6
CONTINUOUS
10
141.5740903040
20
190.9069207623
11
140.4425582907
21
192.0384527756
0
LINE
8
0
62
2
6
CONTINUOUS
10
141.2028881629
20
179.5072914964
11
144.4025174288
21
182.7069207623
0
LINE
8
0
62
2
6
CONTINUOUS
10
144.4025174288
20
190.9069207623
11
141.2028881629
21
194.1065500281
0
LINE
8
0
62
7
6
CONTINUOUS
10
152.6221421093
20
174.5069207623
11
152.6221421093
21
199.1069207623
0
LINE
8
0
62
2
6
CONTINUOUS
10
141.9632180352
20
177.4391942439
11
146.6221421093
21
182.0981183181
0
LINE
8
0
62
7
6
CONTINUOUS
10
140.0265538740
20
182.7069207623
11
146.6221421093
21
182.7069207623
0
LINE
8
0
62
2
6
CONTINUOUS
10
146.6221421093
20
191.5157232065
11
141.9632180352
21
196.1746472806
0
LINE
8
0
62
7
6
CONTINUOUS
10
152.6221421093
20
183.0269207623
11
146.6221421093
21
183.0269207623
0
LINE
8
0
62
2
6
CONTINUOUS
10
143.8893654663
20
176.5369145503
11
146.6221421093
21
179.2696911933
0
LINE
8
0
62
2
6
CONTINUOUS
10
146.6221421093
20
194.3441503313
11
143.8893654663
21
197.0769269743
0
LINE
8
0
62
2
6
CONTINUOUS
10
146.1235852119
20
175.9427071712
11
149.4261545398
21
179.2452764991
0
LINE
8
0
62
7
6
CONTINUOUS
10
139.8036393209
20
186.8069207623
11
167.3721421093
21
186.8069207623
0
LINE
8
0
62
2
6
CONTINUOUS
10
149.4261545398
20
194.3685650255
11
146.1235852119
21
197.6711343534
0
LINE
8
0
62
2
6
CONTINUOUS
10
148.3578049575
20
175.3484997920
11
152.2545816646
21
179.2452764991
0
LINE
8
0
62
2
6
CONTINUOUS
10
152.2545816646
20
194.3685650255
11
148.3578049575
21
198.2653417326
0
LINE
8
0
62
7
6
CONTINUOUS
10
161.1221421093
20
174.5069207623
11
161.1221421093
21
199.1069207623
0
LINE
8
0
62
2
6
CONTINUOUS
10
150.5920247031
20
174.7542924129
11
152.6221421093
21
176.7844098191
0
LINE
8
0
62
2
6
CONTINUOUS
10
161.1221421093
20
185.2844098191
11
162.6446530525
21
186.8069207623
0
LINE
8
0
62
7
6
CONTINUOUS
10
152.6221421093
20
190.5869207623
11
146.6221421093
21
190.5869207623
0
LINE
8
0
62
7
6
CONTINUOUS
10
140.0265538740
20
190.9069207623
11
146.6221421093
21
190.9069207623
0
LINE
8
0
62
2
6
CONTINUOUS
10
162.6446530525
20
186.8069207623
11
161.1221421093
21
188.3294317055
0
LINE
8
0
62
2
6
CONTINUOUS
10
152.6221421093
20
196.8294317055
11
150.5920247031
21
198.8595491117
0
LINE
8
0
62
2
6
CONTINUOUS
10
161.1221421093
20
182.4559826943
11
165.4730801773
21
186.8069207623
0
LINE
8
0
62
2
6
CONTINUOUS
10
165.4730801773
20
186.8069207623
11
161.1221421093
21
191.1578588302
0
LINE
8
0
62
2
6
CONTINUOUS
10
161.1221421093
20
179.6275555696
11
167.4616514412
21
185.9670649015
0
LINE
8
0
62
7
6
CONTINUOUS
10
146.6221421093
20
194.3685650255
11
152.6221421093
21
194.3685650255
0
LINE
8
0
62
2
6
CONTINUOUS
10
167.4616514412
20
187.6467766231
11
161.1221421093
21
193.9862859550
0
LINE
8
0
62
2
6
CONTINUOUS
10
161.1221421093
20
176.7991284448
11
168.4263943252
21
184.1033806607
0
LINE
8
0
62
2
6
CONTINUOUS
10
168.4263943252
20
189.5104608638
11
161.1221421093
21
196.8147130797
0
LINE
8
0
62
2
6
CONTINUOUS
10
161.6583615515
20
174.5069207623
11
170.1498318505
21
182.9983910613
0
LINE
8
0
62
7
6
CONTINUOUS
10
170.0221421093
20
199.1069207623
11
151.5221421093
21
199.1069207623
0
LINE
8
0
62
2
6
CONTINUOUS
10
170.1498318505
20
190.6154504633
11
161.6583615515
21
199.1069207623
0
LINE
8
0
62
2
6
CONTINUOUS
10
164.4867886763
20
174.5069207623
11
173.2724748266
21
183.2926069127
0
LINE
8
0
62
7
6
CONTINUOUS
10
151.5221421093
20
199.1069207623
11
142.1221421093
21
196.6069207623
0
LINE
8
0
62
2
6
CONTINUOUS
10
173.2724748266
20
190.3212346119
11
164.4867886763
21
199.1069207623
0
LINE
8
0
62
2
6
CONTINUOUS
10
167.3152158010
20
174.5069207623
11
174.6221421093
21
181.8138470706
0
LINE
8
0
62
7
6
CONTINUOUS
10
174.6221421093
20
176.1980972329
11
170.0221421093
21
174.5069207623
0
LINE
8
0
62
7
6
CONTINUOUS
10
174.6221421093
20
197.4157442917
11
170.0221421093
21
199.1069207623
0
LINE
8
0
62
2
6
CONTINUOUS
10
174.6221421093
20
191.7999944540
11
167.3152158010
21
199.1069207623
0
LINE
8
0
62
7
6
CONTINUOUS
10
174.6221421093
20
184.4750759990
11
174.6221421093
21
176.1980972329
0
LINE
8
0
62
7
6
CONTINUOUS
10
174.6221421093
20
189.1387655256
11
174.6221421093
21
197.4157442917
0
LINE
8
0
62
2
6
CONTINUOUS
10
170.2142829353
20
174.5775607718
11
174.6221421093
21
178.9854199459
0
LINE
8
0
62
2
6
CONTINUOUS
10
174.6221421093
20
194.6284215787
11
170.2142829353
21
199.0362807527
0
ARC
8
0
62
7
6
CONTINUOUS
10
68.8114343029
20
61.9104618249
40
46.4000000000
50
51.9948168521
51
86.8238430357
0
ARC
8
0
62
7
6
CONTINUOUS
10
68.8114343029
20
61.9104618249
40
46.4000000000
50
93.1761569643
51
128.0051831479
0
ARC
8
0
62
7
6
CONTINUOUS
10
171.3721421093
20
186.8069207623
40
4.0000000000
50
35.6590876961
51
324.3409123039
0
ENDSEC
0
EOF
