999
DXF file: S0153684231N1.dxf
999
Pro/ENGINEER 2005310 by Parametric Technology Corporation
0
SECTION
2
HEADER
9
$ACADVER
1
AC1015
9
$DWGCODEPAGE
3
ANSI_1252
9
$EXTMAX
10
420.0000000000
20
297.0000000000
30
0.0000000000
9
$EXTMIN
10
0.0000000000
20
0.0000000000
30
0.0000000000
9
$LIMMIN
10
0.0000000000
20
0.0000000000
9
$LIMMAX
10
420.0000000000
20
297.0000000000
9
$VIEWCTR
10
210.0000000000
20
148.5000000000
9
$VIEWSIZE
40
297.0000000000
9
$CLAYER
8
0
9
$LTSCALE
40
23.1000000000
9
$CELTYPE
6
BYLAYER
9
$DIMSCALE
40
1
9
$DIMASZ
40
3.5000000000
9
$DIMEXO
40
2.6250000000
9
$DIMDLI
40
15.9600000000
9
$DIMEXE
40
7.5600000000
9
$DIMCEN
40
3.7800000000
9
$DIMLFAC
40
1.0000000000
9
$DIMBLK
1
_FILLED
9
$DIMTXT
40
3.5000000000
9
$DIMTOL
70
1
9
$DIMLIM
70
0
9
$DIMTFAC
40
1.0000000000
9
$DIMTP
40
0.0010000000
9
$DIMTM
40
0.0010000000
9
$PDMODE
70
3
9
$PDSIZE
40
0.3125000000
9
$HANDSEED
5
3C9
9
$MEASUREMENT
70
1
9
$INSUNITS
70
4
0
ENDSEC
0
SECTION
2
CLASSES
0
CLASS
1
ACDBDICTIONARYWDFLT
2
AcDbDictionaryWithDefault
3
AutoCAD 2000
90
0
280
0
281
0
0
CLASS
1
ACDBPLACEHOLDER
2
AcDbPlaceHolder
3
AutoCAD 2000
90
0
280
0
281
0
0
CLASS
1
LAYOUT
2
AcDbLayout
3
AutoCAD 2000
90
0
280
0
281
0
0
ENDSEC
0
SECTION
2
TABLES
0
TABLE
2
VPORT
5
8
100
AcDbSymbolTable
70
2
0
VPORT
5
1F4
100
AcDbSymbolTableRecord
100
AcDbViewportTableRecord
2
*ACTIVE
70
0
10
0.0
20
0.0
11
1.0
21
1.0
12
210.0000000000
22
148.5000000000
13
0.0
23
0.0
14
1.0
24
1.0
15
0.0
25
0.0
16
0.0
26
0.0
36
1.0
17
0.0
27
0.0
37
0.0
40
297.0000000000
41
1.4141414141
42
50.0
43
0.0
44
0.0
50
0.0
51
0.0
71
0
72
100
73
1
74
1
75
0
76
0
77
0
78
0
0
ENDTAB
0
TABLE
2
LTYPE
5
5
100
AcDbSymbolTable
70
6
0
LTYPE
5
14
100
AcDbSymbolTableRecord
100
AcDbLinetypeTableRecord
2
BYBLOCK
70
0
3

72
65
73
0
40
0.0
0
LTYPE
5
15
100
AcDbSymbolTableRecord
100
AcDbLinetypeTableRecord
2
BYLAYER
70
0
3

72
65
73
0
40
0.0
0
LTYPE
5
16
100
AcDbSymbolTableRecord
100
AcDbLinetypeTableRecord
2
CONTINUOUS
70
64
3
Solid line
72
65
73
0
40
0
0
LTYPE
5
1F5
100
AcDbSymbolTableRecord
100
AcDbLinetypeTableRecord
2
CENTER
70
64
3
____ _ ____ _ ____ _ ____ _ ____ _ ____ _ ____
72
65
73
4
40
0.6
49
0.375
74
0
49
-0.075
74
0
49
0.075
74
0
49
-0.075
74
0
0
LTYPE
5
1F6
100
AcDbSymbolTableRecord
100
AcDbLinetypeTableRecord
2
HIDDEN
70
64
3
- - - - - - - - - - - - - - - - - - - -
72
65
73
2
40
0.2
49
0.1
74
0
49
-0.1
74
0
0
LTYPE
5
1F7
100
AcDbSymbolTableRecord
100
AcDbLinetypeTableRecord
2
PHANTOM
70
64
3
_____ _ _ _____ _ _ _____ _ _ _____
72
65
73
6
40
0.8
49
0.45
74
0
49
-0.05
74
0
49
0.1
74
0
49
-0.05
74
0
49
0.1
74
0
49
-0.05
74
0
0
LTYPE
5
1F8
100
AcDbSymbolTableRecord
100
AcDbLinetypeTableRecord
2
DOT
70
64
3
. . . . . . . . . . . . . . . . . . . .
72
65
73
2
40
0.2
49
0.1
74
0
49
-0.1
74
0
0
LTYPE
5
1F9
100
AcDbSymbolTableRecord
100
AcDbLinetypeTableRecord
2
DASHED
70
64
3
- - - - - - - - - - - - - - - - - - - -
72
65
73
2
40
0.2
49
0.1
74
0
49
-0.1
74
0
0
ENDTAB
0
TABLE
2
LAYER
5
2
100
AcDbSymbolTable
70
36
0
LAYER
5
10
100
AcDbSymbolTableRecord
100
AcDbLayerTableRecord
2
0
70
0
62
7
6
CONTINUOUS
370
-3
390
F
0
LAYER
5
1FA
100
AcDbSymbolTableRecord
100
AcDbLayerTableRecord
2
DEFAULT_1
70
0
62
7
6
CENTER
370
-3
390
F
0
LAYER
5
1FB
100
AcDbSymbolTableRecord
100
AcDbLayerTableRecord
2
DEFAULT_2
70
0
62
8
6
HIDDEN
370
-3
390
F
0
LAYER
5
1FC
100
AcDbSymbolTableRecord
100
AcDbLayerTableRecord
2
DEFAULT_3
70
0
62
7
6
PHANTOM
370
-3
390
F
0
LAYER
5
1FD
100
AcDbSymbolTableRecord
100
AcDbLayerTableRecord
2
_2D_DELETED_OBJS
70
0
62
7
6
CONTINUOUS
370
-3
390
F
0
LAYER
5
1FE
100
AcDbSymbolTableRecord
100
AcDbLayerTableRecord
2
ASSI
70
0
62
7
6
CONTINUOUS
370
-3
390
F
0
LAYER
5
1FF
100
AcDbSymbolTableRecord
100
AcDbLayerTableRecord
2
AXES
70
0
62
7
6
CONTINUOUS
370
-3
390
F
0
LAYER
5
200
100
AcDbSymbolTableRecord
100
AcDbLayerTableRecord
2
CURVE
70
0
62
7
6
CONTINUOUS
370
-3
390
F
0
LAYER
5
201
100
AcDbSymbolTableRecord
100
AcDbLayerTableRecord
2
CURVE_COSTRUZIONE
70
0
62
7
6
CONTINUOUS
370
-3
390
F
0
LAYER
5
202
100
AcDbSymbolTableRecord
100
AcDbLayerTableRecord
2
DIMS
70
0
62
7
6
CONTINUOUS
370
-3
390
F
0
LAYER
5
203
100
AcDbSymbolTableRecord
100
AcDbLayerTableRecord
2
GEOM
70
0
62
7
6
CONTINUOUS
370
-3
390
F
0
LAYER
5
204
100
AcDbSymbolTableRecord
100
AcDbLayerTableRecord
2
NOGEOM
70
0
62
7
6
CONTINUOUS
370
-3
390
F
0
LAYER
5
205
100
AcDbSymbolTableRecord
100
AcDbLayerTableRecord
2
PIANI
70
0
62
7
6
CONTINUOUS
370
-3
390
F
0
LAYER
5
206
100
AcDbSymbolTableRecord
100
AcDbLayerTableRecord
2
PLANES
70
0
62
7
6
CONTINUOUS
370
-3
390
F
0
LAYER
5
207
100
AcDbSymbolTableRecord
100
AcDbLayerTableRecord
2
PUNTI
70
0
62
7
6
CONTINUOUS
370
-3
390
F
0
LAYER
5
208
100
AcDbSymbolTableRecord
100
AcDbLayerTableRecord
2
SURF_FILETTI
70
0
62
7
6
CONTINUOUS
370
-3
390
F
0
LAYER
5
209
100
AcDbSymbolTableRecord
100
AcDbLayerTableRecord
2
TOLL
70
0
62
7
6
CONTINUOUS
370
-3
390
F
0
LAYER
5
20A
100
AcDbSymbolTableRecord
100
AcDbLayerTableRecord
2
XSEC_DATUMS
70
0
62
7
6
CONTINUOUS
370
-3
390
F
0
ENDTAB
0
TABLE
2
STYLE
5
3
100
AcDbSymbolTable
70
1
0
STYLE
5
11
100
AcDbSymbolTableRecord
100
AcDbTextStyleTableRecord
2
STANDARD
70
0
40
0.0
41
0.7143000000
50
0.0
71
0
42
0.2
3
txt
4

0
ENDTAB
0
TABLE
2
VIEW
5
6
100
AcDbSymbolTable
70
0
0
ENDTAB
0
TABLE
2
UCS
5
7
100
AcDbSymbolTable
70
0
0
ENDTAB
0
TABLE
2
APPID
5
9
100
AcDbSymbolTable
70
1
0
APPID
5
20B
100
AcDbSymbolTableRecord
100
AcDbRegAppTableRecord
2
ACAD
70
0
0
ENDTAB
0
TABLE
2
BLOCK_RECORD
5
1
100
AcDbSymbolTable
70
0
0
BLOCK_RECORD
5
1F
100
AcDbSymbolTableRecord
100
AcDbBlockTableRecord
2
*MODEL_SPACE
0
BLOCK_RECORD
5
1B
100
AcDbSymbolTableRecord
100
AcDbBlockTableRecord
2
*PAPER_SPACE
0
BLOCK_RECORD
5
20C
100
AcDbSymbolTableRecord
100
AcDbBlockTableRecord
2
_FILLED
0
BLOCK_RECORD
5
20D
100
AcDbSymbolTableRecord
100
AcDbBlockTableRecord
2
*D0
0
BLOCK_RECORD
5
20E
100
AcDbSymbolTableRecord
100
AcDbBlockTableRecord
2
*D1
0
BLOCK_RECORD
5
20F
100
AcDbSymbolTableRecord
100
AcDbBlockTableRecord
2
*D2
0
BLOCK_RECORD
5
210
100
AcDbSymbolTableRecord
100
AcDbBlockTableRecord
2
*D3
0
BLOCK_RECORD
5
211
100
AcDbSymbolTableRecord
100
AcDbBlockTableRecord
2
*D4
0
BLOCK_RECORD
5
212
100
AcDbSymbolTableRecord
100
AcDbBlockTableRecord
2
*D5
0
BLOCK_RECORD
5
213
100
AcDbSymbolTableRecord
100
AcDbBlockTableRecord
2
*D6
0
BLOCK_RECORD
5
214
100
AcDbSymbolTableRecord
100
AcDbBlockTableRecord
2
*D7
0
BLOCK_RECORD
5
215
100
AcDbSymbolTableRecord
100
AcDbBlockTableRecord
2
*D8
0
BLOCK_RECORD
5
216
100
AcDbSymbolTableRecord
100
AcDbBlockTableRecord
2
*D9
0
BLOCK_RECORD
5
217
100
AcDbSymbolTableRecord
100
AcDbBlockTableRecord
2
*D10
0
BLOCK_RECORD
5
218
100
AcDbSymbolTableRecord
100
AcDbBlockTableRecord
2
*D11
0
BLOCK_RECORD
5
219
100
AcDbSymbolTableRecord
100
AcDbBlockTableRecord
2
*D12
0
BLOCK_RECORD
5
21A
100
AcDbSymbolTableRecord
100
AcDbBlockTableRecord
2
*D13
0
BLOCK_RECORD
5
21B
100
AcDbSymbolTableRecord
100
AcDbBlockTableRecord
2
*D14
0
ENDTAB
0
TABLE
2
DIMSTYLE
5
A
100
AcDbSymbolTable
70
1
100
AcDbDimStyleTable
71
0
0
DIMSTYLE
105
21C
100
AcDbSymbolTableRecord
100
AcDbDimStyleTableRecord
2
STANDARD
70
0
3

4

40
1.0
41
3.5000000000
42
0.0625
43
0.38
44
0.18
45
0.0
46
0.0
47
0.0010000000
48
0.0010000000
140
3.5000000000
141
0.09
142
0.0
143
25.4
144
1.0000000000
145
0.0
146
1.0000000000
147
0.09
71
1
72
0
73
0
74
0
75
0
76
0
77
1
78
8
170
0
171
2
172
0
173
0
174
0
175
0
176
0
177
0
178
5
270
2
271
3
272
3
273
2
274
2
275
0
280
0
281
0
282
0
283
1
284
8
285
0
286
0
287
3
288
0
340
11
341
20C
342
20C
343
20C
344
20C
0
DIMSTYLE
105
21D
100
AcDbSymbolTableRecord
100
AcDbDimStyleTableRecord
2
DIMSTYLE_1
70
0
3

4

40
1.0
41
3.5000000000
42
0.0625
43
0.38
44
0.18
45
0.0
46
0.0
47
0.5000000000
48
0.5000000000
140
3.5000000000
141
0.09
142
0.0
143
25.4
144
1.0000000000
145
0.0
146
1.0000000000
147
0.09
71
1
72
0
73
0
74
0
75
0
76
0
77
1
78
8
170
0
171
2
172
0
173
0
174
0
175
0
176
0
177
0
178
5
270
2
271
3
272
3
273
2
274
2
275
0
280
0
281
0
282
0
283
1
284
8
285
0
286
0
287
3
288
0
340
11
341
20C
342
20C
343
20C
344
20C
0
DIMSTYLE
105
21E
100
AcDbSymbolTableRecord
100
AcDbDimStyleTableRecord
2
DIMSTYLE_2
70
0
3

4

40
1.0
41
3.5000000000
42
0.0625
43
0.38
44
0.18
45
0.0
46
0.0
47
0.5000000000
48
0.5000000000
140
3.5000000000
141
0.09
142
0.0
143
25.4
144
1.0000000000
145
0.0
146
1.0000000000
147
0.09
71
0
72
0
73
0
74
0
75
0
76
0
77
1
78
8
170
0
171
2
172
0
173
0
174
0
175
0
176
0
177
0
178
5
270
2
271
2
272
2
273
2
274
2
275
0
280
0
281
0
282
0
283
1
284
8
285
0
286
0
287
3
288
0
340
11
341
20C
342
20C
343
20C
344
20C
0
DIMSTYLE
105
21F
100
AcDbSymbolTableRecord
100
AcDbDimStyleTableRecord
2
DIMSTYLE_3
70
0
3

4

40
1.0
41
3.5000000000
42
0.0625
43
0.38
44
0.18
45
0.0
46
0.0
47
0.2000000000
48
0.2000000000
140
3.5000000000
141
0.09
142
0.0
143
25.4
144
1.0000000000
145
0.0
146
1.0000000000
147
0.09
71
0
72
0
73
0
74
0
75
0
76
0
77
1
78
8
170
0
171
2
172
0
173
0
174
0
175
0
176
0
177
0
178
5
270
2
271
3
272
3
273
2
274
2
275
0
280
0
281
0
282
0
283
1
284
8
285
0
286
0
287
3
288
0
340
11
341
20C
342
20C
343
20C
344
20C
0
DIMSTYLE
105
220
100
AcDbSymbolTableRecord
100
AcDbDimStyleTableRecord
2
DIMSTYLE_4
70
0
3

4

40
1.0
41
3.5000000000
42
0.0625
43
0.38
44
0.18
45
0.0
46
0.0
47
0.1000000000
48
0.1000000000
140
3.5000000000
141
0.09
142
0.0
143
25.4
144
1.0000000000
145
0.0
146
1.0000000000
147
0.09
71
0
72
0
73
0
74
0
75
0
76
0
77
1
78
8
170
0
171
2
172
0
173
0
174
0
175
0
176
0
177
0
178
5
270
2
271
2
272
2
273
2
274
2
275
0
280
0
281
0
282
0
283
1
284
8
285
0
286
0
287
3
288
0
340
11
341
20C
342
20C
343
20C
344
20C
0
DIMSTYLE
105
221
100
AcDbSymbolTableRecord
100
AcDbDimStyleTableRecord
2
DIMSTYLE_5
70
0
3

4

40
1.0
41
3.5000000000
42
0.0625
43
0.38
44
0.18
45
0.0
46
0.0
47
0.1000000000
48
0.1000000000
140
3.5000000000
141
0.09
142
0.0
143
25.4
144
1.0000000000
145
0.0
146
1.0000000000
147
0.09
71
0
72
0
73
0
74
0
75
0
76
0
77
1
78
8
170
0
171
2
172
0
173
0
174
0
175
0
176
0
177
0
178
5
270
2
271
2
272
2
273
2
274
2
275
0
280
0
281
0
282
0
283
1
284
8
285
0
286
0
287
3
288
0
340
11
341
20C
342
20C
343
20C
344
20C
0
DIMSTYLE
105
222
100
AcDbSymbolTableRecord
100
AcDbDimStyleTableRecord
2
DIMSTYLE_6
70
0
3

4

40
1.0
41
3.5000000000
42
0.0625
43
0.38
44
0.18
45
0.0
46
0.0
47
0.2000000000
48
0.2000000000
140
3.5000000000
141
0.09
142
0.0
143
25.4
144
1.0000000000
145
0.0
146
1.0000000000
147
0.09
71
0
72
0
73
0
74
0
75
0
76
0
77
1
78
8
170
0
171
2
172
0
173
0
174
0
175
0
176
0
177
0
178
5
270
2
271
2
272
2
273
2
274
2
275
0
280
0
281
0
282
0
283
1
284
8
285
0
286
0
287
3
288
0
340
11
341
20C
342
20C
343
20C
344
20C
0
DIMSTYLE
105
223
100
AcDbSymbolTableRecord
100
AcDbDimStyleTableRecord
2
DIMSTYLE_7
70
0
3

4

40
1.0
41
3.5000000000
42
0.0625
43
0.38
44
0.18
45
0.0
46
0.0
47
0.3000000000
48
0.3000000000
140
3.5000000000
141
0.09
142
0.0
143
25.4
144
1.0000000000
145
0.0
146
1.0000000000
147
0.09
71
0
72
0
73
0
74
0
75
0
76
0
77
1
78
8
170
0
171
2
172
0
173
0
174
0
175
0
176
0
177
0
178
5
270
2
271
2
272
2
273
2
274
2
275
0
280
0
281
0
282
0
283
1
284
8
285
0
286
0
287
3
288
0
340
11
341
20C
342
20C
343
20C
344
20C
0
DIMSTYLE
105
224
100
AcDbSymbolTableRecord
100
AcDbDimStyleTableRecord
2
DIMSTYLE_8
70
0
3

4

40
1.0
41
3.5000000000
42
0.0625
43
0.38
44
0.18
45
0.0
46
0.0
47
0.5000000000
48
0.5000000000
140
3.5000000000
141
0.09
142
0.0
143
25.4
144
1.0000000000
145
0.0
146
1.0000000000
147
0.09
71
0
72
0
73
0
74
0
75
0
76
0
77
1
78
8
170
0
171
2
172
0
173
0
174
0
175
0
176
0
177
0
178
5
270
2
271
2
272
2
273
2
274
2
275
0
280
0
281
0
282
0
283
1
284
8
285
0
286
0
287
3
288
0
340
11
341
20C
342
20C
343
20C
344
20C
0
DIMSTYLE
105
225
100
AcDbSymbolTableRecord
100
AcDbDimStyleTableRecord
2
DIMSTYLE_9
70
0
3

4

40
1.0
41
3.5000000000
42
0.0625
43
0.38
44
0.18
45
0.0
46
0.0
47
0.3000000000
48
0.0000000000
140
3.5000000000
141
0.09
142
0.0
143
25.4
144
1.0000000000
145
0.0
146
1.0000000000
147
0.09
71
0
72
0
73
0
74
0
75
0
76
0
77
1
78
8
170
0
171
2
172
0
173
0
174
0
175
0
176
0
177
0
178
5
270
2
271
3
272
3
273
2
274
2
275
0
280
0
281
0
282
0
283
1
284
8
285
0
286
0
287
3
288
0
340
11
341
20C
342
20C
343
20C
344
20C
0
DIMSTYLE
105
226
100
AcDbSymbolTableRecord
100
AcDbDimStyleTableRecord
2
DIMSTYLE_10
70
0
3

4

40
1.0
41
3.5000000000
42
0.0625
43
0.38
44
0.18
45
0.0
46
0.0
47
0.3000000000
48
0.3000000000
140
3.5000000000
141
0.09
142
0.0
143
25.4
144
1.0000000000
145
0.0
146
1.0000000000
147
0.09
71
0
72
0
73
0
74
0
75
0
76
0
77
1
78
8
170
0
171
2
172
0
173
0
174
0
175
0
176
0
177
0
178
5
270
2
271
3
272
3
273
2
274
2
275
0
280
0
281
0
282
0
283
1
284
8
285
0
286
0
287
3
288
0
340
11
341
20C
342
20C
343
20C
344
20C
0
DIMSTYLE
105
227
100
AcDbSymbolTableRecord
100
AcDbDimStyleTableRecord
2
DIMSTYLE_11
70
0
3

4

40
1.0
41
3.5000000000
42
0.0625
43
0.38
44
0.18
45
0.0
46
0.0
47
0.2000000000
48
0.2000000000
140
3.5000000000
141
0.09
142
0.0
143
25.4
144
1.0000000000
145
0.0
146
1.0000000000
147
0.09
71
0
72
0
73
0
74
0
75
0
76
0
77
1
78
8
170
0
171
2
172
0
173
0
174
0
175
0
176
0
177
0
178
5
270
2
271
0
272
0
273
2
274
2
275
0
280
0
281
0
282
0
283
1
284
8
285
0
286
0
287
3
288
0
340
11
341
20C
342
20C
343
20C
344
20C
0
ENDTAB
0
ENDSEC
0
SECTION
2
BLOCKS
0
BLOCK
5
20
100
AcDbEntity
8
0
100
AcDbBlockBegin
2
*MODEL_SPACE
70
0
10
0.0
20
0.0
30
0.0
3
*MODEL_SPACE
1

0
ENDBLK
5
21
100
AcDbEntity
8
0
100
AcDbBlockEnd
0
BLOCK
5
1C
100
AcDbEntity
8
0
100
AcDbBlockBegin
2
*PAPER_SPACE
70
0
10
0.0
20
0.0
30
0.0
3
*PAPER_SPACE
1

0
ENDBLK
5
1D
100
AcDbEntity
8
0
100
AcDbBlockEnd
0
BLOCK
5
228
100
AcDbEntity
8
0
100
AcDbBlockBegin
62
2
6
CONTINUOUS
2
*D0
70
65
10
0.0000000000
20
0.0000000000
3
*D0
1

0
TEXT
5
229
100
AcDbEntity
8
0
100
AcDbText
62
5
6
CONTINUOUS
10
142.2112402264
20
91.4522356718
7
STANDARD
40
3.5000000000
1
121
41
0.7143000000
72
0
100
AcDbText
0
TEXT
5
22A
100
AcDbEntity
8
0
100
AcDbText
62
5
6
CONTINUOUS
10
149.7113902264
20
91.4522356718
7
STANDARD
40
3.5000000000
1
%%p
41
1.1666666667
72
0
100
AcDbText
0
TEXT
5
22B
100
AcDbEntity
8
0
100
AcDbText
62
5
6
CONTINUOUS
10
153.7947235598
20
91.4522356718
7
STANDARD
40
3.5000000000
1
0.5
41
0.7143000000
72
0
100
AcDbText
0
LINE
5
22C
100
AcDbEntity
8
0
100
AcDbLine
62
2
6
CONTINUOUS
10
212.7316073136
20
133.8402013636
11
212.7316073136
21
89.0772356718
0
LINE
5
22D
100
AcDbEntity
8
0
100
AcDbLine
62
2
6
CONTINUOUS
10
91.7316073136
20
134.4470168658
11
91.7316073136
21
89.0772356718
0
LINE
5
22E
100
AcDbEntity
8
0
100
AcDbLine
62
2
6
CONTINUOUS
10
212.7316073136
20
90.5772356718
11
152.2316073136
21
90.5772356718
0
LINE
5
22F
100
AcDbEntity
8
0
100
AcDbLine
62
2
6
CONTINUOUS
10
91.7316073136
20
90.5772356718
11
152.2316073136
21
90.5772356718
0
INSERT
5
230
100
AcDbEntity
8
0
100
AcDbBlockReference
62
2
6
CONTINUOUS
2
_FILLED
10
212.7316073136
20
90.5772356718
41
  3.500000
42
  3.500000
43
  3.500000
0
INSERT
5
231
100
AcDbEntity
8
0
100
AcDbBlockReference
62
2
6
CONTINUOUS
2
_FILLED
10
91.7316073136
20
90.5772356718
41
  3.500000
42
  3.500000
43
  3.500000
50
180.000000
0
ENDBLK
5
232
100
AcDbEntity
8
0
6
BYBLOCK
62
0
100
AcDbBlockEnd
0
BLOCK
5
233
100
AcDbEntity
8
0
100
AcDbBlockBegin
62
2
6
CONTINUOUS
2
*D1
70
65
10
0.0000000000
20
0.0000000000
3
*D1
1

0
TEXT
5
234
100
AcDbEntity
8
0
100
AcDbText
62
5
6
CONTINUOUS
10
238.0917178301
20
180.0370491123
7
STANDARD
40
3.5000000000
1
R
50
70.2023750915
41
0.7143000000
72
0
100
AcDbText
0
TEXT
5
235
100
AcDbEntity
8
0
100
AcDbText
62
5
6
CONTINUOUS
10
238.9384820587
20
182.3893331818
7
STANDARD
40
3.5000000000
1
232
50
70.2023750915
41
0.7143000000
72
0
100
AcDbText
0
LINE
5
236
100
AcDbEntity
8
0
100
AcDbLine
62
2
6
CONTINUOUS
10
230.8097561657
20
157.2245760351
11
242.3020577032
21
189.1498238375
0
INSERT
5
237
100
AcDbEntity
8
0
100
AcDbBlockReference
62
2
6
CONTINUOUS
2
_FILLED
10
230.8097561657
20
157.2245760351
41
  3.500000
42
  3.500000
43
  3.500000
50
250.202375
0
ENDBLK
5
238
100
AcDbEntity
8
0
6
BYBLOCK
62
0
100
AcDbBlockEnd
0
BLOCK
5
239
100
AcDbEntity
8
0
100
AcDbBlockBegin
62
2
6
CONTINUOUS
2
*D2
70
65
10
0.0000000000
20
0.0000000000
3
*D2
1

0
TEXT
5
23A
100
AcDbEntity
8
0
100
AcDbText
62
5
6
CONTINUOUS
10
282.4967618850
20
176.3283459686
7
STANDARD
40
3.5000000000
1
23.5
50
90.0000000000
41
0.7143000000
72
0
100
AcDbText
0
LINE
5
23B
100
AcDbEntity
8
0
100
AcDbLine
62
2
6
CONTINUOUS
10
173.6362262409
20
170.9369801370
11
229.6497628289
21
170.9369801370
0
LINE
5
23C
100
AcDbEntity
8
0
100
AcDbLine
62
2
6
CONTINUOUS
10
239.4897898154
20
170.9369801370
11
284.8717618850
21
170.9369801370
0
LINE
5
23D
100
AcDbEntity
8
0
100
AcDbLine
62
2
6
CONTINUOUS
10
220.0562147585
20
147.4369801370
11
284.8717618850
21
147.4369801370
0
LINE
5
23E
100
AcDbEntity
8
0
100
AcDbLine
62
2
6
CONTINUOUS
10
283.3717618850
20
170.9369801370
11
283.3717618850
21
186.3285459686
0
LINE
5
23F
100
AcDbEntity
8
0
100
AcDbLine
62
2
6
CONTINUOUS
10
283.3717618850
20
186.3285459686
11
283.3717618850
21
159.1869801370
0
LINE
5
240
100
AcDbEntity
8
0
100
AcDbLine
62
2
6
CONTINUOUS
10
283.3717618850
20
147.4369801370
11
283.3717618850
21
139.4369801370
0
LINE
5
241
100
AcDbEntity
8
0
100
AcDbLine
62
2
6
CONTINUOUS
10
283.3717618850
20
139.4369801370
11
283.3717618850
21
159.1869801370
0
INSERT
5
242
100
AcDbEntity
8
0
100
AcDbBlockReference
62
2
6
CONTINUOUS
2
_FILLED
10
283.3717618850
20
170.9369801370
41
  3.500000
42
  3.500000
43
  3.500000
50
270.000000
0
INSERT
5
243
100
AcDbEntity
8
0
100
AcDbBlockReference
62
2
6
CONTINUOUS
2
_FILLED
10
283.3717618850
20
147.4369801370
41
  3.500000
42
  3.500000
43
  3.500000
50
 90.000000
0
ENDBLK
5
244
100
AcDbEntity
8
0
6
BYBLOCK
62
0
100
AcDbBlockEnd
0
BLOCK
5
245
100
AcDbEntity
8
0
100
AcDbBlockBegin
62
2
6
CONTINUOUS
2
*D3
70
65
10
0.0000000000
20
0.0000000000
3
*D3
1

0
TEXT
5
246
100
AcDbEntity
8
0
100
AcDbText
62
5
6
CONTINUOUS
10
192.9965707696
20
155.6352336694
7
STANDARD
40
3.5000000000
1
%%c
50
-20.2121588119
41
1.3333333333
72
0
100
AcDbText
0
TEXT
5
247
100
AcDbEntity
8
0
100
AcDbText
62
5
6
CONTINUOUS
10
197.3758628217
20
154.0229127025
7
STANDARD
40
3.5000000000
1
5.5
50
-20.2121588119
41
0.7143000000
72
0
100
AcDbText
0
LINE
5
248
100
AcDbEntity
8
0
100
AcDbLine
62
2
6
CONTINUOUS
10
215.3122615594
20
146.4868624241
11
212.7316073136
21
147.4369801370
0
LINE
5
249
100
AcDbEntity
8
0
100
AcDbLine
62
2
6
CONTINUOUS
10
212.7316073136
20
147.4369801370
11
222.8196193622
21
143.7228836240
0
LINE
5
24A
100
AcDbEntity
8
0
100
AcDbLine
62
2
6
CONTINUOUS
10
210.1509530678
20
148.3870978499
11
212.7316073136
21
147.4369801370
0
LINE
5
24B
100
AcDbEntity
8
0
100
AcDbLine
62
2
6
CONTINUOUS
10
212.7316073136
20
147.4369801370
11
192.6942605883
21
154.8141164096
0
INSERT
5
24C
100
AcDbEntity
8
0
100
AcDbBlockReference
62
2
6
CONTINUOUS
2
_FILLED
10
215.3122615586
20
146.4868624244
41
  3.500000
42
  3.500000
43
  3.500000
50
159.788161
0
INSERT
5
24D
100
AcDbEntity
8
0
100
AcDbBlockReference
62
2
6
CONTINUOUS
2
_FILLED
10
210.1509530686
20
148.3870978496
41
  3.500000
42
  3.500000
43
  3.500000
50
339.788831
0
ENDBLK
5
24E
100
AcDbEntity
8
0
6
BYBLOCK
62
0
100
AcDbBlockEnd
0
BLOCK
5
24F
100
AcDbEntity
8
0
100
AcDbBlockBegin
62
2
6
CONTINUOUS
2
*D4
70
65
10
0.0000000000
20
0.0000000000
3
*D4
1

0
TEXT
5
250
100
AcDbEntity
8
0
100
AcDbText
62
5
6
CONTINUOUS
10
197.0320432581
20
113.8845691972
7
STANDARD
40
3.5000000000
1
5.2
41
0.7143000000
72
0
100
AcDbText
0
LINE
5
251
100
AcDbEntity
8
0
100
AcDbLine
62
2
6
CONTINUOUS
10
215.3316073136
20
145.0411564936
11
215.3316073136
21
111.5095691972
0
LINE
5
252
100
AcDbEntity
8
0
100
AcDbLine
62
2
6
CONTINUOUS
10
210.1316073136
20
145.0411564936
11
210.1316073136
21
111.5095691972
0
LINE
5
253
100
AcDbEntity
8
0
100
AcDbLine
62
2
6
CONTINUOUS
10
215.3316073136
20
113.0095691972
11
223.3316073136
21
113.0095691972
0
LINE
5
254
100
AcDbEntity
8
0
100
AcDbLine
62
2
6
CONTINUOUS
10
223.3316073136
20
113.0095691972
11
212.7316073136
21
113.0095691972
0
LINE
5
255
100
AcDbEntity
8
0
100
AcDbLine
62
2
6
CONTINUOUS
10
210.1316073136
20
113.0095691972
11
197.0320432581
21
113.0095691972
0
LINE
5
256
100
AcDbEntity
8
0
100
AcDbLine
62
2
6
CONTINUOUS
10
197.0320432581
20
113.0095691972
11
212.7316073136
21
113.0095691972
0
INSERT
5
257
100
AcDbEntity
8
0
100
AcDbBlockReference
62
2
6
CONTINUOUS
2
_FILLED
10
215.3316073136
20
113.0095691972
41
  3.500000
42
  3.500000
43
  3.500000
50
180.000000
0
INSERT
5
258
100
AcDbEntity
8
0
100
AcDbBlockReference
62
2
6
CONTINUOUS
2
_FILLED
10
210.1316073136
20
113.0095691972
41
  3.500000
42
  3.500000
43
  3.500000
0
ENDBLK
5
259
100
AcDbEntity
8
0
6
BYBLOCK
62
0
100
AcDbBlockEnd
0
BLOCK
5
25A
100
AcDbEntity
8
0
100
AcDbBlockBegin
62
2
6
CONTINUOUS
2
*D5
70
65
10
0.0000000000
20
0.0000000000
3
*D5
1

0
TEXT
5
25B
100
AcDbEntity
8
0
100
AcDbText
62
5
6
CONTINUOUS
10
9.3566073136
20
124.2912306352
7
STANDARD
40
3.5000000000
1
10
50
90.0000000000
41
0.7143000000
72
0
100
AcDbText
0
LINE
5
25C
100
AcDbEntity
8
0
100
AcDbLine
62
2
6
CONTINUOUS
10
35.2316073136
20
132.1369801370
11
8.7316073136
21
132.1369801370
0
LINE
5
25D
100
AcDbEntity
8
0
100
AcDbLine
62
2
6
CONTINUOUS
10
30.9816073136
20
122.1369801370
11
8.7316073136
21
122.1369801370
0
LINE
5
25E
100
AcDbEntity
8
0
100
AcDbLine
62
2
6
CONTINUOUS
10
10.2316073136
20
132.1369801370
11
10.2316073136
21
140.1369801370
0
LINE
5
25F
100
AcDbEntity
8
0
100
AcDbLine
62
2
6
CONTINUOUS
10
10.2316073136
20
140.1369801370
11
10.2316073136
21
127.1369801370
0
LINE
5
260
100
AcDbEntity
8
0
100
AcDbLine
62
2
6
CONTINUOUS
10
10.2316073136
20
122.1369801370
11
10.2316073136
21
114.1369801370
0
LINE
5
261
100
AcDbEntity
8
0
100
AcDbLine
62
2
6
CONTINUOUS
10
10.2316073136
20
114.1369801370
11
10.2316073136
21
127.1369801370
0
INSERT
5
262
100
AcDbEntity
8
0
100
AcDbBlockReference
62
2
6
CONTINUOUS
2
_FILLED
10
10.2316073136
20
132.1369801370
41
  3.500000
42
  3.500000
43
  3.500000
50
270.000000
0
INSERT
5
263
100
AcDbEntity
8
0
100
AcDbBlockReference
62
2
6
CONTINUOUS
2
_FILLED
10
10.2316073136
20
122.1369801370
41
  3.500000
42
  3.500000
43
  3.500000
50
 90.000000
0
ENDBLK
5
264
100
AcDbEntity
8
0
6
BYBLOCK
62
0
100
AcDbBlockEnd
0
BLOCK
5
265
100
AcDbEntity
8
0
100
AcDbBlockBegin
62
2
6
CONTINUOUS
2
*D6
70
65
10
0.0000000000
20
0.0000000000
3
*D6
1

0
TEXT
5
266
100
AcDbEntity
8
0
100
AcDbText
62
5
6
CONTINUOUS
10
303.9435493412
20
136.3802507124
7
STANDARD
40
3.5000000000
1
10
50
90.0000000000
41
0.7143000000
72
0
100
AcDbText
0
LINE
5
267
100
AcDbEntity
8
0
100
AcDbLine
62
2
6
CONTINUOUS
10
269.2316073136
20
132.1369801370
11
306.3185493412
21
132.1369801370
0
LINE
5
268
100
AcDbEntity
8
0
100
AcDbLine
62
2
6
CONTINUOUS
10
273.4816073136
20
122.1369801370
11
306.3185493412
21
122.1369801370
0
LINE
5
269
100
AcDbEntity
8
0
100
AcDbLine
62
2
6
CONTINUOUS
10
304.8185493412
20
132.1369801370
11
304.8185493412
21
141.3803507124
0
LINE
5
26A
100
AcDbEntity
8
0
100
AcDbLine
62
2
6
CONTINUOUS
10
304.8185493412
20
141.3803507124
11
304.8185493412
21
127.1369801370
0
LINE
5
26B
100
AcDbEntity
8
0
100
AcDbLine
62
2
6
CONTINUOUS
10
304.8185493412
20
122.1369801370
11
304.8185493412
21
114.1369801370
0
LINE
5
26C
100
AcDbEntity
8
0
100
AcDbLine
62
2
6
CONTINUOUS
10
304.8185493412
20
114.1369801370
11
304.8185493412
21
127.1369801370
0
INSERT
5
26D
100
AcDbEntity
8
0
100
AcDbBlockReference
62
2
6
CONTINUOUS
2
_FILLED
10
304.8185493412
20
132.1369801370
41
  3.500000
42
  3.500000
43
  3.500000
50
270.000000
0
INSERT
5
26E
100
AcDbEntity
8
0
100
AcDbBlockReference
62
2
6
CONTINUOUS
2
_FILLED
10
304.8185493412
20
122.1369801370
41
  3.500000
42
  3.500000
43
  3.500000
50
 90.000000
0
ENDBLK
5
26F
100
AcDbEntity
8
0
6
BYBLOCK
62
0
100
AcDbBlockEnd
0
BLOCK
5
270
100
AcDbEntity
8
0
100
AcDbBlockBegin
62
2
6
CONTINUOUS
2
*D7
70
65
10
0.0000000000
20
0.0000000000
3
*D7
1

0
TEXT
5
271
100
AcDbEntity
8
0
100
AcDbText
62
5
6
CONTINUOUS
10
9.3566073136
20
144.7577755828
7
STANDARD
40
3.5000000000
1
38.8
50
90.0000000000
41
0.7143000000
72
0
100
AcDbText
0
LINE
5
272
100
AcDbEntity
8
0
100
AcDbLine
62
2
6
CONTINUOUS
10
32.9946660742
20
132.1369801370
11
8.7316073136
21
132.1369801370
0
LINE
5
273
100
AcDbEntity
8
0
100
AcDbLine
62
2
6
CONTINUOUS
10
151.7316073136
20
170.9369801370
11
8.7316073136
21
170.9369801370
0
LINE
5
274
100
AcDbEntity
8
0
100
AcDbLine
62
2
6
CONTINUOUS
10
10.2316073136
20
132.1369801370
11
10.2316073136
21
151.5369801370
0
LINE
5
275
100
AcDbEntity
8
0
100
AcDbLine
62
2
6
CONTINUOUS
10
10.2316073136
20
170.9369801370
11
10.2316073136
21
151.5369801370
0
INSERT
5
276
100
AcDbEntity
8
0
100
AcDbBlockReference
62
2
6
CONTINUOUS
2
_FILLED
10
10.2316073136
20
132.1369801370
41
  3.500000
42
  3.500000
43
  3.500000
50
270.000000
0
INSERT
5
277
100
AcDbEntity
8
0
100
AcDbBlockReference
62
2
6
CONTINUOUS
2
_FILLED
10
10.2316073136
20
170.9369801370
41
  3.500000
42
  3.500000
43
  3.500000
50
 90.000000
0
ENDBLK
5
278
100
AcDbEntity
8
0
6
BYBLOCK
62
0
100
AcDbBlockEnd
0
BLOCK
5
279
100
AcDbEntity
8
0
100
AcDbBlockBegin
62
2
6
CONTINUOUS
2
*D8
70
65
10
0.0000000000
20
0.0000000000
3
*D8
1

0
TEXT
5
27A
100
AcDbEntity
8
0
100
AcDbText
62
5
6
CONTINUOUS
10
29.3566073136
20
173.5940389316
7
STANDARD
40
3.5000000000
1
13.75
50
90.0000000000
41
0.7143000000
72
0
100
AcDbText
0
LINE
5
27B
100
AcDbEntity
8
0
100
AcDbLine
62
2
6
CONTINUOUS
10
140.5064843733
20
157.1869801370
11
28.7316073136
21
157.1869801370
0
LINE
5
27C
100
AcDbEntity
8
0
100
AcDbLine
62
2
6
CONTINUOUS
10
151.7316073136
20
170.9369801370
11
28.7316073136
21
170.9369801370
0
LINE
5
27D
100
AcDbEntity
8
0
100
AcDbLine
62
2
6
CONTINUOUS
10
30.2316073136
20
157.1869801370
11
30.2316073136
21
164.0619801370
0
LINE
5
27E
100
AcDbEntity
8
0
100
AcDbLine
62
2
6
CONTINUOUS
10
30.2316073136
20
170.9369801370
11
30.2316073136
21
164.0619801370
0
LINE
5
27F
100
AcDbEntity
8
0
100
AcDbLine
62
2
6
CONTINUOUS
10
30.2316073136
20
164.0619801370
11
30.2316073136
21
186.0942889316
0
INSERT
5
280
100
AcDbEntity
8
0
100
AcDbBlockReference
62
2
6
CONTINUOUS
2
_FILLED
10
30.2316073136
20
157.1869801370
41
  3.500000
42
  3.500000
43
  3.500000
50
270.000000
0
INSERT
5
281
100
AcDbEntity
8
0
100
AcDbBlockReference
62
2
6
CONTINUOUS
2
_FILLED
10
30.2316073136
20
170.9369801370
41
  3.500000
42
  3.500000
43
  3.500000
50
 90.000000
0
ENDBLK
5
282
100
AcDbEntity
8
0
6
BYBLOCK
62
0
100
AcDbBlockEnd
0
BLOCK
5
283
100
AcDbEntity
8
0
100
AcDbBlockBegin
62
2
6
CONTINUOUS
2
*D9
70
65
10
0.0000000000
20
0.0000000000
3
*D9
1

0
TEXT
5
284
100
AcDbEntity
8
0
100
AcDbText
62
5
6
CONTINUOUS
10
19.3566073136
20
173.8517805523
7
STANDARD
40
3.5000000000
1
23.5
50
90.0000000000
41
0.7143000000
72
0
100
AcDbText
0
LINE
5
285
100
AcDbEntity
8
0
100
AcDbLine
62
2
6
CONTINUOUS
10
86.9637572941
20
147.4369801370
11
18.7316073136
21
147.4369801370
0
LINE
5
286
100
AcDbEntity
8
0
100
AcDbLine
62
2
6
CONTINUOUS
10
151.7316073136
20
170.9369801370
11
18.7316073136
21
170.9369801370
0
LINE
5
287
100
AcDbEntity
8
0
100
AcDbLine
62
2
6
CONTINUOUS
10
20.2316073136
20
147.4369801370
11
20.2316073136
21
159.1869801370
0
LINE
5
288
100
AcDbEntity
8
0
100
AcDbLine
62
2
6
CONTINUOUS
10
20.2316073136
20
170.9369801370
11
20.2316073136
21
159.1869801370
0
LINE
5
289
100
AcDbEntity
8
0
100
AcDbLine
62
2
6
CONTINUOUS
10
20.2316073136
20
159.1869801370
11
20.2316073136
21
183.8519805523
0
INSERT
5
28A
100
AcDbEntity
8
0
100
AcDbBlockReference
62
2
6
CONTINUOUS
2
_FILLED
10
20.2316073136
20
147.4369801370
41
  3.500000
42
  3.500000
43
  3.500000
50
270.000000
0
INSERT
5
28B
100
AcDbEntity
8
0
100
AcDbBlockReference
62
2
6
CONTINUOUS
2
_FILLED
10
20.2316073136
20
170.9369801370
41
  3.500000
42
  3.500000
43
  3.500000
50
 90.000000
0
ENDBLK
5
28C
100
AcDbEntity
8
0
6
BYBLOCK
62
0
100
AcDbBlockEnd
0
BLOCK
5
28D
100
AcDbEntity
8
0
100
AcDbBlockBegin
62
2
6
CONTINUOUS
2
*D10
70
65
10
0.0000000000
20
0.0000000000
3
*D10
1

0
TEXT
5
28E
100
AcDbEntity
8
0
100
AcDbText
62
5
6
CONTINUOUS
10
148.5113666731
20
81.4522356718
7
STANDARD
40
3.5000000000
1
244
41
0.7143000000
72
0
100
AcDbText
0
LINE
5
28F
100
AcDbEntity
8
0
100
AcDbLine
62
2
6
CONTINUOUS
10
274.2316073136
20
122.8869801370
11
274.2316073136
21
79.0772356718
0
LINE
5
290
100
AcDbEntity
8
0
100
AcDbLine
62
2
6
CONTINUOUS
10
30.2316073136
20
122.8869801370
11
30.2316073136
21
79.0772356718
0
LINE
5
291
100
AcDbEntity
8
0
100
AcDbLine
62
2
6
CONTINUOUS
10
274.2316073136
20
80.5772356718
11
152.2316073136
21
80.5772356718
0
LINE
5
292
100
AcDbEntity
8
0
100
AcDbLine
62
2
6
CONTINUOUS
10
30.2316073136
20
80.5772356718
11
152.2316073136
21
80.5772356718
0
INSERT
5
293
100
AcDbEntity
8
0
100
AcDbBlockReference
62
2
6
CONTINUOUS
2
_FILLED
10
274.2316073136
20
80.5772356718
41
  3.500000
42
  3.500000
43
  3.500000
0
INSERT
5
294
100
AcDbEntity
8
0
100
AcDbBlockReference
62
2
6
CONTINUOUS
2
_FILLED
10
30.2316073136
20
80.5772356718
41
  3.500000
42
  3.500000
43
  3.500000
50
180.000000
0
ENDBLK
5
295
100
AcDbEntity
8
0
6
BYBLOCK
62
0
100
AcDbBlockEnd
0
BLOCK
5
296
100
AcDbEntity
8
0
100
AcDbBlockBegin
62
2
6
CONTINUOUS
2
*D11
70
65
10
0.0000000000
20
0.0000000000
3
*D11
1

0
TEXT
5
297
100
AcDbEntity
8
0
100
AcDbText
62
5
6
CONTINUOUS
10
164.6854228358
20
175.6134678505
7
STANDARD
40
3.5000000000
1
%%c
50
53.6918565403
41
1.3333333333
72
0
100
AcDbText
0
TEXT
5
298
100
AcDbEntity
8
0
100
AcDbText
62
5
6
CONTINUOUS
10
167.4486855271
20
179.3740737960
7
STANDARD
40
3.5000000000
1
20.5
50
53.6918565403
41
0.7143000000
72
0
100
AcDbText
0
LINE
5
299
100
AcDbEntity
8
0
100
AcDbLine
62
2
6
CONTINUOUS
10
158.3009164390
20
165.4468824814
11
152.2316073136
21
157.1869801370
0
LINE
5
29A
100
AcDbEntity
8
0
100
AcDbLine
62
2
6
CONTINUOUS
10
152.2316073136
20
157.1869801370
11
174.0751947629
21
186.9145645218
0
LINE
5
29B
100
AcDbEntity
8
0
100
AcDbLine
62
2
6
CONTINUOUS
10
146.1622981882
20
148.9270777925
11
152.2316073136
21
157.1869801370
0
INSERT
5
29C
100
AcDbEntity
8
0
100
AcDbBlockReference
62
2
6
CONTINUOUS
2
_FILLED
10
158.3009164390
20
165.4468824814
41
  3.500000
42
  3.500000
43
  3.500000
50
 53.691857
0
INSERT
5
29D
100
AcDbEntity
8
0
100
AcDbBlockReference
62
2
6
CONTINUOUS
2
_FILLED
10
146.1622981882
20
148.9270777925
41
  3.500000
42
  3.500000
43
  3.500000
50
233.691857
0
ENDBLK
5
29E
100
AcDbEntity
8
0
6
BYBLOCK
62
0
100
AcDbBlockEnd
0
BLOCK
5
29F
100
AcDbEntity
8
0
100
AcDbBlockBegin
62
2
6
CONTINUOUS
2
*D12
70
65
10
0.0000000000
20
0.0000000000
3
*D12
1

0
TEXT
5
2A0
100
AcDbEntity
8
0
100
AcDbText
62
5
6
CONTINUOUS
10
421.1302367656
20
139.6912110272
7
STANDARD
40
3.5000000000
1
48.8
50
90.0000000000
41
0.7143000000
72
0
100
AcDbText
0
LINE
5
2A1
100
AcDbEntity
8
0
100
AcDbLine
62
2
6
CONTINUOUS
10
408.3442961964
20
170.9369801370
11
423.5052367656
21
170.9369801370
0
LINE
5
2A2
100
AcDbEntity
8
0
100
AcDbLine
62
2
6
CONTINUOUS
10
408.7701673446
20
122.1369801370
11
423.5052367656
21
122.1369801370
0
LINE
5
2A3
100
AcDbEntity
8
0
100
AcDbLine
62
2
6
CONTINUOUS
10
422.0052367656
20
170.9369801370
11
422.0052367656
21
146.5369801370
0
LINE
5
2A4
100
AcDbEntity
8
0
100
AcDbLine
62
2
6
CONTINUOUS
10
422.0052367656
20
122.1369801370
11
422.0052367656
21
146.5369801370
0
INSERT
5
2A5
100
AcDbEntity
8
0
100
AcDbBlockReference
62
2
6
CONTINUOUS
2
_FILLED
10
422.0052367656
20
170.9369801370
41
  3.500000
42
  3.500000
43
  3.500000
50
 90.000000
0
INSERT
5
2A6
100
AcDbEntity
8
0
100
AcDbBlockReference
62
2
6
CONTINUOUS
2
_FILLED
10
422.0052367656
20
122.1369801370
41
  3.500000
42
  3.500000
43
  3.500000
50
270.000000
0
ENDBLK
5
2A7
100
AcDbEntity
8
0
6
BYBLOCK
62
0
100
AcDbBlockEnd
0
BLOCK
5
2A8
100
AcDbEntity
8
0
100
AcDbBlockBegin
62
2
6
CONTINUOUS
2
*D13
70
65
10
0.0000000000
20
0.0000000000
3
*D13
1

0
TEXT
5
2A9
100
AcDbEntity
8
0
100
AcDbText
62
5
6
CONTINUOUS
10
366.4770802138
20
100.1493504768
7
STANDARD
40
3.5000000000
1
84
41
0.7143000000
72
0
100
AcDbText
0
LINE
5
2AA
100
AcDbEntity
8
0
100
AcDbLine
62
2
6
CONTINUOUS
10
324.9328986667
20
133.8113861040
11
324.9328986667
21
97.7743504768
0
LINE
5
2AB
100
AcDbEntity
8
0
100
AcDbLine
62
2
6
CONTINUOUS
10
408.9328986667
20
133.8113861040
11
408.9328986667
21
97.7743504768
0
LINE
5
2AC
100
AcDbEntity
8
0
100
AcDbLine
62
2
6
CONTINUOUS
10
324.9328986667
20
99.2743504768
11
366.9328986667
21
99.2743504768
0
LINE
5
2AD
100
AcDbEntity
8
0
100
AcDbLine
62
2
6
CONTINUOUS
10
408.9328986667
20
99.2743504768
11
366.9328986667
21
99.2743504768
0
INSERT
5
2AE
100
AcDbEntity
8
0
100
AcDbBlockReference
62
2
6
CONTINUOUS
2
_FILLED
10
324.9328986667
20
99.2743504768
41
  3.500000
42
  3.500000
43
  3.500000
50
180.000000
0
INSERT
5
2AF
100
AcDbEntity
8
0
100
AcDbBlockReference
62
2
6
CONTINUOUS
2
_FILLED
10
408.9328986667
20
99.2743504768
41
  3.500000
42
  3.500000
43
  3.500000
0
ENDBLK
5
2B0
100
AcDbEntity
8
0
6
BYBLOCK
62
0
100
AcDbBlockEnd
0
BLOCK
5
2B1
100
AcDbEntity
8
0
100
AcDbBlockBegin
62
2
6
CONTINUOUS
2
*D14
70
65
10
0.0000000000
20
0.0000000000
3
*D14
1

0
TEXT
5
2B2
100
AcDbEntity
8
0
100
AcDbText
62
5
6
CONTINUOUS
10
332.0867322272
20
111.1971715117
7
STANDARD
40
3.5000000000
1
19
41
0.7143000000
72
0
100
AcDbText
0
LINE
5
2B3
100
AcDbEntity
8
0
100
AcDbLine
62
2
6
CONTINUOUS
10
324.9328986667
20
133.8113861040
11
324.9328986667
21
108.8221715117
0
LINE
5
2B4
100
AcDbEntity
8
0
100
AcDbLine
62
2
6
CONTINUOUS
10
343.9428648737
20
136.0739560673
11
343.9428648737
21
108.8221715117
0
LINE
5
2B5
100
AcDbEntity
8
0
100
AcDbLine
62
2
6
CONTINUOUS
10
324.9328986667
20
110.3221715117
11
334.4378817702
21
110.3221715117
0
LINE
5
2B6
100
AcDbEntity
8
0
100
AcDbLine
62
2
6
CONTINUOUS
10
343.9428648737
20
110.3221715117
11
334.4378817702
21
110.3221715117
0
INSERT
5
2B7
100
AcDbEntity
8
0
100
AcDbBlockReference
62
2
6
CONTINUOUS
2
_FILLED
10
324.9328986667
20
110.3221715117
41
  3.500000
42
  3.500000
43
  3.500000
50
180.000000
0
INSERT
5
2B8
100
AcDbEntity
8
0
100
AcDbBlockReference
62
2
6
CONTINUOUS
2
_FILLED
10
343.9428648737
20
110.3221715117
41
  3.500000
42
  3.500000
43
  3.500000
0
ENDBLK
5
2B9
100
AcDbEntity
8
0
6
BYBLOCK
62
0
100
AcDbBlockEnd
0
BLOCK
5
2BA
100
AcDbEntity
8
0
100
AcDbBlockBegin
2
_FILLED
70
64
10
0.0000000000
20
0.0000000000
3
_FILLED
1

0
SOLID
5
2BB
100
AcDbEntity
8
0
6
BYBLOCK
62
0
100
AcDbTrace
10
0.0000000000
20
0.0000000000
11
-1.0000000000
21
0.1857142857
12
-1.0000000000
22
-0.1857142857
13
-1.0000000000
23
-0.1857142857
0
ENDBLK
5
2BC
100
AcDbEntity
8
0
6
BYBLOCK
62
0
100
AcDbBlockEnd
0
ENDSEC
0
SECTION
2
ENTITIES
0
TEXT
5
2BD
100
AcDbEntity
8
0
100
AcDbText
62
7
6
CONTINUOUS
10
135.9939554576
20
98.2037672458
7
STANDARD
40
3.5000000000
1
B
41
0.7143000000
72
0
100
AcDbText
0
LINE
5
2BE
100
AcDbEntity
8
0
100
AcDbLine
62
7
6
CONTINUOUS
10
152.2316073136
20
103.4537672458
11
134.7439304576
21
103.4537672458
0
SOLID
5
2BF
100
AcDbEntity
8
0
100
AcDbTrace
62
7
6
CONTINUOUS
10
145.2316073136
20
102.4537672458
11
152.2316073136
21
103.4537672458
12
145.2316073136
22
104.4537672458
13
145.2316073136
23
104.4537672458
0
TEXT
5
2C0
100
AcDbEntity
8
0
100
AcDbText
62
7
6
CONTINUOUS
10
132.8009936089
20
196.5818894394
7
STANDARD
40
3.5000000000
1
B
41
0.7143000000
72
0
100
AcDbText
0
LINE
5
2C1
100
AcDbEntity
8
0
100
AcDbLine
62
7
6
CONTINUOUS
10
152.2316073136
20
194.8318894394
11
131.5509686089
21
194.8318894394
0
SOLID
5
2C2
100
AcDbEntity
8
0
100
AcDbTrace
62
7
6
CONTINUOUS
10
145.2316073136
20
193.8318894394
11
152.2316073136
21
194.8318894394
12
145.2316073136
22
195.8318894394
13
145.2316073136
23
195.8318894394
0
DIMENSION
5
2C3
100
AcDbEntity
8
0
100
AcDbDimension
62
2
6
CONTINUOUS
2
*D0
10
91.7316073136
20
90.5772356718
11
151.7530568931
21
93.2022356718
70
160
42
121.000000
3
DIMSTYLE_1
100
AcDbAlignedDimension
13
212.7316073136
23
133.8402013636
14
91.7316073136
24
134.4470168658
50
180.000000
100
AcDbRotatedDimension
0
DIMENSION
5
2C4
100
AcDbEntity
8
0
100
AcDbDimension
62
2
6
CONTINUOUS
2
*D1
10
152.2316073136
20
-61.0630198630
11
238.1386803700
21
185.3343403569
70
164
42
232.000000
1
<>
3
DIMSTYLE_2
100
AcDbRadialDimension
15
230.8097561657
25
157.2245760351
0
DIMENSION
5
2C5
100
AcDbEntity
8
0
100
AcDbDimension
62
2
6
CONTINUOUS
2
*D2
10
283.3717618850
20
147.4369801370
11
280.7467618850
21
181.3284459686
70
160
42
23.500000
3
DIMSTYLE_3
100
AcDbAlignedDimension
13
173.6362262409
23
170.9369801370
14
220.0562147585
24
147.4369801370
50
270.000000
100
AcDbRotatedDimension
0
DIMENSION
5
2C6
100
AcDbEntity
8
0
100
AcDbDimension
62
2
6
CONTINUOUS
2
*D3
10
215.3122615586
20
146.4868624244
11
199.3099815101
21
155.1756667305
70
163
42
5.500000
1
<>
3
DIMSTYLE_4
100
AcDbDiametricDimension
15
210.1509530686
25
148.3870978496
0
DIMENSION
5
2C7
100
AcDbEntity
8
0
100
AcDbDimension
62
2
6
CONTINUOUS
2
*D4
10
210.1316073136
20
113.0095691972
11
200.7821182581
21
115.6345691972
70
160
42
5.200000
3
DIMSTYLE_5
100
AcDbAlignedDimension
13
215.3316073136
23
145.0411564936
14
210.1316073136
24
145.0411564936
50
180.000000
100
AcDbRotatedDimension
0
DIMENSION
5
2C8
100
AcDbEntity
8
0
100
AcDbDimension
62
2
6
CONTINUOUS
2
*D5
10
10.2316073136
20
122.1369801370
11
7.6066073136
21
126.7912806352
70
160
42
10.000000
3
DIMSTYLE_6
100
AcDbAlignedDimension
13
35.2316073136
23
132.1369801370
14
30.9816073136
24
122.1369801370
50
270.000000
100
AcDbRotatedDimension
0
DIMENSION
5
2C9
100
AcDbEntity
8
0
100
AcDbDimension
62
2
6
CONTINUOUS
2
*D6
10
304.8185493412
20
122.1369801370
11
302.1935493412
21
138.8803007124
70
160
42
10.000000
3
DIMSTYLE_6
100
AcDbAlignedDimension
13
269.2316073136
23
132.1369801370
14
273.4816073136
24
122.1369801370
50
270.000000
100
AcDbRotatedDimension
0
DIMENSION
5
2CA
100
AcDbEntity
8
0
100
AcDbDimension
62
2
6
CONTINUOUS
2
*D7
10
10.2316073136
20
170.9369801370
11
7.6066073136
21
149.7578755828
70
160
42
38.800000
3
DIMSTYLE_7
100
AcDbAlignedDimension
13
32.9946660742
23
132.1369801370
14
151.7316073136
24
170.9369801370
50
90.000000
100
AcDbRotatedDimension
0
DIMENSION
5
2CB
100
AcDbEntity
8
0
100
AcDbDimension
62
2
6
CONTINUOUS
2
*D8
10
30.2316073136
20
170.9369801370
11
27.6066073136
21
179.8441639316
70
160
42
13.750000
3
DIMSTYLE_3
100
AcDbAlignedDimension
13
140.5064843733
23
157.1869801370
14
151.7316073136
24
170.9369801370
50
90.000000
100
AcDbRotatedDimension
0
DIMENSION
5
2CC
100
AcDbEntity
8
0
100
AcDbDimension
62
2
6
CONTINUOUS
2
*D9
10
20.2316073136
20
170.9369801370
11
17.6066073136
21
178.8518805523
70
160
42
23.500000
3
DIMSTYLE_3
100
AcDbAlignedDimension
13
86.9637572941
23
147.4369801370
14
151.7316073136
24
170.9369801370
50
90.000000
100
AcDbRotatedDimension
0
DIMENSION
5
2CD
100
AcDbEntity
8
0
100
AcDbDimension
62
2
6
CONTINUOUS
2
*D10
10
30.2316073136
20
80.5772356718
11
152.2614416731
21
83.2022356718
70
160
42
244.000000
3
DIMSTYLE_8
100
AcDbAlignedDimension
13
274.2316073136
23
122.8869801370
14
30.2316073136
24
122.8869801370
50
180.000000
100
AcDbRotatedDimension
0
DIMENSION
5
2CE
100
AcDbEntity
8
0
100
AcDbDimension
62
2
6
CONTINUOUS
2
*D11
10
158.3009164390
20
165.4468824814
11
167.6175247625
21
182.5592955727
70
163
42
20.500000
1
<>
3
DIMSTYLE_9
100
AcDbDiametricDimension
15
146.1622981882
25
148.9270777925
0
DIMENSION
5
2CF
100
AcDbEntity
8
0
100
AcDbDimension
62
2
6
CONTINUOUS
2
*D12
10
422.0052367656
20
122.1369801370
11
419.3802367656
21
144.6913110272
70
160
42
48.800000
3
DIMSTYLE_10
100
AcDbAlignedDimension
13
408.3442961964
23
170.9369801370
14
408.7701673446
24
122.1369801370
50
270.000000
100
AcDbRotatedDimension
0
DIMENSION
5
2D0
100
AcDbEntity
8
0
100
AcDbDimension
62
2
6
CONTINUOUS
2
*D13
10
408.9328986667
20
99.2743504768
11
368.9771302138
21
101.8993504768
70
160
42
84.000000
3
DIMSTYLE_10
100
AcDbAlignedDimension
13
324.9328986667
23
133.8113861040
14
408.9328986667
24
133.8113861040
100
AcDbRotatedDimension
0
DIMENSION
5
2D1
100
AcDbEntity
8
0
100
AcDbDimension
62
2
6
CONTINUOUS
2
*D14
10
343.9428648737
20
110.3221715117
11
334.5867822272
21
112.9471715117
70
160
42
19.009966
3
DIMSTYLE_11
100
AcDbAlignedDimension
13
324.9328986667
23
133.8113861040
14
343.9428648737
24
136.0739560673
100
AcDbRotatedDimension
0
MTEXT
5
2D2
100
AcDbEntity
8
0
100
AcDbMText
62
5
6
CONTINUOUS
7
STANDARD
71
1
72
1
10
96.0266278895
20
190.2315734580
30
0.0000000000
11
1.0000000000
21
0.0000000000
31
0.0000000000
1
SEZIONE Z-Z
40
3.5000000000
41
27.5005500000
0
TEXT
5
2D3
100
AcDbEntity
8
0
100
AcDbText
62
5
6
CONTINUOUS
10
226.2691798969
20
99.6876845735
7
STANDARD
40
3.5000000000
1
 
41
0.7500000000
72
0
100
AcDbText
0
TEXT
5
2D4
100
AcDbEntity
8
0
100
AcDbText
62
5
6
CONTINUOUS
10
228.8941798969
20
99.6876845735
7
STANDARD
40
3.5000000000
1
2.5
41
0.7143000000
72
0
100
AcDbText
0
LINE
5
2D5
100
AcDbEntity
8
0
100
AcDbLine
62
2
6
CONTINUOUS
10
234.2080599813
20
122.1369801370
11
244.5587328218
21
101.4376845735
0
LINE
5
2D6
100
AcDbEntity
8
0
100
AcDbLine
62
2
6
CONTINUOUS
10
244.5587328218
20
101.4376845735
11
238.1443298969
21
101.4376845735
0
SOLID
5
2D7
100
AcDbEntity
8
0
100
AcDbTrace
62
2
6
CONTINUOUS
10
236.3547977408
20
119.2972588493
11
234.2080599813
21
122.1369801370
12
235.1920654254
22
118.7158351114
13
235.1920654254
23
118.7158351114
0
MTEXT
5
2D8
100
AcDbEntity
8
0
100
AcDbMText
62
5
6
CONTINUOUS
7
STANDARD
71
1
72
1
10
355.7084056471
20
89.9537270673
30
0.0000000000
11
1.0000000000
21
0.0000000000
31
0.0000000000
1
SEZIONE B-B
40
3.5000000000
41
27.5005500000
0
LINE
5
2D9
100
AcDbEntity
8
0
100
AcDbLine
62
7
6
CONTINUOUS
10
0.0000000000
20
0.0000000000
11
0.0000000000
21
297.0000000000
0
LINE
5
2DA
100
AcDbEntity
8
0
100
AcDbLine
62
7
6
CONTINUOUS
10
0.0000000000
20
0.0000000000
11
420.0000000000
21
0.0000000000
0
LINE
5
2DB
100
AcDbEntity
8
DEFAULT_1
100
AcDbLine
62
2
6
CENTER
10
31.4816073136
20
122.1369801370
11
272.9816073136
21
122.1369801370
0
LINE
5
2DC
100
AcDbEntity
8
0
100
AcDbLine
62
2
6
CONTINUOUS
10
331.9394471966
20
154.5450451942
11
324.9940930715
21
148.7888552634
0
LINE
5
2DD
100
AcDbEntity
8
0
100
AcDbLine
62
2
6
CONTINUOUS
10
324.9275017510
20
154.5353237590
11
331.9275017510
21
148.4837102908
0
LINE
5
2DE
100
AcDbEntity
8
0
100
AcDbLine
62
2
6
CONTINUOUS
10
408.8985471394
20
154.5082289096
11
401.8985471394
21
148.4566154414
0
LINE
5
2DF
100
AcDbEntity
8
0
100
AcDbLine
62
2
6
CONTINUOUS
10
401.9260063561
20
154.5288324910
11
408.9260063561
21
148.4772190227
0
LINE
5
2E0
100
AcDbEntity
8
0
100
AcDbLine
62
7
6
CONTINUOUS
10
0.0000000000
20
297.0000000000
11
420.0000000000
21
297.0000000000
0
LINE
5
2E1
100
AcDbEntity
8
0
100
AcDbLine
62
7
6
CONTINUOUS
10
420.0000000000
20
0.0000000000
11
420.0000000000
21
297.0000000000
0
LINE
5
2E2
100
AcDbEntity
8
0
100
AcDbLine
62
7
6
CONTINUOUS
10
30.2316073136
20
133.6369801370
11
30.2316073136
21
123.3869801318
0
LINE
5
2E3
100
AcDbEntity
8
0
100
AcDbLine
62
7
6
CONTINUOUS
10
32.7316073136
20
123.3869801370
11
32.7316073136
21
129.1369804298
0
LINE
5
2E4
100
AcDbEntity
8
0
100
AcDbLine
62
7
6
CONTINUOUS
10
35.3316073136
20
132.1101938864
11
35.3316073136
21
132.1369801370
0
LINE
5
2E5
100
AcDbEntity
8
0
100
AcDbLine
62
7
6
CONTINUOUS
10
35.3316073136
20
132.1369801370
11
37.6228551192
21
134.6374383453
0
LINE
5
2E6
100
AcDbEntity
8
0
100
AcDbLine
62
7
6
CONTINUOUS
10
89.1316073136
20
146.5411564936
11
89.1316073136
21
145.5411564936
0
LINE
5
2E7
100
AcDbEntity
8
DEFAULT_1
100
AcDbLine
62
2
6
CENTER
10
91.7316073136
20
147.4369801370
11
91.7316073136
21
136.2061272883
0
LINE
5
2E8
100
AcDbEntity
8
DEFAULT_1
100
AcDbLine
62
2
6
CENTER
10
91.7316073136
20
147.4369801370
11
91.7316073136
21
153.1083505417
0
LINE
5
2E9
100
AcDbEntity
8
0
100
AcDbLine
62
7
6
CONTINUOUS
10
94.3316073136
20
145.5411564936
11
94.3316073136
21
146.5411564936
0
LINE
5
2EA
100
AcDbEntity
8
0
100
AcDbLine
62
7
6
CONTINUOUS
10
89.1316073136
20
145.5411564936
11
87.5575381115
21
139.6666502567
0
LINE
5
2EB
100
AcDbEntity
8
0
100
AcDbLine
62
7
6
CONTINUOUS
10
95.9549194191
20
139.4828732393
11
94.3316073136
21
145.5411564936
0
LINE
5
2EC
100
AcDbEntity
8
0
100
AcDbLine
62
2
6
CONTINUOUS
10
215.9150132302
20
97.9376845735
11
238.1443298969
21
97.9376845735
0
LINE
5
2ED
100
AcDbEntity
8
0
100
AcDbLine
62
2
6
CONTINUOUS
10
238.1443298969
20
104.9376845735
11
215.9150132302
21
104.9376845735
0
LINE
5
2EE
100
AcDbEntity
8
0
100
AcDbLine
62
2
6
CONTINUOUS
10
153.1800714856
20
169.8531094710
11
154.2201732232
21
170.8932112087
0
LINE
5
2EF
100
AcDbEntity
8
0
100
AcDbLine
62
7
6
CONTINUOUS
10
142.3316073136
20
154.5313257920
11
142.3316073136
21
143.9580983320
0
LINE
5
2F0
100
AcDbEntity
8
0
100
AcDbLine
62
7
6
CONTINUOUS
10
137.2321784676
20
154.3178781695
11
137.0531788316
21
133.8065515016
0
LINE
5
2F1
100
AcDbEntity
8
0
100
AcDbLine
62
7
6
CONTINUOUS
10
141.1471399885
20
134.3113861040
11
143.3316073136
21
152.1024447600
0
LINE
5
2F2
100
AcDbEntity
8
0
100
AcDbLine
62
2
6
CONTINUOUS
10
153.2202976705
20
168.4791220936
11
155.6039298890
21
170.8627543120
0
LINE
5
2F3
100
AcDbEntity
8
0
100
AcDbLine
62
2
6
CONTINUOUS
10
153.5066356400
20
167.3512465007
11
156.9876865548
21
170.8322974154
0
LINE
5
2F4
100
AcDbEntity
8
0
100
AcDbLine
62
2
6
CONTINUOUS
10
154.6978995325
20
167.1282968308
11
158.3714432205
21
170.8018405188
0
LINE
5
2F5
100
AcDbEntity
8
0
100
AcDbLine
62
2
6
CONTINUOUS
10
155.7804381434
20
166.7966218793
11
159.7551998863
21
170.7713836222
0
LINE
5
2F6
100
AcDbEntity
8
0
100
AcDbLine
62
2
6
CONTINUOUS
10
156.7733255210
20
166.3752956946
11
161.1389565520
21
170.7409267256
0
LINE
5
2F7
100
AcDbEntity
8
0
100
AcDbLine
62
2
6
CONTINUOUS
10
157.6756187652
20
165.8633753764
11
162.5186688126
21
170.7064254237
0
LINE
5
2F8
100
AcDbEntity
8
0
100
AcDbLine
62
2
6
CONTINUOUS
10
158.5041905676
20
165.2777336164
11
163.8453374618
21
170.6188805106
0
LINE
5
2F9
100
AcDbEntity
8
0
100
AcDbLine
62
2
6
CONTINUOUS
10
159.2630820063
20
164.6224114928
11
165.1720061110
21
170.5313355974
0
LINE
5
2FA
100
AcDbEntity
8
0
100
AcDbLine
62
7
6
CONTINUOUS
10
207.6642387252
20
138.7491461328
11
164.4304901337
21
133.4407092958
0
LINE
5
2FB
100
AcDbEntity
8
0
100
AcDbLine
62
7
6
CONTINUOUS
10
96.7989759020
20
138.7491461328
11
140.0327244935
21
133.4407092958
0
LINE
5
2FC
100
AcDbEntity
8
DEFAULT_1
100
AcDbLine
62
2
6
CENTER
10
152.2316073136
20
157.1869801370
11
152.2316073136
21
108.4537672458
0
LINE
5
2FD
100
AcDbEntity
8
DEFAULT_1
100
AcDbLine
62
2
6
CENTER
10
152.2316073136
20
103.4537672458
11
152.2316073136
21
97.7616980723
0
LINE
5
2FE
100
AcDbEntity
8
DEFAULT_1
100
AcDbLine
62
7
6
CENTER
10
152.2316073136
20
103.4537672458
11
152.2316073136
21
108.4537672458
0
LINE
5
2FF
100
AcDbEntity
8
DEFAULT_1
100
AcDbLine
62
7
6
CENTER
10
152.2316073136
20
189.8318894394
11
152.2316073136
21
194.8318894394
0
LINE
5
300
100
AcDbEntity
8
DEFAULT_1
100
AcDbLine
62
2
6
CENTER
10
152.2316073136
20
157.1869801370
11
152.2316073136
21
189.8318894394
0
LINE
5
301
100
AcDbEntity
8
DEFAULT_1
100
AcDbLine
62
2
6
CENTER
10
152.2316073136
20
194.8318894394
11
152.2316073136
21
196.9207247524
0
LINE
5
302
100
AcDbEntity
8
0
100
AcDbLine
62
2
6
CONTINUOUS
10
153.2212929457
20
170.9348572197
11
153.1655149112
21
169.4711108342
0
LINE
5
303
100
AcDbEntity
8
0
100
AcDbLine
62
2
6
CONTINUOUS
10
159.9548483184
20
163.8999642424
11
166.4986747602
21
170.4437906843
0
LINE
5
304
100
AcDbEntity
8
0
100
AcDbLine
62
2
6
CONTINUOUS
10
160.5788567808
20
163.1097591425
11
164.2240375093
21
166.7549398710
0
LINE
5
305
100
AcDbEntity
8
0
100
AcDbLine
62
2
6
CONTINUOUS
10
165.0352239843
20
167.5661263459
11
167.8253434095
21
170.3562457712
0
LINE
5
306
100
AcDbEntity
8
0
100
AcDbLine
62
2
6
CONTINUOUS
10
161.1318130386
20
162.2485018379
11
164.2115872024
21
165.3282760017
0
LINE
5
307
100
AcDbEntity
8
0
100
AcDbLine
62
2
6
CONTINUOUS
10
166.3569588546
20
167.4736476540
11
169.1520120587
21
170.2687008580
0
LINE
5
308
100
AcDbEntity
8
0
100
AcDbLine
62
2
6
CONTINUOUS
10
161.6088431013
20
161.3113183383
11
164.1991368954
21
163.9016121323
0
LINE
5
309
100
AcDbEntity
8
0
100
AcDbLine
62
2
6
CONTINUOUS
10
167.6786937250
20
167.3811689620
11
170.4786807079
21
170.1811559449
0
LINE
5
30A
100
AcDbEntity
8
0
100
AcDbLine
62
2
6
CONTINUOUS
10
161.9988702757
20
160.2871319503
11
164.1866865884
21
162.4749482630
0
LINE
5
30B
100
AcDbEntity
8
0
100
AcDbLine
62
2
6
CONTINUOUS
10
169.0004285954
20
167.2886902700
11
171.8053493571
21
170.0936110317
0
LINE
5
30C
100
AcDbEntity
8
0
100
AcDbLine
62
2
6
CONTINUOUS
10
162.2881875711
20
159.1622356833
11
164.1742362815
21
161.0482843937
0
LINE
5
30D
100
AcDbEntity
8
0
100
AcDbLine
62
2
6
CONTINUOUS
10
170.3221634658
20
167.1962115780
11
173.1106858930
21
169.9847340052
0
LINE
5
30E
100
AcDbEntity
8
0
100
AcDbLine
62
2
6
CONTINUOUS
10
162.4496654322
20
157.9094999821
11
164.1617859745
21
159.6216205243
0
LINE
5
30F
100
AcDbEntity
8
0
100
AcDbLine
62
2
6
CONTINUOUS
10
171.6438983362
20
167.1037328860
11
173.8789833382
21
169.3388178881
0
LINE
5
310
100
AcDbEntity
8
0
100
AcDbLine
62
2
6
CONTINUOUS
10
162.4433845122
20
156.4890054996
11
164.1493356675
21
158.1949566550
0
LINE
5
311
100
AcDbEntity
8
0
100
AcDbLine
62
2
6
CONTINUOUS
10
172.9409588974
20
166.9865798848
11
174.0483763579
21
168.0939973453
0
LINE
5
312
100
AcDbEntity
8
0
100
AcDbLine
62
7
6
CONTINUOUS
10
86.6787680279
20
138.9292746037
11
37.6228551192
21
134.6374383453
0
LINE
5
313
100
AcDbEntity
8
DEFAULT_1
100
AcDbLine
62
2
6
CENTER
10
212.7316073136
20
147.4369801370
11
207.7067665790
21
147.4369801370
0
LINE
5
314
100
AcDbEntity
8
DEFAULT_1
100
AcDbLine
62
2
6
CENTER
10
91.7316073136
20
147.4369801370
11
87.4637572941
21
147.4369801370
0
LINE
5
315
100
AcDbEntity
8
DEFAULT_1
100
AcDbLine
62
2
6
CENTER
10
91.7316073136
20
147.4369801370
11
96.5079293858
21
147.4369801370
0
LINE
5
316
100
AcDbEntity
8
DEFAULT_1
100
AcDbLine
62
2
6
CENTER
10
212.7316073136
20
147.4369801370
11
218.0853247170
21
147.4369801370
0
LINE
5
317
100
AcDbEntity
8
0
100
AcDbLine
62
7
6
CONTINUOUS
10
266.8403595080
20
134.6374383453
11
217.7844465992
21
138.9292746037
0
LINE
5
318
100
AcDbEntity
8
0
100
AcDbLine
62
2
6
CONTINUOUS
10
153.1655149112
20
169.4711108342
11
153.2808257581
21
167.3830987807
0
LINE
5
319
100
AcDbEntity
8
0
100
AcDbLine
62
2
6
CONTINUOUS
10
162.1919931179
20
154.8234005430
11
164.1368853606
21
156.7682927856
0
LINE
5
31A
100
AcDbEntity
8
0
100
AcDbLine
62
2
6
CONTINUOUS
10
162.1316073136
20
153.3488011763
11
164.1244350536
21
155.3416289163
0
LINE
5
31B
100
AcDbEntity
8
0
100
AcDbLine
62
2
6
CONTINUOUS
10
162.1316073136
20
151.9345876139
11
164.1119847466
21
153.9149650470
0
LINE
5
31C
100
AcDbEntity
8
0
100
AcDbLine
62
2
6
CONTINUOUS
10
162.1316073136
20
150.5203740516
11
164.0995344397
21
152.4883011776
0
LINE
5
31D
100
AcDbEntity
8
0
100
AcDbLine
62
2
6
CONTINUOUS
10
162.1316073136
20
149.1061604892
11
164.0870841327
21
151.0616373083
0
LINE
5
31E
100
AcDbEntity
8
0
100
AcDbLine
62
2
6
CONTINUOUS
10
162.1316073136
20
147.6919469268
11
164.0746338257
21
149.6349734389
0
LINE
5
31F
100
AcDbEntity
8
0
100
AcDbLine
62
2
6
CONTINUOUS
10
162.1316073136
20
146.2777333644
11
164.0621835187
21
148.2083095696
0
LINE
5
320
100
AcDbEntity
8
0
100
AcDbLine
62
2
6
CONTINUOUS
10
162.1316073136
20
144.8635198021
11
164.0497332118
21
146.7816457002
0
LINE
5
321
100
AcDbEntity
8
0
100
AcDbLine
62
2
6
CONTINUOUS
10
162.1872473855
20
143.5049463115
11
164.0372829048
21
145.3549818309
0
LINE
5
322
100
AcDbEntity
8
DEFAULT_1
100
AcDbLine
62
2
6
CENTER
10
152.2316073136
20
154.1869801370
11
134.0207800444
21
154.1869801370
0
LINE
5
323
100
AcDbEntity
8
DEFAULT_1
100
AcDbLine
62
2
6
CENTER
10
152.2316073136
20
154.1869801370
11
168.2489430465
21
154.1869801370
0
LINE
5
324
100
AcDbEntity
8
0
100
AcDbLine
62
7
6
CONTINUOUS
10
162.1316073136
20
143.9580983320
11
162.1316073136
21
154.5313257920
0
LINE
5
325
100
AcDbEntity
8
0
100
AcDbLine
62
7
6
CONTINUOUS
10
164.2316073136
20
167.6223535215
11
163.9585578049
21
136.3339788981
0
LINE
5
326
100
AcDbEntity
8
0
100
AcDbLine
62
7
6
CONTINUOUS
10
167.2310361596
20
145.5560821045
11
167.4216577529
21
167.3991531667
0
LINE
5
327
100
AcDbEntity
8
0
100
AcDbLine
62
2
6
CONTINUOUS
10
162.3419018021
20
142.2453871658
11
164.0248325978
21
143.9283179616
0
LINE
5
328
100
AcDbEntity
8
0
100
AcDbLine
62
2
6
CONTINUOUS
10
162.4965562187
20
140.9858280201
11
164.0123822909
21
142.5016540922
0
LINE
5
329
100
AcDbEntity
8
0
100
AcDbLine
62
2
6
CONTINUOUS
10
162.6512106354
20
139.7262688743
11
163.9999319839
21
141.0749902229
0
LINE
5
32A
100
AcDbEntity
8
0
100
AcDbLine
62
2
6
CONTINUOUS
10
162.8058650520
20
138.4667097286
11
163.9874816769
21
139.6483263535
0
LINE
5
32B
100
AcDbEntity
8
0
100
AcDbLine
62
2
6
CONTINUOUS
10
162.9605194687
20
137.2071505829
11
163.9750313700
21
138.2216624842
0
LINE
5
32C
100
AcDbEntity
8
0
100
AcDbLine
62
2
6
CONTINUOUS
10
163.1151738853
20
135.9475914371
11
163.9625810630
21
136.7949986148
0
LINE
5
32D
100
AcDbEntity
8
DEFAULT_1
100
AcDbLine
62
2
6
CENTER
10
152.2316073136
20
157.1869801370
11
141.0064843733
21
157.1869801370
0
LINE
5
32E
100
AcDbEntity
8
DEFAULT_1
100
AcDbLine
62
2
6
CENTER
10
152.2316073136
20
157.1869801370
11
163.5443975239
21
157.1869801370
0
LINE
5
32F
100
AcDbEntity
8
0
100
AcDbLine
62
7
6
CONTINUOUS
10
161.1316073136
20
152.1024447600
11
163.1253678640
21
135.8645681427
0
LINE
5
330
100
AcDbEntity
8
0
100
AcDbLine
62
7
6
CONTINUOUS
10
163.3160746387
20
134.3113861040
11
163.1436100787
21
135.7159972267
0
LINE
5
331
100
AcDbEntity
8
0
100
AcDbLine
62
2
6
CONTINUOUS
10
172.2786686311
20
143.3803045993
11
171.9481592559
21
147.4711449920
0
LINE
5
332
100
AcDbEntity
8
0
100
AcDbLine
62
2
6
CONTINUOUS
10
172.4392147543
20
139.3452025485
11
172.2786686311
21
143.3803045993
0
LINE
5
333
100
AcDbEntity
8
0
100
AcDbLine
62
2
6
CONTINUOUS
10
174.3604437075
20
163.4293344408
11
174.3205361121
21
165.7080639949
0
LINE
5
334
100
AcDbEntity
8
0
100
AcDbLine
62
2
6
CONTINUOUS
10
171.9481592559
20
147.4711449920
11
171.9583870409
21
149.9460845046
0
LINE
5
335
100
AcDbEntity
8
0
100
AcDbLine
62
2
6
CONTINUOUS
10
171.9583870409
20
149.9460845046
11
172.1799065894
21
152.3805650106
0
LINE
5
336
100
AcDbEntity
8
0
100
AcDbLine
62
2
6
CONTINUOUS
10
173.9721239916
20
160.5893604308
11
174.3604437075
21
163.4293344408
0
LINE
5
337
100
AcDbEntity
8
0
100
AcDbLine
62
2
6
CONTINUOUS
10
172.1799065894
20
152.3805650106
11
172.5976204544
21
154.8007785179
0
LINE
5
338
100
AcDbEntity
8
0
100
AcDbLine
62
2
6
CONTINUOUS
10
171.6698187423
20
135.5952830765
11
172.4392147543
21
139.3452025485
0
LINE
5
339
100
AcDbEntity
8
0
100
AcDbLine
62
2
6
CONTINUOUS
10
173.2927768276
20
157.7025165096
11
173.9721239916
21
160.5893604308
0
LINE
5
33A
100
AcDbEntity
8
0
100
AcDbLine
62
2
6
CONTINUOUS
10
172.5976204544
20
154.8007785179
11
173.2927768276
21
157.7025165096
0
LINE
5
33B
100
AcDbEntity
8
0
100
AcDbLine
62
2
6
CONTINUOUS
10
170.8907840246
20
134.2339336445
11
171.6698187423
21
135.5952830765
0
LINE
5
33C
100
AcDbEntity
8
0
100
AcDbLine
62
2
6
CONTINUOUS
10
174.0542700313
20
168.0506864356
11
173.7982154159
21
169.9323581010
0
LINE
5
33D
100
AcDbEntity
8
0
100
AcDbLine
62
2
6
CONTINUOUS
10
174.3205361121
20
165.7080639949
11
174.0542700313
21
168.0506864356
0
LINE
5
33E
100
AcDbEntity
8
0
100
AcDbLine
62
7
6
CONTINUOUS
10
210.1316073136
20
146.5411564936
11
210.1316073136
21
145.5411564936
0
LINE
5
33F
100
AcDbEntity
8
0
100
AcDbLine
62
7
6
CONTINUOUS
10
210.1316073136
20
145.5411564936
11
208.5082952081
21
139.4828732393
0
LINE
5
340
100
AcDbEntity
8
DEFAULT_1
100
AcDbLine
62
2
6
CENTER
10
212.7316073136
20
147.4369801370
11
212.7316073136
21
136.3543924046
0
LINE
5
341
100
AcDbEntity
8
DEFAULT_1
100
AcDbLine
62
2
6
CENTER
10
212.7316073136
20
147.4369801370
11
212.7316073136
21
152.3670249604
0
LINE
5
342
100
AcDbEntity
8
0
100
AcDbLine
62
7
6
CONTINUOUS
10
215.3316073136
20
145.5411564936
11
215.3316073136
21
146.5411564936
0
LINE
5
343
100
AcDbEntity
8
0
100
AcDbLine
62
2
6
CONTINUOUS
10
215.9150132302
20
104.9376845735
11
215.9150132302
21
97.9376845735
0
LINE
5
344
100
AcDbEntity
8
0
100
AcDbLine
62
7
6
CONTINUOUS
10
216.9056765157
20
139.6666502567
11
215.3316073136
21
145.5411564936
0
LINE
5
345
100
AcDbEntity
8
0
100
AcDbLine
62
2
6
CONTINUOUS
10
227.5816798969
20
97.9376845735
11
227.5816798969
21
104.9376845735
0
LWPOLYLINE
5
346
100
AcDbEntity
8
0
100
AcDbPolyline
62
5
6
CONTINUOUS
90
5
70
0
43
0.100000
10
217.6650256348
20
99.6876892090
10
219.7066809082
20
103.3335168457
10
225.1025170898
20
103.3335168457
10
223.0608361816
20
99.6876892090
10
217.6650256348
20
99.6876892090
0
LINE
5
347
100
AcDbEntity
8
0
100
AcDbLine
62
7
6
CONTINUOUS
10
266.8403595080
20
134.6374383453
11
269.1316073136
21
132.1369801370
0
LINE
5
348
100
AcDbEntity
8
0
100
AcDbLine
62
2
6
CONTINUOUS
10
238.1443298969
20
97.9376845735
11
238.1443298969
21
104.9376845735
0
LINE
5
349
100
AcDbEntity
8
0
100
AcDbLine
62
7
6
CONTINUOUS
10
269.1316073136
20
132.1101938864
11
269.1316073136
21
132.1369801370
0
LINE
5
34A
100
AcDbEntity
8
0
100
AcDbLine
62
7
6
CONTINUOUS
10
271.7316073136
20
129.1369801370
11
271.7316073136
21
123.3869801370
0
LINE
5
34B
100
AcDbEntity
8
0
100
AcDbLine
62
7
6
CONTINUOUS
10
274.2316073136
20
123.3869803260
11
274.2316073136
21
133.6369801370
0
LINE
5
34C
100
AcDbEntity
8
0
100
AcDbLine
62
2
6
CONTINUOUS
10
326.8313308322
20
170.9369801370
11
326.0143716421
21
170.1200209469
0
LINE
5
34D
100
AcDbEntity
8
0
100
AcDbLine
62
2
6
CONTINUOUS
10
325.0813308322
20
169.1869801370
11
324.9328986667
21
169.0385479714
0
LINE
5
34E
100
AcDbEntity
8
0
100
AcDbLine
62
7
6
CONTINUOUS
10
324.9328986667
20
133.4354575911
11
324.9328986667
21
169.1869801370
0
LINE
5
34F
100
AcDbEntity
8
0
100
AcDbLine
62
2
6
CONTINUOUS
10
328.3346287135
20
170.9369801370
11
324.9328986667
21
167.5352500902
0
LINE
5
350
100
AcDbEntity
8
0
100
AcDbLine
62
2
6
CONTINUOUS
10
329.8379265948
20
170.9369801370
11
326.3379265948
21
167.4369801370
0
LINE
5
351
100
AcDbEntity
8
0
100
AcDbLine
62
2
6
CONTINUOUS
10
331.3412244760
20
170.9369801370
11
327.8412244760
21
167.4369801370
0
LINE
5
352
100
AcDbEntity
8
0
100
AcDbLine
62
7
6
CONTINUOUS
10
325.5956299888
20
122.1369801370
11
325.6942110899
21
133.4332554474
0
LINE
5
353
100
AcDbEntity
8
0
100
AcDbLine
62
7
6
CONTINUOUS
10
326.0062291183
20
169.1869801370
11
326.0215011370
21
170.9369801370
0
LINE
5
354
100
AcDbEntity
8
0
100
AcDbLine
62
2
6
CONTINUOUS
10
332.8445223573
20
170.9369801370
11
329.3445223573
21
167.4369801370
0
LINE
5
355
100
AcDbEntity
8
0
100
AcDbLine
62
2
6
CONTINUOUS
10
334.3478202386
20
170.9369801370
11
330.8478202386
21
167.4369801370
0
LINE
5
356
100
AcDbEntity
8
0
100
AcDbLine
62
2
6
CONTINUOUS
10
335.8511181198
20
170.9369801370
11
332.3511181198
21
167.4369801370
0
LINE
5
357
100
AcDbEntity
8
0
100
AcDbLine
62
7
6
CONTINUOUS
10
328.6830129018
20
132.1369801370
11
328.7155430696
21
135.8645681427
0
LINE
5
358
100
AcDbEntity
8
0
100
AcDbLine
62
2
6
CONTINUOUS
10
337.3544160011
20
170.9369801370
11
333.8544160011
21
167.4369801370
0
LINE
5
359
100
AcDbEntity
8
0
100
AcDbLine
62
2
6
CONTINUOUS
10
338.8577138823
20
170.9369801370
11
335.3577138823
21
167.4369801370
0
LINE
5
35A
100
AcDbEntity
8
0
100
AcDbLine
62
2
6
CONTINUOUS
10
340.3610117636
20
170.9369801370
11
336.8610117636
21
167.4369801370
0
LINE
5
35B
100
AcDbEntity
8
0
100
AcDbLine
62
7
6
CONTINUOUS
10
331.9328986667
20
143.9580983320
11
331.9328986667
21
154.5313257739
0
LINE
5
35C
100
AcDbEntity
8
0
100
AcDbLine
62
2
6
CONTINUOUS
10
341.8643096449
20
170.9369801370
11
338.3643096449
21
167.4369801370
0
LINE
5
35D
100
AcDbEntity
8
0
100
AcDbLine
62
2
6
CONTINUOUS
10
343.3676075261
20
170.9369801370
11
339.8676075261
21
167.4369801370
0
LINE
5
35E
100
AcDbEntity
8
0
100
AcDbLine
62
2
6
CONTINUOUS
10
344.8709054074
20
170.9369801370
11
341.3709054074
21
167.4369801370
0
LINE
5
35F
100
AcDbEntity
8
0
100
AcDbLine
62
2
6
CONTINUOUS
10
346.3742032887
20
170.9369801370
11
342.8742032887
21
167.4369801370
0
LINE
5
360
100
AcDbEntity
8
0
100
AcDbLine
62
2
6
CONTINUOUS
10
347.8775011699
20
170.9369801370
11
344.3775011699
21
167.4369801370
0
LINE
5
361
100
AcDbEntity
8
0
100
AcDbLine
62
2
6
CONTINUOUS
10
349.3807990512
20
170.9369801370
11
345.8807990512
21
167.4369801370
0
LINE
5
362
100
AcDbEntity
8
0
100
AcDbLine
62
2
6
CONTINUOUS
10
350.8840969324
20
170.9369801370
11
347.3840969324
21
167.4369801370
0
LINE
5
363
100
AcDbEntity
8
0
100
AcDbLine
62
2
6
CONTINUOUS
10
352.3873948137
20
170.9369801370
11
348.8873948137
21
167.4369801370
0
LINE
5
364
100
AcDbEntity
8
0
100
AcDbLine
62
2
6
CONTINUOUS
10
353.8906926950
20
170.9369801370
11
350.3906926950
21
167.4369801370
0
LINE
5
365
100
AcDbEntity
8
0
100
AcDbLine
62
7
6
CONTINUOUS
10
343.9351446912
20
135.6893107761
11
344.2122024043
21
167.4369801370
0
LINE
5
366
100
AcDbEntity
8
0
100
AcDbLine
62
2
6
CONTINUOUS
10
355.3939905762
20
170.9369801370
11
351.8939905762
21
167.4369801370
0
LINE
5
367
100
AcDbEntity
8
0
100
AcDbLine
62
2
6
CONTINUOUS
10
356.8972884575
20
170.9369801370
11
353.3972884575
21
167.4369801370
0
LINE
5
368
100
AcDbEntity
8
0
100
AcDbLine
62
2
6
CONTINUOUS
10
358.4005863388
20
170.9369801370
11
354.9005863388
21
167.4369801370
0
LINE
5
369
100
AcDbEntity
8
0
100
AcDbLine
62
7
6
CONTINUOUS
10
325.5956299889
20
122.1369801370
11
408.2701673444
21
122.1369801370
0
LINE
5
36A
100
AcDbEntity
8
0
100
AcDbLine
62
7
6
CONTINUOUS
10
325.6065385735
20
123.3869801370
11
408.2592587599
21
123.3869801370
0
LINE
5
36B
100
AcDbEntity
8
0
100
AcDbLine
62
2
6
CONTINUOUS
10
359.9038842200
20
170.9369801370
11
356.4038842200
21
167.4369801370
0
LINE
5
36C
100
AcDbEntity
8
0
100
AcDbLine
62
2
6
CONTINUOUS
10
361.4071821013
20
170.9369801370
11
357.9071821013
21
167.4369801370
0
LINE
5
36D
100
AcDbEntity
8
0
100
AcDbLine
62
2
6
CONTINUOUS
10
362.9104799825
20
170.9369801370
11
359.4104799825
21
167.4369801370
0
LINE
5
36E
100
AcDbEntity
8
0
100
AcDbLine
62
2
6
CONTINUOUS
10
364.4137778638
20
170.9369801370
11
360.9137778638
21
167.4369801370
0
LINE
5
36F
100
AcDbEntity
8
0
100
AcDbLine
62
2
6
CONTINUOUS
10
365.9170757451
20
170.9369801370
11
362.4170757451
21
167.4369801370
0
LINE
5
370
100
AcDbEntity
8
0
100
AcDbLine
62
2
6
CONTINUOUS
10
367.4203736263
20
170.9369801370
11
363.9203736263
21
167.4369801370
0
LINE
5
371
100
AcDbEntity
8
0
100
AcDbLine
62
2
6
CONTINUOUS
10
368.9236715076
20
170.9369801370
11
365.4236715076
21
167.4369801370
0
LINE
5
372
100
AcDbEntity
8
0
100
AcDbLine
62
7
6
CONTINUOUS
10
325.6567180633
20
129.1369801370
11
408.2090792701
21
129.1369801370
0
LINE
5
373
100
AcDbEntity
8
CURVE
100
AcDbLine
62
2
6
CONTINUOUS
10
351.9328986667
20
143.9662463406
11
351.9328986667
21
145.5586844043
0
LINE
5
374
100
AcDbEntity
8
0
100
AcDbLine
62
2
6
CONTINUOUS
10
370.4269693889
20
170.9369801370
11
366.9269693889
21
167.4369801370
0
LINE
5
375
100
AcDbEntity
8
0
100
AcDbLine
62
2
6
CONTINUOUS
10
371.9302672701
20
170.9369801370
11
368.4302672701
21
167.4369801370
0
LINE
5
376
100
AcDbEntity
8
0
100
AcDbLine
62
2
6
CONTINUOUS
10
373.4335651514
20
170.9369801370
11
369.9335651514
21
167.4369801370
0
LINE
5
377
100
AcDbEntity
8
0
100
AcDbLine
62
7
6
CONTINUOUS
10
325.6826649066
20
132.1101938864
11
408.1831324268
21
132.1101938864
0
LINE
5
378
100
AcDbEntity
8
0
100
AcDbLine
62
7
6
CONTINUOUS
10
408.1828986667
20
132.1369801370
11
405.1827844315
21
132.1369801370
0
LINE
5
379
100
AcDbEntity
8
0
100
AcDbLine
62
7
6
CONTINUOUS
10
328.6830129018
20
132.1369801370
11
325.6828986667
21
132.1369801370
0
LINE
5
37A
100
AcDbEntity
8
0
100
AcDbLine
62
7
6
CONTINUOUS
10
324.9328986667
20
133.4332554474
11
328.6944688777
21
133.4332554474
0
LINE
5
37B
100
AcDbEntity
8
0
100
AcDbLine
62
7
6
CONTINUOUS
10
405.1713284557
20
133.4332554474
11
408.9328986667
21
133.4332554474
0
LINE
5
37C
100
AcDbEntity
8
0
100
AcDbLine
62
2
6
CONTINUOUS
10
374.9368630327
20
170.9369801370
11
371.4368630327
21
167.4369801370
0
LINE
5
37D
100
AcDbEntity
8
0
100
AcDbLine
62
2
6
CONTINUOUS
10
376.4401609139
20
170.9369801370
11
372.9401609139
21
167.4369801370
0
LINE
5
37E
100
AcDbEntity
8
0
100
AcDbLine
62
2
6
CONTINUOUS
10
377.9434587952
20
170.9369801370
11
374.4434587952
21
167.4369801370
0
LINE
5
37F
100
AcDbEntity
8
0
100
AcDbLine
62
7
6
CONTINUOUS
10
324.9328986667
20
134.3113861040
11
328.7019886552
21
134.3113861040
0
LINE
5
380
100
AcDbEntity
8
0
100
AcDbLine
62
7
6
CONTINUOUS
10
405.1638086781
20
134.3113861040
11
408.9328986667
21
134.3113861040
0
LINE
5
381
100
AcDbEntity
8
0
100
AcDbLine
62
7
6
CONTINUOUS
10
405.1627126356
20
134.4369801370
11
328.7030846978
21
134.4369801370
0
LINE
5
382
100
AcDbEntity
8
0
100
AcDbLine
62
7
6
CONTINUOUS
10
405.1517170974
20
135.6889420114
11
389.9305860280
21
135.6889420114
0
LINE
5
383
100
AcDbEntity
8
0
100
AcDbLine
62
7
6
CONTINUOUS
10
328.7140802360
20
135.6889420114
11
343.9352113054
21
135.6889420114
0
LINE
5
384
100
AcDbEntity
8
0
100
AcDbLine
62
7
6
CONTINUOUS
10
405.1502542638
20
135.8645681427
11
389.9291231943
21
135.8645681427
0
LINE
5
385
100
AcDbEntity
8
0
100
AcDbLine
62
7
6
CONTINUOUS
10
328.7155430696
20
135.8645681427
11
343.9366741390
21
135.8645681427
0
LINE
5
386
100
AcDbEntity
8
0
100
AcDbLine
62
7
6
CONTINUOUS
10
389.9229324597
20
136.5739560673
11
343.9428648737
21
136.5739560673
0
LINE
5
387
100
AcDbEntity
8
0
100
AcDbLine
62
2
6
CONTINUOUS
10
379.4467566764
20
170.9369801370
11
375.9467566764
21
167.4369801370
0
LINE
5
388
100
AcDbEntity
8
0
100
AcDbLine
62
2
6
CONTINUOUS
10
380.9500545577
20
170.9369801370
11
377.4500545577
21
167.4369801370
0
LINE
5
389
100
AcDbEntity
8
0
100
AcDbLine
62
2
6
CONTINUOUS
10
382.4533524390
20
170.9369801370
11
378.9533524390
21
167.4369801370
0
LINE
5
38A
100
AcDbEntity
8
0
100
AcDbLine
62
2
6
CONTINUOUS
10
383.9566503202
20
170.9369801370
11
380.4566503202
21
167.4369801370
0
LINE
5
38B
100
AcDbEntity
8
0
100
AcDbLine
62
2
6
CONTINUOUS
10
385.4599482015
20
170.9369801370
11
381.9599482015
21
167.4369801370
0
LINE
5
38C
100
AcDbEntity
8
0
100
AcDbLine
62
2
6
CONTINUOUS
10
386.9632460828
20
170.9369801370
11
383.4632460828
21
167.4369801370
0
LINE
5
38D
100
AcDbEntity
8
DEFAULT_1
100
AcDbLine
62
2
6
CENTER
10
366.9328986667
20
173.9369801370
11
366.9328986667
21
120.4991988920
0
LINE
5
38E
100
AcDbEntity
8
0
100
AcDbLine
62
2
6
CONTINUOUS
10
388.4665439640
20
170.9369801370
11
384.9665439640
21
167.4369801370
0
LINE
5
38F
100
AcDbEntity
8
0
100
AcDbLine
62
2
6
CONTINUOUS
10
389.9698418453
20
170.9369801370
11
386.4698418453
21
167.4369801370
0
LINE
5
390
100
AcDbEntity
8
0
100
AcDbLine
62
2
6
CONTINUOUS
10
391.4731397265
20
170.9369801370
11
387.9731397265
21
167.4369801370
0
LINE
5
391
100
AcDbEntity
8
0
100
AcDbLine
62
7
6
CONTINUOUS
10
408.9328986667
20
143.9580983320
11
401.9328986667
21
143.9580983320
0
LINE
5
392
100
AcDbEntity
8
0
100
AcDbLine
62
7
6
CONTINUOUS
10
324.9328986667
20
143.9580983320
11
331.9328986667
21
143.9580983320
0
LINE
5
393
100
AcDbEntity
8
CURVE
100
AcDbLine
62
2
6
CONTINUOUS
10
381.9328986667
20
143.9662463406
11
351.9328986667
21
143.9662463406
0
LINE
5
394
100
AcDbEntity
8
0
100
AcDbLine
62
7
6
CONTINUOUS
10
344.0212507001
20
145.5560821045
11
389.8445466333
21
145.5560821045
0
LINE
5
395
100
AcDbEntity
8
0
100
AcDbLine
62
2
6
CONTINUOUS
10
392.9764376078
20
170.9369801370
11
389.4764376078
21
167.4369801370
0
LINE
5
396
100
AcDbEntity
8
0
100
AcDbLine
62
2
6
CONTINUOUS
10
394.4797354891
20
170.9369801370
11
390.9797354891
21
167.4369801370
0
LINE
5
397
100
AcDbEntity
8
0
100
AcDbLine
62
2
6
CONTINUOUS
10
395.9830333703
20
170.9369801370
11
392.4830333703
21
167.4369801370
0
LINE
5
398
100
AcDbEntity
8
0
100
AcDbLine
62
2
6
CONTINUOUS
10
397.4863312516
20
170.9369801370
11
393.9863312516
21
167.4369801370
0
LINE
5
399
100
AcDbEntity
8
0
100
AcDbLine
62
2
6
CONTINUOUS
10
398.9896291329
20
170.9369801370
11
395.4896291329
21
167.4369801370
0
LINE
5
39A
100
AcDbEntity
8
0
100
AcDbLine
62
2
6
CONTINUOUS
10
400.4929270141
20
170.9369801370
11
396.9929270141
21
167.4369801370
0
LINE
5
39B
100
AcDbEntity
8
0
100
AcDbLine
62
7
6
CONTINUOUS
10
344.0783799415
20
152.1024447600
11
331.9328986667
21
152.1024447600
0
LINE
5
39C
100
AcDbEntity
8
0
100
AcDbLine
62
7
6
CONTINUOUS
10
389.7874173919
20
152.1024447600
11
401.9328986667
21
152.1024447600
0
LINE
5
39D
100
AcDbEntity
8
0
100
AcDbLine
62
2
6
CONTINUOUS
10
401.9962248954
20
170.9369801370
11
398.4962248954
21
167.4369801370
0
LINE
5
39E
100
AcDbEntity
8
0
100
AcDbLine
62
2
6
CONTINUOUS
10
403.4995227766
20
170.9369801370
11
399.9995227766
21
167.4369801370
0
LINE
5
39F
100
AcDbEntity
8
0
100
AcDbLine
62
2
6
CONTINUOUS
10
405.0028206579
20
170.9369801370
11
401.5028206579
21
167.4369801370
0
LINE
5
3A0
100
AcDbEntity
8
0
100
AcDbLine
62
7
6
CONTINUOUS
10
324.9328986667
20
154.5313257920
11
331.9328986667
21
154.5313257920
0
LINE
5
3A1
100
AcDbEntity
8
0
100
AcDbLine
62
7
6
CONTINUOUS
10
401.9328986667
20
154.5313257920
11
408.9328986667
21
154.5313257920
0
LINE
5
3A2
100
AcDbEntity
8
0
100
AcDbLine
62
2
6
CONTINUOUS
10
406.5061185392
20
170.9369801370
11
403.0061185392
21
167.4369801370
0
LINE
5
3A3
100
AcDbEntity
8
0
100
AcDbLine
62
2
6
CONTINUOUS
10
407.8457247123
20
170.7732884289
11
404.5094164204
21
167.4369801370
0
LINE
5
3A4
100
AcDbEntity
8
0
100
AcDbLine
62
2
6
CONTINUOUS
10
407.8587302962
20
169.2829961314
11
406.0127143017
21
167.4369801370
0
LINE
5
3A5
100
AcDbEntity
8
DEFAULT_1
100
AcDbLine
62
2
6
CENTER
10
322.2984924573
20
157.1869801370
11
411.9328986667
21
157.1869801370
0
LINE
5
3A6
100
AcDbEntity
8
CURVE
100
AcDbLine
62
2
6
CONTINUOUS
10
381.9328986667
20
145.5586844732
11
381.9328986667
21
143.9662464117
0
LINE
5
3A7
100
AcDbEntity
8
0
100
AcDbLine
62
2
6
CONTINUOUS
10
408.9328986667
20
168.8538666207
11
407.5160121830
21
167.4369801370
0
LINE
5
3A8
100
AcDbEntity
8
0
100
AcDbLine
62
7
6
CONTINUOUS
10
389.9306526422
20
135.6893107761
11
389.6535949290
21
167.4369801370
0
LINE
5
3A9
100
AcDbEntity
8
0
100
AcDbLine
62
7
6
CONTINUOUS
10
344.2093059229
20
167.1050762405
11
389.6564914105
21
167.1050762405
0
LINE
5
3AA
100
AcDbEntity
8
0
100
AcDbLine
62
7
6
CONTINUOUS
10
324.9328986667
20
167.4369801370
11
408.9328986667
21
167.4369801370
0
LINE
5
3AB
100
AcDbEntity
8
0
100
AcDbLine
62
7
6
CONTINUOUS
10
324.9328986667
20
169.1869801370
11
326.0062291183
21
169.1869801370
0
LINE
5
3AC
100
AcDbEntity
8
0
100
AcDbLine
62
7
6
CONTINUOUS
10
407.8595682150
20
169.1869801370
11
408.9328986667
21
169.1869801370
0
LINE
5
3AD
100
AcDbEntity
8
0
100
AcDbLine
62
7
6
CONTINUOUS
10
407.8442961964
20
170.9369801370
11
326.0215011370
21
170.9369801370
0
LINE
5
3AE
100
AcDbEntity
8
0
100
AcDbLine
62
7
6
CONTINUOUS
10
401.9328986667
20
143.9580983320
11
401.9328986667
21
154.5313257739
0
LINE
5
3AF
100
AcDbEntity
8
0
100
AcDbLine
62
7
6
CONTINUOUS
10
405.1827844315
20
132.1369801370
11
405.1502542638
21
135.8645681427
0
LINE
5
3B0
100
AcDbEntity
8
0
100
AcDbLine
62
7
6
CONTINUOUS
10
408.2701673446
20
122.1369801370
11
408.1715862434
21
133.4332554474
0
LINE
5
3B1
100
AcDbEntity
8
0
100
AcDbLine
62
7
6
CONTINUOUS
10
407.8595682150
20
169.1869801370
11
407.8442961964
21
170.9369801370
0
LINE
5
3B2
100
AcDbEntity
8
0
100
AcDbLine
62
7
6
CONTINUOUS
10
408.9328986667
20
133.4354575911
11
408.9328986667
21
169.1869801370
0
ARC
5
3B3
100
AcDbEntity
8
0
100
AcDbCircle
62
7
6
CONTINUOUS
10
164.3086207903
20
134.4332554474
40
1.0000000000
100
AcDbArc
50
187.0000000000
51
277.0000000000
0
ARC
5
3B4
100
AcDbEntity
8
0
100
AcDbCircle
62
7
6
CONTINUOUS
10
152.2316073136
20
-61.0630198630
40
229.0000000000
100
AcDbArc
50
84.4982860476
51
86.9962253035
0
ARC
5
3B5
100
AcDbEntity
8
0
100
AcDbCircle
62
7
6
CONTINUOUS
10
152.2316073136
20
145.6869801370
40
15.0000000000
100
AcDbArc
50
318.5451538418
51
359.5000000000
0
ARC
5
3B6
100
AcDbEntity
8
0
100
AcDbCircle
62
7
6
CONTINUOUS
10
163.3238770944
20
135.8889420114
40
0.2000000000
100
AcDbArc
50
187.0000000000
51
318.5451538418
0
ARC
5
3B7
100
AcDbEntity
8
0
100
AcDbCircle
62
7
6
CONTINUOUS
10
35.7316073136
20
129.1369801370
40
3.0000000000
100
AcDbArc
50
97.6622556608
51
179.9999944079
0
ARC
5
3B8
100
AcDbEntity
8
0
100
AcDbCircle
62
7
6
CONTINUOUS
10
31.4816073136
20
123.3869801370
40
1.2500000000
100
AcDbArc
50
180.0000002548
51
360.0000000000
0
ARC
5
3B9
100
AcDbEntity
8
0
100
AcDbCircle
62
7
6
CONTINUOUS
10
31.7316073136
20
133.6369801370
40
1.5000000000
100
AcDbArc
50
149.6182464504
51
180.0000000000
0
ARC
5
3BA
100
AcDbEntity
8
0
100
AcDbCircle
62
7
6
CONTINUOUS
10
42.5150420299
20
127.3149918643
40
14.0000000000
100
AcDbArc
50
120.2177052704
51
149.6182464504
0
ARC
5
3BB
100
AcDbEntity
8
0
100
AcDbCircle
62
7
6
CONTINUOUS
10
152.2316073136
20
-61.0630198630
40
232.0000000000
100
AcDbArc
50
59.7822947296
51
120.2177052704
0
ARC
5
3BC
100
AcDbEntity
8
0
100
AcDbCircle
62
7
6
CONTINUOUS
10
261.9481725973
20
127.3149918643
40
14.0000000000
100
AcDbArc
50
30.3817535496
51
59.7822947296
0
ARC
5
3BD
100
AcDbEntity
8
0
100
AcDbCircle
62
7
6
CONTINUOUS
10
272.7316073136
20
133.6369801370
40
1.5000000000
100
AcDbArc
50
0.0000000000
51
30.3817535496
0
ARC
5
3BE
100
AcDbEntity
8
0
100
AcDbCircle
62
7
6
CONTINUOUS
10
272.9816073136
20
123.3869801370
40
1.2500000000
100
AcDbArc
50
180.0000000000
51
0.0000086633
0
ARC
5
3BF
100
AcDbEntity
8
0
100
AcDbCircle
62
7
6
CONTINUOUS
10
268.7316073136
20
129.1369801370
40
3.0000000000
100
AcDbArc
50
0.0000000000
51
82.3377443392
0
ARC
5
3C0
100
AcDbEntity
8
0
100
AcDbCircle
62
7
6
CONTINUOUS
10
207.5423693818
20
139.7416922844
40
1.0000000000
100
AcDbArc
50
277.0000000000
51
345.0000000000
0
ARC
5
3C1
100
AcDbEntity
8
0
100
AcDbCircle
62
7
6
CONTINUOUS
10
217.8716023420
20
139.9254693018
40
1.0000000000
100
AcDbArc
50
195.0000000000
51
265.0000000000
0
ARC
5
3C2
100
AcDbEntity
8
0
100
AcDbCircle
62
7
6
CONTINUOUS
10
96.9208452454
20
139.7416922844
40
1.0000000000
100
AcDbArc
50
195.0000000000
51
263.0000000000
0
ARC
5
3C3
100
AcDbEntity
8
0
100
AcDbCircle
62
7
6
CONTINUOUS
10
86.5916122852
20
139.9254693018
40
1.0000000000
100
AcDbArc
50
275.0000000000
51
345.0000000000
0
ARC
5
3C4
100
AcDbEntity
8
0
100
AcDbCircle
62
7
6
CONTINUOUS
10
140.1545938369
20
134.4332554474
40
1.0000000000
100
AcDbArc
50
263.0000000000
51
353.0000000000
0
ARC
5
3C5
100
AcDbEntity
8
0
100
AcDbCircle
62
7
6
CONTINUOUS
10
152.2316073136
20
154.1869801370
40
15.0000000000
100
AcDbArc
50
86.3639790943
51
179.5000000000
0
ARC
5
3C6
100
AcDbEntity
8
0
100
AcDbCircle
62
7
6
CONTINUOUS
10
152.2316073136
20
157.1869801370
40
10.2500000000
100
AcDbArc
50
330.2608403401
51
209.7391596599
0
ARC
5
3C7
100
AcDbEntity
8
0
100
AcDbCircle
62
7
6
CONTINUOUS
10
212.7316073136
20
147.4369801370
40
2.7500000000
100
AcDbArc
50
340.9887347399
51
199.0112652601
0
ARC
5
3C8
100
AcDbEntity
8
0
100
AcDbCircle
62
7
6
CONTINUOUS
10
91.7316073136
20
147.4369801370
40
2.7500000000
100
AcDbArc
50
340.9887347399
51
199.0112652601
0
ENDSEC
0
SECTION
2
OBJECTS
0
DICTIONARY
5
C
100
AcDbDictionary
280
0
281
1
3
ACAD_GROUP
350
D
3
ACAD_MLINESTYLE
350
17
3
ACAD_LAYOUT
350
1A
3
ACAD_PLOTSETTINGS
350
19
3
ACAD_PLOTSTYLENAME
350
E
0
DICTIONARY
5
D
102
{ACAD_REACTORS
330
C
102
}
100
AcDbDictionary
280
0
281
1
0
ACDBDICTIONARYWDFLT
5
E
102
{ACAD_REACTORS
330
C
102
}
100
AcDbDictionary
281
1
3
Normal
350
F
100
AcDbDictionaryWithDefault
340
F
0
DICTIONARY
5
17
102
{ACAD_REACTORS
330
C
102
}
100
AcDbDictionary
280
0
281
1
3
Standard
350
18
0
DICTIONARY
5
19
102
{ACAD_REACTORS
330
C
102
}
100
AcDbDictionary
281
1
0
DICTIONARY
5
1A
102
{ACAD_REACTORS
330
C
102
}
100
AcDbDictionary
281
1
3
Layout1
350
1E
3
Model
350
22
0
ACDBPLACEHOLDER
5
F
102
{ACAD_REACTORS
330
E
102
}
0
MLINESTYLE
5
18
102
{ACAD_REACTORS
330
17
102
}
100
AcDbMlineStyle
2
STANDARD
70
0
3

62
256
51
90.0
52
90.0
71
2
49
0.5
62
256
6
BYLAYER
49
-0.5
62
256
6
BYLAYER
0
LAYOUT
5
1E
102
{ACAD_REACTORS
330
1A
102
}
100
AcDbPlotSettings
1

2

4

6

40
0.0
41
0.0
42
0.0
43
0.0
44
0.0
45
0.0
46
0.0
47
0.0
48
0.0
49
0.0
140
0.0
141
0.0
142
1.0
143
1.0
70
0
72
0
73
0
74
0
7

75
0
147
1.0
148
0.0
149
0.0
100
AcDbLayout
1
Layout1
70
0
71
0
10
0.0
20
0.0
11
0.0
21
0.0
12
0.0
22
0.0
32
0.0
14
0.0
24
0.0
34
0.0
15
0.0
25
0.0
35
0.0
146
0.0
13
0.0
23
0.0
33
0.0
16
0.0
26
0.0
36
0.0
17
0.0
27
0.0
37
0.0
76
0
330
1B
331
0
345
0
346
0
0
LAYOUT
5
22
102
{ACAD_REACTORS
330
1A
102
}
100
AcDbPlotSettings
1

2

4

6

40
0.0
41
0.0
42
0.0
43
0.0
44
0.0
45
0.0
46
0.0
47
0.0
48
0.0
49
0.0
140
0.0
141
0.0
142
1.0
143
1.0
70
0
72
0
73
0
74
0
7

75
0
147
1.0
148
0.0
149
0.0
100
AcDbLayout
1
Model
70
0
71
0
10
0.0
20
0.0
11
0.0
21
0.0
12
0.0
22
0.0
32
0.0
14
0.0
24
0.0
34
0.0
15
0.0
25
0.0
35
0.0
146
0.0
13
0.0
23
0.0
33
0.0
16
0.0
26
0.0
36
0.0
17
0.0
27
0.0
37
0.0
76
0
330
1F
331
0
345
0
346
0
0
ENDSEC
0
EOF
