  0
SECTION
  2
HEADER
  9
$ACADVER
  1
AC1009
  9
$INSBASE
 10
0
 20
0
  9
$EXTMIN
 10
-676.497904286599
 20
120.6404775238428
  9
$EXTMAX
 10
-319.2378506583871
 20
343.018405477365
  9
$LIMMIN
 10
-676.497904286599
 20
120.6404775238428
  9
$LIMMAX
 10
-319.2378506583871
 20
343.018405477365
  9
$VIEWCTR
 10
10
 20
10
  9
$VIEWSIZE
 40
10
  9
$SNAPMODE
 70
0
  9
$SNAPUNIT
 10
1
 20
1
  9
$SNAPBASE
 10
0
 20
0
  9
$SNAPANG
 50
0
  9
$SNAPSTYLE
 70
0
  9
$SNAPISOPAIR
 70
0
  9
$GRIDMODE
 70
0
  9
$GRIDUNIT
 10
0
 20
0
  9
$ORTHOMODE
 70
0
  9
$REGENMODE
 70
1
  9
$FILLMODE
 70
1
  9
$QTEXTMODE
 70
0
  9
$DRAGMODE
 70
2
  9
$LTSCALE
 40
1
  9
$OSMODE
 70
0
  9
$ATTMODE
 70
1
  9
$TEXTSIZE
 40
3.5
  9
$TRACEWID
 40
0.5
  9
$TEXTSTYLE
  7
STANDARD
  9
$CLAYER
  8
0
  9
$CELTYPE
  6
BYLAYER
  9
$CECOLOR
 62
256
  9
$DIMSCALE
 40
1
  9
$DIMASZ
 40
0.18
  9
$DIMEXO
 40
0.0625
  9
$DIMDLI
 40
0.38
  9
$DIMRND
 40
0
  9
$DIMDLE
 40
0
  9
$DIMEXE
 40
0.18
  9
$DIMTP
 40
0
  9
$DIMTM
 40
0
  9
$DIMTXT
 40
0.18
  9
$DIMCEN
 40
0.09
  9
$DIMTSZ
 40
0
  9
$DIMTOL
 70
0
  9
$DIMLIM
 70
0
  9
$DIMTIH
 70
1
  9
$DIMTOH
 70
1
  9
$DIMSE1
 70
0
  9
$DIMSE2
 70
0
  9
$DIMTAD
 70
0
  9
$DIMZIN
 70
0
  9
$DIMBLK
  1

  9
$DIMASO
 70
1
  9
$DIMSHO
 70
1
  9
$DIMPOST
  1

  9
$DIMAPOST
  1

  9
$DIMALT
 70
0
  9
$DIMALTD
 70
2
  9
$DIMALTF
 40
25.4
  9
$DIMLFAC
 40
1
  9
$DIMTOFL
 70
0
  9
$DIMTVP
 40
0
  9
$DIMTIX
 70
0
  9
$DIMSOXD
 70
0
  9
$DIMSAH
 70
0
  9
$DIMBLK1
  1

  9
$DIMBLK2
  1

  9
$DIMSTYLE
  2
*UNNAMED
  9
$DIMCLRD
 70
0
  9
$DIMCLRE
 70
0
  9
$DIMCLRT
 70
0
  9
$DIMTFAC
 40
1
  9
$DIMGAP
 40
0.09
  9
$LUNITS
 70
2
  9
$LUPREC
 70
4
  9
$AXISMODE
 70
0
  9
$AXISUNIT
 10
0
 20
0
  9
$SKETCHINC
 40
0.1
  9
$FILLETRAD
 40
2
  9
$AUNITS
 70
0
  9
$AUPREC
 70
0
  9
$MENU
  1
ACAD
  9
$ELEVATION
 40
0
  9
$THICKNESS
 40
0
  9
$VIEWDIR
 10
0
 20
0
 30
1
  9
$LIMCHECK
 70
0
  9
$BLIPMODE
 70
1
  9
$CHAMFERA
 40
0
  9
$CHAMFERB
 40
0
  9
$FASTZOOM
 70
1
  9
$SKPOLY
 70
0
  9
$ANGBASE
 50
0
  9
$ANGDIR
 70
0
  9
$PDMODE
 70
0
  9
$PDSIZE
 40
0
  9
$PLINEWID
 40
0
  9
$COORDS
 70
2
  0
ENDSEC
  0
SECTION
  2
TABLES
  0
TABLE
  2
DIMSTYLE
 70
3
  0
DIMSTYLE
  2
DMST_1
 70
0
  3

  4

  5

  6

  7

 40
1
 41
3.200000000000001
 42
1
 43
7
 44
1
 45
0
 46
0
 47
0
 48
0
140
3.200000000000001
141
0
142
0
143
25.4
144
1
145
0
146
1
147
0.09
 71
0
 72
0
 73
0
 74
0
 75
0
 76
0
 77
1
 78
9
170
0
171
2
172
0
173
0
174
0
175
0
176
2
177
2
178
2
  0
DIMSTYLE
  2
DMST_2
 70
0
  3

  4

  5

  6

  7

 40
1
 41
3.5
 42
2
 43
7
 44
2
 45
0
 46
0
 47
0
 48
0
140
3.5
141
0
142
0
143
25.4
144
1
145
0
146
1
147
0.09
 71
0
 72
0
 73
0
 74
0
 75
0
 76
0
 77
1
 78
9
170
0
171
2
172
0
173
0
174
0
175
0
176
2
177
2
178
2
  0
DIMSTYLE
  2
DMST_3
 70
0
  3

  4

  5

  6

  7

 40
1
 41
3
 42
2
 43
7
 44
2
 45
0
 46
0
 47
0
 48
0
140
3
141
0
142
0
143
25.4
144
1
145
0
146
1
147
0.09
 71
0
 72
0
 73
0
 74
0
 75
0
 76
0
 77
1
 78
9
170
0
171
2
172
0
173
0
174
0
175
0
176
2
177
2
178
2
  0
ENDTAB
  0
TABLE
  2
LTYPE
 70
9
  0
LTYPE
  2
CONTINUOUS
 70
64
  3
Solid line
 72
65
 73
0
 40
0
  0
LTYPE
  2
BORDER
 70
64
  3
__ __ . __ __ .
 72
65
 73
6
 40
16.45276562761502
 49
4.700790179318577
 49
-2.350395089659289
 49
4.700790179318577
 49
-2.350395089659289
 49
0
 49
-2.350395089659289
  0
LTYPE
  2
CENTER
 70
64
  3
____ _ ____ _
 72
65
 73
4
 40
18.80316071727431
 49
11.75197544829644
 49
-2.350395089659289
 49
2.350395089659289
 49
-2.350395089659289
  0
LTYPE
  2
DASHDOT
 70
64
  3
__ . __ . __ .
 72
65
 73
4
 40
9.401580358637155
 49
4.700790179318577
 49
-2.350395089659289
 49
0
 49
-2.350395089659289
  0
LTYPE
  2
DASHED
 70
64
  3
__ __ __ __ __
 72
65
 73
2
 40
7.051185268977866
 49
4.700790179318577
 49
-2.350395089659289
  0
LTYPE
  2
DIVIDE
 70
64
  3
__ . . __ . . 
 72
65
 73
6
 40
11.75197544829644
 49
4.700790179318577
 49
-2.350395089659289
 49
0
 49
-2.350395089659289
 49
0
 49
-2.350395089659289
  0
LTYPE
  2
DOT
 70
64
  3
..............
 72
65
 73
4
 40
4.700790179318577
 49
0
 49
-2.350395089659289
 49
0
 49
-2.350395089659289
  0
LTYPE
  2
HIDDEN
 70
64
  3
_ _ _ _ _ _ _
 72
65
 73
2
 40
3.525592634488933
 49
2.350395089659289
 49
-1.175197544829644
  0
LTYPE
  2
PHANTOM
 70
64
  3
_____ _ _ _____ _ _ 
 72
65
 73
6
 40
23.50395089659289
 49
11.75197544829644
 49
-2.350395089659289
 49
2.350395089659289
 49
-2.350395089659289
 49
2.350395089659289
 49
-2.350395089659289
  0
ENDTAB
  0
TABLE
  2
LAYER
 70
4
  0
LAYER
  2
1
 70
0
 62
7
  6
CONTINUOUS
  0
LAYER
  2
CONSTRUCTION
 70
0
 62
7
  6
CONTINUOUS
  0
LAYER
  2
0
 70
0
 62
7
  6
CONTINUOUS
  0
ENDTAB
  0
TABLE
  2
STYLE
 70
4
  0
STYLE
  2
STANDARD
 70
0
 40
0
 41
1
 50
0
 71
0
 42
3.5
  3
txt
  4

  0
STYLE
  2
SIMPLEX
 70
0
 40
0
 41
1
 50
0
 71
0
 42
3.5
  3
simplex
  4

  0
STYLE
  2
COMPLEX
 70
0
 40
0
 41
1
 50
0
 71
0
 42
3.5
  3
complex
  4

  0
STYLE
  2
ITALIC
 70
0
 40
0
 41
1
 50
0
 71
0
 42
3.5
  3
italic
  4

  0
ENDTAB
  0
TABLE
  2
VIEW
 70
0
  0
ENDTAB
  0
ENDSEC
  0
SECTION
  2
BLOCKS
  0
BLOCK
  8
0
  2
SEZ_A-A
 70
0
 10
-634
 20
-15
 30
0
  0
ENDBLK
  8
0
  0
BLOCK
  8
1
  2
*D0
 70
1
 10
0
 20
0
 30
0
  0
LINE
  8
1
 62
2
 10
-332.648703875379
 20
292.9758831158859
 30
0
 11
-332.648703875379
 21
307.4758831158859
 31
0
  0
LINE
  8
1
 62
2
 10
-445.3646459627431
 20
307.4758831158859
 30
0
 11
-331.648703875379
 21
307.4758831158859
 31
0
  0
LINE
  8
1
 62
2
 10
-425.3646459627431
 20
292.9758831158859
 30
0
 11
-331.648703875379
 21
292.9758831158859
 31
0
  0
SOLID
  8
1
 62
2
 10
-332.648703875379
 20
307.4758831158859
 30
0
 11
-332.232703875379
 21
304.2758831158859
 31
0
 12
-333.064703875379
 22
304.2758831158859
 32
0
 13
-333.064703875379
 23
304.2758831158859
 33
0
  0
SOLID
  8
1
 62
2
 10
-332.648703875379
 20
292.9758831158859
 30
0
 11
-333.064703875379
 21
296.1758831158859
 31
0
 12
-332.232703875379
 22
296.1758831158859
 32
0
 13
-332.232703875379
 23
296.1758831158859
 33
0
  0
TEXT
  8
1
 62
2
 10
-334.168703875379
 20
296.3058831158859
 30
0
 40
3.200000000000001
  1
14,5
 50
90
 41
0.9
  0
ENDBLK
  8
0
  0
BLOCK
  8
1
  2
*D1
 70
1
 10
0
 20
0
 30
0
  0
LINE
  8
1
 62
2
 10
-672.097904286599
 20
131.6050792937546
 30
0
 11
-672.097904286599
 21
215.6758757539314
 31
0
  0
LINE
  8
1
 62
2
 10
-634.7728026607163
 20
215.6758757539314
 30
0
 11
-673.097904286599
 21
215.6758757539314
 31
0
  0
LINE
  8
1
 62
2
 10
-615.1550835157234
 20
131.6050792937546
 30
0
 11
-673.097904286599
 21
131.6050792937546
 31
0
  0
SOLID
  8
1
 62
2
 10
-672.097904286599
 20
215.6758757539314
 30
0
 11
-671.681904286599
 21
212.4758757539314
 31
0
 12
-672.5139042865991
 22
212.4758757539314
 32
0
 13
-672.5139042865991
 23
212.4758757539314
 33
0
  0
SOLID
  8
1
 62
2
 10
-672.097904286599
 20
131.6050792937546
 30
0
 11
-672.5139042865991
 21
134.8050792937546
 31
0
 12
-671.681904286599
 22
134.8050792937546
 32
0
 13
-671.681904286599
 23
134.8050792937546
 33
0
  0
TEXT
  8
1
 62
2
 10
-673.297904286599
 20
168.823405902239
 30
0
 40
3.200000000000001
  1
84
 50
90
 41
0.9
  0
ENDBLK
  8
0
  0
BLOCK
  8
1
  2
*D2
 70
1
 10
0
 20
0
 30
0
  0
LINE
  8
1
 62
2
 10
-651.474364779433
 20
237.683170968375
 30
0
 11
-612.6698289548788
 21
237.683170968375
 31
0
  0
LINE
  8
1
 62
2
 10
-612.6698289548788
 20
216.6758757539314
 30
0
 11
-612.6698289548788
 21
238.683170968375
 31
0
  0
LINE
  8
1
 62
2
 10
-651.474364779433
 20
213.8400842101753
 30
0
 11
-651.474364779433
 21
238.683170968375
 31
0
  0
SOLID
  8
1
 62
2
 10
-651.474364779433
 20
237.683170968375
 30
0
 11
-648.274364779433
 21
238.099170968375
 31
0
 12
-648.274364779433
 22
237.267170968375
 32
0
 13
-648.274364779433
 23
237.267170968375
 33
0
  0
SOLID
  8
1
 62
2
 10
-612.6698289548788
 20
237.683170968375
 30
0
 11
-615.8698289548788
 21
237.267170968375
 31
0
 12
-615.8698289548788
 22
238.099170968375
 32
0
 13
-615.8698289548788
 23
238.099170968375
 33
0
  0
TEXT
  8
1
 62
2
 10
-634.4720968671559
 20
238.883170968375
 30
0
 40
3.200000000000001
  1
39
 41
0.9
  0
ENDBLK
  8
0
  0
BLOCK
  8
1
  2
*D3
 70
1
 10
0
 20
0
 30
0
  0
LINE
  8
1
 62
2
 10
-506.8646459627431
 20
337.518405477365
 30
0
 11
-385.8646459627431
 21
337.518405477365
 31
0
  0
LINE
  8
1
 62
2
 10
-385.8646459627431
 20
307.4758831158859
 30
0
 11
-385.8646459627431
 21
339.518405477365
 31
0
  0
LINE
  8
1
 62
2
 10
-506.8646459627431
 20
307.4758831158859
 30
0
 11
-506.8646459627431
 21
339.518405477365
 31
0
  0
SOLID
  8
1
 62
2
 10
-506.8646459627431
 20
337.518405477365
 30
0
 11
-503.3646459627431
 21
337.973405477365
 31
0
 12
-503.3646459627431
 22
337.063405477365
 32
0
 13
-503.3646459627431
 23
337.063405477365
 33
0
  0
SOLID
  8
1
 62
2
 10
-385.8646459627431
 20
337.518405477365
 30
0
 11
-389.3646459627431
 21
337.063405477365
 31
0
 12
-389.3646459627431
 22
337.973405477365
 32
0
 13
-389.3646459627431
 23
337.973405477365
 33
0
  0
TEXT
  8
1
 62
2
 10
-449.5146459627431
 20
339.518405477365
 30
0
 40
3.5
  1
121
 41
0.9
  0
ENDBLK
  8
0
  0
BLOCK
  8
1
  2
*D4
 70
1
 10
0
 20
0
 30
0
  0
LINE
  8
1
 62
2
 10
-455.86464596274
 20
321.694736842105
 30
0
 11
-436.8646459627462
 21
321.694736842105
 31
0
  0
LINE
  8
1
 62
2
 10
-436.8646459627462
 20
293.9758831158859
 30
0
 11
-436.8646459627462
 21
322.694736842105
 31
0
  0
LINE
  8
1
 62
2
 10
-455.86464596274
 20
293.9758831158859
 30
0
 11
-455.86464596274
 21
322.694736842105
 31
0
  0
LINE
  8
1
 62
2
 10
-455.86464596274
 20
321.694736842105
 30
0
 11
-452.66464596274
 21
322.110736842105
 31
0
  0
LINE
  8
1
 62
2
 10
-452.66464596274
 20
322.110736842105
 30
0
 11
-452.66464596274
 21
321.278736842105
 31
0
  0
LINE
  8
1
 62
2
 10
-452.66464596274
 20
321.278736842105
 30
0
 11
-455.86464596274
 21
321.694736842105
 31
0
  0
LINE
  8
1
 62
2
 10
-436.8646459627462
 20
321.694736842105
 30
0
 11
-440.0646459627462
 21
321.278736842105
 31
0
  0
LINE
  8
1
 62
2
 10
-440.0646459627462
 20
321.278736842105
 30
0
 11
-440.0646459627462
 21
322.110736842105
 31
0
  0
LINE
  8
1
 62
2
 10
-440.0646459627462
 20
322.110736842105
 30
0
 11
-436.8646459627462
 21
321.694736842105
 31
0
  0
TEXT
  8
1
 62
2
 10
-446.5246459627431
 20
322.894736842105
 30
0
 40
3.2
  1
18
 41
0.9
  0
TEXT
  8
1
 62
2
 10
-450.0446459627431
 20
322.894736842105
 30
0
 40
3.200000000000001
  1
Ö
 41
0.9
  0
ENDBLK
  8
0
  0
BLOCK
  8
1
  2
*D5
 70
1
 10
0
 20
0
 30
0
  0
LINE
  8
1
 62
2
 10
-568.3646459627431
 20
237.389431543812
 30
0
 11
-324.3646459627431
 21
237.389431543812
 31
0
  0
LINE
  8
1
 62
2
 10
-324.3646459627431
 20
212.8904775238429
 30
0
 11
-324.3646459627431
 21
239.389431543812
 31
0
  0
LINE
  8
1
 62
2
 10
-568.3646459627431
 20
212.8904775238429
 30
0
 11
-568.3646459627431
 21
239.389431543812
 31
0
  0
SOLID
  8
1
 62
2
 10
-568.3646459627431
 20
237.389431543812
 30
0
 11
-565.3646459627431
 21
237.779431543812
 31
0
 12
-565.3646459627431
 22
236.999431543812
 32
0
 13
-565.3646459627431
 23
236.999431543812
 33
0
  0
SOLID
  8
1
 62
2
 10
-324.3646459627431
 20
237.389431543812
 30
0
 11
-327.3646459627431
 21
236.999431543812
 31
0
 12
-327.3646459627431
 22
237.779431543812
 32
0
 13
-327.3646459627431
 23
237.779431543812
 33
0
  0
TEXT
  8
1
 62
2
 10
-449.9646459627431
 20
239.389431543812
 30
0
 40
3
  1
244
 41
0.9
  0
ENDBLK
  8
0
  0
ENDSEC
  0
SECTION
  2
ENTITIES
  0
LINE
  8
1
 62
7
 10
-383.3657662137346
 20
282.3158831158859
 30
0
 11
-382.2123324032684
 21
275.7744349164566
 31
0
  0
LINE
  8
1
 62
7
 10
-389.5169595222158
 20
275.7744349164566
 30
0
 11
-388.3635257117496
 21
282.3158831158859
 31
0
  0
LINE
  8
1
 62
7
 10
-504.3657662137356
 20
282.3158831158859
 30
0
 11
-503.2123324032694
 21
275.7744349164566
 31
0
  0
LINE
  8
1
 62
7
 10
-510.5169595222168
 20
275.7744349164566
 30
0
 11
-509.3635257117506
 21
282.3158831158859
 31
0
  0
LINE
  8
1
 62
2
  6
DASHDOT
 10
-394.4146459627431
 20
283.9758831158859
 30
0
 11
-377.3146459627431
 21
283.9758831158859
 31
0
  0
LINE
  8
1
 62
2
  6
DASHDOT
 10
-506.8646459627431
 20
273.3758831158859
 30
0
 11
-506.8646459627431
 21
305.4758831158859
 31
0
  0
LINE
  8
1
 62
2
  6
DASHDOT
 10
-426.3646459627431
 20
292.9758831158859
 30
0
 11
-466.3646459627435
 21
292.9758831158859
 31
0
  0
LINE
  8
1
 62
7
 10
-503.7350218357187
 20
275.7097014243247
 30
0
 11
-458.4395229572589
 21
270.1481134836551
 31
0
  0
LINE
  8
1
 62
7
 10
-382.7235175051834
 20
275.8191578178374
 30
0
 11
-329.5256139573964
 21
271.1649443340606
 31
0
  0
LINE
  8
1
 62
7
 10
-434.2897689682273
 20
270.1481134836551
 30
0
 11
-388.9942700897676
 21
275.7097014243247
 31
0
  0
LINE
  8
1
 62
7
 10
-329.5146459627432
 20
270.9838816734898
 30
0
 11
-329.5146459627432
 21
268.6713472913316
 31
0
  0
LINE
  8
1
 62
7
 10
-324.3646459627432
 20
268.6713472913316
 30
0
 11
-329.5146459627432
 21
268.6713472913316
 31
0
  0
LINE
  8
1
 62
2
 10
-559.0646459627429
 20
270.9838816734898
 30
0
 11
-561.064645962743
 21
270.9838816734897
 31
0
  0
LINE
  8
1
 62
7
 10
-563.214645962743
 20
268.6713472913316
 30
0
 11
-568.364645962743
 21
268.6713472913316
 31
0
  0
LINE
  8
1
 62
7
 10
-563.2036779680898
 20
271.1649443340607
 30
0
 11
-510.0057744203028
 21
275.8191578178374
 31
0
  0
LINE
  8
1
 62
7
 10
-563.214645962743
 20
268.6713472913316
 30
0
 11
-563.214645962743
 21
270.9838816734897
 31
0
  0
LINE
  8
1
 62
2
  6
DASHDOT
 10
-385.8646459627416
 20
273.3758831158848
 30
0
 11
-385.8646459627431
 21
305.4758831158859
 31
0
  0
LINE
  8
1
 62
2
  6
DASHDOT
 10
-446.3646459627431
 20
265.0507685787465
 30
0
 11
-446.3646459627431
 21
310.4758831158859
 31
0
  0
LINE
  8
1
 62
2
  6
DASHDOT
 10
-498.3146459627431
 20
283.9758831158859
 30
0
 11
-515.4146459627432
 21
283.9758831158859
 31
0
  0
LINE
  8
1
 62
2
  6
DASHDOT
 10
-443.3646459627431
 20
281.4758831158858
 30
0
 11
-449.3646459627431
 21
281.4758831158858
 31
0
  0
LINE
  8
1
 62
7
 10
-457.2917949370083
 20
271.1998228156435
 30
0
 11
-457.3328458608416
 21
270.9670114576295
 31
0
  0
LINE
  8
1
 62
7
 10
-435.4374969884778
 20
271.1998228156435
 30
0
 11
-438.3058607889802
 21
287.4671222894816
 31
0
  0
LINE
  8
1
 62
7
 10
-435.3964460646446
 20
270.9670114576295
 30
0
 11
-435.4374969884778
 21
271.1998228156435
 31
0
  0
LINE
  8
1
 62
7
 10
-454.4234311365061
 20
287.4671222894816
 30
0
 11
-457.2917949370083
 21
271.1998228156435
 31
0
  0
LINE
  8
1
 62
7
 10
-614.1550835157234
 20
131.6050792937546
 30
0
 11
-612.6698289548788
 21
131.6050792937546
 31
0
  0
LINE
  8
1
 62
7
 10
-612.6698289548788
 20
215.6758757539314
 30
0
 11
-612.6698289548788
 21
131.6050792937546
 31
0
  0
LINE
  8
1
 62
7
 10
-614.1550835157234
 20
215.6758757539314
 30
0
 11
-612.6698289548788
 21
215.6758757539314
 31
0
  0
LINE
  8
1
 62
7
 10
-647.474364779433
 20
131.6050792937544
 30
0
 11
-648.974364779433
 21
131.6050792937544
 31
0
  0
LINE
  8
1
 62
7
 10
-648.974364779433
 20
132.4408708375106
 30
0
 11
-648.974364779433
 21
131.6050792937544
 31
0
  0
LINE
  8
1
 62
7
 10
-649.474364779433
 20
132.4408708375106
 30
0
 11
-648.974364779433
 21
132.4408708375106
 31
0
  0
LINE
  8
1
 62
7
 10
-648.974364779433
 20
214.8400842101753
 30
0
 11
-649.474364779433
 21
214.8400842101753
 31
0
  0
LINE
  8
1
 62
7
 10
-648.974364779433
 20
215.6758757539314
 30
0
 11
-648.974364779433
 21
214.8400842101753
 31
0
  0
LINE
  8
1
 62
2
  6
DASHDOT
 10
-654.474364779433
 20
173.6404775238429
 30
0
 11
-651.474364779433
 21
173.6404775238429
 31
0
  0
LINE
  8
1
 62
7
 10
-651.474364779433
 20
134.4408708375106
 30
0
 11
-651.474364779433
 21
173.6404775238429
 31
0
  0
LINE
  8
1
 62
2
  6
DASHDOT
 10
-651.474364779433
 20
173.6404775238429
 30
0
 11
-647.474364779433
 21
173.6404775238429
 31
0
  0
LINE
  8
1
 62
7
 10
-651.474364779433
 20
173.6404775238429
 30
0
 11
-651.474364779433
 21
212.8400842101753
 31
0
  0
LINE
  8
1
 62
2
  6
DASHDOT
 10
-647.474364779433
 20
173.6404775238429
 30
0
 11
-610.474364779433
 21
173.6404775238429
 31
0
  0
LINE
  8
1
 62
7
 10
-623.9129986383151
 20
215.6758757539313
 30
0
 11
-614.1550835157234
 21
215.6758757539314
 31
0
  0
LINE
  8
1
 62
7
 10
-647.474364779433
 20
215.6758757539314
 30
0
 11
-633.7728026607163
 21
215.6758757539314
 31
0
  0
LINE
  8
1
 62
7
 10
-647.474364779433
 20
131.6050792937544
 30
0
 11
-614.1550835157234
 21
131.6050792937546
 31
0
  0
LINE
  8
1
 62
7
 10
-633.7728026607163
 20
215.6758757539314
 30
0
 11
-623.9129986383151
 21
215.6758757539313
 31
0
  0
LINE
  8
1
 62
7
 10
-647.474364779433
 20
215.6758757539314
 30
0
 11
-648.974364779433
 21
215.6758757539314
 31
0
  0
LINE
  8
1
 62
2
  6
DASHDOT
 10
-446.3646459627431
 20
120.6404775238428
 30
0
 11
-446.3646459627431
 21
224.7672728281989
 31
0
  0
LINE
  8
1
 62
2
  6
DASHDOT
 10
-571.3646459627431
 20
173.6404775238428
 30
0
 11
-319.2378506583871
 21
173.6404775238428
 31
0
  0
LINE
  8
1
 62
7
 10
-461.3646459627431
 20
132.3904775238431
 30
0
 11
-563.214645962743
 21
132.3904775238429
 31
0
  0
LINE
  8
1
 62
7
 10
-504.8646459627431
 20
214.8904775238429
 30
0
 11
-503.8646459627431
 21
214.8904775238429
 31
0
  0
LINE
  8
1
 62
7
 10
-508.8646459627431
 20
214.8904775238429
 30
0
 11
-504.8646459627431
 21
214.8904775238429
 31
0
  0
LINE
  8
1
 62
7
 10
-431.3646459627431
 20
131.6404775238431
 30
0
 11
-461.3646459627431
 21
131.6404775238431
 31
0
  0
LINE
  8
1
 62
7
 10
-431.3646459627431
 20
131.6404775238431
 30
0
 11
-431.3646459627431
 21
132.3904775238431
 31
0
  0
LINE
  8
1
 62
7
 10
-461.3646459627431
 20
132.3904775238431
 30
0
 11
-461.3646459627431
 21
131.6404775238431
 31
0
  0
LINE
  8
1
 62
7
 10
-431.3646459627431
 20
215.6404775238429
 30
0
 11
-461.3646459627431
 21
215.6404775238429
 31
0
  0
LINE
  8
1
 62
7
 10
-431.3646459627431
 20
214.8904775238429
 30
0
 11
-431.3646459627431
 21
215.6404775238429
 31
0
  0
LINE
  8
1
 62
7
 10
-461.3646459627431
 20
214.8904775238429
 30
0
 11
-502.53103121661
 21
214.8904775238429
 31
0
  0
LINE
  8
1
 62
7
 10
-461.3646459627431
 20
215.6404775238429
 30
0
 11
-461.3646459627431
 21
214.8904775238429
 31
0
  0
LINE
  8
1
 62
7
 10
-563.214645962743
 20
132.3904775238429
 30
0
 11
-564.3646459627431
 21
132.3904775238429
 31
0
  0
LINE
  8
1
 62
7
 10
-328.3646459627431
 20
132.3904775238425
 30
0
 11
-385.8646459627431
 21
132.3904775238425
 31
0
  0
LINE
  8
1
 62
7
 10
-568.3646459627431
 20
136.3904775238429
 30
0
 11
-568.3646459627431
 21
210.8904775238429
 31
0
  0
LINE
  8
1
 62
7
 10
-563.214645962743
 20
214.8904775238429
 30
0
 11
-563.2146459627429
 21
211.3904775238429
 31
0
  0
LINE
  8
1
 62
7
 10
-329.5146459627432
 20
132.3904775238425
 30
0
 11
-329.5146459627432
 21
135.8904775238427
 31
0
  0
LINE
  8
1
 62
7
 10
-511.1982607088761
 20
214.8904775238429
 30
0
 11
-509.8646459627431
 21
214.8904775238429
 31
0
  0
LINE
  8
1
 62
7
 10
-509.8646459627431
 20
214.8904775238429
 30
0
 11
-508.8646459627431
 21
214.8904775238429
 31
0
  0
LINE
  8
1
 62
7
 10
-503.8646459627431
 20
214.8904775238429
 30
0
 11
-502.53103121661
 21
214.8904775238429
 31
0
  0
LINE
  8
1
 62
7
 10
-324.3646459627431
 20
136.3904775238425
 30
0
 11
-324.3646459627431
 21
173.6404775238429
 31
0
  0
LINE
  8
1
 62
7
 10
-385.8646459627431
 20
132.3904775238425
 30
0
 11
-431.3646459627431
 21
132.3904775238431
 31
0
  0
LINE
  8
1
 62
7
 10
-324.3646459627431
 20
173.6404775238429
 30
0
 11
-324.3646459627431
 21
210.8904775238429
 31
0
  0
LINE
  8
1
 62
7
 10
-329.5146459627432
 20
211.3904775238429
 30
0
 11
-329.5146459627432
 21
214.8904775238429
 31
0
  0
LINE
  8
1
 62
7
 10
-564.3646459627431
 20
214.8904775238429
 30
0
 11
-511.1982607088761
 21
214.8904775238429
 31
0
  0
LINE
  8
1
 62
7
 10
-328.3646459627431
 20
214.8904775238429
 30
0
 11
-431.3646459627431
 21
214.8904775238429
 31
0
  0
LINE
  8
1
 62
7
 10
-563.2146459627429
 20
211.3904775238429
 30
0
 11
-563.214645962743
 21
135.8904775238431
 31
0
  0
LINE
  8
1
 62
7
 10
-563.214645962743
 20
135.8904775238431
 30
0
 11
-563.214645962743
 21
132.3904775238429
 31
0
  0
LINE
  8
1
 62
7
 10
-329.5146459627432
 20
135.8904775238427
 30
0
 11
-329.5146459627432
 21
211.3904775238429
 31
0
  0
ARC
  8
1
 62
7
 10
-385.8646459627421
 20
283.9758831158859
 30
0
 40
2.999999999999923
 50
326.4040045184838
 51
0
  0
ARC
  8
1
 62
7
 10
-385.8646459627421
 20
283.9758831158859
 30
0
 40
3
 50
0
 51
213.5959954815156
  0
ARC
  8
1
 62
7
 10
-506.8646459627431
 20
283.9758831158859
 30
0
 40
2.99999999999997
 50
326.4040045184844
 51
0
  0
ARC
  8
1
 62
7
 10
-506.8646459627431
 20
283.9758831158859
 30
0
 40
3
 50
0
 51
213.5959954815162
  0
ARC
  8
1
 62
7
 10
-385.8646459627431
 20
283.9758831158859
 30
0
 40
3.000000000002492
 50
344.4725977708829
 51
0
  0
ARC
  8
1
 62
7
 10
-385.8646459627431
 20
283.9758831158859
 30
0
 40
3
 50
0
 51
195.5274022291304
  0
ARC
  8
1
 62
7
 10
-446.3646459627431
 20
75.47588311588595
 30
0
 40
231.9999999999999
 50
113.6711494323912
 51
119.8919654393295
  0
ARC
  8
1
 62
7
 10
-446.3646459627431
 20
75.47588311588595
 30
0
 40
232
 50
81.16056385772997
 51
90
  0
ARC
  8
1
 62
7
 10
-446.3646459627431
 20
75.47588311588595
 30
0
 40
231.9999999999999
 50
90
 51
113.6711494323912
  0
ARC
  8
1
 62
7
 10
-337.7208208323897
 20
264.4746113154302
 30
0
 40
14.00000000000001
 50
17.44360046280399
 51
60.10803456067038
  0
ARC
  8
1
 62
7
 10
-555.0084710930966
 20
264.4746113154302
 30
0
 40
13.99999999999994
 50
119.8919654393296
 51
162.556399537196
  0
ARC
  8
1
 62
7
 10
-446.3646459627431
 20
75.47588311588595
 30
0
 40
232
 50
60.10803456067048
 51
81.16056385772997
  0
ARC
  8
1
 62
7
 10
-446.3646459627431
 20
292.9758831158859
 30
0
 40
9.499999999996915
 50
329.462248719128
 51
0
  0
ARC
  8
1
 62
7
 10
-446.3646459627431
 20
292.9758831158859
 30
0
 40
9.499999999996874
 50
180
 51
210.5377512808722
  0
ARC
  8
1
 62
7
 10
-446.3646459627431
 20
292.9758831158859
 30
0
 40
9.499999999996931
 50
0
 51
180
  0
ARC
  8
1
 62
7
 10
-331.0146459627432
 20
270.9838816734898
 30
0
 40
1.5
 50
0
 51
6.932990437445937
  0
ARC
  8
1
 62
7
 10
-561.714645962743
 20
270.9838816734897
 30
0
 40
1.500000000000012
 50
173.0670095625451
 51
180
  0
ARC
  8
1
 62
7
 10
-385.3381897876131
 20
245.933316875085
 30
0
 40
30
 50
85.00000000000009
 51
97.00000000000017
  0
ARC
  8
1
 62
7
 10
-507.3911021378731
 20
245.933316875085
 30
0
 40
30.00000000000001
 50
83.00000000000013
 51
95
  0
ARC
  8
1
 62
7
 10
-455.4082388895183
 20
287.6407704671485
 30
0
 40
0.9999999999999931
 50
350.0000000000014
 51
0
  0
ARC
  8
1
 62
7
 10
-458.3176536138538
 20
271.1406596352964
 30
0
 40
0.9999999999999765
 50
263.0000000000037
 51
350.0000000000014
  0
ARC
  8
1
 62
7
 10
-434.4116383116324
 20
271.1406596352964
 30
0
 40
0.9999999999999931
 50
189.9999999999986
 51
276.9999999999963
  0
ARC
  8
1
 62
7
 10
-437.321053035968
 20
287.6407704671485
 30
0
 40
0.9999999999999444
 50
149.4622487191261
 51
180
  0
ARC
  8
1
 62
7
 10
-455.4082388895183
 20
287.6407704671485
 30
0
 40
1
 50
0
 51
30.53775128086896
  0
ARC
  8
1
 62
7
 10
-437.321053035968
 20
287.6407704671485
 30
0
 40
1
 50
180
 51
189.9999999999986
  0
ARC
  8
1
 62
7
 10
-649.474364779433
 20
212.8400842101753
 30
0
 40
2
 50
90
 51
180
  0
ARC
  8
1
 62
7
 10
-649.474364779433
 20
134.4408708375106
 30
0
 40
2
 50
180
 51
270
  0
ARC
  8
1
 62
7
 10
-564.3646459627431
 20
210.8904775238429
 30
0
 40
4
 50
90
 51
180
  0
ARC
  8
1
 62
7
 10
-564.3646459627431
 20
136.3904775238429
 30
0
 40
4
 50
180
 51
270
  0
ARC
  8
1
 62
7
 10
-328.3646459627431
 20
136.3904775238425
 30
0
 40
4
 50
270
 51
0
  0
ARC
  8
1
 62
7
 10
-328.3646459627431
 20
210.8904775238429
 30
0
 40
4
 50
0
 51
90
  0
DIMENSION
  8
1
  6
CONTINUOUS
 62
2
  2
*D0
  3
DMST_1
 10
-332.648703875379
 20
307.4758831158859
 30
0
 11
-335.608703875379
 21
300.2258831158859
 31
0
 12
0
 22
0
 32
0
 70
0
 13
-426.3646459627431
 23
292.9758831158859
 33
0
 14
-446.3646459627431
 24
307.4758831158859
 34
0
 50
90
 53
0
  0
DIMENSION
  8
1
  6
CONTINUOUS
 62
2
  2
*D1
  3
DMST_1
 10
-672.097904286599
 20
131.6050792937546
 30
0
 11
-674.897904286599
 21
171.223405902239
 31
0
 12
0
 22
0
 32
0
 70
0
  1
84
 13
-633.7728026607163
 23
215.6758757539314
 33
0
 14
-614.1550835157234
 24
131.6050792937546
 34
0
 50
90
 53
0
  0
DIMENSION
  8
1
  6
CONTINUOUS
 62
2
  2
*D2
  3
DMST_1
 10
-612.6698289548788
 20
237.683170968375
 30
0
 11
-632.0720968671559
 21
240.483170968375
 31
0
 12
0
 22
0
 32
0
 70
0
  1
39
 13
-651.474364779433
 23
212.8400842101753
 33
0
 14
-612.6698289548788
 24
215.6758757539314
 34
0
 53
0
  0
DIMENSION
  8
1
  6
CONTINUOUS
 62
2
  2
*D3
  3
DMST_2
 10
-385.8646459627431
 20
337.518405477365
 30
0
 11
-446.3646459627431
 21
341.268405477365
 31
0
 12
0
 22
0
 32
0
 70
0
 13
-506.8646459627431
 23
305.4758831158859
 33
0
 14
-385.8646459627431
 24
305.4758831158859
 34
0
 53
0
  0
DIMENSION
  8
1
  6
CONTINUOUS
 62
2
  2
*D4
  3
DMST_1
 10
-455.86464596274
 20
321.694736842105
 30
0
 11
-446.3646459627431
 21
324.494736842105
 31
0
 12
0
 22
0
 32
0
 70
0
  1
18
 13
-436.8646459627462
 23
292.9758831158859
 33
0
 14
-455.86464596274
 24
292.9758831158859
 34
0
 53
0
  0
DIMENSION
  8
1
  6
CONTINUOUS
 62
2
  2
*D5
  3
DMST_3
 10
-324.3646459627431
 20
237.389431543812
 30
0
 11
-446.3646459627431
 21
240.889431543812
 31
0
 12
0
 22
0
 32
0
 70
0
 13
-568.3646459627431
 23
210.8904775238429
 33
0
 14
-324.3646459627431
 24
210.8904775238429
 34
0
 53
0
  0
INSERT
  8
0
  2
SEZ_A-A
 10
-634
 20
-15
 30
0
  0
ENDSEC
  0
EOF
