999
DXF file: 107-50710.dxf
999
Pro/ENGINEER 2005310 by Parametric Technology Corporation
0
SECTION
2
HEADER
9
$ACADVER
1
AC1015
9
$DWGCODEPAGE
3
ANSI_1252
9
$EXTMAX
10
297.0000000000
20
210.0000000000
30
0.0000000000
9
$EXTMIN
10
0.0000000000
20
0.0000000000
30
0.0000000000
9
$LIMMIN
10
0.0000000000
20
0.0000000000
9
$LIMMAX
10
297.0000000000
20
210.0000000000
9
$VIEWCTR
10
148.5000000000
20
105.0000000000
9
$VIEWSIZE
40
210.0000000000
9
$CLAYER
8
0
9
$LTSCALE
40
16.3350000000
9
$CELTYPE
6
BYLAYER
9
$DIMSCALE
40
1
9
$DIMASZ
40
3.5000000000
9
$DIMEXO
40
1.8562500000
9
$DIMDLI
40
11.2860000000
9
$DIMEXE
40
5.3460000000
9
$DIMCEN
40
2.6730000000
9
$DIMLFAC
40
1.0000000000
9
$DIMBLK
1
_FILLED
9
$DIMTXT
40
3.5000000000
9
$DIMTOL
70
1
9
$DIMLIM
70
0
9
$DIMTFAC
40
1.0000000000
9
$DIMTP
40
0.0010000000
9
$DIMTM
40
0.0010000000
9
$PDMODE
70
3
9
$PDSIZE
40
0.3125000000
9
$HANDSEED
5
411
9
$MEASUREMENT
70
1
9
$INSUNITS
70
4
0
ENDSEC
0
SECTION
2
CLASSES
0
CLASS
1
ACDBDICTIONARYWDFLT
2
AcDbDictionaryWithDefault
3
AutoCAD 2000
90
0
280
0
281
0
0
CLASS
1
ACDBPLACEHOLDER
2
AcDbPlaceHolder
3
AutoCAD 2000
90
0
280
0
281
0
0
CLASS
1
LAYOUT
2
AcDbLayout
3
AutoCAD 2000
90
0
280
0
281
0
0
ENDSEC
0
SECTION
2
TABLES
0
TABLE
2
VPORT
5
8
100
AcDbSymbolTable
70
2
0
VPORT
5
1F4
100
AcDbSymbolTableRecord
100
AcDbViewportTableRecord
2
*ACTIVE
70
0
10
0.0
20
0.0
11
1.0
21
1.0
12
148.5000000000
22
105.0000000000
13
0.0
23
0.0
14
1.0
24
1.0
15
0.0
25
0.0
16
0.0
26
0.0
36
1.0
17
0.0
27
0.0
37
0.0
40
210.0000000000
41
1.4142857143
42
50.0
43
0.0
44
0.0
50
0.0
51
0.0
71
0
72
100
73
1
74
1
75
0
76
0
77
0
78
0
0
ENDTAB
0
TABLE
2
LTYPE
5
5
100
AcDbSymbolTable
70
6
0
LTYPE
5
14
100
AcDbSymbolTableRecord
100
AcDbLinetypeTableRecord
2
BYBLOCK
70
0
3

72
65
73
0
40
0.0
0
LTYPE
5
15
100
AcDbSymbolTableRecord
100
AcDbLinetypeTableRecord
2
BYLAYER
70
0
3

72
65
73
0
40
0.0
0
LTYPE
5
16
100
AcDbSymbolTableRecord
100
AcDbLinetypeTableRecord
2
CONTINUOUS
70
64
3
Solid line
72
65
73
0
40
0
0
LTYPE
5
1F5
100
AcDbSymbolTableRecord
100
AcDbLinetypeTableRecord
2
CENTER
70
64
3
____ _ ____ _ ____ _ ____ _ ____ _ ____ _ ____
72
65
73
4
40
0.6
49
0.375
74
0
49
-0.075
74
0
49
0.075
74
0
49
-0.075
74
0
0
LTYPE
5
1F6
100
AcDbSymbolTableRecord
100
AcDbLinetypeTableRecord
2
HIDDEN
70
64
3
- - - - - - - - - - - - - - - - - - - -
72
65
73
2
40
0.2
49
0.1
74
0
49
-0.1
74
0
0
LTYPE
5
1F7
100
AcDbSymbolTableRecord
100
AcDbLinetypeTableRecord
2
PHANTOM
70
64
3
_____ _ _ _____ _ _ _____ _ _ _____
72
65
73
6
40
0.8
49
0.45
74
0
49
-0.05
74
0
49
0.1
74
0
49
-0.05
74
0
49
0.1
74
0
49
-0.05
74
0
0
LTYPE
5
1F8
100
AcDbSymbolTableRecord
100
AcDbLinetypeTableRecord
2
DOT
70
64
3
. . . . . . . . . . . . . . . . . . . .
72
65
73
2
40
0.2
49
0.1
74
0
49
-0.1
74
0
0
LTYPE
5
1F9
100
AcDbSymbolTableRecord
100
AcDbLinetypeTableRecord
2
DASHED
70
64
3
- - - - - - - - - - - - - - - - - - - -
72
65
73
2
40
0.2
49
0.1
74
0
49
-0.1
74
0
0
ENDTAB
0
TABLE
2
LAYER
5
2
100
AcDbSymbolTable
70
36
0
LAYER
5
10
100
AcDbSymbolTableRecord
100
AcDbLayerTableRecord
2
0
70
0
62
7
6
CONTINUOUS
370
-3
390
F
0
LAYER
5
1FA
100
AcDbSymbolTableRecord
100
AcDbLayerTableRecord
2
DEFAULT_1
70
0
62
7
6
CENTER
370
-3
390
F
0
LAYER
5
1FB
100
AcDbSymbolTableRecord
100
AcDbLayerTableRecord
2
DEFAULT_2
70
0
62
8
6
HIDDEN
370
-3
390
F
0
LAYER
5
1FC
100
AcDbSymbolTableRecord
100
AcDbLayerTableRecord
2
DEFAULT_3
70
0
62
7
6
PHANTOM
370
-3
390
F
0
LAYER
5
1FD
100
AcDbSymbolTableRecord
100
AcDbLayerTableRecord
2
ASSI
70
0
62
7
6
CONTINUOUS
370
-3
390
F
0
LAYER
5
1FE
100
AcDbSymbolTableRecord
100
AcDbLayerTableRecord
2
CURVE
70
0
62
7
6
CONTINUOUS
370
-3
390
F
0
LAYER
5
1FF
100
AcDbSymbolTableRecord
100
AcDbLayerTableRecord
2
PIANI
70
0
62
7
6
CONTINUOUS
370
-3
390
F
0
LAYER
5
200
100
AcDbSymbolTableRecord
100
AcDbLayerTableRecord
2
PUNTI
70
0
62
7
6
CONTINUOUS
370
-3
390
F
0
LAYER
5
201
100
AcDbSymbolTableRecord
100
AcDbLayerTableRecord
2
SISCO
70
0
62
7
6
CONTINUOUS
370
-3
390
F
0
LAYER
5
202
100
AcDbSymbolTableRecord
100
AcDbLayerTableRecord
2
SURF_FILETTI
70
0
62
7
6
CONTINUOUS
370
-3
390
F
0
ENDTAB
0
TABLE
2
STYLE
5
3
100
AcDbSymbolTable
70
1
0
STYLE
5
11
100
AcDbSymbolTableRecord
100
AcDbTextStyleTableRecord
2
STANDARD
70
0
40
0.0
41
0.7143000000
50
0.0
71
0
42
0.2
3
txt
4

0
ENDTAB
0
TABLE
2
VIEW
5
6
100
AcDbSymbolTable
70
0
0
ENDTAB
0
TABLE
2
UCS
5
7
100
AcDbSymbolTable
70
0
0
ENDTAB
0
TABLE
2
APPID
5
9
100
AcDbSymbolTable
70
1
0
APPID
5
203
100
AcDbSymbolTableRecord
100
AcDbRegAppTableRecord
2
ACAD
70
0
0
ENDTAB
0
TABLE
2
BLOCK_RECORD
5
1
100
AcDbSymbolTable
70
0
0
BLOCK_RECORD
5
1F
100
AcDbSymbolTableRecord
100
AcDbBlockTableRecord
2
*MODEL_SPACE
0
BLOCK_RECORD
5
1B
100
AcDbSymbolTableRecord
100
AcDbBlockTableRecord
2
*PAPER_SPACE
0
BLOCK_RECORD
5
204
100
AcDbSymbolTableRecord
100
AcDbBlockTableRecord
2
_FILLED
0
BLOCK_RECORD
5
205
100
AcDbSymbolTableRecord
100
AcDbBlockTableRecord
2
*D0
0
BLOCK_RECORD
5
206
100
AcDbSymbolTableRecord
100
AcDbBlockTableRecord
2
*D1
0
BLOCK_RECORD
5
207
100
AcDbSymbolTableRecord
100
AcDbBlockTableRecord
2
*D2
0
BLOCK_RECORD
5
208
100
AcDbSymbolTableRecord
100
AcDbBlockTableRecord
2
*D3
0
BLOCK_RECORD
5
209
100
AcDbSymbolTableRecord
100
AcDbBlockTableRecord
2
*D4
0
BLOCK_RECORD
5
20A
100
AcDbSymbolTableRecord
100
AcDbBlockTableRecord
2
*D5
0
ENDTAB
0
TABLE
2
DIMSTYLE
5
A
100
AcDbSymbolTable
70
1
100
AcDbDimStyleTable
71
0
0
DIMSTYLE
105
20B
100
AcDbSymbolTableRecord
100
AcDbDimStyleTableRecord
2
STANDARD
70
0
3

4

40
1.0
41
3.5000000000
42
0.0625
43
0.38
44
0.18
45
0.0
46
0.0
47
0.0010000000
48
0.0010000000
140
3.5000000000
141
0.09
142
0.0
143
25.4
144
1.0000000000
145
0.0
146
1.0000000000
147
0.09
71
1
72
0
73
0
74
0
75
0
76
0
77
1
78
8
170
0
171
2
172
0
173
0
174
0
175
0
176
0
177
0
178
0
270
2
271
3
272
3
273
2
274
2
275
0
280
0
281
0
282
0
283
1
284
8
285
0
286
0
287
3
288
0
340
11
341
204
342
204
343
204
344
204
0
DIMSTYLE
105
20C
100
AcDbSymbolTableRecord
100
AcDbDimStyleTableRecord
2
DIMSTYLE_1
70
0
3

4

40
1.0
41
3.5000000000
42
0.0625
43
0.38
44
0.18
45
0.0
46
0.0
47
0.1500000000
48
0.1500000000
140
3.5000000000
141
0.09
142
0.0
143
25.4
144
1.0000000000
145
0.0
146
1.0000000000
147
0.09
71
0
72
0
73
0
74
0
75
0
76
0
77
1
78
8
170
0
171
2
172
0
173
0
174
0
175
0
176
0
177
0
178
0
270
2
271
3
272
3
273
2
274
2
275
0
280
0
281
0
282
0
283
1
284
8
285
0
286
0
287
3
288
0
340
11
341
204
342
204
343
204
344
204
0
DIMSTYLE
105
20D
100
AcDbSymbolTableRecord
100
AcDbDimStyleTableRecord
2
DIMSTYLE_2
70
0
3

4

40
1.0
41
3.5000000000
42
0.0625
43
0.38
44
0.18
45
0.0
46
0.0
47
0.1000000000
48
0.1000000000
140
3.5000000000
141
0.09
142
0.0
143
25.4
144
1.0000000000
145
0.0
146
1.0000000000
147
0.09
71
0
72
0
73
0
74
0
75
0
76
0
77
1
78
8
170
0
171
2
172
0
173
0
174
0
175
0
176
0
177
0
178
0
270
2
271
3
272
3
273
2
274
2
275
0
280
0
281
0
282
0
283
1
284
8
285
0
286
0
287
3
288
0
340
11
341
204
342
204
343
204
344
204
0
ENDTAB
0
ENDSEC
0
SECTION
2
BLOCKS
0
BLOCK
5
20
100
AcDbEntity
8
0
100
AcDbBlockBegin
2
*MODEL_SPACE
70
0
10
0.0
20
0.0
30
0.0
3
*MODEL_SPACE
1

0
ENDBLK
5
21
100
AcDbEntity
8
0
100
AcDbBlockEnd
0
BLOCK
5
1C
100
AcDbEntity
8
0
100
AcDbBlockBegin
2
*PAPER_SPACE
70
0
10
0.0
20
0.0
30
0.0
3
*PAPER_SPACE
1

0
ENDBLK
5
1D
100
AcDbEntity
8
0
100
AcDbBlockEnd
0
BLOCK
5
20E
100
AcDbEntity
8
0
100
AcDbBlockBegin
62
2
6
CONTINUOUS
2
*D0
70
65
10
0.0000000000
20
0.0000000000
3
*D0
1

0
TEXT
5
20F
100
AcDbEntity
8
0
100
AcDbText
62
2
6
CONTINUOUS
10
281.0488578680
20
149.3867520305
7
STANDARD
40
3.5000000000
1
63
50
90.0000000000
41
0.7143000000
72
0
100
AcDbText
0
LINE
5
210
100
AcDbEntity
8
0
100
AcDbLine
62
2
6
CONTINUOUS
10
251.9598987291
20
123.2283817092
11
283.4238578680
21
123.2283817092
0
LINE
5
211
100
AcDbEntity
8
0
100
AcDbLine
62
2
6
CONTINUOUS
10
184.9081592063
20
186.2283817092
11
283.4238578680
21
186.2283817092
0
LINE
5
212
100
AcDbEntity
8
0
100
AcDbLine
62
2
6
CONTINUOUS
10
281.9238578680
20
123.2283817092
11
281.9238578680
21
154.7283817092
0
LINE
5
213
100
AcDbEntity
8
0
100
AcDbLine
62
2
6
CONTINUOUS
10
281.9238578680
20
186.2283817092
11
281.9238578680
21
154.7283817092
0
INSERT
5
214
100
AcDbEntity
8
0
100
AcDbBlockReference
62
2
6
CONTINUOUS
2
_FILLED
10
281.9238578680
20
123.2283817092
41
  3.500000
42
  3.500000
43
  3.500000
50
270.000000
0
INSERT
5
215
100
AcDbEntity
8
0
100
AcDbBlockReference
62
2
6
CONTINUOUS
2
_FILLED
10
281.9238578680
20
186.2283817092
41
  3.500000
42
  3.500000
43
  3.500000
50
 90.000000
0
ENDBLK
5
216
100
AcDbEntity
8
0
6
BYBLOCK
62
0
100
AcDbBlockEnd
0
BLOCK
5
217
100
AcDbEntity
8
0
100
AcDbBlockBegin
62
2
6
CONTINUOUS
2
*D1
70
65
10
0.0000000000
20
0.0000000000
3
*D1
1

0
TEXT
5
218
100
AcDbEntity
8
0
100
AcDbText
62
2
6
CONTINUOUS
10
264.1635786802
20
135.8182241117
7
STANDARD
40
3.5000000000
1
30
50
90.0000000000
41
0.7143000000
72
0
100
AcDbText
0
LINE
5
219
100
AcDbEntity
8
0
100
AcDbLine
62
2
6
CONTINUOUS
10
164.0755602901
20
153.2283817092
11
266.5385786802
21
153.2283817092
0
LINE
5
21A
100
AcDbEntity
8
0
100
AcDbLine
62
2
6
CONTINUOUS
10
251.9598987291
20
123.2283817092
11
266.5385786802
21
123.2283817092
0
LINE
5
21B
100
AcDbEntity
8
0
100
AcDbLine
62
2
6
CONTINUOUS
10
265.0385786802
20
153.2283817092
11
265.0385786802
21
138.2283817092
0
LINE
5
21C
100
AcDbEntity
8
0
100
AcDbLine
62
2
6
CONTINUOUS
10
265.0385786802
20
123.2283817092
11
265.0385786802
21
138.2283817092
0
INSERT
5
21D
100
AcDbEntity
8
0
100
AcDbBlockReference
62
2
6
CONTINUOUS
2
_FILLED
10
265.0385786802
20
153.2283817092
41
  3.500000
42
  3.500000
43
  3.500000
50
 90.000000
0
INSERT
5
21E
100
AcDbEntity
8
0
100
AcDbBlockReference
62
2
6
CONTINUOUS
2
_FILLED
10
265.0385786802
20
123.2283817092
41
  3.500000
42
  3.500000
43
  3.500000
50
270.000000
0
ENDBLK
5
21F
100
AcDbEntity
8
0
6
BYBLOCK
62
0
100
AcDbBlockEnd
0
BLOCK
5
220
100
AcDbEntity
8
0
100
AcDbBlockBegin
62
2
6
CONTINUOUS
2
*D2
70
65
10
0.0000000000
20
0.0000000000
3
*D2
1

0
TEXT
5
221
100
AcDbEntity
8
0
100
AcDbText
62
2
6
CONTINUOUS
10
263.8620558376
20
165.3674626904
7
STANDARD
40
3.5000000000
1
30
50
90.0000000000
41
0.7143000000
72
0
100
AcDbText
0
LINE
5
222
100
AcDbEntity
8
0
100
AcDbLine
62
2
6
CONTINUOUS
10
164.0755602901
20
153.2283817092
11
266.2370558376
21
153.2283817092
0
LINE
5
223
100
AcDbEntity
8
0
100
AcDbLine
62
2
6
CONTINUOUS
10
97.9598987291
20
183.2283817092
11
266.2370558376
21
183.2283817092
0
LINE
5
224
100
AcDbEntity
8
0
100
AcDbLine
62
2
6
CONTINUOUS
10
264.7370558376
20
153.2283817092
11
264.7370558376
21
168.2283817092
0
LINE
5
225
100
AcDbEntity
8
0
100
AcDbLine
62
2
6
CONTINUOUS
10
264.7370558376
20
183.2283817092
11
264.7370558376
21
168.2283817092
0
INSERT
5
226
100
AcDbEntity
8
0
100
AcDbBlockReference
62
2
6
CONTINUOUS
2
_FILLED
10
264.7370558376
20
153.2283817092
41
  3.500000
42
  3.500000
43
  3.500000
50
270.000000
0
INSERT
5
227
100
AcDbEntity
8
0
100
AcDbBlockReference
62
2
6
CONTINUOUS
2
_FILLED
10
264.7370558376
20
183.2283817092
41
  3.500000
42
  3.500000
43
  3.500000
50
 90.000000
0
ENDBLK
5
228
100
AcDbEntity
8
0
6
BYBLOCK
62
0
100
AcDbBlockEnd
0
BLOCK
5
229
100
AcDbEntity
8
0
100
AcDbBlockBegin
62
2
6
CONTINUOUS
2
*D3
70
65
10
0.0000000000
20
0.0000000000
3
*D3
1

0
TEXT
5
22A
100
AcDbEntity
8
0
100
AcDbText
62
2
6
CONTINUOUS
10
16.0102791878
20
140.5547223350
7
STANDARD
40
3.5000000000
1
44.5
50
90.0000000000
41
0.7143000000
72
0
100
AcDbText
0
LINE
5
22B
100
AcDbEntity
8
0
100
AcDbLine
62
2
6
CONTINUOUS
10
178.9598987291
20
123.2283817092
11
15.3852791878
21
123.2283817092
0
LINE
5
22C
100
AcDbEntity
8
0
100
AcDbLine
62
2
6
CONTINUOUS
10
42.9192893401
20
167.7283817092
11
15.3852791878
21
167.7283817092
0
LINE
5
22D
100
AcDbEntity
8
0
100
AcDbLine
62
2
6
CONTINUOUS
10
16.8852791878
20
123.2283817092
11
16.8852791878
21
145.4783817092
0
LINE
5
22E
100
AcDbEntity
8
0
100
AcDbLine
62
2
6
CONTINUOUS
10
16.8852791878
20
167.7283817092
11
16.8852791878
21
145.4783817092
0
INSERT
5
22F
100
AcDbEntity
8
0
100
AcDbBlockReference
62
2
6
CONTINUOUS
2
_FILLED
10
16.8852791878
20
123.2283817092
41
  3.500000
42
  3.500000
43
  3.500000
50
270.000000
0
INSERT
5
230
100
AcDbEntity
8
0
100
AcDbBlockReference
62
2
6
CONTINUOUS
2
_FILLED
10
16.8852791878
20
167.7283817092
41
  3.500000
42
  3.500000
43
  3.500000
50
 90.000000
0
ENDBLK
5
231
100
AcDbEntity
8
0
6
BYBLOCK
62
0
100
AcDbBlockEnd
0
BLOCK
5
232
100
AcDbEntity
8
0
100
AcDbBlockBegin
62
2
6
CONTINUOUS
2
*D4
70
65
10
0.0000000000
20
0.0000000000
3
*D4
1

0
TEXT
5
233
100
AcDbEntity
8
0
100
AcDbText
62
2
6
CONTINUOUS
10
28.7629441624
20
137.0622365482
7
STANDARD
40
3.5000000000
1
14.5
50
90.0000000000
41
0.7143000000
72
0
100
AcDbText
0
LINE
5
234
100
AcDbEntity
8
0
100
AcDbLine
62
2
6
CONTINUOUS
10
96.9598987291
20
153.2283817092
11
28.1379441624
21
153.2283817092
0
LINE
5
235
100
AcDbEntity
8
0
100
AcDbLine
62
2
6
CONTINUOUS
10
42.9192893401
20
167.7283817092
11
28.1379441624
21
167.7283817092
0
LINE
5
236
100
AcDbEntity
8
0
100
AcDbLine
62
2
6
CONTINUOUS
10
29.6379441624
20
153.2283817092
11
29.6379441624
21
160.4783817092
0
LINE
5
237
100
AcDbEntity
8
0
100
AcDbLine
62
2
6
CONTINUOUS
10
29.6379441624
20
160.4783817092
11
29.6379441624
21
137.0622365482
0
LINE
5
238
100
AcDbEntity
8
0
100
AcDbLine
62
2
6
CONTINUOUS
10
29.6379441624
20
167.7283817092
11
29.6379441624
21
160.4783817092
0
INSERT
5
239
100
AcDbEntity
8
0
100
AcDbBlockReference
62
2
6
CONTINUOUS
2
_FILLED
10
29.6379441624
20
153.2283817092
41
  3.500000
42
  3.500000
43
  3.500000
50
270.000000
0
INSERT
5
23A
100
AcDbEntity
8
0
100
AcDbBlockReference
62
2
6
CONTINUOUS
2
_FILLED
10
29.6379441624
20
167.7283817092
41
  3.500000
42
  3.500000
43
  3.500000
50
 90.000000
0
ENDBLK
5
23B
100
AcDbEntity
8
0
6
BYBLOCK
62
0
100
AcDbBlockEnd
0
BLOCK
5
23C
100
AcDbEntity
8
0
100
AcDbBlockBegin
62
2
6
CONTINUOUS
2
*D5
70
65
10
0.0000000000
20
0.0000000000
3
*D5
1

0
TEXT
5
23D
100
AcDbEntity
8
0
100
AcDbText
62
2
6
CONTINUOUS
10
28.7629441624
20
186.2604060914
7
STANDARD
40
3.5000000000
1
15.5
50
90.0000000000
41
0.7143000000
72
0
100
AcDbText
0
LINE
5
23E
100
AcDbEntity
8
0
100
AcDbLine
62
2
6
CONTINUOUS
10
42.9192893401
20
167.7283817092
11
28.1379441624
21
167.7283817092
0
LINE
5
23F
100
AcDbEntity
8
0
100
AcDbLine
62
2
6
CONTINUOUS
10
96.9598987291
20
183.2283817092
11
28.1379441624
21
183.2283817092
0
LINE
5
240
100
AcDbEntity
8
0
100
AcDbLine
62
2
6
CONTINUOUS
10
29.6379441624
20
167.7283817092
11
29.6379441624
21
175.4783817092
0
LINE
5
241
100
AcDbEntity
8
0
100
AcDbLine
62
2
6
CONTINUOUS
10
29.6379441624
20
183.2283817092
11
29.6379441624
21
175.4783817092
0
LINE
5
242
100
AcDbEntity
8
0
100
AcDbLine
62
2
6
CONTINUOUS
10
29.6379441624
20
175.4783817092
11
29.6379441624
21
196.2606060914
0
INSERT
5
243
100
AcDbEntity
8
0
100
AcDbBlockReference
62
2
6
CONTINUOUS
2
_FILLED
10
29.6379441624
20
167.7283817092
41
  3.500000
42
  3.500000
43
  3.500000
50
270.000000
0
INSERT
5
244
100
AcDbEntity
8
0
100
AcDbBlockReference
62
2
6
CONTINUOUS
2
_FILLED
10
29.6379441624
20
183.2283817092
41
  3.500000
42
  3.500000
43
  3.500000
50
 90.000000
0
ENDBLK
5
245
100
AcDbEntity
8
0
6
BYBLOCK
62
0
100
AcDbBlockEnd
0
BLOCK
5
246
100
AcDbEntity
8
0
100
AcDbBlockBegin
2
_FILLED
70
64
10
0.0000000000
20
0.0000000000
3
_FILLED
1

0
SOLID
5
247
100
AcDbEntity
8
0
6
BYBLOCK
62
0
100
AcDbTrace
10
0.0000000000
20
0.0000000000
11
-1.0000000000
21
0.1857142857
12
-1.0000000000
22
-0.1857142857
13
-1.0000000000
23
-0.1857142857
0
ENDBLK
5
248
100
AcDbEntity
8
0
6
BYBLOCK
62
0
100
AcDbBlockEnd
0
ENDSEC
0
SECTION
2
ENTITIES
0
DIMENSION
5
249
100
AcDbEntity
8
0
100
AcDbDimension
62
2
6
CONTINUOUS
2
*D0
10
281.9238578680
20
186.2283817092
11
279.2988578680
21
151.8868020305
70
160
42
63.000000
3
DIMSTYLE_1
100
AcDbAlignedDimension
13
251.9598987291
23
123.2283817092
14
184.9081592063
24
186.2283817092
50
90.000000
100
AcDbRotatedDimension
0
DIMENSION
5
24A
100
AcDbEntity
8
0
100
AcDbDimension
62
2
6
CONTINUOUS
2
*D1
10
265.0385786802
20
123.2283817092
11
262.4135786802
21
138.3182741117
70
160
42
30.000000
3
DIMSTYLE_2
100
AcDbAlignedDimension
13
164.0755602901
23
153.2283817092
14
251.9598987291
24
123.2283817092
50
270.000000
100
AcDbRotatedDimension
0
DIMENSION
5
24B
100
AcDbEntity
8
0
100
AcDbDimension
62
2
6
CONTINUOUS
2
*D2
10
264.7370558376
20
183.2283817092
11
262.1120558376
21
167.8675126904
70
160
42
30.000000
3
DIMSTYLE_2
100
AcDbAlignedDimension
13
164.0755602901
23
153.2283817092
14
97.9598987291
24
183.2283817092
50
90.000000
100
AcDbRotatedDimension
0
DIMENSION
5
24C
100
AcDbEntity
8
0
100
AcDbDimension
62
2
6
CONTINUOUS
2
*D3
10
16.8852791878
20
167.7283817092
11
14.2602791878
21
145.5548223350
70
160
42
44.500000
3
DIMSTYLE_1
100
AcDbAlignedDimension
13
178.9598987291
23
123.2283817092
14
42.9192893401
24
167.7283817092
50
90.000000
100
AcDbRotatedDimension
0
DIMENSION
5
24D
100
AcDbEntity
8
0
100
AcDbDimension
62
2
6
CONTINUOUS
2
*D4
10
29.6379441624
20
167.7283817092
11
27.0129441624
21
142.0623365482
70
160
42
14.500000
3
DIMSTYLE_2
100
AcDbAlignedDimension
13
96.9598987291
23
153.2283817092
14
42.9192893401
24
167.7283817092
50
90.000000
100
AcDbRotatedDimension
0
DIMENSION
5
24E
100
AcDbEntity
8
0
100
AcDbDimension
62
2
6
CONTINUOUS
2
*D5
10
29.6379441624
20
183.2283817092
11
27.0129441624
21
191.2605060914
70
160
42
15.500000
3
DIMSTYLE_2
100
AcDbAlignedDimension
13
42.9192893401
23
167.7283817092
14
96.9598987291
24
183.2283817092
50
90.000000
100
AcDbRotatedDimension
0
LINE
5
24F
100
AcDbEntity
8
0
100
AcDbLine
62
7
6
CONTINUOUS
10
0.0000000000
20
0.0000000000
11
0.0000000000
21
210.0000000000
0
LINE
5
250
100
AcDbEntity
8
0
100
AcDbLine
62
7
6
CONTINUOUS
10
0.0000000000
20
0.0000000000
11
297.0000000000
21
0.0000000000
0
LINE
5
251
100
AcDbEntity
8
0
100
AcDbLine
62
7
6
CONTINUOUS
10
0.0000000000
20
210.0000000000
11
297.0000000000
21
210.0000000000
0
LINE
5
252
100
AcDbEntity
8
0
100
AcDbLine
62
7
6
CONTINUOUS
10
297.0000000000
20
0.0000000000
11
297.0000000000
21
210.0000000000
0
LINE
5
253
100
AcDbEntity
8
0
100
AcDbLine
62
7
6
CONTINUOUS
10
49.4598982252
20
62.5268926766
11
49.4598982252
21
72.3937296404
0
LINE
5
254
100
AcDbEntity
8
0
100
AcDbLine
62
7
6
CONTINUOUS
10
49.4687001815
20
62.3945052216
11
49.4687001815
21
72.5263069611
0
LINE
5
255
100
AcDbEntity
8
0
100
AcDbLine
62
7
6
CONTINUOUS
10
51.8263122502
20
90.1779830261
11
51.8263122502
21
89.8603652140
0
LINE
5
256
100
AcDbEntity
8
0
100
AcDbLine
62
7
6
CONTINUOUS
10
51.8263122502
20
71.2459223164
11
51.8263122502
21
63.6748898664
0
LINE
5
257
100
AcDbEntity
8
0
100
AcDbLine
62
7
6
CONTINUOUS
10
51.8263122502
20
45.0604469687
11
51.8263122502
21
44.7428291566
0
LINE
5
258
100
AcDbEntity
8
0
100
AcDbLine
62
7
6
CONTINUOUS
10
53.1830941362
20
43.0526745272
11
53.1830941362
21
43.3688091185
0
LINE
5
259
100
AcDbEntity
8
0
100
AcDbLine
62
7
6
CONTINUOUS
10
53.1830941362
20
63.5447560292
11
53.1830941362
21
71.3760561535
0
LINE
5
25A
100
AcDbEntity
8
0
100
AcDbLine
62
7
6
CONTINUOUS
10
53.1830941362
20
91.5520030642
11
53.1830941362
21
91.8681376556
0
LINE
5
25B
100
AcDbEntity
8
0
100
AcDbLine
62
7
6
CONTINUOUS
10
52.8197693345
20
89.7469084640
11
52.0305607869
21
83.7238620914
0
LINE
5
25C
100
AcDbEntity
8
0
100
AcDbLine
62
7
6
CONTINUOUS
10
49.4687001815
20
72.5263069611
11
51.8263122502
21
90.1779830261
0
LINE
5
25D
100
AcDbEntity
8
0
100
AcDbLine
62
7
6
CONTINUOUS
10
49.4687001815
20
62.3945052216
11
51.8263122502
21
44.7428291566
0
LINE
5
25E
100
AcDbEntity
8
0
100
AcDbLine
62
7
6
CONTINUOUS
10
52.0305607869
20
51.1969500914
11
52.8197615288
21
45.1738893372
0
LINE
5
25F
100
AcDbEntity
8
0
100
AcDbLine
62
7
6
CONTINUOUS
10
54.8059480303
20
92.4090889536
11
54.8059480303
21
92.1004408695
0
LINE
5
260
100
AcDbEntity
8
0
100
AcDbLine
62
7
6
CONTINUOUS
10
54.8059480303
20
71.3726257545
11
54.8059480303
21
63.5481864282
0
LINE
5
261
100
AcDbEntity
8
0
100
AcDbLine
62
7
6
CONTINUOUS
10
54.8059480303
20
42.8203713132
11
54.8059480303
21
42.5117232291
0
LINE
5
262
100
AcDbEntity
8
0
100
AcDbLine
62
7
6
CONTINUOUS
10
55.1221757963
20
42.4604065272
11
55.1221757957
21
43.7573181488
0
LINE
5
263
100
AcDbEntity
8
0
100
AcDbLine
62
7
6
CONTINUOUS
10
55.1221757950
20
62.6969500914
11
55.1221757957
21
72.2238620914
0
LINE
5
264
100
AcDbEntity
8
0
100
AcDbLine
62
7
6
CONTINUOUS
10
55.1221757950
20
91.1634940338
11
55.1221757963
21
92.4604056556
0
LINE
5
265
100
AcDbEntity
8
0
100
AcDbLine
62
7
6
CONTINUOUS
10
57.1667271362
20
92.4604056556
11
57.1667271362
21
91.1634940338
0
LINE
5
266
100
AcDbEntity
8
0
100
AcDbLine
62
7
6
CONTINUOUS
10
57.1667271362
20
43.7573181488
11
57.1667271362
21
42.4604065272
0
LINE
5
267
100
AcDbEntity
8
0
100
AcDbLine
62
7
6
CONTINUOUS
10
57.1667271362
20
62.6969500914
11
57.1667271362
21
72.2238620914
0
LINE
5
268
100
AcDbEntity
8
0
100
AcDbLine
62
7
6
CONTINUOUS
10
58.9905701291
20
43.6396771337
11
58.9905701291
21
43.9495017692
0
LINE
5
269
100
AcDbEntity
8
0
100
AcDbLine
62
7
6
CONTINUOUS
10
58.9905701291
20
63.6309797603
11
58.9905701291
21
71.2898324224
0
LINE
5
26A
100
AcDbEntity
8
0
100
AcDbLine
62
7
6
CONTINUOUS
10
58.9905701291
20
90.9713104136
11
58.9905701291
21
91.2811350490
0
LINE
5
26B
100
AcDbEntity
8
0
100
AcDbLine
62
7
6
CONTINUOUS
10
62.5127849480
20
83.4539914514
11
62.5127849480
21
82.9668064774
0
LINE
5
26C
100
AcDbEntity
8
0
100
AcDbLine
62
7
6
CONTINUOUS
10
62.5127849480
20
71.3778439961
11
62.5127849480
21
63.5429681867
0
LINE
5
26D
100
AcDbEntity
8
0
100
AcDbLine
62
7
6
CONTINUOUS
10
62.5127849480
20
51.9540057054
11
62.5127849480
21
51.4668207314
0
LINE
5
26E
100
AcDbEntity
8
0
100
AcDbLine
62
7
6
CONTINUOUS
10
63.7798694568
20
53.1778808531
11
63.7798694568
21
53.8969334724
0
LINE
5
26F
100
AcDbEntity
8
0
100
AcDbLine
62
7
6
CONTINUOUS
10
63.7798694568
20
62.9857287067
11
63.7798694568
21
71.9350834761
0
LINE
5
270
100
AcDbEntity
8
0
100
AcDbLine
62
7
6
CONTINUOUS
10
63.7798694568
20
81.0238787105
11
63.7798694568
21
81.7429313296
0
LINE
5
271
100
AcDbEntity
8
0
100
AcDbLine
62
7
6
CONTINUOUS
10
66.9598987291
20
55.9604060914
11
66.9598987291
21
78.9604060914
0
LINE
5
272
100
AcDbEntity
8
0
100
AcDbLine
62
7
6
CONTINUOUS
10
54.8059597469
20
42.8204060199
11
55.1221757963
21
43.7573181494
0
LINE
5
273
100
AcDbEntity
8
0
100
AcDbLine
62
7
6
CONTINUOUS
10
53.1831009882
20
43.3688294139
11
53.4993219023
21
44.3052048512
0
LINE
5
274
100
AcDbEntity
8
0
100
AcDbLine
62
7
6
CONTINUOUS
10
53.1830998139
20
91.5519858627
11
53.4993327475
21
90.6155752174
0
LINE
5
275
100
AcDbEntity
8
0
100
AcDbLine
62
7
6
CONTINUOUS
10
55.1221757962
20
91.1634940333
11
54.8059598006
21
92.1004060034
0
LINE
5
276
100
AcDbEntity
8
0
100
AcDbLine
62
7
6
CONTINUOUS
10
62.5127849480
20
51.4668207314
11
58.9905701291
21
43.6396771337
0
LINE
5
277
100
AcDbEntity
8
0
100
AcDbLine
62
7
6
CONTINUOUS
10
62.5127849480
20
83.4539914514
11
58.9905701291
21
91.2811350490
0
LINE
5
278
100
AcDbEntity
8
0
100
AcDbLine
62
7
6
CONTINUOUS
10
83.9598987291
20
78.9604060914
11
83.9598987291
21
55.9604060914
0
LINE
5
279
100
AcDbEntity
8
0
100
AcDbLine
62
7
6
CONTINUOUS
10
84.9598987291
20
56.9604060914
11
84.9598987291
21
77.9603914994
0
LINE
5
27A
100
AcDbEntity
8
0
100
AcDbLine
62
7
6
CONTINUOUS
10
94.9598987291
20
55.4604250340
11
94.9598987291
21
79.4603871487
0
LINE
5
27B
100
AcDbEntity
8
0
100
AcDbLine
62
7
6
CONTINUOUS
10
58.9905700085
20
90.9713103600
11
58.0786477771
21
90.5662827509
0
LINE
5
27C
100
AcDbEntity
8
0
100
AcDbLine
62
7
6
CONTINUOUS
10
58.0786477771
20
44.3545294318
11
58.9905700085
21
43.9495018227
0
LINE
5
27D
100
AcDbEntity
8
0
100
AcDbLine
62
7
6
CONTINUOUS
10
97.4598987291
20
49.5781365490
11
97.4598987291
21
85.3426756338
0
LINE
5
27E
100
AcDbEntity
8
0
100
AcDbLine
62
7
6
CONTINUOUS
10
102.4598987291
20
85.3365268232
11
102.4598987291
21
85.1391977371
0
LINE
5
27F
100
AcDbEntity
8
0
100
AcDbLine
62
7
6
CONTINUOUS
10
102.4598987291
20
49.5842853595
11
102.4598987291
21
49.7816144456
0
LINE
5
280
100
AcDbEntity
8
0
100
AcDbLine
62
7
6
CONTINUOUS
10
61.1013627696
20
83.7238617222
11
62.0132849417
21
84.1236619426
0
LINE
5
281
100
AcDbEntity
8
0
100
AcDbLine
62
7
6
CONTINUOUS
10
55.1221757956
20
91.1634940338
11
53.4993723544
21
90.6156243649
0
LINE
5
282
100
AcDbEntity
8
0
100
AcDbLine
62
7
6
CONTINUOUS
10
53.1830941362
20
91.8681376556
11
54.8059480303
21
92.4090889536
0
LINE
5
283
100
AcDbEntity
8
0
100
AcDbLine
62
7
6
CONTINUOUS
10
53.1830941362
20
43.0526745272
11
54.8059480303
21
42.5117232291
0
LINE
5
284
100
AcDbEntity
8
0
100
AcDbLine
62
7
6
CONTINUOUS
10
53.4992561891
20
44.3052270360
11
55.1221757960
21
43.7573181488
0
LINE
5
285
100
AcDbEntity
8
0
100
AcDbLine
62
7
6
CONTINUOUS
10
61.1013632675
20
51.1969502424
11
62.0132850283
21
50.7971502023
0
LINE
5
286
100
AcDbEntity
8
0
100
AcDbLine
62
7
6
CONTINUOUS
10
66.9598987291
20
55.9604060914
11
63.7798694568
21
53.1778808531
0
LINE
5
287
100
AcDbEntity
8
0
100
AcDbLine
62
7
6
CONTINUOUS
10
66.9598987291
20
78.9604060914
11
63.7798694568
21
81.7429313296
0
LINE
5
288
100
AcDbEntity
8
0
100
AcDbLine
62
7
6
CONTINUOUS
10
111.9598987291
20
60.9604060914
11
111.9598987291
21
59.7877041005
0
LINE
5
289
100
AcDbEntity
8
0
100
AcDbLine
62
7
6
CONTINUOUS
10
111.9598987291
20
73.9604060914
11
111.9598987291
21
75.1331080834
0
LINE
5
28A
100
AcDbEntity
8
0
100
AcDbLine
62
7
6
CONTINUOUS
10
127.4598987291
20
49.0396317673
11
127.4598987291
21
48.8423026812
0
LINE
5
28B
100
AcDbEntity
8
0
100
AcDbLine
62
7
6
CONTINUOUS
10
127.4598987291
20
85.8811804154
11
127.4598987291
21
86.0785095015
0
LINE
5
28C
100
AcDbEntity
8
0
100
AcDbLine
62
7
6
CONTINUOUS
10
57.1667271362
20
42.4604065272
11
55.1221757963
21
42.4604065272
0
LINE
5
28D
100
AcDbEntity
8
0
100
AcDbLine
62
7
6
CONTINUOUS
10
57.1667271362
20
42.7696894665
11
55.1221757963
21
42.7696894665
0
LINE
5
28E
100
AcDbEntity
8
0
100
AcDbLine
62
7
6
CONTINUOUS
10
57.1667271370
20
43.7573181488
11
55.1221757960
21
43.7573181488
0
LINE
5
28F
100
AcDbEntity
8
0
100
AcDbLine
62
7
6
CONTINUOUS
10
174.9598987291
20
46.9604060914
11
251.4598987291
21
46.9604060914
0
LINE
5
290
100
AcDbEntity
8
0
100
AcDbLine
62
7
6
CONTINUOUS
10
131.4915808945
20
52.7665749950
11
131.4915808945
21
81.2425766864
0
LINE
5
291
100
AcDbEntity
8
0
100
AcDbLine
62
7
6
CONTINUOUS
10
176.4468912637
20
53.5026486880
11
172.4598987291
21
53.0364013145
0
LINE
5
292
100
AcDbEntity
8
0
100
AcDbLine
62
7
6
CONTINUOUS
10
184.4081592063
20
51.6169271354
11
251.4598987291
21
53.2931240710
0
LINE
5
293
100
AcDbEntity
8
0
100
AcDbLine
62
7
6
CONTINUOUS
10
172.4598987291
20
48.0528792589
11
184.4081592063
21
48.0600751818
0
LINE
5
294
100
AcDbEntity
8
0
100
AcDbLine
62
7
6
CONTINUOUS
10
52.0305607869
20
51.1969500914
11
61.1013636117
21
51.1969500914
0
LINE
5
295
100
AcDbEntity
8
0
100
AcDbLine
62
7
6
CONTINUOUS
10
251.4598987291
20
53.5026486880
11
176.4468912637
21
53.5026486880
0
LINE
5
296
100
AcDbEntity
8
0
100
AcDbLine
62
7
6
CONTINUOUS
10
172.4598987291
20
51.6313233676
11
184.4081592063
21
51.6169271354
0
LINE
5
297
100
AcDbEntity
8
0
100
AcDbLine
62
7
6
CONTINUOUS
10
184.4081592063
20
48.0600751818
11
251.4598987291
21
47.2222320653
0
LINE
5
298
100
AcDbEntity
8
0
100
AcDbLine
62
7
6
CONTINUOUS
10
97.4598987291
20
50.1020190784
11
163.5922766441
21
48.1791021455
0
LINE
5
299
100
AcDbEntity
8
0
100
AcDbLine
62
7
6
CONTINUOUS
10
163.5755602901
20
47.6158695233
11
97.4598987291
21
49.5781365490
0
LINE
5
29A
100
AcDbEntity
8
0
100
AcDbLine
62
7
6
CONTINUOUS
10
127.4598987291
20
48.8423026812
11
102.4598987291
21
49.5842853595
0
LINE
5
29B
100
AcDbEntity
8
0
100
AcDbLine
62
7
6
CONTINUOUS
10
102.4598987291
20
49.7816144456
11
127.4598987291
21
49.0396317673
0
LINE
5
29C
100
AcDbEntity
8
0
100
AcDbLine
62
7
6
CONTINUOUS
10
163.7282100681
20
52.7591761823
11
131.4775093787
21
53.7163546333
0
LINE
5
29D
100
AcDbEntity
8
0
100
AcDbLine
62
7
6
CONTINUOUS
10
163.6989072311
20
51.7718607811
11
131.4915808945
21
52.7665749950
0
LINE
5
29E
100
AcDbEntity
8
0
100
AcDbLine
62
7
6
CONTINUOUS
10
174.9598987291
20
46.9604060914
11
172.4598987291
21
47.1065392085
0
LINE
5
29F
100
AcDbEntity
8
0
100
AcDbLine
62
7
6
CONTINUOUS
10
97.4598987291
20
55.4604060914
11
94.9598987291
21
55.4604060914
0
LINE
5
2A0
100
AcDbEntity
8
0
100
AcDbLine
62
7
6
CONTINUOUS
10
83.9598987291
20
55.9604060914
11
66.9598987291
21
55.9604060914
0
LINE
5
2A1
100
AcDbEntity
8
0
100
AcDbLine
62
7
6
CONTINUOUS
10
84.9598987291
20
57.9604060914
11
94.9598987291
21
57.9604060914
0
LINE
5
2A2
100
AcDbEntity
8
0
100
AcDbLine
62
7
6
CONTINUOUS
10
52.0305607881
20
51.1969500915
11
51.0393678437
21
51.0679715831
0
LINE
5
2A3
100
AcDbEntity
8
0
100
AcDbLine
62
7
6
CONTINUOUS
10
52.0305607869
20
62.6969500914
11
61.1013636117
21
62.6969500914
0
LINE
5
2A4
100
AcDbEntity
8
0
100
AcDbLine
62
7
6
CONTINUOUS
10
192.7598987291
20
62.9604060914
11
235.2598987291
21
62.9604060914
0
LINE
5
2A5
100
AcDbEntity
8
0
100
AcDbLine
62
7
6
CONTINUOUS
10
55.1221757963
20
63.5401394219
11
57.1667271362
21
63.5401394219
0
LINE
5
2A6
100
AcDbEntity
8
0
100
AcDbLine
62
7
6
CONTINUOUS
10
94.9598987291
20
67.4604060914
11
84.9598987291
21
67.4604060914
0
LINE
5
2A7
100
AcDbEntity
8
0
100
AcDbLine
62
7
6
CONTINUOUS
10
57.1667271362
20
71.3806727609
11
55.1221757963
21
71.3806727609
0
LINE
5
2A8
100
AcDbEntity
8
0
100
AcDbLine
62
7
6
CONTINUOUS
10
235.2598987291
20
71.9604060914
11
192.7598987291
21
71.9604060914
0
LINE
5
2A9
100
AcDbEntity
8
0
100
AcDbLine
62
7
6
CONTINUOUS
10
52.0305607869
20
72.2238620914
11
61.1013636117
21
72.2238620914
0
LINE
5
2AA
100
AcDbEntity
8
0
100
AcDbLine
62
7
6
CONTINUOUS
10
51.0393678437
20
83.8528405996
11
52.0305607881
21
83.7238620912
0
LINE
5
2AB
100
AcDbEntity
8
0
100
AcDbLine
62
7
6
CONTINUOUS
10
163.7411636142
20
81.7251855796
11
163.7265161664
21
82.2187094932
0
LINE
5
2AC
100
AcDbEntity
8
0
100
AcDbLine
62
7
6
CONTINUOUS
10
163.5922766441
20
86.7417100372
11
163.5755602901
21
87.3049426594
0
LINE
5
2AD
100
AcDbEntity
8
0
100
AcDbLine
62
7
6
CONTINUOUS
10
163.5755602901
20
47.6158695233
11
163.5922766441
21
48.1791021455
0
LINE
5
2AE
100
AcDbEntity
8
0
100
AcDbLine
62
7
6
CONTINUOUS
10
163.6989072311
20
51.7718607811
11
163.7282100681
21
52.7591761823
0
LINE
5
2AF
100
AcDbEntity
8
0
100
AcDbLine
62
7
6
CONTINUOUS
10
163.7265161664
20
82.2187094932
11
131.4915808945
21
81.2425766864
0
LINE
5
2B0
100
AcDbEntity
8
0
100
AcDbLine
62
7
6
CONTINUOUS
10
163.7411636142
20
81.7251855796
11
131.4775093787
21
80.7676226763
0
LINE
5
2B1
100
AcDbEntity
8
0
100
AcDbLine
62
7
6
CONTINUOUS
10
94.9598987291
20
76.9604060914
11
84.9598987291
21
76.9604060914
0
LINE
5
2B2
100
AcDbEntity
8
0
100
AcDbLine
62
7
6
CONTINUOUS
10
83.9598987291
20
78.9604060914
11
66.9598987291
21
78.9604060914
0
LINE
5
2B3
100
AcDbEntity
8
0
100
AcDbLine
62
7
6
CONTINUOUS
10
97.4598987291
20
79.4604060914
11
94.9598987291
21
79.4604060914
0
LINE
5
2B4
100
AcDbEntity
8
0
100
AcDbLine
62
7
6
CONTINUOUS
10
251.4598987291
20
81.4181634948
11
176.4468912637
21
81.4181634948
0
LINE
5
2B5
100
AcDbEntity
8
0
100
AcDbLine
62
7
6
CONTINUOUS
10
168.9814956287
20
52.6501840828
11
168.9814956287
21
81.8339549549
0
LINE
5
2B6
100
AcDbEntity
8
0
100
AcDbLine
62
7
6
CONTINUOUS
10
174.9598987291
20
87.9604060914
11
172.4598987291
21
87.8142729743
0
LINE
5
2B7
100
AcDbEntity
8
0
100
AcDbLine
62
7
6
CONTINUOUS
10
102.4598987291
20
85.1391977371
11
127.4598987291
21
85.8811804154
0
LINE
5
2B8
100
AcDbEntity
8
0
100
AcDbLine
62
7
6
CONTINUOUS
10
127.4598987291
20
86.0785095015
11
102.4598987291
21
85.3365268232
0
LINE
5
2B9
100
AcDbEntity
8
0
100
AcDbLine
62
7
6
CONTINUOUS
10
163.5755602901
20
87.3049426594
11
97.4598987291
21
85.3426756338
0
LINE
5
2BA
100
AcDbEntity
8
0
100
AcDbLine
62
7
6
CONTINUOUS
10
163.5922766441
20
86.7417100372
11
97.4598987291
21
84.8187931043
0
LINE
5
2BB
100
AcDbEntity
8
0
100
AcDbLine
62
7
6
CONTINUOUS
10
184.4081592063
20
86.8607370009
11
251.4598987291
21
87.6985801174
0
LINE
5
2BC
100
AcDbEntity
8
0
100
AcDbLine
62
7
6
CONTINUOUS
10
172.4598987291
20
82.3535410779
11
184.4081592063
21
82.3607370009
0
LINE
5
2BD
100
AcDbEntity
8
0
100
AcDbLine
62
7
6
CONTINUOUS
10
61.1013636117
20
83.7238620914
11
52.0305607869
21
83.7238620914
0
LINE
5
2BE
100
AcDbEntity
8
0
100
AcDbLine
62
7
6
CONTINUOUS
10
174.9598987291
20
87.9604060914
11
251.4598987291
21
87.9604060914
0
LINE
5
2BF
100
AcDbEntity
8
0
100
AcDbLine
62
7
6
CONTINUOUS
10
172.4598987291
20
86.8679329239
11
184.4081592063
21
86.8607370009
0
LINE
5
2C0
100
AcDbEntity
8
0
100
AcDbLine
62
7
6
CONTINUOUS
10
184.4081592063
20
82.3607370009
11
251.4598987291
21
81.5228938843
0
LINE
5
2C1
100
AcDbEntity
8
0
100
AcDbLine
62
7
6
CONTINUOUS
10
176.4468912637
20
81.4181634948
11
172.4598987291
21
81.6512161536
0
LINE
5
2C2
100
AcDbEntity
8
0
100
AcDbLine
62
7
6
CONTINUOUS
10
172.4598987291
20
47.1065392085
11
172.4598987291
21
48.0528792589
0
LINE
5
2C3
100
AcDbEntity
8
0
100
AcDbLine
62
7
6
CONTINUOUS
10
172.4598987291
20
51.6313233676
11
172.4598987291
21
53.0364013145
0
LINE
5
2C4
100
AcDbEntity
8
0
100
AcDbLine
62
7
6
CONTINUOUS
10
172.4598987291
20
81.6512161536
11
172.4598987291
21
82.3535410779
0
LINE
5
2C5
100
AcDbEntity
8
0
100
AcDbLine
62
7
6
CONTINUOUS
10
172.4598987291
20
86.8679329239
11
172.4598987291
21
87.8142729743
0
LINE
5
2C6
100
AcDbEntity
8
0
100
AcDbLine
62
7
6
CONTINUOUS
10
176.4468912637
20
53.5026486880
11
176.4468912637
21
81.4181634948
0
LINE
5
2C7
100
AcDbEntity
8
0
100
AcDbLine
62
7
6
CONTINUOUS
10
55.1221757956
20
91.1634940338
11
57.1667271379
21
91.1634940338
0
LINE
5
2C8
100
AcDbEntity
8
0
100
AcDbLine
62
7
6
CONTINUOUS
10
55.1221757963
20
92.1511227163
11
57.1667271362
21
92.1511227163
0
LINE
5
2C9
100
AcDbEntity
8
0
100
AcDbLine
62
7
6
CONTINUOUS
10
57.1667271362
20
92.4604056556
11
55.1221757963
21
92.4604056556
0
LINE
5
2CA
100
AcDbEntity
8
0
100
AcDbLine
62
7
6
CONTINUOUS
10
184.4081592063
20
86.8607370009
11
184.4081592063
21
82.3607370009
0
LINE
5
2CB
100
AcDbEntity
8
0
100
AcDbLine
62
7
6
CONTINUOUS
10
184.4081592063
20
51.6169271354
11
184.4081592063
21
48.0600751818
0
LINE
5
2CC
100
AcDbEntity
8
0
100
AcDbLine
62
7
6
CONTINUOUS
10
251.4598987291
20
46.9604060914
11
251.4598987291
21
87.9604060914
0
LINE
5
2CD
100
AcDbEntity
8
0
100
AcDbLine
62
7
6
CONTINUOUS
10
49.4598982252
20
162.7948682944
11
49.4598982252
21
172.6618951239
0
LINE
5
2CE
100
AcDbEntity
8
0
100
AcDbLine
62
7
6
CONTINUOUS
10
49.4687001815
20
162.6624808394
11
49.4687001815
21
172.7942825789
0
LINE
5
2CF
100
AcDbEntity
8
0
100
AcDbLine
62
7
6
CONTINUOUS
10
52.8197385703
20
190.0147232472
11
52.0305607869
21
183.9918377092
0
LINE
5
2D0
100
AcDbEntity
8
0
100
AcDbLine
62
7
6
CONTINUOUS
10
49.4687001815
20
172.7942825789
11
51.8263122502
21
190.4459586439
0
LINE
5
2D1
100
AcDbEntity
8
0
100
AcDbLine
62
7
6
CONTINUOUS
10
49.4687001815
20
162.6624808394
11
51.8263122502
21
145.0108047744
0
LINE
5
2D2
100
AcDbEntity
8
0
100
AcDbLine
62
7
6
CONTINUOUS
10
51.8263122502
20
190.4459586439
11
51.8263122502
21
190.1283408318
0
LINE
5
2D3
100
AcDbEntity
8
0
100
AcDbLine
62
7
6
CONTINUOUS
10
51.8263122502
20
171.5138979342
11
51.8263122502
21
163.9428654842
0
LINE
5
2D4
100
AcDbEntity
8
0
100
AcDbLine
62
7
6
CONTINUOUS
10
51.8263122502
20
145.3284225865
11
51.8263122502
21
145.0108047744
0
LINE
5
2D5
100
AcDbEntity
8
0
100
AcDbLine
62
7
6
CONTINUOUS
10
53.1830941362
20
143.3206501449
11
53.1830941362
21
143.6367847363
0
LINE
5
2D6
100
AcDbEntity
8
0
100
AcDbLine
62
7
6
CONTINUOUS
10
53.1830941362
20
163.8127316470
11
53.1830941362
21
171.6440317713
0
LINE
5
2D7
100
AcDbEntity
8
0
100
AcDbLine
62
7
6
CONTINUOUS
10
53.1830941362
20
191.8199786820
11
53.1830941362
21
192.1361132734
0
LINE
5
2D8
100
AcDbEntity
8
0
100
AcDbLine
62
7
6
CONTINUOUS
10
54.8059480303
20
192.6770645714
11
54.8059480303
21
192.3684164873
0
LINE
5
2D9
100
AcDbEntity
8
0
100
AcDbLine
62
7
6
CONTINUOUS
10
54.8059480303
20
171.6406013723
11
54.8059480303
21
163.8161620460
0
LINE
5
2DA
100
AcDbEntity
8
0
100
AcDbLine
62
7
6
CONTINUOUS
10
54.8059480303
20
143.0883469310
11
54.8059480303
21
142.7796988469
0
LINE
5
2DB
100
AcDbEntity
8
0
100
AcDbLine
62
7
6
CONTINUOUS
10
55.1221757963
20
142.7283821449
11
55.1221757957
21
144.0252937666
0
LINE
5
2DC
100
AcDbEntity
8
0
100
AcDbLine
62
7
6
CONTINUOUS
10
55.1221757950
20
162.9649257092
11
55.1221757957
21
172.4918377092
0
LINE
5
2DD
100
AcDbEntity
8
0
100
AcDbLine
62
7
6
CONTINUOUS
10
55.1221757950
20
191.4314696516
11
55.1221757963
21
192.7283812734
0
LINE
5
2DE
100
AcDbEntity
8
0
100
AcDbLine
62
7
6
CONTINUOUS
10
57.1667271362
20
172.4918377092
11
57.1667271362
21
162.9649257092
0
LINE
5
2DF
100
AcDbEntity
8
0
100
AcDbLine
62
7
6
CONTINUOUS
10
57.1667271362
20
144.0252937666
11
57.1667271362
21
142.7283821449
0
LINE
5
2E0
100
AcDbEntity
8
0
100
AcDbLine
62
7
6
CONTINUOUS
10
57.1667271362
20
191.4314696516
11
57.1667271362
21
192.7283812734
0
LINE
5
2E1
100
AcDbEntity
8
0
100
AcDbLine
62
7
6
CONTINUOUS
10
52.0305607869
20
151.4649257092
11
52.8197196011
21
145.4421849416
0
LINE
5
2E2
100
AcDbEntity
8
0
100
AcDbLine
62
7
6
CONTINUOUS
10
58.9905701291
20
143.9076527515
11
58.9905701291
21
144.2174773870
0
LINE
5
2E3
100
AcDbEntity
8
0
100
AcDbLine
62
7
6
CONTINUOUS
10
58.9905701291
20
163.8989553781
11
58.9905701291
21
171.5578080402
0
LINE
5
2E4
100
AcDbEntity
8
0
100
AcDbLine
62
7
6
CONTINUOUS
10
58.9905701291
20
191.2392860314
11
58.9905701291
21
191.5491106668
0
LINE
5
2E5
100
AcDbEntity
8
0
100
AcDbLine
62
7
6
CONTINUOUS
10
62.5127849480
20
183.7219670691
11
62.5127849480
21
183.2347820951
0
LINE
5
2E6
100
AcDbEntity
8
0
100
AcDbLine
62
7
6
CONTINUOUS
10
62.5127849480
20
171.6458196139
11
62.5127849480
21
163.8109438045
0
LINE
5
2E7
100
AcDbEntity
8
0
100
AcDbLine
62
7
6
CONTINUOUS
10
62.5127849480
20
152.2219813232
11
62.5127849480
21
151.7347963492
0
LINE
5
2E8
100
AcDbEntity
8
0
100
AcDbLine
62
7
6
CONTINUOUS
10
63.7798694568
20
153.4458564710
11
63.7798694568
21
154.1649090901
0
LINE
5
2E9
100
AcDbEntity
8
0
100
AcDbLine
62
7
6
CONTINUOUS
10
63.7798694568
20
163.2537043245
11
63.7798694568
21
172.2030590939
0
LINE
5
2EA
100
AcDbEntity
8
0
100
AcDbLine
62
7
6
CONTINUOUS
10
63.7798694568
20
181.2918543281
11
63.7798694568
21
182.0109069474
0
LINE
5
2EB
100
AcDbEntity
8
0
100
AcDbLine
62
7
6
CONTINUOUS
10
55.1221757963
20
144.0252937672
11
54.8059598007
21
143.0883817971
0
LINE
5
2EC
100
AcDbEntity
8
0
100
AcDbLine
62
7
6
CONTINUOUS
10
53.1831010416
20
143.6368051900
11
53.4993219023
21
144.5731804690
0
LINE
5
2ED
100
AcDbEntity
8
0
100
AcDbLine
62
7
6
CONTINUOUS
10
66.9598987291
20
156.2283817092
11
66.9598987291
21
179.2283817092
0
LINE
5
2EE
100
AcDbEntity
8
0
100
AcDbLine
62
7
6
CONTINUOUS
10
62.5127849480
20
151.7347963492
11
58.9905701291
21
143.9076527515
0
LINE
5
2EF
100
AcDbEntity
8
0
100
AcDbLine
62
7
6
CONTINUOUS
10
53.1830997605
20
191.8199616388
11
53.4993327475
21
190.8835508352
0
LINE
5
2F0
100
AcDbEntity
8
0
100
AcDbLine
62
7
6
CONTINUOUS
10
54.8059597468
20
192.3683817806
11
55.1221757962
21
191.4314696511
0
LINE
5
2F1
100
AcDbEntity
8
0
100
AcDbLine
62
7
6
CONTINUOUS
10
83.9598987291
20
179.2283817092
11
83.9598987291
21
156.2283817092
0
LINE
5
2F2
100
AcDbEntity
8
0
100
AcDbLine
62
7
6
CONTINUOUS
10
84.9598987291
20
156.7587265946
11
84.9598987291
21
178.6980368238
0
LINE
5
2F3
100
AcDbEntity
8
0
100
AcDbLine
62
7
6
CONTINUOUS
10
58.9905700085
20
191.2392859778
11
58.0786477771
21
190.8342583687
0
LINE
5
2F4
100
AcDbEntity
8
0
100
AcDbLine
62
7
6
CONTINUOUS
10
55.1221757956
20
191.4314696516
11
53.4998707705
21
190.8837682515
0
LINE
5
2F5
100
AcDbEntity
8
0
100
AcDbLine
62
7
6
CONTINUOUS
10
53.1830941362
20
192.1361132734
11
54.8059480303
21
192.6770645714
0
LINE
5
2F6
100
AcDbEntity
8
0
100
AcDbLine
62
7
6
CONTINUOUS
10
62.5127849480
20
183.7219670692
11
58.9905701291
21
191.5491106668
0
LINE
5
2F7
100
AcDbEntity
8
0
100
AcDbLine
62
7
6
CONTINUOUS
10
62.0132850283
20
184.3916375982
11
61.1013632675
21
183.9918375581
0
LINE
5
2F8
100
AcDbEntity
8
0
100
AcDbLine
62
7
6
CONTINUOUS
10
94.9598987291
20
155.7284856797
11
94.9598987291
21
179.7282777386
0
LINE
5
2F9
100
AcDbEntity
8
0
100
AcDbLine
62
7
6
CONTINUOUS
10
97.4598987291
20
153.2283817092
11
97.4598987291
21
183.2283817092
0
LINE
5
2FA
100
AcDbEntity
8
0
100
AcDbLine
62
7
6
CONTINUOUS
10
66.9598987291
20
156.2283817092
11
63.7798694568
21
153.4458564709
0
LINE
5
2FB
100
AcDbEntity
8
0
100
AcDbLine
62
7
6
CONTINUOUS
10
102.4598987291
20
162.0783817092
11
102.4598987291
21
173.3783817092
0
LINE
5
2FC
100
AcDbEntity
8
0
100
AcDbLine
62
7
6
CONTINUOUS
10
53.1830941362
20
143.3206501449
11
54.8059480303
21
142.7796988469
0
LINE
5
2FD
100
AcDbEntity
8
0
100
AcDbLine
62
7
6
CONTINUOUS
10
53.4997357930
20
144.5730407362
11
55.1221757960
21
144.0252937666
0
LINE
5
2FE
100
AcDbEntity
8
0
100
AcDbLine
62
7
6
CONTINUOUS
10
58.0786477771
20
144.6225050496
11
58.9905700085
21
144.2174774405
0
LINE
5
2FF
100
AcDbEntity
8
0
100
AcDbLine
62
7
6
CONTINUOUS
10
111.9598987291
20
172.7283817092
11
111.9598987291
21
162.7283817092
0
LINE
5
300
100
AcDbEntity
8
0
100
AcDbLine
62
7
6
CONTINUOUS
10
179.4598987291
20
120.7283817092
11
174.9598987291
21
120.7283817092
0
LINE
5
301
100
AcDbEntity
8
0
100
AcDbLine
62
7
6
CONTINUOUS
10
62.0132849417
20
151.0651258579
11
61.1013627696
21
151.4649260784
0
LINE
5
302
100
AcDbEntity
8
0
100
AcDbLine
62
7
6
CONTINUOUS
10
66.9598987291
20
179.2283817092
11
63.7798694568
21
182.0109069474
0
LINE
5
303
100
AcDbEntity
8
0
100
AcDbLine
62
7
6
CONTINUOUS
10
174.9598987291
20
123.2283817092
11
251.4598987291
21
123.2283817092
0
LINE
5
304
100
AcDbEntity
8
0
100
AcDbLine
62
7
6
CONTINUOUS
10
127.4598987291
20
173.3783817092
11
127.4598987291
21
162.0783817092
0
LINE
5
305
100
AcDbEntity
8
0
100
AcDbLine
62
7
6
CONTINUOUS
10
57.1667271362
20
142.7283821449
11
55.1221757963
21
142.7283821449
0
LINE
5
306
100
AcDbEntity
8
0
100
AcDbLine
62
7
6
CONTINUOUS
10
57.1667271362
20
143.0376650843
11
55.1221757963
21
143.0376650843
0
LINE
5
307
100
AcDbEntity
8
0
100
AcDbLine
62
7
6
CONTINUOUS
10
57.1667271370
20
144.0252937666
11
55.1221757960
21
144.0252937666
0
LINE
5
308
100
AcDbEntity
8
0
100
AcDbLine
62
7
6
CONTINUOUS
10
52.0305607869
20
151.4649257092
11
61.1013636117
21
151.4649257092
0
LINE
5
309
100
AcDbEntity
8
0
100
AcDbLine
62
7
6
CONTINUOUS
10
166.0014237750
20
153.2283817092
11
97.4598987291
21
153.2283817092
0
LINE
5
30A
100
AcDbEntity
8
0
100
AcDbLine
62
7
6
CONTINUOUS
10
97.4598987291
20
155.7283817092
11
94.9598987291
21
155.7283817092
0
LINE
5
30B
100
AcDbEntity
8
0
100
AcDbLine
62
7
6
CONTINUOUS
10
83.9598987291
20
156.2283817092
11
66.9598987291
21
156.2283817092
0
LINE
5
30C
100
AcDbEntity
8
0
100
AcDbLine
62
7
6
CONTINUOUS
10
94.9598987291
20
156.7587265946
11
84.9598987291
21
156.7587265946
0
LINE
5
30D
100
AcDbEntity
8
0
100
AcDbLine
62
7
6
CONTINUOUS
10
52.0305607881
20
151.4649257093
11
51.0393678368
21
151.3359472000
0
LINE
5
30E
100
AcDbEntity
8
0
100
AcDbLine
62
7
6
CONTINUOUS
10
127.4598987291
20
162.0783817092
11
102.4598987291
21
162.0783817092
0
LINE
5
30F
100
AcDbEntity
8
0
100
AcDbLine
62
7
6
CONTINUOUS
10
94.9598987291
20
162.2435541519
11
84.9598987291
21
162.2435541519
0
LINE
5
310
100
AcDbEntity
8
0
100
AcDbLine
62
7
6
CONTINUOUS
10
102.4598987291
20
162.7283817092
11
118.4598987098
21
162.7283817092
0
LINE
5
311
100
AcDbEntity
8
0
100
AcDbLine
62
7
6
CONTINUOUS
10
52.0305607869
20
162.9649257092
11
61.1013636117
21
162.9649257092
0
LINE
5
312
100
AcDbEntity
8
0
100
AcDbLine
62
7
6
CONTINUOUS
10
55.1221757963
20
163.8081150397
11
57.1667271362
21
163.8081150397
0
LINE
5
313
100
AcDbEntity
8
0
100
AcDbLine
62
7
6
CONTINUOUS
10
163.5755602901
20
153.2283817092
11
163.5922766441
21
185.5101655270
0
LINE
5
314
100
AcDbEntity
8
DEFAULT_1
100
AcDbLine
62
2
6
CENTER
10
43.4192893401
20
167.7283817092
11
254.4598987291
21
167.7283817092
0
LINE
5
315
100
AcDbEntity
8
0
100
AcDbLine
62
7
6
CONTINUOUS
10
57.1667271362
20
171.6486483787
11
55.1221757963
21
171.6486483787
0
LINE
5
316
100
AcDbEntity
8
0
100
AcDbLine
62
7
6
CONTINUOUS
10
52.0305607881
20
183.9918377090
11
51.0393678366
21
184.1208162184
0
LINE
5
317
100
AcDbEntity
8
0
100
AcDbLine
62
7
6
CONTINUOUS
10
174.9598987291
20
123.2283817092
11
166.0014237750
21
153.2283817092
0
LINE
5
318
100
AcDbEntity
8
0
100
AcDbLine
62
7
6
CONTINUOUS
10
172.4598987291
20
131.6003423815
11
172.4598987291
21
185.8161275567
0
LINE
5
319
100
AcDbEntity
8
0
100
AcDbLine
62
7
6
CONTINUOUS
10
52.0305607869
20
172.4918377092
11
61.1013636117
21
172.4918377092
0
LINE
5
31A
100
AcDbEntity
8
0
100
AcDbLine
62
7
6
CONTINUOUS
10
102.4598987291
20
172.7283817092
11
118.4598987078
21
172.7283817092
0
LINE
5
31B
100
AcDbEntity
8
0
100
AcDbLine
62
7
6
CONTINUOUS
10
84.9598987291
20
173.2132092665
11
94.9598987291
21
173.2132092665
0
LINE
5
31C
100
AcDbEntity
8
0
100
AcDbLine
62
7
6
CONTINUOUS
10
102.4598987291
20
173.3783817092
11
127.4598987291
21
173.3783817092
0
LINE
5
31D
100
AcDbEntity
8
0
100
AcDbLine
62
7
6
CONTINUOUS
10
94.9598987291
20
178.6980368238
11
84.9598987291
21
178.6980368238
0
LINE
5
31E
100
AcDbEntity
8
0
100
AcDbLine
62
7
6
CONTINUOUS
10
174.9598987291
20
123.2283817092
11
174.9598987291
21
120.7283817092
0
LINE
5
31F
100
AcDbEntity
8
0
100
AcDbLine
62
7
6
CONTINUOUS
10
179.4598987291
20
123.2283817092
11
179.4598987291
21
120.7283817092
0
LINE
5
320
100
AcDbEntity
8
0
100
AcDbLine
62
7
6
CONTINUOUS
10
97.4598987291
20
183.2283817092
11
184.4081592063
21
186.2283817092
0
LINE
5
321
100
AcDbEntity
8
0
100
AcDbLine
62
7
6
CONTINUOUS
10
83.9598987291
20
179.2283817092
11
66.9598987291
21
179.2283817092
0
LINE
5
322
100
AcDbEntity
8
0
100
AcDbLine
62
7
6
CONTINUOUS
10
97.4598987291
20
179.7283817092
11
94.9598987291
21
179.7283817092
0
LINE
5
323
100
AcDbEntity
8
0
100
AcDbLine
62
7
6
CONTINUOUS
10
61.1013636117
20
183.9918377092
11
52.0305607869
21
183.9918377092
0
LINE
5
324
100
AcDbEntity
8
0
100
AcDbLine
62
7
6
CONTINUOUS
10
55.1221757956
20
191.4314696516
11
57.1667271379
21
191.4314696516
0
LINE
5
325
100
AcDbEntity
8
0
100
AcDbLine
62
7
6
CONTINUOUS
10
55.1221757963
20
192.4190983341
11
57.1667271362
21
192.4190983341
0
LINE
5
326
100
AcDbEntity
8
0
100
AcDbLine
62
7
6
CONTINUOUS
10
57.1667271362
20
192.7283812734
11
55.1221757963
21
192.7283812734
0
LINE
5
327
100
AcDbEntity
8
0
100
AcDbLine
62
7
6
CONTINUOUS
10
184.4081592063
20
186.2283817092
11
251.4598987291
21
138.2283817092
0
LINE
5
328
100
AcDbEntity
8
0
100
AcDbLine
62
7
6
CONTINUOUS
10
251.4598987291
20
123.2283817092
11
251.4598987291
21
138.2283817092
0
ARC
5
329
100
AcDbEntity
8
0
100
AcDbCircle
62
7
6
CONTINUOUS
10
111.9598987291
20
67.4604060914
40
9.1833752096
100
AcDbArc
50
297.4792551978
51
62.5207444102
0
ARC
5
32A
100
AcDbEntity
8
0
100
AcDbCircle
62
7
6
CONTINUOUS
10
111.9598987291
20
67.4604060914
40
6.4999782313
100
AcDbArc
50
244.4694759286
51
115.5922219937
0
ARC
5
32B
100
AcDbEntity
8
0
100
AcDbCircle
62
7
6
CONTINUOUS
10
55.1221757963
20
91.4604056556
40
1.0000000000
100
AcDbArc
50
90.0000000000
51
108.4349488229
0
ARC
5
32C
100
AcDbEntity
8
0
100
AcDbCircle
62
7
6
CONTINUOUS
10
53.8155490682
20
89.9707708595
40
2.0000000000
100
AcDbArc
50
108.4349307044
51
174.0531370000
0
ARC
5
32D
100
AcDbEntity
8
0
100
AcDbCircle
62
7
6
CONTINUOUS
10
50.4598982252
20
62.5268926766
40
1.0000000000
100
AcDbArc
50
173.4273015603
51
180.0000000000
0
ARC
5
32E
100
AcDbEntity
8
0
100
AcDbCircle
62
7
6
CONTINUOUS
10
50.4598982252
20
72.3939195061
40
1.0000000000
100
AcDbArc
50
180.0004168578
51
186.5728042891
0
ARC
5
32F
100
AcDbEntity
8
0
100
AcDbCircle
62
7
6
CONTINUOUS
10
55.1221757963
20
43.4604065272
40
1.0000000000
100
AcDbArc
50
251.5650511771
51
270.0000000000
0
ARC
5
330
100
AcDbEntity
8
0
100
AcDbCircle
62
7
6
CONTINUOUS
10
67.0723924853
20
49.4149973700
40
5.0000000000
100
AcDbArc
50
131.1859250000
51
155.7722550000
0
ARC
5
331
100
AcDbEntity
8
0
100
AcDbCircle
62
7
6
CONTINUOUS
10
57.1667271362
20
44.4604065272
40
2.0000000000
100
AcDbArc
50
270.0000000000
51
335.7722534646
0
ARC
5
332
100
AcDbEntity
8
0
100
AcDbCircle
62
7
6
CONTINUOUS
10
53.8155490682
20
44.9500413233
40
2.0000000000
100
AcDbArc
50
185.9468630000
51
251.5650692956
0
ARC
5
333
100
AcDbEntity
8
0
100
AcDbCircle
62
7
6
CONTINUOUS
10
57.1667271362
20
90.4604056556
40
2.0000000000
100
AcDbArc
50
24.2277465354
51
90.0000000000
0
ARC
5
334
100
AcDbEntity
8
0
100
AcDbCircle
62
7
6
CONTINUOUS
10
67.0723924853
20
85.5058148127
40
5.0000000000
100
AcDbArc
50
204.2277450000
51
228.8140750000
0
ARC
5
335
100
AcDbEntity
8
0
100
AcDbCircle
62
7
6
CONTINUOUS
10
83.9598987291
20
77.9604060914
40
1.0000000000
100
AcDbArc
50
270.0022603347
51
359.9995727113
0
ARC
5
336
100
AcDbEntity
8
0
100
AcDbCircle
62
7
6
CONTINUOUS
10
83.9598987291
20
56.9604060914
40
1.0000000000
100
AcDbArc
50
0.0000000000
51
89.9977396653
0
CIRCLE
5
337
100
AcDbEntity
8
0
100
AcDbCircle
62
7
6
CONTINUOUS
10
114.9598987291
20
67.4604060914
40
8.2500000000
0
ARC
5
338
100
AcDbEntity
8
0
100
AcDbCircle
62
7
6
CONTINUOUS
10
192.7598987291
20
67.4604060914
40
4.5000000000
100
AcDbArc
50
90.0000000000
51
270.0000000000
0
ARC
5
339
100
AcDbEntity
8
0
100
AcDbCircle
62
7
6
CONTINUOUS
10
235.2598987291
20
67.4604060914
40
4.5000000000
100
AcDbArc
50
270.0000000000
51
90.0000000000
0
ARC
5
33A
100
AcDbEntity
8
0
100
AcDbCircle
62
7
6
CONTINUOUS
10
172.4598987291
20
-212.0395939086
40
299.4763480522
100
AcDbArc
50
91.2357304647
51
91.7000000000
0
ARC
5
33B
100
AcDbEntity
8
0
100
AcDbCircle
62
7
6
CONTINUOUS
10
172.4598987291
20
346.9604060914
40
299.4763480522
100
AcDbArc
50
268.3000000000
51
268.7642695353
0
ARC
5
33C
100
AcDbEntity
8
0
100
AcDbCircle
62
7
6
CONTINUOUS
10
172.4598987291
20
-212.0395939086
40
293.8941340172
100
AcDbArc
50
90.6781437507
51
91.7000000000
0
ARC
5
33D
100
AcDbEntity
8
0
100
AcDbCircle
62
7
6
CONTINUOUS
10
172.4598987291
20
346.9604060914
40
294.3307766220
100
AcDbArc
50
268.3000000000
51
269.3228623291
0
ARC
5
33E
100
AcDbEntity
8
0
100
AcDbCircle
62
7
6
CONTINUOUS
10
115.1432739388
20
167.7283817092
40
6.0000000000
100
AcDbArc
50
303.5574371797
51
56.4425628203
0
ARC
5
33F
100
AcDbEntity
8
0
100
AcDbCircle
62
7
6
CONTINUOUS
10
55.1221757963
20
143.7283821449
40
1.0000000000
100
AcDbArc
50
251.5650511771
51
270.0000000000
0
ARC
5
340
100
AcDbEntity
8
0
100
AcDbCircle
62
7
6
CONTINUOUS
10
67.0723924853
20
149.6829729878
40
5.0000000000
100
AcDbArc
50
131.1859250000
51
155.7722550000
0
ARC
5
341
100
AcDbEntity
8
0
100
AcDbCircle
62
7
6
CONTINUOUS
10
57.1667271362
20
144.7283821449
40
2.0000000000
100
AcDbArc
50
270.0000000000
51
335.7722534646
0
ARC
5
342
100
AcDbEntity
8
0
100
AcDbCircle
62
7
6
CONTINUOUS
10
67.0723924853
20
185.7737904305
40
5.0000000000
100
AcDbArc
50
204.2277450000
51
228.8140750000
0
ARC
5
343
100
AcDbEntity
8
0
100
AcDbCircle
62
7
6
CONTINUOUS
10
53.8155490682
20
190.2387464773
40
2.0000000000
100
AcDbArc
50
108.4349307044
51
174.0531370000
0
ARC
5
344
100
AcDbEntity
8
0
100
AcDbCircle
62
7
6
CONTINUOUS
10
55.1221757963
20
191.7283812734
40
1.0000000000
100
AcDbArc
50
90.0000000000
51
108.4349488229
0
ARC
5
345
100
AcDbEntity
8
0
100
AcDbCircle
62
7
6
CONTINUOUS
10
57.1667271362
20
190.7283812734
40
2.0000000000
100
AcDbArc
50
24.2277465354
51
90.0000000000
0
ARC
5
346
100
AcDbEntity
8
0
100
AcDbCircle
62
7
6
CONTINUOUS
10
50.4598982252
20
162.7948682944
40
1.0000000000
100
AcDbArc
50
173.4273015603
51
180.0000000000
0
ARC
5
347
100
AcDbEntity
8
0
100
AcDbCircle
62
7
6
CONTINUOUS
10
50.4598982252
20
172.6618951239
40
1.0000000000
100
AcDbArc
50
180.0000000000
51
186.5726984397
0
ARC
5
348
100
AcDbEntity
8
0
100
AcDbCircle
62
7
6
CONTINUOUS
10
53.8155490682
20
145.2180169411
40
2.0000000000
100
AcDbArc
50
185.9468630000
51
251.5650692956
0
ARC
5
349
100
AcDbEntity
8
0
100
AcDbCircle
62
7
6
CONTINUOUS
10
83.9598987291
20
157.2283817092
40
1.0000000000
100
AcDbArc
50
0.0000000000
51
89.9977396653
0
ARC
5
34A
100
AcDbEntity
8
0
100
AcDbCircle
62
7
6
CONTINUOUS
10
83.9598987291
20
178.2283817092
40
1.0000000000
100
AcDbArc
50
270.0022603347
51
360.0000000000
0
SPLINE
5
34B
100
AcDbEntity
8
0
100
AcDbSpline
62
7
6
CONTINUOUS
70
0
71
3
72
19
73
15
74
13
42
0.0000001000
43
0.0000001000
44
0.0000000001
12
0.8897092528
22
0.3750821908
32
0.0000000000
13
0.9314121615
23
-0.2717997987
33
0.0000000000
40
0.0000000000
40
0.0000000000
40
0.0000000000
40
0.0000000000
40
0.2097042015
40
0.4091655893
40
0.5900370153
40
0.7450696043
40
0.8403953049
40
0.8805713866
40
0.9154581607
40
0.9448697441
40
0.9687284195
40
0.9870382001
40
0.9941622657
40
1.0000000000
40
1.0000000000
40
1.0000000000
40
1.0000000000
10
61.6008631114
20
82.6613354863
30
0.0000000000
10
61.6630550342
20
82.6875542567
30
0.0000000000
10
61.7847891653
20
82.7378179674
30
0.0000000000
10
61.9616460875
20
82.8070322691
30
0.0000000000
10
62.1233962741
20
82.8664707822
30
0.0000000000
10
62.2548860764
20
82.9109719548
30
0.0000000000
10
62.3444499499
20
82.9379321974
30
0.0000000000
10
62.3974789171
20
82.9519346507
30
0.0000000000
10
62.4302275964
20
82.9595879557
30
0.0000000000
10
62.4580967550
20
82.9649774126
30
0.0000000000
10
62.4809354511
20
82.9680922748
30
0.0000000000
10
62.4968193786
20
82.9689106912
30
0.0000000000
10
62.5068825730
20
82.9681725346
30
0.0000000000
10
62.5109723826
20
82.9673354215
30
0.0000000000
10
62.5127848282
20
82.9668065232
30
0.0000000000
11
61.6008631114
21
82.6613354863
31
0.0000000000
11
61.7880752589
21
82.7384808816
31
0.0000000000
11
61.9674684085
21
82.8085559575
31
0.0000000000
11
62.1314744826
21
82.8685771101
31
0.0000000000
11
62.2734138530
21
82.9161349771
31
0.0000000000
11
62.3616489727
21
82.9423379105
31
0.0000000000
11
62.3991731874
21
82.9521774204
31
0.0000000000
11
62.4319943901
21
82.9597596156
31
0.0000000000
11
62.4598998497
21
82.9650307790
31
0.0000000000
11
62.4827487417
21
82.9679704442
31
0.0000000000
11
62.5004180674
21
82.9685664221
31
0.0000000000
11
62.5072719558
21
82.9679817191
31
0.0000000000
11
62.5127848282
21
82.9668065232
31
0.0000000000
0
SPLINE
5
34C
100
AcDbEntity
8
0
100
AcDbSpline
62
7
6
CONTINUOUS
70
0
71
3
72
16
73
12
74
10
42
0.0000001000
43
0.0000001000
44
0.0000000001
12
0.5922113639
22
0.5379387197
32
0.0000000000
13
0.7975087351
23
0.0847949588
33
0.0000000000
40
0.0000000000
40
0.0000000000
40
0.0000000000
40
0.0000000000
40
0.1951874248
40
0.3794740188
40
0.5482522162
40
0.6975579686
40
0.7946351024
40
0.8777306941
40
0.9461540571
40
0.9748642319
40
1.0000000000
40
1.0000000000
40
1.0000000000
40
1.0000000000
10
63.1213648780
20
80.5823641451
30
0.0000000000
10
63.1598956150
20
80.6173637695
30
0.0000000000
10
63.2358209468
20
80.6843392313
30
0.0000000000
10
63.3489712503
20
80.7770203030
30
0.0000000000
10
63.4560836680
20
80.8575949435
30
0.0000000000
10
63.5478386041
20
80.9197004519
30
0.0000000000
10
63.6234787188
20
80.9645347839
30
0.0000000000
10
63.6826769721
20
80.9945190984
30
0.0000000000
10
63.7274891102
20
81.0122523691
30
0.0000000000
10
63.7590145503
20
81.0207879433
30
0.0000000000
10
63.7731874810
20
81.0231682339
30
0.0000000000
10
63.7798694792
20
81.0238786961
30
0.0000000000
11
63.1213648780
21
80.5823641451
31
0.0000000000
11
63.2386348156
21
80.6855154935
31
0.0000000000
11
63.3528289415
21
80.7788090187
31
0.0000000000
11
63.4609336805
21
80.8597513491
31
0.0000000000
11
63.5601566029
21
80.9262905287
31
0.0000000000
11
63.6271360055
21
80.9656285985
31
0.0000000000
11
63.6866498051
21
80.9952761187
31
0.0000000000
11
63.7378066430
21
81.0147821743
31
0.0000000000
11
63.7600184651
21
81.0206455243
31
0.0000000000
11
63.7798694792
21
81.0238786961
31
0.0000000000
0
SPLINE
5
34D
100
AcDbEntity
8
0
100
AcDbSpline
62
7
6
CONTINUOUS
70
0
71
3
72
13
73
9
74
7
42
0.0000001000
43
0.0000001000
44
0.0000000001
12
-0.6307794661
22
0.2206452894
32
0.0000000000
13
-0.6456595132
23
-0.1694654494
33
0.0000000000
40
0.0000000000
40
0.0000000000
40
0.0000000000
40
0.0000000000
40
0.1069499714
40
0.2197328479
40
0.4617992691
40
0.7235340531
40
0.8603086950
40
1.0000000000
40
1.0000000000
40
1.0000000000
40
1.0000000000
10
66.9598980237
20
76.7673911845
30
0.0000000000
10
66.9374107417
20
76.7752571869
30
0.0000000000
10
66.8904362667
20
76.7889481066
30
0.0000000000
10
66.7894110070
20
76.8083304387
30
0.0000000000
10
66.6519212989
20
76.8168583972
30
0.0000000000
10
66.5094613561
20
76.8055647488
30
0.0000000000
10
66.3913924813
20
76.7853950265
30
0.0000000000
10
66.3314585118
20
76.7714619549
30
0.0000000000
10
66.3013941718
20
76.7635710050
30
0.0000000000
11
66.9598980237
21
76.7673911845
31
0.0000000000
11
66.8914237542
21
76.7875260866
31
0.0000000000
11
66.8175423178
21
76.8018955123
31
0.0000000000
11
66.6563759939
21
76.8129271452
31
0.0000000000
11
66.4821895778
21
76.7999500940
31
0.0000000000
11
66.3922076485
21
76.7846300313
31
0.0000000000
11
66.3013941718
21
76.7635710050
31
0.0000000000
0
SPLINE
5
34E
100
AcDbEntity
8
0
100
AcDbSpline
62
7
6
CONTINUOUS
70
0
71
3
72
16
73
12
74
10
42
0.0000001000
43
0.0000001000
44
0.0000000001
12
3.7276439260
22
-3.8288029121
32
0.0000000000
13
1.9697474450
23
-4.9750046249
33
0.0000000000
40
0.0000000000
40
0.0000000000
40
0.0000000000
40
0.0000000000
40
0.1362727336
40
0.2718690821
40
0.4061773652
40
0.5385000860
40
0.6683930998
40
0.7325017492
40
0.7958850469
40
0.8995516978
40
1.0000000000
40
1.0000000000
40
1.0000000000
40
1.0000000000
10
63.7799104615
20
81.0239186317
30
0.0000000000
10
63.9492358707
20
80.8499981519
30
0.0000000000
10
64.2842286166
20
80.5002057362
30
0.0000000000
10
64.7733546061
20
79.9669814972
30
0.0000000000
10
65.2436598307
20
79.4263044764
30
0.0000000000
10
65.6886863678
20
78.8775992731
30
0.0000000000
10
66.0349743544
20
78.4103747922
30
0.0000000000
10
66.2915317259
20
78.0302998748
30
0.0000000000
10
66.5103827562
20
77.6814524964
30
0.0000000000
10
66.7432592785
20
77.2651468016
30
0.0000000000
10
66.8941708891
20
76.9340568474
30
0.0000000000
10
66.9601234846
20
76.7674799248
30
0.0000000000
11
63.7799104615
21
81.0239186317
31
0.0000000000
11
64.2831517844
21
80.4975482007
31
0.0000000000
11
64.7725238055
21
79.9631501028
31
0.0000000000
11
65.2428062399
21
79.4209576754
31
0.0000000000
11
65.6873305482
21
78.8710324905
31
0.0000000000
11
66.0991830433
21
78.3122812196
31
0.0000000000
11
66.2906420214
21
78.0281827832
31
0.0000000000
11
66.4704120105
21
77.7411107929
31
0.0000000000
11
66.7391519582
21
77.2566746042
31
0.0000000000
11
66.9601234846
21
76.7674799248
31
0.0000000000
0
SPLINE
5
34F
100
AcDbEntity
8
0
100
AcDbSpline
62
7
6
CONTINUOUS
70
0
71
3
72
11
73
7
74
5
42
0.0000001000
43
0.0000001000
44
0.0000000001
12
0.9003216642
22
-2.1516031304
32
0.0000000000
13
1.5945742884
23
-1.7012043183
33
0.0000000000
40
0.0000000000
40
0.0000000000
40
0.0000000000
40
0.0000000000
40
0.2500082700
40
0.5008086974
40
0.7512578873
40
1.0000000000
40
1.0000000000
40
1.0000000000
40
1.0000000000
10
62.5127849480
20
82.9668064795
30
0.0000000000
10
62.5878142353
20
82.7875002874
30
0.0000000000
10
62.7551863623
20
82.4356234205
30
0.0000000000
10
63.0534875714
20
81.9329109257
30
0.0000000000
10
63.3943826896
20
81.4593545850
30
0.0000000000
10
63.6476568741
20
81.1649324283
30
0.0000000000
10
63.7798694665
20
81.0238787096
30
0.0000000000
11
62.5127849480
21
82.9668064795
31
0.0000000000
11
62.7627676093
21
82.4403555652
31
0.0000000000
11
63.0608379397
21
81.9374125148
31
0.0000000000
11
63.4017977475
21
81.4635060247
31
0.0000000000
11
63.7798694665
21
81.0238787096
31
0.0000000000
0
SPLINE
5
350
100
AcDbEntity
8
0
100
AcDbSpline
62
7
6
CONTINUOUS
70
0
71
3
72
18
73
14
74
12
42
0.0000001000
43
0.0000001000
44
0.0000000001
12
-0.9567226524
22
-0.0001237028
32
0.0000000000
13
-0.0459777717
23
-0.9556172317
33
0.0000000000
40
0.0000000000
40
0.0000000000
40
0.0000000000
40
0.0000000000
40
0.0531976280
40
0.1165676036
40
0.1952174927
40
0.2900088568
40
0.3973455145
40
0.5088651865
40
0.6168238645
40
0.7163029707
40
0.8093815298
40
0.9017233451
40
1.0000000000
40
1.0000000000
40
1.0000000000
40
1.0000000000
10
55.1221757962
20
72.2238456571
30
0.0000000000
10
55.1052106709
20
72.2238434635
30
0.0000000000
10
55.0677989354
20
72.2137771919
30
0.0000000000
10
55.0184951607
20
72.1740380071
30
0.0000000000
10
54.9731479294
20
72.1130509640
30
0.0000000000
10
54.9322836286
20
72.0330558960
30
0.0000000000
10
54.8972180198
20
71.9392172924
30
0.0000000000
10
54.8689102326
20
71.8388197505
30
0.0000000000
10
54.8473732841
20
71.7393586685
30
0.0000000000
10
54.8315281889
20
71.6448128584
30
0.0000000000
10
54.8199178590
20
71.5546827732
30
0.0000000000
10
54.8113263127
20
71.4646042577
30
0.0000000000
10
54.8074659937
20
71.4039251670
30
0.0000000000
10
54.8059598132
20
71.3726202120
30
0.0000000000
11
55.1221757962
21
72.2238456571
31
0.0000000000
11
55.0727239549
21
72.2118100969
31
0.0000000000
11
55.0240809620
21
72.1756223643
31
0.0000000000
11
54.9778777425
21
72.1162317695
31
0.0000000000
11
54.9356093544
21
72.0359953286
31
0.0000000000
11
54.8990113333
21
71.9400468472
31
0.0000000000
11
54.8696837537
21
71.8374633490
31
0.0000000000
11
54.8476320850
21
71.7365583055
31
0.0000000000
11
54.8318060833
21
71.6427094280
31
0.0000000000
11
54.8203769505
21
71.5543955405
31
0.0000000000
11
54.8119548407
21
71.4664523958
31
0.0000000000
11
54.8059598132
21
71.3726202120
31
0.0000000000
0
SPLINE
5
351
100
AcDbEntity
8
0
100
AcDbSpline
62
7
6
CONTINUOUS
70
0
71
3
72
9
73
5
74
3
42
0.0000001000
43
0.0000001000
44
0.0000000001
12
0.5056971884
22
-1.1541796989
32
0.0000000000
13
0.4933024813
23
-1.1595313798
33
0.0000000000
40
0.0000000000
40
0.0000000000
40
0.0000000000
40
0.0000000000
40
0.5003563423
40
1.0000000000
40
1.0000000000
40
1.0000000000
40
1.0000000000
10
62.0132850282
20
84.1236619806
30
0.0000000000
10
62.0976279600
20
83.9311616031
30
0.0000000000
10
62.2651600611
20
83.5459887455
30
0.0000000000
10
62.4306263777
20
83.1599239412
30
0.0000000000
10
62.5127848630
20
82.9668064412
30
0.0000000000
11
62.0132850282
21
84.1236619806
31
0.0000000000
11
62.2647622762
21
83.5454909341
31
0.0000000000
11
62.5127848630
21
82.9668064412
31
0.0000000000
0
SPLINE
5
352
100
AcDbEntity
8
0
100
AcDbSpline
62
7
6
CONTINUOUS
70
0
71
3
72
11
73
7
74
5
42
0.0000001000
43
0.0000001000
44
0.0000000001
12
3.0371523563
22
-6.8412645377
32
0.0000000000
13
3.0022986505
23
-6.8566361887
33
0.0000000000
40
0.0000000000
40
0.0000000000
40
0.0000000000
40
0.0000000000
40
0.2499442059
40
0.4999165621
40
0.7499305592
40
1.0000000000
40
1.0000000000
40
1.0000000000
40
1.0000000000
10
58.9905700085
20
90.9713103601
30
0.0000000000
10
59.2436095531
20
90.4013322160
30
0.0000000000
10
59.7493648619
20
89.2611549432
30
0.0000000000
10
60.5064368981
20
87.5500455877
30
0.0000000000
10
61.2614570198
20
85.8376878488
30
0.0000000000
10
61.7630238934
20
84.6952070020
30
0.0000000000
10
62.0132849417
20
84.1236619427
30
0.0000000000
11
58.9905700085
21
90.9713103601
31
0.0000000000
11
59.7490668843
21
89.2610997734
31
0.0000000000
11
60.5060319010
21
87.5499802031
31
0.0000000000
11
61.2609447048
21
85.8376136070
31
0.0000000000
11
62.0132849417
21
84.1236619427
31
0.0000000000
0
SPLINE
5
353
100
AcDbEntity
8
0
100
AcDbSpline
62
7
6
CONTINUOUS
70
0
71
3
72
16
73
12
74
10
42
0.0000001000
43
0.0000001000
44
0.0000000001
12
2.2953786568
22
-0.0016730584
32
0.0000000000
13
0.9438657696
23
-2.1004622126
33
0.0000000000
40
0.0000000000
40
0.0000000000
40
0.0000000000
40
0.0000000000
40
0.0717008401
40
0.1436947918
40
0.2868783308
40
0.4298252645
40
0.5015800613
40
0.5732343659
40
0.7155784420
40
0.8224655523
40
1.0000000000
40
1.0000000000
40
1.0000000000
40
1.0000000000
10
57.1667271362
20
92.1511227163
30
0.0000000000
10
57.2215873289
20
92.1510827297
30
0.0000000000
10
57.3314800613
20
92.1464960994
30
0.0000000000
10
57.5493920786
20
92.1194229224
30
0.0000000000
10
57.8162585409
20
92.0523491388
30
0.0000000000
10
58.0682763760
20
91.9422919667
30
0.0000000000
10
58.2567703220
20
91.8304267427
30
0.0000000000
10
58.4351981131
20
91.7039372639
30
0.0000000000
10
58.6173001097
20
91.5376063515
30
0.0000000000
10
58.8249426474
20
91.2849042388
30
0.0000000000
10
58.9347138997
20
91.0956118799
30
0.0000000000
10
58.9905701291
20
90.9713104136
30
0.0000000000
11
57.1667271362
21
92.1511227163
31
0.0000000000
11
57.3310710187
21
92.1442710782
31
0.0000000000
11
57.4949693300
21
92.1239029668
31
0.0000000000
11
57.8134977413
21
92.0436903016
31
0.0000000000
11
58.1140370372
21
91.9124871626
31
0.0000000000
11
58.2556216000
21
91.8285204784
31
0.0000000000
11
58.3896930502
21
91.7334121476
31
0.0000000000
11
58.6308409375
21
91.5132288404
31
0.0000000000
11
58.7865281074
21
91.3237884386
31
0.0000000000
11
58.9905701291
21
90.9713104136
31
0.0000000000
0
SPLINE
5
354
100
AcDbEntity
8
0
100
AcDbSpline
62
7
6
CONTINUOUS
70
0
71
3
72
9
73
5
74
3
42
0.0000001000
43
0.0000001000
44
0.0000000001
12
0.5043773254
22
-0.0002863245
32
0.0000000000
13
0.4946223236
23
0.0986675412
33
0.0000000000
40
0.0000000000
40
0.0000000000
40
0.0000000000
40
0.0000000000
40
0.5010163076
40
1.0000000000
40
1.0000000000
40
1.0000000000
40
1.0000000000
10
61.1013636117
20
72.2238620912
30
0.0000000000
10
61.1855973668
20
72.2238142734
30
0.0000000000
10
61.3529085728
20
72.2319817486
30
0.0000000000
10
61.5185939451
20
72.2566415348
30
0.0000000000
10
61.6008634362
20
72.2730526995
30
0.0000000000
11
61.1013636117
21
72.2238620912
31
0.0000000000
11
61.3528405396
21
72.2361382060
31
0.0000000000
11
61.6008634362
21
72.2730526995
31
0.0000000000
0
SPLINE
5
355
100
AcDbEntity
8
0
100
AcDbSpline
62
7
6
CONTINUOUS
70
0
71
3
72
9
73
5
74
3
42
0.0000001000
43
0.0000001000
44
0.0000000001
12
-0.4926827830
22
-0.1168604146
32
0.0000000000
13
-0.5063164996
23
-0.0060713415
33
0.0000000000
40
0.0000000000
40
0.0000000000
40
0.0000000000
40
0.0000000000
40
0.4999536609
40
1.0000000000
40
1.0000000000
40
1.0000000000
40
1.0000000000
10
62.5127847382
20
71.3778448807
30
0.0000000000
10
62.4306785512
20
71.3583699500
30
0.0000000000
10
62.2653149191
20
71.3286480456
30
0.0000000000
10
62.0976790009
20
71.3173909867
30
0.0000000000
10
62.0132850969
20
71.3163790027
30
0.0000000000
11
62.5127847382
21
71.3778448807
31
0.0000000000
11
62.2647622785
21
71.3332661560
31
0.0000000000
11
62.0132850969
21
71.3163790027
31
0.0000000000
0
SPLINE
5
356
100
AcDbEntity
8
0
100
AcDbSpline
62
7
6
CONTINUOUS
70
0
71
3
72
11
73
7
74
5
42
0.0000001000
43
0.0000001000
44
0.0000000001
12
-3.0226085441
22
-0.0372190877
32
0.0000000000
13
-3.0227760798
23
-0.0189327993
33
0.0000000000
40
0.0000000000
40
0.0000000000
40
0.0000000000
40
0.0000000000
40
0.2489013467
40
0.4986488876
40
0.7490721106
40
1.0000000000
40
1.0000000000
40
1.0000000000
40
1.0000000000
10
62.0132850841
20
71.3163800200
30
0.0000000000
10
61.7625079717
20
71.3132920596
30
0.0000000000
10
61.2600945576
20
71.3076757686
30
0.0000000000
10
60.5053526793
20
71.3006644344
30
0.0000000000
10
59.7485594346
20
71.2947748318
30
0.0000000000
10
59.2434030572
20
71.2914180075
30
0.0000000000
10
58.9905701166
20
71.2898344184
30
0.0000000000
11
62.0132850841
21
71.3163800200
31
0.0000000000
11
61.2609447048
21
71.3079217260
31
0.0000000000
11
60.5060319010
21
71.3008601495
31
0.0000000000
11
59.7490668843
21
71.2949221072
31
0.0000000000
11
58.9905701166
21
71.2898344184
31
0.0000000000
0
SPLINE
5
357
100
AcDbEntity
8
0
100
AcDbSpline
62
7
6
CONTINUOUS
70
0
71
3
72
15
73
11
74
9
42
0.0000001000
43
0.0000001000
44
0.0000000001
12
-1.9654407214
22
-4.9726040044
32
0.0000000000
13
-3.7265263078
23
-3.8290659910
33
0.0000000000
40
0.0000000000
40
0.0000000000
40
0.0000000000
40
0.0000000000
40
0.0692829039
40
0.1402190816
40
0.2125936810
40
0.2861353997
40
0.4595307561
40
0.6370386916
40
0.8176919638
40
1.0000000000
40
1.0000000000
40
1.0000000000
40
1.0000000000
10
66.9602738805
20
58.1532729624
30
0.0000000000
10
66.9148834003
20
58.0384341473
30
0.0000000000
10
66.8147776319
20
57.8094764805
30
0.0000000000
10
66.6419419147
20
57.4722734369
30
0.0000000000
10
66.4482028564
20
57.1379374223
30
0.0000000000
10
66.1419007543
20
56.6585088105
30
0.0000000000
10
65.6969175257
20
56.0463360881
30
0.0000000000
10
65.0945087419
20
55.3153834069
30
0.0000000000
10
64.4524301982
20
54.5978090547
30
0.0000000000
10
64.0063679120
20
54.1295844836
30
0.0000000000
10
63.7799093477
20
53.8968946498
30
0.0000000000
11
66.9602738805
21
58.1532729624
31
0.0000000000
11
66.8125667489
21
57.8137753407
31
0.0000000000
11
66.6402873410
21
57.4761129542
31
0.0000000000
11
66.4468819390
21
57.1411843544
31
0.0000000000
11
66.2357339652
21
56.8097290482
31
0.0000000000
11
65.6939544346
21
56.0580230593
31
0.0000000000
11
65.0932602364
21
55.3238812226
31
0.0000000000
11
64.4507139845
21
54.6033936345
31
0.0000000000
11
63.7799093477
21
53.8968946498
31
0.0000000000
0
SPLINE
5
358
100
AcDbEntity
8
0
100
AcDbSpline
62
7
6
CONTINUOUS
70
0
71
3
72
11
73
7
74
5
42
0.0000001000
43
0.0000001000
44
0.0000000001
12
3.0227760798
22
-0.0189327993
32
0.0000000000
13
3.0226085441
23
-0.0372190877
33
0.0000000000
40
0.0000000000
40
0.0000000000
40
0.0000000000
40
0.0000000000
40
0.2509278894
40
0.5013511124
40
0.7510986533
40
1.0000000000
40
1.0000000000
40
1.0000000000
40
1.0000000000
10
58.9905701166
20
63.6309777643
30
0.0000000000
10
59.2434030572
20
63.6293941752
30
0.0000000000
10
59.7485594346
20
63.6260373510
30
0.0000000000
10
60.5053526793
20
63.6201477483
30
0.0000000000
10
61.2600945576
20
63.6131364141
30
0.0000000000
10
61.7625079717
20
63.6075201231
30
0.0000000000
10
62.0132850841
20
63.6044321627
30
0.0000000000
11
58.9905701166
21
63.6309777643
31
0.0000000000
11
59.7490668843
21
63.6258900755
31
0.0000000000
11
60.5060319010
21
63.6199520332
31
0.0000000000
11
61.2609447048
21
63.6128904567
31
0.0000000000
11
62.0132850841
21
63.6044321627
31
0.0000000000
0
SPLINE
5
359
100
AcDbEntity
8
0
100
AcDbSpline
62
7
6
CONTINUOUS
70
0
71
3
72
9
73
5
74
3
42
0.0000001000
43
0.0000001000
44
0.0000000001
12
0.5063164996
22
-0.0060713415
32
0.0000000000
13
0.4926827830
23
-0.1168604146
33
0.0000000000
40
0.0000000000
40
0.0000000000
40
0.0000000000
40
0.0000000000
40
0.5000463391
40
1.0000000000
40
1.0000000000
40
1.0000000000
40
1.0000000000
10
62.0132850969
20
63.6044331801
30
0.0000000000
10
62.0976790009
20
63.6034211960
30
0.0000000000
10
62.2653149191
20
63.5921641371
30
0.0000000000
10
62.4306785512
20
63.5624422327
30
0.0000000000
10
62.5127847382
20
63.5429673020
30
0.0000000000
11
62.0132850969
21
63.6044331801
31
0.0000000000
11
62.2647622785
21
63.5875460268
31
0.0000000000
11
62.5127847382
21
63.5429673020
31
0.0000000000
0
SPLINE
5
35A
100
AcDbEntity
8
0
100
AcDbSpline
62
7
6
CONTINUOUS
70
0
71
3
72
17
73
13
74
11
42
0.0000001000
43
0.0000001000
44
0.0000000001
12
0.5922229522
22
-0.5379394384
32
0.0000000000
13
0.7982871966
23
-0.0889298533
33
0.0000000000
40
0.0000000000
40
0.0000000000
40
0.0000000000
40
0.0000000000
40
0.1951858063
40
0.3794676035
40
0.5482318192
40
0.6975330917
40
0.7637688851
40
0.8239100390
40
0.8776891960
40
0.9249651517
40
0.9656980290
40
1.0000000000
40
1.0000000000
40
1.0000000000
40
1.0000000000
10
63.1213648743
20
54.3384480342
30
0.0000000000
10
63.1598960457
20
54.3034486532
30
0.0000000000
10
63.2358212560
20
54.2364716444
30
0.0000000000
10
63.3489694183
20
54.1437907059
30
0.0000000000
10
63.4560799914
20
54.0632233789
30
0.0000000000
10
63.5410204556
20
54.0057272034
30
0.0000000000
10
63.6040087423
20
53.9677583056
30
0.0000000000
10
63.6461572552
20
53.9446507994
30
0.0000000000
10
63.6848665378
20
53.9258787251
30
0.0000000000
10
63.7198948028
20
53.9115653954
30
0.0000000000
10
63.7510592971
20
53.9016663236
30
0.0000000000
10
63.7707418238
20
53.8979502697
30
0.0000000000
10
63.7798694319
20
53.8969334466
30
0.0000000000
11
63.1213648743
21
54.3384480342
31
0.0000000000
11
63.2386358656
21
54.2352948463
31
0.0000000000
11
63.3528292978
21
54.1420016123
31
0.0000000000
11
63.4609288353
21
54.0610662387
31
0.0000000000
11
63.5601514835
21
53.9945285525
31
0.0000000000
11
63.6055911902
21
53.9672474831
31
0.0000000000
11
63.6478419598
21
53.9442097209
31
0.0000000000
11
63.6866259417
21
53.9255651768
31
0.0000000000
11
63.7217080833
21
53.9114131692
31
0.0000000000
11
63.7528640311
21
53.9018403690
31
0.0000000000
11
63.7798694319
21
53.8969334466
31
0.0000000000
0
SPLINE
5
35B
100
AcDbEntity
8
0
100
AcDbSpline
62
7
6
CONTINUOUS
70
0
71
3
72
13
73
9
74
7
42
0.0000001000
43
0.0000001000
44
0.0000000001
12
0.6456590983
22
-0.1694653394
32
0.0000000000
13
0.6307791998
23
0.2206447331
33
0.0000000000
40
0.0000000000
40
0.0000000000
40
0.0000000000
40
0.0000000000
40
0.1396913968
40
0.2764661286
40
0.5382010844
40
0.7802673001
40
0.8930500951
40
1.0000000000
40
1.0000000000
40
1.0000000000
40
1.0000000000
10
66.3013941643
20
58.1572411610
30
0.0000000000
10
66.3314585047
20
58.1493502110
30
0.0000000000
10
66.3913924751
20
58.1354171394
30
0.0000000000
10
66.5094613514
20
58.1152474171
30
0.0000000000
10
66.6519212153
20
58.1039537754
30
0.0000000000
10
66.7894108080
20
58.1124817138
30
0.0000000000
10
66.8904359311
20
58.1318639850
30
0.0000000000
10
66.9374103513
20
58.1455548617
30
0.0000000000
10
66.9598976098
20
58.1534208394
30
0.0000000000
11
66.3013941643
21
58.1572411610
31
0.0000000000
11
66.3922076422
21
58.1361821345
31
0.0000000000
11
66.4821895728
21
58.1208620719
31
0.0000000000
11
66.6563759912
21
58.1078850212
31
0.0000000000
11
66.8175420758
21
58.1189166189
31
0.0000000000
11
66.8914234161
21
58.1332859997
31
0.0000000000
11
66.9598976098
21
58.1534208394
31
0.0000000000
0
SPLINE
5
35C
100
AcDbEntity
8
0
100
AcDbSpline
62
7
6
CONTINUOUS
70
0
71
3
72
28
73
24
74
22
42
0.0000001000
43
0.0000001000
44
0.0000000001
12
-11.8457304824
22
0.0458896527
32
0.0000000000
13
1.6506550607
23
-11.6770193795
33
0.0000000000
40
0.0000000000
40
0.0000000000
40
0.0000000000
40
0.0000000000
40
0.0038531917
40
0.0078335599
40
0.0166464132
40
0.0272441696
40
0.0400775554
40
0.0474179822
40
0.0553898053
40
0.0732330296
40
0.0936164562
40
0.1165804903
40
0.1421511817
40
0.1702837264
40
0.2339608239
40
0.3070508906
40
0.3888333875
40
0.4784382482
40
0.5746822261
40
0.6762697330
40
0.7819290681
40
0.8903400911
40
1.0000000000
40
1.0000000000
40
1.0000000000
40
1.0000000000
10
52.0305607869
20
62.6969500914
30
0.0000000000
10
52.0153461633
20
62.6970090319
30
0.0000000000
10
51.9845668379
20
62.6937881207
30
0.0000000000
10
51.9216074995
20
62.6745255657
30
0.0000000000
10
51.8429983253
20
62.6237366076
30
0.0000000000
10
51.7567326653
20
62.5297921709
30
0.0000000000
10
51.6910817881
20
62.4276561452
30
0.0000000000
10
51.6397111344
20
62.3296318711
30
0.0000000000
10
51.5854458358
20
62.2110631908
30
0.0000000000
10
51.5215889702
20
62.0408198328
30
0.0000000000
10
51.4529215961
20
61.8101356385
30
0.0000000000
10
51.3906110561
20
61.5463465275
30
0.0000000000
10
51.3355154328
20
61.2499402842
30
0.0000000000
10
51.2702199189
20
60.7930436438
30
0.0000000000
10
51.2155558844
20
60.1465431301
30
0.0000000000
10
51.1962439395
20
59.2872294423
30
0.0000000000
10
51.2211089320
20
58.3261816890
30
0.0000000000
10
51.2902331764
20
57.2761811492
30
0.0000000000
10
51.3954139074
20
56.1510678191
30
0.0000000000
10
51.5288136050
20
54.9654614156
30
0.0000000000
10
51.6833509041
20
53.7342325991
30
0.0000000000
10
51.8517905548
20
52.4728194883
30
0.0000000000
10
51.9702238923
20
51.6237837184
30
0.0000000000
10
52.0305607869
20
51.1969500914
30
0.0000000000
11
52.0305607869
21
62.6969500914
31
0.0000000000
11
51.9853451569
21
62.6924265211
31
0.0000000000
11
51.9404066996
21
62.6788615872
31
0.0000000000
11
51.8517386663
21
62.6246422907
31
0.0000000000
11
51.7653114139
21
62.5343615261
31
0.0000000000
11
51.6818796696
21
62.4080886177
31
0.0000000000
11
51.6415267827
21
62.3315022416
31
0.0000000000
11
51.6022287011
21
62.2460966360
31
0.0000000000
11
51.5272659404
21
62.0494736378
31
0.0000000000
11
51.4579076461
21
61.8193117816
31
0.0000000000
11
51.3949832205
21
61.5559046481
31
0.0000000000
11
51.3393332670
21
61.2595244474
31
0.0000000000
11
51.2919300503
21
60.9311564841
31
0.0000000000
11
51.2258845468
21
60.1831115846
31
0.0000000000
11
51.2035683206
21
59.3214369249
31
0.0000000000
11
51.2264236663
21
58.3572328667
31
0.0000000000
11
51.2931689078
21
57.3026174976
31
0.0000000000
11
51.3969058013
21
56.1723464225
31
0.0000000000
11
51.5295146710
21
54.9816694128
31
0.0000000000
11
51.6836066798
21
53.7451753865
31
0.0000000000
11
51.8523688480
21
52.4778529220
31
0.0000000000
11
52.0305607869
21
51.1969500914
31
0.0000000000
0
SPLINE
5
35D
100
AcDbEntity
8
0
100
AcDbSpline
62
7
6
CONTINUOUS
70
0
71
3
72
9
73
5
74
3
42
0.0000001000
43
0.0000001000
44
0.0000000001
12
-0.4946223236
22
0.0986675412
32
0.0000000000
13
-0.5043773254
23
-0.0002863245
33
0.0000000000
40
0.0000000000
40
0.0000000000
40
0.0000000000
40
0.0000000000
40
0.4989836923
40
1.0000000000
40
1.0000000000
40
1.0000000000
40
1.0000000000
10
61.6008634362
20
62.6477594833
30
0.0000000000
10
61.5185939451
20
62.6641706479
30
0.0000000000
10
61.3529085728
20
62.6888304341
30
0.0000000000
10
61.1855973668
20
62.6969979093
30
0.0000000000
10
61.1013636117
20
62.6969500916
30
0.0000000000
11
61.6008634362
21
62.6477594833
31
0.0000000000
11
61.3528405396
21
62.6846739767
31
0.0000000000
11
61.1013636117
21
62.6969500916
31
0.0000000000
0
SPLINE
5
35E
100
AcDbEntity
8
0
100
AcDbSpline
62
7
6
CONTINUOUS
70
0
71
3
72
14
73
10
74
8
42
0.0000001000
43
0.0000001000
44
0.0000000001
12
-1.5169136640
22
0.4028567808
32
0.0000000000
13
-1.5387728170
23
0.3097783307
33
0.0000000000
40
0.0000000000
40
0.0000000000
40
0.0000000000
40
0.0000000000
40
0.1529788204
40
0.2992610087
40
0.5690420111
40
0.6912175744
40
0.8041284233
40
0.9072315672
40
1.0000000000
40
1.0000000000
40
1.0000000000
40
1.0000000000
10
63.1213648511
20
62.2595443083
30
0.0000000000
10
63.0440129634
20
62.2800871600
30
0.0000000000
10
62.8927677594
20
62.3205416815
30
0.0000000000
10
62.6052920981
20
62.3978974597
30
0.0000000000
10
62.3333364771
20
62.4709229219
30
0.0000000000
10
62.0776199441
20
62.5370612030
30
0.0000000000
10
61.9059178101
20
62.5797564239
30
0.0000000000
10
61.7486452213
20
62.6166985943
30
0.0000000000
10
61.6484466324
20
62.6381803435
30
0.0000000000
10
61.6008634516
20
62.6477595602
30
0.0000000000
11
63.1213648511
21
62.2595443083
31
0.0000000000
11
62.8893992083
21
62.3215062936
31
0.0000000000
11
62.6676787839
21
62.3810953303
31
0.0000000000
11
62.2585270240
21
62.4900814412
31
0.0000000000
11
62.0728506806
21
62.5379729811
31
0.0000000000
11
61.9008426341
21
62.5806046025
31
0.0000000000
11
61.7432608880
21
62.6173941733
31
0.0000000000
11
61.6008634516
21
62.6477595602
31
0.0000000000
0
SPLINE
5
35F
100
AcDbEntity
8
0
100
AcDbSpline
62
7
6
CONTINUOUS
70
0
71
3
72
14
73
10
74
8
42
0.0000001000
43
0.0000001000
44
0.0000000001
12
-1.9339984578
22
3.2680233577
32
0.0000000000
13
-3.6634131927
23
0.9755853328
33
0.0000000000
40
0.0000000000
40
0.0000000000
40
0.0000000000
40
0.0000000000
40
0.0637840528
40
0.1728374669
40
0.2844948983
40
0.4562275537
40
0.6334037890
40
0.8151726883
40
1.0000000000
40
1.0000000000
40
1.0000000000
40
1.0000000000
10
66.3015641454
20
60.3515221725
30
0.0000000000
10
66.2604447255
20
60.4210047639
30
0.0000000000
10
66.1387423732
20
60.6028007526
30
0.0000000000
10
65.8998594845
20
60.8737627804
30
0.0000000000
10
65.5243807425
20
61.1996433254
30
0.0000000000
10
65.0361122456
20
61.5207276386
30
0.0000000000
10
64.4336050590
20
61.8184906186
30
0.0000000000
10
63.7915892488
20
62.0662535650
30
0.0000000000
10
63.3470915689
20
62.1995411850
30
0.0000000000
10
63.1213919649
20
62.2596461231
30
0.0000000000
11
66.3015641454
21
60.3515221725
31
0.0000000000
11
66.1674282557
21
60.5528452167
31
0.0000000000
11
65.8957363867
21
60.8647065143
31
0.0000000000
11
65.5773110817
21
61.1438959486
31
0.0000000000
11
65.0355263342
21
61.5054326438
31
0.0000000000
11
64.4348562705
21
61.8066905189
31
0.0000000000
11
63.7923315617
21
62.0565634120
31
0.0000000000
11
63.1213919649
21
62.2596461231
31
0.0000000000
0
SPLINE
5
360
100
AcDbEntity
8
0
100
AcDbSpline
62
7
6
CONTINUOUS
70
0
71
3
72
39
73
35
74
33
42
0.0000001000
43
0.0000001000
44
0.0000000001
12
-0.6535050519
22
1.0260860801
32
0.0000000000
13
-0.6201816582
23
1.0465378756
33
0.0000000000
40
0.0000000000
40
0.0000000000
40
0.0000000000
40
0.0000000000
40
0.0028315958
40
0.0048278942
40
0.0071540020
40
0.0095269567
40
0.0190149251
40
0.0379704020
40
0.0757910927
40
0.1134853420
40
0.1510488320
40
0.1884763697
40
0.2257629366
40
0.2629043396
40
0.2998950560
40
0.3916863100
40
0.4099187341
40
0.4462560653
40
0.5004298488
40
0.5183961447
40
0.5541883472
40
0.5897882052
40
0.6251903742
40
0.6603894600
40
0.6953797294
40
0.7301561397
40
0.7647130861
40
0.7990450528
40
0.8501091742
40
0.8670117039
40
0.9006352766
40
0.9340115693
40
0.9671350365
40
1.0000000000
40
1.0000000000
40
1.0000000000
40
1.0000000000
10
66.9598987440
20
59.3286780845
30
0.0000000000
10
66.9592819232
20
59.3296465715
30
0.0000000000
10
66.9582158059
20
59.3312885257
30
0.0000000000
10
66.9566336059
20
59.3337200120
30
0.0000000000
10
66.9551709217
20
59.3360072880
30
0.0000000000
10
66.9520564591
20
59.3408441222
30
0.0000000000
10
66.9452899200
20
59.3513495425
30
0.0000000000
10
66.9307133194
20
59.3739220687
30
0.0000000000
10
66.9098867646
20
59.4060736901
30
0.0000000000
10
66.8848891437
20
59.4445136012
30
0.0000000000
10
66.8599197860
20
59.4827816534
30
0.0000000000
10
66.8349904053
20
59.5208783451
30
0.0000000000
10
66.8101129548
20
59.5588044376
30
0.0000000000
10
66.7852995443
20
59.5965606759
30
0.0000000000
10
66.7483109872
20
59.6527626587
30
0.0000000000
10
66.7155011988
20
59.7025356871
30
0.0000000000
10
66.6828491359
20
59.7520953488
30
0.0000000000
10
66.6585974628
20
59.7889226734
30
0.0000000000
10
66.6344298426
20
59.8256761388
30
0.0000000000
10
66.6104175382
20
59.8622671429
30
0.0000000000
10
66.5905615034
20
59.8925770099
30
0.0000000000
10
66.5668791176
20
59.9288324469
30
0.0000000000
10
66.5433860745
20
59.9649242346
30
0.0000000000
10
66.5200956931
20
60.0008529165
30
0.0000000000
10
66.4970213703
20
60.0366191531
30
0.0000000000
10
66.4741768021
20
60.0722235969
30
0.0000000000
10
66.4515757800
20
60.1076669681
30
0.0000000000
10
66.4255525517
20
60.1487609892
30
0.0000000000
10
66.4035115870
20
60.1839030692
30
0.0000000000
10
66.3817644034
20
60.2188896380
30
0.0000000000
10
66.3638948172
20
60.2478413309
30
0.0000000000
10
66.3427297869
20
60.2824881092
30
0.0000000000
10
66.3218977595
20
60.3169773018
30
0.0000000000
10
66.3081882472
20
60.3399567691
30
0.0000000000
10
66.3013941647
20
60.3514215788
30
0.0000000000
11
66.9598987440
21
59.3286780845
31
0.0000000000
11
66.9580307898
21
59.3315722434
31
0.0000000000
11
66.9567090374
21
59.3336095244
31
0.0000000000
11
66.9551799280
21
59.3359904925
31
0.0000000000
11
66.9536183875
21
59.3384183614
31
0.0000000000
11
66.9473674866
21
59.3481212159
31
0.0000000000
11
66.9348602078
21
59.3674937759
31
0.0000000000
11
66.9098473615
21
59.4061092390
31
0.0000000000
11
66.8848504111
21
59.4445516496
31
0.0000000000
11
66.8598812217
21
59.4828223076
31
0.0000000000
11
66.8349521007
21
59.5209215879
31
0.0000000000
11
66.8100751180
21
59.5588500118
31
0.0000000000
11
66.7852618672
21
59.5966090298
31
0.0000000000
11
66.7605247867
21
59.6341987439
31
0.0000000000
11
66.6990910115
21
59.7274437855
31
0.0000000000
11
66.6868886672
21
59.7459651045
31
0.0000000000
11
66.6625786193
21
59.7828843293
31
0.0000000000
11
66.6263759623
21
59.8379520565
31
0.0000000000
11
66.6143849826
21
59.8562248958
31
0.0000000000
11
66.5905268316
21
59.8926475310
31
0.0000000000
11
66.5668449957
21
59.9289058976
31
0.0000000000
11
66.5433525506
21
59.9650006584
31
0.0000000000
11
66.5200627573
21
60.0009324571
31
0.0000000000
11
66.4969892613
21
60.0367016139
31
0.0000000000
11
66.4741454686
21
60.0723091988
31
0.0000000000
11
66.4515453473
21
60.1077557177
31
0.0000000000
11
66.4292030501
21
60.1430417940
31
0.0000000000
11
66.3962045347
21
60.1956715845
31
0.0000000000
11
66.3853499848
21
60.2131349083
31
0.0000000000
11
66.3638689985
21
60.2479431447
31
0.0000000000
11
66.3427054472
21
60.2825932860
31
0.0000000000
11
66.3218750851
21
60.3170859461
31
0.0000000000
11
66.3013941647
21
60.3514215788
31
0.0000000000
0
SPLINE
5
361
100
AcDbEntity
8
0
100
AcDbSpline
62
7
6
CONTINUOUS
70
0
71
3
72
33
73
29
74
27
42
0.0000001000
43
0.0000001000
44
0.0000000001
12
0.5527261713
22
1.2265325143
32
0.0000000000
13
0.7225999859
23
1.1345100514
33
0.0000000000
40
0.0000000000
40
0.0000000000
40
0.0000000000
40
0.0000000000
40
0.1647135172
40
0.1829369399
40
0.2193367071
40
0.2556715857
40
0.2919404754
40
0.4542853384
40
0.4722316235
40
0.5080658281
40
0.5438198227
40
0.5794910011
40
0.6682906876
40
0.6859815768
40
0.7212927861
40
0.7740753768
40
0.7916185234
40
0.8266264868
40
0.8615264392
40
0.8963150043
40
0.9309881686
40
0.9655426137
40
0.9827734669
40
0.9913763722
40
0.9935257038
40
0.9956317323
40
0.9974384695
40
1.0000000000
40
1.0000000000
40
1.0000000000
40
1.0000000000
10
66.3013941647
20
58.1572411618
30
0.0000000000
10
66.3317413219
20
58.2245833233
30
0.0000000000
10
66.3669142687
20
58.2986930488
30
0.0000000000
10
66.4107578533
20
58.3867195604
30
0.0000000000
10
66.4291427865
20
58.4231222392
30
0.0000000000
10
66.4514864518
20
58.4665883556
30
0.0000000000
10
66.5002909933
20
58.5599412463
30
0.0000000000
10
66.5468399677
20
58.6451705288
30
0.0000000000
10
66.5944642395
20
58.7295604042
30
0.0000000000
10
66.6143359474
20
58.7644404027
30
0.0000000000
10
66.6383581960
20
58.8061012191
30
0.0000000000
10
66.6745515560
20
58.8681552985
30
0.0000000000
10
66.7071205653
20
58.9229469695
30
0.0000000000
10
66.7399501607
20
58.9773925028
30
0.0000000000
10
66.7645655547
20
59.0179339943
30
0.0000000000
10
66.7893420757
20
59.0582996839
30
0.0000000000
10
66.8141902602
20
59.0984611842
30
0.0000000000
10
66.8349059636
20
59.1317511252
30
0.0000000000
10
66.8598354520
20
59.1715255019
30
0.0000000000
10
66.8848047857
20
59.2110974914
30
0.0000000000
10
66.9098023315
20
59.2504682732
30
0.0000000000
10
66.9306640728
20
59.2831400412
30
0.0000000000
10
66.9452776278
20
59.3059329819
30
0.0000000000
10
66.9520541536
20
59.3164918549
30
0.0000000000
10
66.9551706051
20
59.3213419746
30
0.0000000000
10
66.9566333370
20
59.3236327985
30
0.0000000000
10
66.9582154364
20
59.3260665547
30
0.0000000000
10
66.9592817270
20
59.3277093904
30
0.0000000000
10
66.9598987143
20
59.3286780845
30
0.0000000000
11
66.3013941647
21
58.1572411618
31
0.0000000000
11
66.3962102603
21
58.3574771300
31
0.0000000000
11
66.4071381332
21
58.3794180499
31
0.0000000000
11
66.4292079226
21
58.4231217027
31
0.0000000000
11
66.4515498605
21
58.4665887465
31
0.0000000000
11
66.4741497869
21
58.5098220841
31
0.0000000000
11
66.5786685562
21
58.7015479225
31
0.0000000000
11
66.5905320706
21
58.7225703871
31
0.0000000000
11
66.6143899710
21
58.7644508668
31
0.0000000000
11
66.6384112319
21
58.8061133731
31
0.0000000000
11
66.6625830886
21
58.8475597850
31
0.0000000000
11
66.7235906066
21
58.9502452638
31
0.0000000000
11
66.7358776914
21
58.9706228977
31
0.0000000000
11
66.7605262757
21
59.0112221998
31
0.0000000000
11
66.7976609810
21
59.0717320655
31
0.0000000000
11
66.8100760769
21
59.0917986522
31
0.0000000000
11
66.8349530886
21
59.1317787845
31
0.0000000000
11
66.8598819987
21
59.1715552247
31
0.0000000000
11
66.8848509687
21
59.2111294908
31
0.0000000000
11
66.9098476805
21
59.2505025015
31
0.0000000000
11
66.9348602918
21
59.2896760856
31
0.0000000000
11
66.9473675063
21
59.3091882551
31
0.0000000000
11
66.9536183909
21
59.3189260772
31
0.0000000000
11
66.9551799300
21
59.3213590623
31
0.0000000000
11
66.9567090389
21
59.3237436514
31
0.0000000000
11
66.9580307909
21
59.3257829496
31
0.0000000000
11
66.9598987143
21
59.3286780845
31
0.0000000000
0
SPLINE
5
362
100
AcDbEntity
8
0
100
AcDbSpline
62
7
6
CONTINUOUS
70
0
71
3
72
11
73
7
74
5
42
0.0000001000
43
0.0000001000
44
0.0000000001
12
3.6623678430
22
3.3974127401
32
0.0000000000
13
2.0512359173
23
4.5549734090
33
0.0000000000
40
0.0000000000
40
0.0000000000
40
0.0000000000
40
0.0000000000
40
0.3059332548
40
0.5750579792
40
0.8085696741
40
1.0000000000
40
1.0000000000
40
1.0000000000
40
1.0000000000
10
63.1213648947
20
54.3384480533
30
0.0000000000
10
63.4948449329
20
54.6849085658
30
0.0000000000
10
64.1816734468
20
55.3526557949
30
0.0000000000
10
65.0984069623
20
56.3402713105
30
0.0000000000
10
65.8094430884
20
57.2534391924
30
0.0000000000
10
66.1705045779
20
57.8665878137
30
0.0000000000
10
66.3013941647
20
58.1572411618
30
0.0000000000
11
63.1213648947
21
54.3384480533
31
0.0000000000
11
64.2157743905
21
55.4052038296
31
0.0000000000
11
65.1230310118
21
56.3973502663
31
0.0000000000
11
65.8301262974
21
57.3251295879
31
0.0000000000
11
66.3013941647
21
58.1572411618
31
0.0000000000
0
SPLINE
5
363
100
AcDbEntity
8
0
100
AcDbSpline
62
7
6
CONTINUOUS
70
0
71
3
72
11
73
7
74
5
42
0.0000001000
43
0.0000001000
44
0.0000000001
12
1.0900321432
22
2.3520520195
32
0.0000000000
13
1.8918387493
23
1.7704761575
33
0.0000000000
40
0.0000000000
40
0.0000000000
40
0.0000000000
40
0.0000000000
40
0.2482343312
40
0.4982892820
40
0.7492487616
40
1.0000000000
40
1.0000000000
40
1.0000000000
40
1.0000000000
10
61.6008634512
20
52.2594765648
30
0.0000000000
10
61.6910579179
20
52.4540965848
30
0.0000000000
10
61.8924260735
20
52.8350924050
30
0.0000000000
10
62.2506633710
20
53.3751168034
30
0.0000000000
10
62.6600773213
20
53.8800830782
30
0.0000000000
10
62.9632379247
20
54.1904650239
30
0.0000000000
10
63.1213648945
20
54.3384480536
30
0.0000000000
11
61.6008634512
21
52.2594765648
31
0.0000000000
11
61.9008426341
21
52.8282772948
31
0.0000000000
11
62.2585270240
21
53.3683436515
31
0.0000000000
11
62.6676787839
21
53.8735622635
31
0.0000000000
11
63.1213648945
21
54.3384480536
31
0.0000000000
0
SPLINE
5
364
100
AcDbEntity
8
0
100
AcDbSpline
62
7
6
CONTINUOUS
70
0
71
3
72
9
73
5
74
3
42
0.0000001000
43
0.0000001000
44
0.0000000001
12
0.5053359184
22
1.0597829154
32
0.0000000000
13
0.4936637789
23
1.0652700138
33
0.0000000000
40
0.0000000000
40
0.0000000000
40
0.0000000000
40
0.0000000000
40
0.5005371914
40
1.0000000000
40
1.0000000000
40
1.0000000000
40
1.0000000000
10
61.1013632725
20
51.1969502531
30
0.0000000000
10
61.1856764130
20
51.3737705077
30
0.0000000000
10
61.3531479958
20
51.7274892290
30
0.0000000000
10
61.5186742220
20
52.0821224667
30
0.0000000000
10
61.6008631212
20
52.2594767177
30
0.0000000000
11
61.1013632725
21
51.1969502531
31
0.0000000000
11
61.3528405396
21
51.7280983790
31
0.0000000000
11
61.6008631212
21
52.2594767177
31
0.0000000000
0
SPLINE
5
365
100
AcDbEntity
8
0
100
AcDbSpline
62
7
6
CONTINUOUS
70
0
71
3
72
15
73
11
74
9
42
0.0000001000
43
0.0000001000
44
0.0000000001
12
-1.5345462401
22
-0.0002353230
32
0.0000000000
13
-0.0462902938
23
1.5321588609
33
0.0000000000
40
0.0000000000
40
0.0000000000
40
0.0000000000
40
0.0000000000
40
0.1422784959
40
0.2846682559
40
0.4272673103
40
0.5701137533
40
0.6775151863
40
0.7850449107
40
0.8926700522
40
1.0000000000
40
1.0000000000
40
1.0000000000
40
1.0000000000
10
52.0305607900
20
62.6969500914
30
0.0000000000
10
51.9577831463
20
62.6969389309
30
0.0000000000
10
51.8122379200
20
62.7134327267
30
0.0000000000
10
51.6043609386
20
62.7850514138
30
0.0000000000
10
51.4172187368
20
62.9009983511
30
0.0000000000
10
51.2726777066
20
63.0424077920
30
0.0000000000
10
51.1686639130
20
63.1934491273
30
0.0000000000
10
51.0982288337
20
63.3430907744
30
0.0000000000
10
51.0533780866
20
63.5022280469
30
0.0000000000
10
51.0410352422
20
63.6117407039
30
0.0000000000
10
51.0393791306
20
63.6665562141
30
0.0000000000
11
52.0305607900
21
62.6969500914
31
0.0000000000
11
51.8140550556
21
62.7212257772
31
0.0000000000
11
51.6079565973
21
62.7923716255
31
0.0000000000
11
51.4222768538
21
62.9072680661
31
0.0000000000
11
51.2659320386
21
63.0602387520
31
0.0000000000
11
51.1725844975
21
63.1956361000
31
0.0000000000
11
51.1025106118
21
63.3446344490
31
0.0000000000
11
51.0577372961
21
63.5032356563
31
0.0000000000
11
51.0393791306
21
63.6665562141
31
0.0000000000
0
SPLINE
5
366
100
AcDbEntity
8
0
100
AcDbSpline
62
7
6
CONTINUOUS
70
0
71
3
72
12
73
8
74
6
42
0.0000001000
43
0.0000001000
44
0.0000000001
12
-1.2682686510
22
-0.5549083733
32
0.0000000000
13
-1.2874920628
23
-0.5088077618
33
0.0000000000
40
0.0000000000
40
0.0000000000
40
0.0000000000
40
0.0000000000
40
0.2989524869
40
0.5690635551
40
0.8044174352
40
0.9074752748
40
1.0000000000
40
1.0000000000
40
1.0000000000
40
1.0000000000
10
63.7798694568
20
71.9350834470
30
0.0000000000
10
63.6534854344
20
71.8797863676
30
0.0000000000
10
63.4138323300
20
71.7724809877
30
0.0000000000
10
63.0756346699
20
71.6195183641
30
0.0000000000
10
62.8190207336
20
71.5055137710
30
0.0000000000
10
62.6360735442
20
71.4275829496
30
0.0000000000
10
62.5524932341
20
71.3935364214
30
0.0000000000
10
62.5127849510
20
71.3778439886
30
0.0000000000
11
63.7798694568
21
71.9350834470
31
0.0000000000
11
63.4017977344
21
71.7667930409
31
0.0000000000
11
63.0608379345
21
71.6133143143
31
0.0000000000
11
62.7627676096
21
71.4817934535
31
0.0000000000
11
62.6314494878
21
71.4260453988
31
0.0000000000
11
62.5127849510
21
71.3778439886
31
0.0000000000
0
SPLINE
5
367
100
AcDbEntity
8
0
100
AcDbSpline
62
7
6
CONTINUOUS
70
0
71
3
72
10
73
6
74
4
42
0.0000001000
43
0.0000001000
44
0.0000000001
12
0.7870247532
22
6.0075140722
32
0.0000000000
13
0.7872169235
23
6.0074888935
33
0.0000000000
40
0.0000000000
40
0.0000000000
40
0.0000000000
40
0.0000000000
40
0.3335304165
40
0.6668638372
40
1.0000000000
40
1.0000000000
40
1.0000000000
40
1.0000000000
10
51.0393678437
20
83.8528405996
30
0.0000000000
10
51.1268667416
20
84.5207368232
30
0.0000000000
10
51.3018229387
20
85.8561334646
30
0.0000000000
10
51.5642062829
20
87.8586326841
30
0.0000000000
10
51.7390867381
20
89.1932362028
30
0.0000000000
10
51.8265035465
20
89.8603401355
30
0.0000000000
11
51.0393678437
21
83.8528405996
31
0.0000000000
11
51.3018790662
21
85.8565273669
31
0.0000000000
11
51.5642605259
21
87.8590273671
31
0.0000000000
11
51.8265035465
21
89.8603401355
31
0.0000000000
0
SPLINE
5
368
100
AcDbEntity
8
0
100
AcDbSpline
62
7
6
CONTINUOUS
70
0
71
3
72
30
73
26
74
24
42
0.0000001000
43
0.0000001000
44
0.0000000001
12
-13.3641713410
22
0.1701423688
32
0.0000000000
13
1.6594934757
23
12.7650516475
33
0.0000000000
40
0.0000000000
40
0.0000000000
40
0.0000000000
40
0.0000000000
40
0.0071921516
40
0.0155423673
40
0.0204215542
40
0.0258511618
40
0.0385213544
40
0.0458253102
40
0.0537866360
40
0.0624050675
40
0.0716771157
40
0.0921779028
40
0.1153430156
40
0.1279405398
40
0.1412019405
40
0.1848291293
40
0.2340357235
40
0.3078413336
40
0.3901764062
40
0.4800197891
40
0.5762534608
40
0.6776803281
40
0.7830146283
40
0.8909228425
40
1.0000000000
40
1.0000000000
40
1.0000000000
40
1.0000000000
10
51.0393627432
20
71.2537086012
30
0.0000000000
10
51.0073236946
20
71.2541164977
30
0.0000000000
10
50.9422448717
20
71.2710794549
30
0.0000000000
10
50.8697177431
20
71.3237821076
30
0.0000000000
10
50.8146074975
20
71.3818223373
30
0.0000000000
10
50.7543675288
20
71.4601333849
30
0.0000000000
10
50.6996581741
20
71.5549037443
30
0.0000000000
10
50.6484179525
20
71.6632772183
30
0.0000000000
10
50.6092756891
20
71.7580399796
30
0.0000000000
10
50.5712871965
20
71.8622852293
30
0.0000000000
10
50.5206265321
20
72.0190664230
30
0.0000000000
10
50.4616333961
20
72.2385707989
30
0.0000000000
10
50.4112147874
20
72.4747559148
30
0.0000000000
10
50.3739104939
20
72.6817883525
30
0.0000000000
10
50.3270546218
20
72.9762556498
30
0.0000000000
10
50.2732194871
20
73.4285408026
30
0.0000000000
10
50.2228100605
20
74.1420095495
30
0.0000000000
10
50.2051082917
20
75.0233543141
30
0.0000000000
10
50.2300523451
20
76.0787973788
30
0.0000000000
10
50.2990495581
20
77.2286342522
30
0.0000000000
10
50.4041146736
20
78.4578694018
30
0.0000000000
10
50.5375269338
20
79.7511555933
30
0.0000000000
10
50.6921069895
20
81.0924936432
30
0.0000000000
10
50.8605709480
20
82.4652252786
30
0.0000000000
10
50.9790251328
20
83.3887160700
30
0.0000000000
10
51.0393627432
20
83.8528412528
30
0.0000000000
11
51.0393627432
21
71.2537086012
31
0.0000000000
11
50.9492095634
21
71.2747722469
31
0.0000000000
11
50.8605419231
21
71.3355324474
31
0.0000000000
11
50.8169999403
21
71.3807969351
31
0.0000000000
11
50.7741110546
21
71.4359833768
31
0.0000000000
11
50.6906681904
21
71.5761192094
31
0.0000000000
11
50.6503064730
21
71.6610354173
31
0.0000000000
11
50.6110001859
21
71.7556803074
31
0.0000000000
11
50.5728699503
21
71.8598627925
31
0.0000000000
11
50.5360363873
21
71.9733917854
31
0.0000000000
11
50.4667032728
21
72.2280180186
31
0.0000000000
11
50.4037733554
21
72.5194956707
31
0.0000000000
11
50.3749472480
21
72.6790750012
31
0.0000000000
11
50.3480468216
21
72.8476499165
31
0.0000000000
11
50.2802519303
21
73.4051350234
31
0.0000000000
11
50.2345089541
21
74.0368944063
31
0.0000000000
11
50.2123886745
21
74.9867016145
31
0.0000000000
11
50.2354193363
21
76.0463118558
31
0.0000000000
11
50.3021083866
21
77.2008989072
31
0.0000000000
11
50.4057248807
21
78.4353284188
31
0.0000000000
11
50.5383406647
21
79.7341960157
31
0.0000000000
11
50.6924771415
21
81.0813253508
31
0.0000000000
11
50.8612075281
21
82.4600907558
31
0.0000000000
11
51.0393627432
21
83.8528412528
31
0.0000000000
0
SPLINE
5
369
100
AcDbEntity
8
0
100
AcDbSpline
62
7
6
CONTINUOUS
70
0
71
3
72
10
73
6
74
4
42
0.0000001000
43
0.0000001000
44
0.0000000001
12
-0.7871801763
22
0.0079960464
32
0.0000000000
13
-0.7871512842
23
0.0104605201
33
0.0000000000
40
0.0000000000
40
0.0000000000
40
0.0000000000
40
0.0000000000
40
0.3331932018
40
0.6665098192
40
1.0000000000
40
1.0000000000
40
1.0000000000
40
1.0000000000
10
51.8265439913
20
71.2459179283
30
0.0000000000
10
51.7391162969
20
71.2468060044
30
0.0000000000
10
51.5642287292
20
71.2486025140
30
0.0000000000
10
51.3018319257
20
71.2509306449
30
0.0000000000
10
51.1268702223
20
71.2530934837
30
0.0000000000
10
51.0393678143
20
71.2542563106
30
0.0000000000
11
51.8265439913
21
71.2459179283
31
0.0000000000
11
51.5642604933
21
71.2485410071
31
0.0000000000
11
51.3018790346
21
71.2510827677
31
0.0000000000
11
51.0393678143
21
71.2542563106
31
0.0000000000
0
SPLINE
5
36A
100
AcDbEntity
8
0
100
AcDbSpline
62
7
6
CONTINUOUS
70
0
71
3
72
10
73
6
74
4
42
0.0000001000
43
0.0000001000
44
0.0000000001
12
0.7871058945
22
0.0104599167
32
0.0000000000
13
0.7871560377
23
0.0055200871
33
0.0000000000
40
0.0000000000
40
0.0000000000
40
0.0000000000
40
0.0000000000
40
0.3335094163
40
0.6668452579
40
1.0000000000
40
1.0000000000
40
1.0000000000
40
1.0000000000
10
51.0393678366
20
63.6665558728
30
0.0000000000
10
51.1268702458
20
63.6677186997
30
0.0000000000
10
51.3018322930
20
63.6698448574
30
0.0000000000
10
51.5642124283
20
63.6723378176
30
0.0000000000
10
51.7390886211
20
63.6737311267
30
0.0000000000
10
51.8265035433
20
63.6743441411
30
0.0000000000
11
51.0393678366
21
63.6665558728
31
0.0000000000
11
51.3018790604
21
63.6697294157
31
0.0000000000
11
51.5642605213
21
63.6722711763
31
0.0000000000
11
51.8265035433
21
63.6743441411
31
0.0000000000
0
SPLINE
5
36B
100
AcDbEntity
8
0
100
AcDbSpline
62
7
6
CONTINUOUS
70
0
71
3
72
29
73
25
74
23
42
0.0000001000
43
0.0000001000
44
0.0000000001
12
-1.6594374100
22
12.7649746945
32
0.0000000000
13
13.3646431016
23
0.1713039443
33
0.0000000000
40
0.0000000000
40
0.0000000000
40
0.0000000000
40
0.0000000000
40
0.1091039922
40
0.2170294992
40
0.3223118781
40
0.4236899338
40
0.5199504826
40
0.6098385283
40
0.6921722821
40
0.7659695073
40
0.8303636055
40
0.8588132968
40
0.8846507661
40
0.9078153630
40
0.9283254532
40
0.9375990336
40
0.9462166297
40
0.9541759225
40
0.9614778061
40
0.9741464353
40
0.9795762711
40
0.9844560285
40
0.9928074854
40
1.0000000000
40
1.0000000000
40
1.0000000000
40
1.0000000000
10
51.0393627432
20
51.0679709299
30
0.0000000000
10
50.9790123278
20
51.5322074965
30
0.0000000000
10
50.8605410199
20
52.4558806911
30
0.0000000000
10
50.6920797721
20
53.8285696432
30
0.0000000000
10
50.5375052305
20
55.1695390671
30
0.0000000000
10
50.4040797040
20
56.4624957473
30
0.0000000000
10
50.2988998527
20
57.6918126796
30
0.0000000000
10
50.2298235181
20
58.8419328267
30
0.0000000000
10
50.2050466675
20
59.8975520670
30
0.0000000000
10
50.2244017337
20
60.8439470166
30
0.0000000000
10
50.2790265448
20
61.5574063898
30
0.0000000000
10
50.3442984672
20
62.0625437334
30
0.0000000000
10
50.3993632680
20
62.3903775415
30
0.0000000000
10
50.4616496643
20
62.6821711269
30
0.0000000000
10
50.5206494672
20
62.9017193635
30
0.0000000000
10
50.5713180964
20
63.0585417949
30
0.0000000000
10
50.6093039688
20
63.1627811926
30
0.0000000000
10
50.6484400062
20
63.2575228605
30
0.0000000000
10
50.6996739871
20
63.3658715924
30
0.0000000000
10
50.7543767699
20
63.4606273162
30
0.0000000000
10
50.8146087746
20
63.5389394132
30
0.0000000000
10
50.8697172344
20
63.5969920803
30
0.0000000000
10
50.9422393585
20
63.6497175376
30
0.0000000000
10
51.0073209465
20
63.6666928795
30
0.0000000000
10
51.0393627432
20
63.6671035816
30
0.0000000000
11
51.0393627432
21
51.0679709299
31
0.0000000000
11
50.8611708043
21
52.4610555918
31
0.0000000000
11
50.6924086361
21
53.8400320950
31
0.0000000000
11
50.5383166274
21
55.1864847574
31
0.0000000000
11
50.4057077577
21
56.4847127706
31
0.0000000000
11
50.3019708641
21
57.7194711245
31
0.0000000000
11
50.2352256226
21
58.8746231299
31
0.0000000000
11
50.2123702769
21
59.9342131612
31
0.0000000000
11
50.2346865031
21
60.8839015254
31
0.0000000000
11
50.3007320066
21
61.7101754775
31
0.0000000000
11
50.3481352233
21
62.0733115866
31
0.0000000000
11
50.4037851768
21
62.4012141305
31
0.0000000000
11
50.4667096025
21
62.6926841527
31
0.0000000000
11
50.5360678968
21
62.9474258309
31
0.0000000000
11
50.5729046278
21
63.0609736991
31
0.0000000000
11
50.6110306575
21
63.1651454883
31
0.0000000000
11
50.6503287390
21
63.2597647151
31
0.0000000000
11
50.6906816259
21
63.3446548961
31
0.0000000000
11
50.7741133703
21
63.4847726698
31
0.0000000000
11
50.8169997284
21
63.5399642095
31
0.0000000000
11
50.8605406226
21
63.5852393559
31
0.0000000000
11
50.9492086559
21
63.6460259834
31
0.0000000000
11
51.0393627432
21
63.6671035816
31
0.0000000000
0
SPLINE
5
36C
100
AcDbEntity
8
0
100
AcDbSpline
62
7
6
CONTINUOUS
70
0
71
3
72
10
73
6
74
4
42
0.0000001000
43
0.0000001000
44
0.0000000001
12
-0.7872181950
22
6.0078979715
32
0.0000000000
13
-0.7870774621
23
6.0079164102
33
0.0000000000
40
0.0000000000
40
0.0000000000
40
0.0000000000
40
0.0000000000
40
0.3331808226
40
0.6664919206
40
1.0000000000
40
1.0000000000
40
1.0000000000
40
1.0000000000
10
51.8265440238
20
45.0600681066
30
0.0000000000
10
51.7391153552
20
45.7273069027
30
0.0000000000
10
51.5642269030
20
47.0620457910
30
0.0000000000
10
51.3018220664
20
49.0646786092
30
0.0000000000
10
51.1268667413
20
50.4000753621
30
0.0000000000
10
51.0393678437
20
51.0679715831
30
0.0000000000
11
51.8265440238
21
45.0600681066
31
0.0000000000
11
51.5642605248
21
47.0617848234
31
0.0000000000
11
51.3018790652
21
49.0642848236
31
0.0000000000
11
51.0393678437
21
51.0679715831
31
0.0000000000
0
SPLINE
5
36D
100
AcDbEntity
8
0
100
AcDbSpline
62
7
6
CONTINUOUS
70
0
71
3
72
12
73
8
74
6
42
0.0000001000
43
0.0000001000
44
0.0000000001
12
-1.2133574967
22
0.4049745924
32
0.0000000000
13
-0.7319297889
23
1.0490565037
33
0.0000000000
40
0.0000000000
40
0.0000000000
40
0.0000000000
40
0.0000000000
40
0.2973526950
40
0.3562674924
40
0.5322762368
40
0.7656818596
40
1.0000000000
40
1.0000000000
40
1.0000000000
40
1.0000000000
10
53.1830922783
20
43.3688035141
30
0.0000000000
10
53.0628272377
20
43.4089436096
30
0.0000000000
10
52.9227580568
20
43.4710294982
30
0.0000000000
10
52.7271061385
20
43.5860084552
30
0.0000000000
10
52.5626535993
20
43.7001117037
30
0.0000000000
10
52.3586890095
20
43.8852656011
30
0.0000000000
10
52.2322299888
20
44.0406113185
30
0.0000000000
10
52.1750618465
20
44.1225489749
30
0.0000000000
11
53.1830922783
21
43.3688035141
31
0.0000000000
11
52.8353632597
21
43.5229420628
31
0.0000000000
11
52.7703897809
21
43.5611227179
31
0.0000000000
11
52.5854037719
21
43.6894559054
31
0.0000000000
11
52.3643913936
21
43.8901869581
31
0.0000000000
11
52.1750618465
21
44.1225489749
31
0.0000000000
0
SPLINE
5
36E
100
AcDbEntity
8
0
100
AcDbSpline
62
7
6
CONTINUOUS
70
0
71
3
72
12
73
8
74
6
42
0.0000001000
43
0.0000001000
44
0.0000000001
12
1.2874920638
22
-0.5088077620
32
0.0000000000
13
1.2682686519
23
-0.5549083737
33
0.0000000000
40
0.0000000000
40
0.0000000000
40
0.0000000000
40
0.0000000000
40
0.0925247259
40
0.1955825654
40
0.4309364453
40
0.7010475133
40
1.0000000000
40
1.0000000000
40
1.0000000000
40
1.0000000000
10
62.5127849500
20
63.5429681945
30
0.0000000000
10
62.5524932334
20
63.5272757616
30
0.0000000000
10
62.6360735439
20
63.4932292333
30
0.0000000000
10
62.8190207336
20
63.4152984117
30
0.0000000000
10
63.0756346699
20
63.3012938186
30
0.0000000000
10
63.4138323300
20
63.1483311951
30
0.0000000000
10
63.6534854344
20
63.0410258151
30
0.0000000000
10
63.7798694568
20
62.9857287357
30
0.0000000000
11
62.5127849500
21
63.5429681945
31
0.0000000000
11
62.6314494878
21
63.4947667839
31
0.0000000000
11
62.7627676096
21
63.4390187292
31
0.0000000000
11
63.0608379345
21
63.3074978684
31
0.0000000000
11
63.4017977344
21
63.1540191418
31
0.0000000000
11
63.7798694568
21
62.9857287357
31
0.0000000000
0
SPLINE
5
36F
100
AcDbEntity
8
0
100
AcDbSpline
62
7
6
CONTINUOUS
70
0
71
3
72
14
73
10
74
8
42
0.0000001000
43
0.0000001000
44
0.0000000001
12
1.3883381346
22
-0.0538204480
32
0.0000000000
13
0.1745848188
23
-1.3827717549
33
0.0000000000
40
0.0000000000
40
0.0000000000
40
0.0000000000
40
0.0000000000
40
0.1366902716
40
0.2753339807
40
0.4164067374
40
0.5599451137
40
0.6690935930
40
0.7791596129
40
1.0000000000
40
1.0000000000
40
1.0000000000
40
1.0000000000
10
61.6008634453
20
72.2730526213
30
0.0000000000
10
61.6641208842
20
72.2706003774
30
0.0000000000
10
61.7906794260
20
72.2512001543
30
0.0000000000
10
61.9716136626
20
72.1819039653
30
0.0000000000
10
62.1364929005
20
72.0744993060
30
0.0000000000
10
62.2670313340
20
71.9462116050
30
0.0000000000
10
62.3649640024
20
71.8096449241
30
0.0000000000
10
62.4589287975
20
71.6287979076
30
0.0000000000
10
62.4999331593
20
71.4796346057
30
0.0000000000
10
62.5127849523
20
71.3778439892
30
0.0000000000
11
61.6008634453
21
72.2730526213
31
0.0000000000
11
61.7880754172
21
72.2448263349
31
0.0000000000
11
61.9674683931
21
72.1763059143
31
0.0000000000
11
62.1314744650
21
72.0700873328
31
0.0000000000
11
62.2734138375
21
71.9308757589
31
0.0000000000
11
62.3616489589
21
71.8081158775
31
0.0000000000
11
62.4319943817
21
71.6728649134
31
0.0000000000
11
62.5127849523
21
71.3778439892
31
0.0000000000
0
SPLINE
5
370
100
AcDbEntity
8
0
100
AcDbSpline
62
7
6
CONTINUOUS
70
0
71
3
72
15
73
11
74
9
42
0.0000001000
43
0.0000001000
44
0.0000000001
12
1.4147784067
22
0.0015584041
32
0.0000000000
13
0.1201873662
23
-1.4062922140
33
0.0000000000
40
0.0000000000
40
0.0000000000
40
0.0000000000
40
0.0000000000
40
0.1370072323
40
0.2751180053
40
0.4152554581
40
0.5579366121
40
0.6667589568
40
0.7769116870
40
0.8881108083
40
1.0000000000
40
1.0000000000
40
1.0000000000
40
1.0000000000
10
61.1013632675
20
72.2238620914
30
0.0000000000
10
61.1659748921
20
72.2239332622
30
0.0000000000
10
61.2954995813
20
72.2085937563
30
0.0000000000
10
61.4809351954
20
72.1422392818
30
0.0000000000
10
61.6488694232
20
72.0345370045
30
0.0000000000
10
61.7803038921
20
71.9035409320
30
0.0000000000
10
61.8771853032
20
71.7630212017
30
0.0000000000
10
61.9453200172
20
71.6228706247
30
0.0000000000
10
61.9922809659
20
71.4728035045
30
0.0000000000
10
62.0088024725
20
71.3688286349
30
0.0000000000
10
62.0132850283
20
71.3163790019
30
0.0000000000
11
61.1013632675
21
72.2238620914
31
0.0000000000
11
61.2933262442
21
72.2015570409
31
0.0000000000
11
61.4767672529
21
72.1359768968
31
0.0000000000
11
61.6434548805
21
72.0297291401
31
0.0000000000
11
61.7861855622
21
71.8878395529
31
0.0000000000
11
61.8735017317
21
71.7615950209
31
0.0000000000
11
61.9415170324
21
71.6218977212
31
0.0000000000
11
61.9884776260
21
71.4722415870
31
0.0000000000
11
62.0132850283
21
71.3163790019
31
0.0000000000
0
SPLINE
5
371
100
AcDbEntity
8
0
100
AcDbSpline
62
7
6
CONTINUOUS
70
0
71
3
72
11
73
7
74
5
42
0.0000001000
43
0.0000001000
44
0.0000000001
12
-0.5775235045
22
0.8277555217
32
0.0000000000
13
-0.1050591667
23
1.0038322382
33
0.0000000000
40
0.0000000000
40
0.0000000000
40
0.0000000000
40
0.0000000000
40
0.2949622460
40
0.7370538582
40
0.8846843590
40
1.0000000000
40
1.0000000000
40
1.0000000000
40
1.0000000000
10
52.1750578306
20
44.1225461730
30
0.0000000000
10
52.1182752872
20
44.2039317156
30
0.0000000000
10
51.9915491216
20
44.4181326997
30
0.0000000000
10
51.8889908879
20
44.7006502321
30
0.0000000000
10
51.8421539747
20
44.9333086644
30
0.0000000000
10
51.8303592982
20
45.0210484242
30
0.0000000000
10
51.8263209765
20
45.0596342769
30
0.0000000000
11
52.1750578306
21
44.1225461730
31
0.0000000000
11
52.0234574287
21
44.3787650094
31
0.0000000000
11
51.8712585170
21
44.7982143736
31
0.0000000000
11
51.8417955997
21
44.9442778461
31
0.0000000000
11
51.8263209765
21
45.0596342769
31
0.0000000000
0
SPLINE
5
372
100
AcDbEntity
8
0
100
AcDbSpline
62
7
6
CONTINUOUS
70
0
71
3
72
12
73
8
74
6
42
0.0000001000
43
0.0000001000
44
0.0000000001
12
0.9929346512
22
0.1162701861
32
0.0000000000
13
0.9936150626
23
0.1103045104
33
0.0000000000
40
0.0000000000
40
0.0000000000
40
0.0000000000
40
0.0000000000
40
0.0542219848
40
0.1991857884
40
0.4212835226
40
0.6975738736
40
1.0000000000
40
1.0000000000
40
1.0000000000
40
1.0000000000
10
51.8265440238
20
45.0600681066
30
0.0000000000
10
51.8444903197
20
45.0621695733
30
0.0000000000
10
51.9104172975
20
45.0698823565
30
0.0000000000
10
52.0498610748
20
45.0861405813
30
0.0000000000
10
52.2628272062
20
45.1108118680
30
0.0000000000
10
52.5279566709
20
45.1411809400
30
0.0000000000
10
52.7195933036
20
45.1627939320
30
0.0000000000
10
52.8197583551
20
45.1739135873
30
0.0000000000
11
51.8265440238
21
45.0600681066
31
0.0000000000
11
51.8803835815
21
45.0663667819
31
0.0000000000
11
52.0243315669
21
45.0831498457
31
0.0000000000
11
52.2448928952
21
45.1086915935
31
0.0000000000
11
52.5193124673
21
45.1401137797
31
0.0000000000
11
52.8197583551
21
45.1739135873
31
0.0000000000
0
SPLINE
5
373
100
AcDbEntity
8
0
100
AcDbSpline
62
7
6
CONTINUOUS
70
0
71
3
72
8
73
4
74
2
42
0.0000001000
43
0.0000001000
44
0.0000000001
12
3.0363574588
22
6.8363780519
32
0.0000000000
13
3.0035220898
23
6.8508675710
33
0.0000000000
40
0.0000000000
40
0.0000000000
40
0.0000000000
40
0.0000000000
40
1.0000000000
40
1.0000000000
40
1.0000000000
40
1.0000000000
10
58.0786477771
20
44.3545294318
30
0.0000000000
10
59.0907669301
20
46.6333221158
30
0.0000000000
10
60.1001887397
20
48.9133279369
30
0.0000000000
10
61.1013627696
20
51.1969504606
30
0.0000000000
11
58.0786477771
21
44.3545294318
31
0.0000000000
11
61.1013627696
21
51.1969504606
31
0.0000000000
0
SPLINE
5
374
100
AcDbEntity
8
0
100
AcDbSpline
62
7
6
CONTINUOUS
70
0
71
3
72
14
73
10
74
8
42
0.0000001000
43
0.0000001000
44
0.0000000001
12
1.1458645908
22
0.0000000009
32
0.0000000000
13
0.4651196451
23
1.0472198317
33
0.0000000000
40
0.0000000000
40
0.0000000000
40
0.0000000000
40
0.0000000000
40
0.1785714280
40
0.2857142852
40
0.4285714282
40
0.5714285711
40
0.7142857141
40
0.8571428570
40
1.0000000000
40
1.0000000000
40
1.0000000000
40
1.0000000000
10
57.1667271370
20
43.7573181487
30
0.0000000000
10
57.2349333624
20
43.7573181487
30
0.0000000000
10
57.3452350641
20
43.7687669003
30
0.0000000000
10
57.5045744296
20
43.8131725836
30
0.0000000000
10
57.6422840880
20
43.8739177369
30
0.0000000000
10
57.7814973290
20
43.9654637219
30
0.0000000000
10
57.9019266346
20
44.0769246050
30
0.0000000000
10
58.0037991496
20
44.2076567395
30
0.0000000000
10
58.0565000781
20
44.3046614408
30
0.0000000000
10
58.0786486326
20
44.3545290519
30
0.0000000000
11
57.1667271370
21
43.7573181487
31
0.0000000000
11
57.3712185135
21
43.7787208996
31
0.0000000000
11
57.4903200084
21
43.8118144411
31
0.0000000000
11
57.6404481751
21
43.8781308278
31
0.0000000000
11
57.7783666731
21
43.9687828716
31
0.0000000000
11
57.8988338362
21
44.0801364802
31
0.0000000000
11
57.9999956292
21
44.2101192258
31
0.0000000000
11
58.0786486326
21
44.3545290519
31
0.0000000000
0
SPLINE
5
375
100
AcDbEntity
8
0
100
AcDbSpline
62
7
6
CONTINUOUS
70
0
71
3
72
10
73
6
74
4
42
0.0000001000
43
0.0000001000
44
0.0000000001
12
0.3680133286
22
-0.5256301515
32
0.0000000000
13
0.6070215206
23
-0.2079561005
33
0.0000000000
40
0.0000000000
40
0.0000000000
40
0.0000000000
40
0.0000000000
40
0.3360290143
40
0.6698246751
40
1.0000000000
40
1.0000000000
40
1.0000000000
40
1.0000000000
10
52.9953695473
20
44.6869480970
30
0.0000000000
10
53.0365905993
20
44.6280724364
30
0.0000000000
10
53.1308129599
20
44.5185346290
30
0.0000000000
10
53.3025308273
20
44.3885193745
30
0.0000000000
10
53.4324483465
20
44.3281143604
30
0.0000000000
10
53.4992561891
20
44.3052270360
30
0.0000000000
11
52.9953695473
21
44.6869480970
31
0.0000000000
11
53.1363614769
21
44.5238194894
31
0.0000000000
11
53.3071714340
21
44.3945998726
31
0.0000000000
11
53.4992561891
21
44.3052270360
31
0.0000000000
0
SPLINE
5
376
100
AcDbEntity
8
0
100
AcDbSpline
62
7
6
CONTINUOUS
70
0
71
3
72
10
73
6
74
4
42
0.0000001000
43
0.0000001000
44
0.0000000001
12
0.0474749316
22
-0.5205164682
32
0.0000000000
13
0.2964584426
23
-0.4304691099
33
0.0000000000
40
0.0000000000
40
0.0000000000
40
0.0000000000
40
0.0000000000
40
0.3357690987
40
0.6696522979
40
1.0000000000
40
1.0000000000
40
1.0000000000
40
1.0000000000
10
52.8197615288
20
45.1738893372
30
0.0000000000
10
52.8250750672
20
45.1156315554
30
0.0000000000
10
52.8458505435
20
45.0001407647
30
0.0000000000
10
52.9051022166
20
44.8354977477
30
0.0000000000
10
52.9627247588
20
44.7343495908
30
0.0000000000
10
52.9953695473
20
44.6869480970
30
0.0000000000
11
52.8197615288
21
45.1738893372
31
0.0000000000
11
52.8506613423
21
45.0011322042
31
0.0000000000
11
52.9099268791
21
44.8369907738
31
0.0000000000
11
52.9953695473
21
44.6869480970
31
0.0000000000
0
SPLINE
5
377
100
AcDbEntity
8
0
100
AcDbSpline
62
7
6
CONTINUOUS
70
0
71
3
72
15
73
11
74
9
42
0.0000001000
43
0.0000001000
44
0.0000000001
12
1.4401161754
22
0.0016964929
32
0.0000000000
13
0.0872135656
23
-1.4338306007
33
0.0000000000
40
0.0000000000
40
0.0000000000
40
0.0000000000
40
0.0000000000
40
0.1367567916
40
0.2746828609
40
0.4147479638
40
0.5574781139
40
0.6664038907
40
0.7766889529
40
0.8880171130
40
1.0000000000
40
1.0000000000
40
1.0000000000
40
1.0000000000
10
58.0786477771
20
72.2238620914
30
0.0000000000
10
58.1442963330
20
72.2239394270
30
0.0000000000
10
58.2759089137
20
72.2080186017
30
0.0000000000
10
58.4640011998
20
72.1392620023
30
0.0000000000
10
58.6336518128
20
72.0277875143
30
0.0000000000
10
58.7655322661
20
71.8924886398
30
0.0000000000
10
58.8617399824
20
71.7476709787
30
0.0000000000
10
58.9283971600
20
71.6035495952
30
0.0000000000
10
58.9729675435
20
71.4496557402
30
0.0000000000
10
58.9873145329
20
71.3433559144
30
0.0000000000
10
58.9905700085
20
71.2898344177
30
0.0000000000
11
58.0786477771
21
72.2238620914
31
0.0000000000
11
58.2736033167
21
72.2007453025
31
0.0000000000
11
58.4595908698
21
72.1328294056
31
0.0000000000
11
58.6279591605
21
72.0229136222
31
0.0000000000
11
58.7711770420
21
71.8763832454
31
0.0000000000
11
58.8579066248
21
71.7462714677
31
0.0000000000
11
58.9244516771
21
71.6026159437
31
0.0000000000
11
58.9690305737
21
71.4491419714
31
0.0000000000
11
58.9905700085
21
71.2898344177
31
0.0000000000
0
SPLINE
5
378
100
AcDbEntity
8
0
100
AcDbSpline
62
7
6
CONTINUOUS
70
0
71
3
72
15
73
11
74
9
42
0.0000001000
43
0.0000001000
44
0.0000000001
12
-0.9402419779
22
-2.0956503902
32
0.0000000000
13
-2.2950703120
23
-0.0008659228
33
0.0000000000
40
0.0000000000
40
0.0000000000
40
0.0000000000
40
0.0000000000
40
0.1419716570
40
0.2844640273
40
0.4266835134
40
0.5700502253
40
0.7128575368
40
0.8205344041
40
0.9104609341
40
1.0000000000
40
1.0000000000
40
1.0000000000
40
1.0000000000
10
58.9905701291
20
43.9495017692
30
0.0000000000
10
58.9460742252
20
43.8503274497
30
0.0000000000
10
58.8404379990
20
43.6590803103
30
0.0000000000
10
58.6376238720
20
43.4016359754
30
0.0000000000
10
58.3948072584
20
43.1799262176
30
0.0000000000
10
58.1188358161
20
43.0006942771
30
0.0000000000
10
57.8415031021
20
42.8797081124
30
0.0000000000
10
57.5898726600
20
42.8105810176
30
0.0000000000
10
57.3725196525
20
42.7768063801
30
0.0000000000
10
57.2352266202
20
42.7697153111
30
0.0000000000
10
57.1667271362
20
42.7696894665
30
0.0000000000
11
58.9905701291
21
43.9495017692
31
0.0000000000
11
58.8332641222
21
43.6643155914
31
0.0000000000
11
58.6309405362
21
43.4075646470
31
0.0000000000
11
58.3900062101
21
43.1875699921
31
0.0000000000
11
58.1141692141
21
43.0084465607
31
0.0000000000
11
57.8139128805
21
42.8773935576
31
0.0000000000
11
57.5757098909
21
42.8119899991
31
0.0000000000
11
57.3718632418
21
42.7802805199
31
0.0000000000
11
57.1667271362
21
42.7696894665
31
0.0000000000
0
SPLINE
5
379
100
AcDbEntity
8
0
100
AcDbSpline
62
7
6
CONTINUOUS
70
0
71
3
72
9
73
5
74
3
42
0.0000001000
43
0.0000001000
44
0.0000000001
12
-0.4933024813
22
-1.1595313799
32
0.0000000000
13
-0.5056971884
23
-1.1541796989
33
0.0000000000
40
0.0000000000
40
0.0000000000
40
0.0000000000
40
0.0000000000
40
0.4996436531
40
1.0000000000
40
1.0000000000
40
1.0000000000
40
1.0000000000
10
62.5127848631
20
51.9540057416
30
0.0000000000
10
62.4306263784
20
51.7608882434
30
0.0000000000
10
62.2651600619
20
51.3748234390
30
0.0000000000
10
62.0976279608
20
50.9896505814
30
0.0000000000
10
62.0132850282
20
50.7971502022
30
0.0000000000
11
62.5127848631
21
51.9540057416
31
0.0000000000
11
62.2647622785
21
51.3753212540
31
0.0000000000
11
62.0132850282
21
50.7971502022
31
0.0000000000
0
SPLINE
5
37A
100
AcDbEntity
8
0
100
AcDbSpline
62
7
6
CONTINUOUS
70
0
71
3
72
11
73
7
74
5
42
0.0000001000
43
0.0000001000
44
0.0000000001
12
-3.0022986505
22
-6.8566361887
32
0.0000000000
13
-3.0371523563
23
-6.8412645377
33
0.0000000000
40
0.0000000000
40
0.0000000000
40
0.0000000000
40
0.0000000000
40
0.2500694408
40
0.5000834379
40
0.7500557941
40
1.0000000000
40
1.0000000000
40
1.0000000000
40
1.0000000000
10
62.0132849417
20
50.7971502400
30
0.0000000000
10
61.7630238934
20
50.2256051808
30
0.0000000000
10
61.2614570198
20
49.0831243340
30
0.0000000000
10
60.5064368981
20
47.3707665950
30
0.0000000000
10
59.7493648619
20
45.6596572395
30
0.0000000000
10
59.2436095531
20
44.5194799667
30
0.0000000000
10
58.9905700085
20
43.9495018227
30
0.0000000000
11
62.0132849417
21
50.7971502400
31
0.0000000000
11
61.2609447048
21
49.0831985758
31
0.0000000000
11
60.5060319010
21
47.3708319796
31
0.0000000000
11
59.7490668843
21
45.6597124093
31
0.0000000000
11
58.9905700085
21
43.9495018227
31
0.0000000000
0
SPLINE
5
37B
100
AcDbEntity
8
0
100
AcDbSpline
62
7
6
CONTINUOUS
70
0
71
3
72
19
73
15
74
13
42
0.0000001000
43
0.0000001000
44
0.0000000001
12
0.8897090482
22
-0.3750820514
32
0.0000000000
13
0.9314108826
23
0.2718037767
33
0.0000000000
40
0.0000000000
40
0.0000000000
40
0.0000000000
40
0.0000000000
40
0.2097040526
40
0.4091652935
40
0.5900367608
40
0.7450693902
40
0.8403951162
40
0.8805712100
40
0.9154579966
40
0.9448696726
40
0.9687284064
40
0.9870382099
40
0.9941622742
40
1.0000000000
40
1.0000000000
40
1.0000000000
40
1.0000000000
10
61.6008634453
20
52.2594765521
30
0.0000000000
10
61.6630553096
20
52.2332578100
30
0.0000000000
10
61.7847893253
20
52.1829941562
30
0.0000000000
10
61.9616461306
20
52.1137799117
30
0.0000000000
10
62.1233962584
20
52.0543414250
30
0.0000000000
10
62.2548860608
20
52.0098402543
30
0.0000000000
10
62.3444499362
20
51.9828800131
30
0.0000000000
10
62.3974789058
20
51.9688775599
30
0.0000000000
10
62.4302276136
20
51.9612242481
30
0.0000000000
10
62.4580968170
20
51.9558347825
30
0.0000000000
10
62.4809355634
20
51.9527199175
30
0.0000000000
10
62.4968195136
20
51.9519015092
30
0.0000000000
10
62.5068827090
20
51.9526396826
30
0.0000000000
10
62.5109725118
20
51.9534768081
30
0.0000000000
10
62.5127849523
20
51.9540057134
30
0.0000000000
11
61.6008634453
21
52.2594765521
31
0.0000000000
11
61.7880754172
21
52.1823312419
31
0.0000000000
11
61.9674683931
21
52.1122562444
31
0.0000000000
11
62.1314744650
21
52.0522350975
31
0.0000000000
11
62.2734138375
21
52.0046772324
31
0.0000000000
11
62.3616489589
21
51.9784743003
31
0.0000000000
11
62.3991731756
21
51.9686347902
31
0.0000000000
11
62.4319943817
21
51.9610525939
31
0.0000000000
11
62.4598999223
21
51.9557814160
31
0.0000000000
11
62.4827488652
21
51.9528417497
31
0.0000000000
11
62.5004182090
21
51.9522457853
31
0.0000000000
11
62.5072720933
21
51.9528305009
31
0.0000000000
11
62.5127849523
21
51.9540057134
31
0.0000000000
0
SPLINE
5
37C
100
AcDbEntity
8
0
100
AcDbSpline
62
7
6
CONTINUOUS
70
0
71
3
72
11
73
7
74
5
42
0.0000001000
43
0.0000001000
44
0.0000000001
12
-1.5945742716
22
-1.7012043077
32
0.0000000000
13
-0.9003216586
23
-2.1516031119
33
0.0000000000
40
0.0000000000
40
0.0000000000
40
0.0000000000
40
0.0000000000
40
0.2487421178
40
0.4991913047
40
0.7499917298
40
1.0000000000
40
1.0000000000
40
1.0000000000
40
1.0000000000
10
63.7798694568
20
53.8969334628
30
0.0000000000
10
63.6476568631
20
53.7558797421
30
0.0000000000
10
63.3943826804
20
53.4614575860
30
0.0000000000
10
63.0534875662
20
52.9879012485
30
0.0000000000
10
62.7551863619
20
52.4851887610
30
0.0000000000
10
62.5878142368
20
52.1333118986
30
0.0000000000
10
62.5127849500
20
51.9540057079
30
0.0000000000
11
63.7798694568
21
53.8969334628
31
0.0000000000
11
63.4017977344
21
53.4573061415
31
0.0000000000
11
63.0608379345
21
52.9833996600
31
0.0000000000
11
62.7627676096
21
52.4804566182
31
0.0000000000
11
62.5127849500
21
51.9540057079
31
0.0000000000
0
SPLINE
5
37D
100
AcDbEntity
8
0
100
AcDbSpline
62
7
6
CONTINUOUS
70
0
71
3
72
17
73
13
74
11
42
0.0000001000
43
0.0000001000
44
0.0000000001
12
0.0469477753
22
0.9526042052
32
0.0000000000
13
0.9537631500
23
0.0001500199
33
0.0000000000
40
0.0000000000
40
0.0000000000
40
0.0000000000
40
0.0000000000
40
0.2059082274
40
0.3985517382
40
0.5712321553
40
0.7185674566
40
0.7816603336
40
0.8374614248
40
0.8861628093
40
0.9284512574
40
0.9656663562
40
1.0000000000
40
1.0000000000
40
1.0000000000
40
1.0000000000
10
53.1831135660
20
71.3760754009
30
0.0000000000
10
53.1863358771
20
71.4414584153
30
0.0000000000
10
53.1966381904
20
71.5678575206
30
0.0000000000
10
53.2242627291
20
71.7475377186
30
0.0000000000
10
53.2625616757
20
71.9061612187
30
0.0000000000
10
53.3038393252
20
72.0212010461
30
0.0000000000
10
53.3421449758
20
72.0967995961
30
0.0000000000
10
53.3709881865
20
72.1417391771
30
0.0000000000
10
53.4012417073
20
72.1774971984
30
0.0000000000
10
53.4327716796
20
72.2037616643
30
0.0000000000
10
53.4655337263
20
72.2200634174
30
0.0000000000
10
53.4884065114
20
72.2238603735
30
0.0000000000
10
53.4993218995
20
72.2238620904
30
0.0000000000
11
53.1831135660
21
71.3760754009
31
0.0000000000
11
53.1993757240
21
71.5717880413
31
0.0000000000
11
53.2279045896
21
71.7532954054
31
0.0000000000
11
53.2675335025
21
71.9131523149
31
0.0000000000
11
53.3166439431
21
72.0448138309
31
0.0000000000
11
53.3441389097
21
72.0983406032
31
0.0000000000
11
53.3732230871
21
72.1429115706
31
0.0000000000
11
53.4036017793
21
72.1780496724
31
0.0000000000
11
53.4349610400
21
72.2034140396
31
0.0000000000
11
53.4669801732
21
72.2187313268
31
0.0000000000
11
53.4993218995
21
72.2238620904
31
0.0000000000
0
SPLINE
5
37E
100
AcDbEntity
8
0
100
AcDbSpline
62
7
6
CONTINUOUS
70
0
71
3
72
12
73
8
74
6
42
0.0000001000
43
0.0000001000
44
0.0000000001
12
-1.5373869458
22
-0.0004393257
32
0.0000000000
13
-0.0338808810
23
-1.5370136304
33
0.0000000000
40
0.0000000000
40
0.0000000000
40
0.0000000000
40
0.0000000000
40
0.1990288230
40
0.3987959097
40
0.5992763387
40
0.7997984083
40
1.0000000000
40
1.0000000000
40
1.0000000000
40
1.0000000000
10
52.8197583551
20
72.2238491262
30
0.0000000000
10
52.7177635836
20
72.2238199800
30
0.0000000000
10
52.5119958990
20
72.1915949070
30
0.0000000000
10
52.2335538302
20
72.0510891454
30
0.0000000000
10
52.0106335474
20
71.8314373239
30
0.0000000000
10
51.8652296697
20
71.5544769609
30
0.0000000000
10
51.8288049934
20
71.3484887868
30
0.0000000000
10
51.8265439913
20
71.2459179283
30
0.0000000000
11
52.8197583551
21
72.2238491262
31
0.0000000000
11
52.5174766230
21
72.1763921695
31
0.0000000000
11
52.2432149797
21
72.0381791816
31
0.0000000000
11
52.0235990333
21
71.8219248335
31
0.0000000000
11
51.8802993895
21
71.5489746810
31
0.0000000000
11
51.8265439913
21
71.2459179283
31
0.0000000000
0
SPLINE
5
37F
100
AcDbEntity
8
0
100
AcDbSpline
62
7
6
CONTINUOUS
70
0
71
3
72
14
73
10
74
8
42
0.0000001000
43
0.0000001000
44
0.0000000001
12
-0.3568365265
22
-0.0406674594
32
0.0000000000
13
-0.2811658317
23
-0.2234534263
33
0.0000000000
40
0.0000000000
40
0.0000000000
40
0.0000000000
40
0.0000000000
40
0.4258064872
40
0.5984459260
40
0.7435551718
40
0.8605972586
40
0.9492885053
40
0.9832729918
40
1.0000000000
40
1.0000000000
40
1.0000000000
40
1.0000000000
10
52.1751410989
20
71.3171159574
30
0.0000000000
10
52.1244933296
20
71.3113438014
30
0.0000000000
10
52.0533983176
20
71.3021790060
30
0.0000000000
10
51.9657228622
20
71.2867271223
30
0.0000000000
10
51.9148405935
20
71.2756251874
30
0.0000000000
10
51.8744002079
20
71.2642277178
30
0.0000000000
10
51.8474887670
20
71.2539643459
30
0.0000000000
10
51.8328766637
20
71.2458229608
30
0.0000000000
10
51.8279236609
20
71.2422961370
30
0.0000000000
10
51.8263559732
20
71.2410502346
30
0.0000000000
11
52.1751410989
21
71.3171159574
31
0.0000000000
11
52.0235905178
21
71.2966456590
31
0.0000000000
11
51.9625598547
21
71.2857092011
31
0.0000000000
11
51.9116973897
21
71.2743501164
31
0.0000000000
11
51.8713322943
21
71.2626189916
31
0.0000000000
11
51.8418245197
21
71.2506226166
31
0.0000000000
11
51.8312305662
21
71.2445612674
31
0.0000000000
11
51.8263559732
21
71.2410502346
31
0.0000000000
0
SPLINE
5
380
100
AcDbEntity
8
0
100
AcDbSpline
62
7
6
CONTINUOUS
70
0
71
3
72
15
73
11
74
9
42
0.0000001000
43
0.0000001000
44
0.0000000001
12
0.2809280367
22
-0.2237172009
32
0.0000000000
13
0.3568223516
23
-0.0406568781
33
0.0000000000
40
0.0000000000
40
0.0000000000
40
0.0000000000
40
0.0000000000
40
0.0505714900
40
0.1393997857
40
0.2564831371
40
0.4015753370
40
0.5740663103
40
0.7210805433
40
0.8834405941
40
1.0000000000
40
1.0000000000
40
1.0000000000
40
1.0000000000
10
51.8263362350
20
63.6797375208
30
0.0000000000
10
51.8310718848
20
63.6759662834
30
0.0000000000
10
51.8456647718
20
63.6675833064
30
0.0000000000
10
51.8744035829
20
63.6566310998
30
0.0000000000
10
51.9148917794
20
63.6452464972
30
0.0000000000
10
51.9657399705
20
63.6341179413
30
0.0000000000
10
52.0205178483
20
63.6244253903
30
0.0000000000
10
52.0775664665
20
63.6158633698
30
0.0000000000
10
52.1281252362
20
63.6092357447
30
0.0000000000
10
52.1612835427
20
63.6053091637
30
0.0000000000
10
52.1751472098
20
63.6037295165
30
0.0000000000
11
51.8263362350
21
63.6797375208
31
0.0000000000
11
51.8417950429
21
63.6702037903
31
0.0000000000
11
51.8713640805
21
63.6582310624
31
0.0000000000
11
51.9117463180
21
63.6465121706
31
0.0000000000
11
51.9625959152
21
63.6351336378
31
0.0000000000
11
52.0235670317
21
63.6241819870
31
0.0000000000
11
52.0757712999
21
63.6162903136
31
0.0000000000
11
52.1335788567
21
63.6086631781
31
0.0000000000
11
52.1751472098
21
63.6037295165
31
0.0000000000
0
SPLINE
5
381
100
AcDbEntity
8
0
100
AcDbSpline
62
7
6
CONTINUOUS
70
0
71
3
72
12
73
8
74
6
42
0.0000001000
43
0.0000001000
44
0.0000000001
12
1.0034419071
22
-0.1143316680
32
0.0000000000
13
1.0096022716
23
-0.0258972855
33
0.0000000000
40
0.0000000000
40
0.0000000000
40
0.0000000000
40
0.0000000000
40
0.0900452968
40
0.4076667297
40
0.6553264453
40
0.9252933562
40
1.0000000000
40
1.0000000000
40
1.0000000000
40
1.0000000000
10
52.1751427568
20
63.6036904352
30
0.0000000000
10
52.2052611649
20
63.6002587589
30
0.0000000000
10
52.3417682356
20
63.5860353059
30
0.0000000000
10
52.5618552688
20
63.5699988413
30
0.0000000000
10
52.8426740006
20
63.5556567568
30
0.0000000000
10
53.0419642559
20
63.5485825618
30
0.0000000000
10
53.1579531696
20
63.5454054146
30
0.0000000000
10
53.1830945020
20
63.5447605149
30
0.0000000000
11
52.1751427568
21
63.6036904352
31
0.0000000000
11
52.2655842047
21
63.5941826397
31
0.0000000000
11
52.5854168761
21
63.5695895954
31
0.0000000000
11
52.8352024853
21
63.5566592921
31
0.0000000000
11
53.1076739949
21
63.5468268087
31
0.0000000000
11
53.1830945020
21
63.5447605149
31
0.0000000000
0
SPLINE
5
382
100
AcDbEntity
8
0
100
AcDbSpline
62
7
6
CONTINUOUS
70
0
71
3
72
13
73
9
74
7
42
0.0000001000
43
0.0000001000
44
0.0000000001
12
-1.0096136926
22
-0.0259037389
32
0.0000000000
13
-1.0034505113
23
-0.1143585343
33
0.0000000000
40
0.0000000000
40
0.0000000000
40
0.0000000000
40
0.0000000000
40
0.0047079419
40
0.3445004567
40
0.5924026510
40
0.6499160775
40
0.8116418228
40
1.0000000000
40
1.0000000000
40
1.0000000000
40
1.0000000000
10
53.1830934519
20
71.3760871243
30
0.0000000000
10
53.1815090510
20
71.3760464732
30
0.0000000000
10
53.0655719394
20
71.3730591766
30
0.0000000000
10
52.8662410071
20
71.3663683256
30
0.0000000000
10
52.6493008688
20
71.3553412036
30
0.0000000000
10
52.4923513885
20
71.3454136745
30
0.0000000000
10
52.3554957656
20
71.3354132101
30
0.0000000000
10
52.2381391178
20
71.3243371807
30
0.0000000000
10
52.1751364147
20
71.3171570590
30
0.0000000000
11
53.1830934519
21
71.3760871243
31
0.0000000000
11
53.1783402625
21
71.3759646556
31
0.0000000000
11
52.8353701914
21
71.3641917180
31
0.0000000000
11
52.5853370797
21
71.3512500623
31
0.0000000000
11
52.5273677627
21
71.3475788191
31
0.0000000000
11
52.3644780748
21
71.3355359625
31
0.0000000000
11
52.1751364147
21
71.3171570590
31
0.0000000000
0
SPLINE
5
383
100
AcDbEntity
8
0
100
AcDbSpline
62
7
6
CONTINUOUS
70
0
71
3
72
10
73
6
74
4
42
0.0000001000
43
0.0000001000
44
0.0000000001
12
1.6228598540
22
0.0034951765
32
0.0000000000
13
1.6228601324
23
0.0033634307
33
0.0000000000
40
0.0000000000
40
0.0000000000
40
0.0000000000
40
0.0000000000
40
0.3333444270
40
0.6666777448
40
1.0000000000
40
1.0000000000
40
1.0000000000
40
1.0000000000
10
53.1830997605
20
63.5447587758
30
0.0000000000
10
53.3634235232
20
63.5451471417
30
0.0000000000
10
53.7240650878
20
63.5459010528
30
0.0000000000
10
54.2650184186
20
63.5470443603
30
0.0000000000
10
54.6256479471
20
63.5478182375
30
0.0000000000
10
54.8059597468
20
63.5481919396
30
0.0000000000
11
53.1830997605
21
63.5447587758
31
0.0000000000
11
53.7240710928
21
63.5459031421
31
0.0000000000
11
54.2650243969
21
63.5470472943
31
0.0000000000
11
54.8059597468
21
63.5481919396
31
0.0000000000
0
SPLINE
5
384
100
AcDbEntity
8
0
100
AcDbSpline
62
7
6
CONTINUOUS
70
0
71
3
72
10
73
6
74
4
42
0.0000001000
43
0.0000001000
44
0.0000000001
12
-1.6228591570
22
0.0033620081
32
0.0000000000
13
-1.6228588781
23
0.0034940195
33
0.0000000000
40
0.0000000000
40
0.0000000000
40
0.0000000000
40
0.0000000000
40
0.3333224977
40
0.6666560578
40
1.0000000000
40
1.0000000000
40
1.0000000000
40
1.0000000000
10
54.8059598132
20
71.3726202120
30
0.0000000000
10
54.6256479906
20
71.3729937563
30
0.0000000000
10
54.2650184243
20
71.3737709275
30
0.0000000000
10
53.7240653903
20
71.3749005473
30
0.0000000000
10
53.3634242456
20
71.3756877907
30
0.0000000000
10
53.1831008535
20
71.3760760274
30
0.0000000000
11
54.8059598132
21
71.3726202120
31
0.0000000000
11
54.2650243958
21
71.3737648890
31
0.0000000000
11
53.7240710248
21
71.3749090731
31
0.0000000000
11
53.1831008535
21
71.3760760274
31
0.0000000000
0
SPLINE
5
385
100
AcDbEntity
8
0
100
AcDbSpline
62
7
6
CONTINUOUS
70
0
71
3
72
11
73
7
74
5
42
0.0000001000
43
0.0000001000
44
0.0000000001
12
0.3163599812
22
0.0014319597
32
0.0000000000
13
0.3163079324
23
-0.0059143987
33
0.0000000000
40
0.0000000000
40
0.0000000000
40
0.0000000000
40
0.0000000000
40
0.2713089123
40
0.5300576657
40
0.7738348084
40
1.0000000000
40
1.0000000000
40
1.0000000000
40
1.0000000000
10
54.8059480304
20
71.3726257545
30
0.0000000000
10
54.8345584578
20
71.3727552556
30
0.0000000000
10
54.8903473999
20
71.3771866505
30
0.0000000000
10
54.9719416983
20
71.3788526167
30
0.0000000000
10
55.0487632145
20
71.3803533386
30
0.0000000000
10
55.0983298484
20
71.3811186379
30
0.0000000000
10
55.1221757964
20
71.3806727609
30
0.0000000000
11
54.8059480304
21
71.3726257545
31
0.0000000000
11
54.8916958604
21
71.3764296493
31
0.0000000000
11
54.9735179942
21
71.3788724058
31
0.0000000000
11
55.0506262444
21
71.3803351097
31
0.0000000000
11
55.1221757964
21
71.3806727609
31
0.0000000000
0
SPLINE
5
386
100
AcDbEntity
8
0
100
AcDbSpline
62
7
6
CONTINUOUS
70
0
71
3
72
15
73
11
74
9
42
0.0000001000
43
0.0000001000
44
0.0000000001
12
-1.8008927833
22
0.3132389921
32
0.0000000000
13
-1.8275891059
23
0.0004720109
33
0.0000000000
40
0.0000000000
40
0.0000000000
40
0.0000000000
40
0.0000000000
40
0.0402417625
40
0.0869485275
40
0.1981895524
40
0.3303459582
40
0.4814609334
40
0.6458426668
40
0.7762088362
40
1.0000000000
40
1.0000000000
40
1.0000000000
40
1.0000000000
10
58.9905701291
20
71.2898324224
30
0.0000000000
10
58.9664130958
20
71.2940341855
30
0.0000000000
10
58.9140755172
20
71.3022021269
30
0.0000000000
10
58.7942899370
20
71.3174369187
30
0.0000000000
10
58.6183156189
20
71.3341411687
30
0.0000000000
10
58.3785260935
20
71.3505515512
30
0.0000000000
10
58.1061237926
20
71.3637484169
30
0.0000000000
10
57.8346411006
20
71.3725589721
30
0.0000000000
10
57.5188137048
20
71.3790478996
30
0.0000000000
10
57.3030599005
20
71.3806375503
30
0.0000000000
10
57.1667271362
20
71.3806727609
30
0.0000000000
11
58.9905701291
21
71.2898324224
31
0.0000000000
11
58.9179211982
21
71.3012768764
31
0.0000000000
11
58.8332641222
21
71.3122097610
31
0.0000000000
11
58.6309405362
21
71.3321242378
31
0.0000000000
11
58.3900062101
21
71.3490158864
31
0.0000000000
11
58.1141692141
21
71.3626538162
31
0.0000000000
11
57.8139128805
21
71.3725667823
31
0.0000000000
11
57.5757098909
21
71.3774936720
31
0.0000000000
11
57.1667271362
21
71.3806727609
31
0.0000000000
0
SPLINE
5
387
100
AcDbEntity
8
0
100
AcDbSpline
62
7
6
CONTINUOUS
70
0
71
3
72
10
73
6
74
4
42
0.0000001000
43
0.0000001000
44
0.0000000001
12
0.3053474617
22
-0.1005159580
32
0.0000000000
13
0.3214662194
23
0.0000026246
33
0.0000000000
40
0.0000000000
40
0.0000000000
40
0.0000000000
40
0.0000000000
40
0.3331805420
40
0.6665439651
40
1.0000000000
40
1.0000000000
40
1.0000000000
40
1.0000000000
10
54.8059480291
20
42.8203713136
30
0.0000000000
10
54.8398599733
20
42.8092079932
30
0.0000000000
10
54.9089465707
20
42.7904625683
30
0.0000000000
10
55.0149309198
20
42.7734795519
30
0.0000000000
10
55.0864441791
20
42.7696891747
30
0.0000000000
10
55.1221757960
20
42.7696894665
30
0.0000000000
11
54.8059480291
21
42.8203713136
31
0.0000000000
11
54.9093165595
21
42.7923230674
31
0.0000000000
11
55.0151312543
21
42.7753641587
31
0.0000000000
11
55.1221757960
21
42.7696894665
31
0.0000000000
0
SPLINE
5
388
100
AcDbEntity
8
0
100
AcDbSpline
62
7
6
CONTINUOUS
70
0
71
3
72
10
73
6
74
4
42
0.0000001000
43
0.0000001000
44
0.0000000001
12
-1.6228862808
22
0.5483419458
32
0.0000000000
13
-1.6228270453
23
0.5485172294
33
0.0000000000
40
0.0000000000
40
0.0000000000
40
0.0000000000
40
0.0000000000
40
0.3333220201
40
0.6666553548
40
1.0000000000
40
1.0000000000
40
1.0000000000
40
1.0000000000
10
54.8059597469
20
42.8204060199
30
0.0000000000
10
54.6256451690
20
42.8813308349
30
0.0000000000
10
54.2650191739
20
43.0032100003
30
0.0000000000
10
53.7240656163
20
43.1860159094
30
0.0000000000
10
53.3634212234
20
43.3078809869
30
0.0000000000
10
53.1831009882
20
43.3688294139
30
0.0000000000
11
54.8059597469
21
42.8204060199
31
0.0000000000
11
54.2650243969
21
43.0032052750
31
0.0000000000
11
53.7240710928
21
43.1860119427
31
0.0000000000
11
53.1831009882
21
43.3688294139
31
0.0000000000
0
SPLINE
5
389
100
AcDbEntity
8
0
100
AcDbSpline
62
7
6
CONTINUOUS
70
0
71
3
72
15
73
11
74
9
42
0.0000001000
43
0.0000001000
44
0.0000000001
12
1.8275678523
22
0.0003799166
32
0.0000000000
13
1.8008933103
23
0.3132403869
33
0.0000000000
40
0.0000000000
40
0.0000000000
40
0.0000000000
40
0.0000000000
40
0.1793728843
40
0.3541497994
40
0.5185285662
40
0.6696487952
40
0.8018065990
40
0.9130498255
40
0.9597577601
40
1.0000000000
40
1.0000000000
40
1.0000000000
40
1.0000000000
10
57.1667271362
20
63.5401394219
30
0.0000000000
10
57.2759991751
20
63.5401621374
30
0.0000000000
10
57.4917475287
20
63.5414451103
30
0.0000000000
10
57.8075840216
20
63.5473738870
30
0.0000000000
10
58.1061092021
20
63.5570628090
30
0.0000000000
10
58.3785140348
20
63.5702584302
30
0.0000000000
10
58.6183089568
20
63.5866702719
30
0.0000000000
10
58.7942862804
20
63.6033744750
30
0.0000000000
10
58.9140742201
20
63.6186097477
30
0.0000000000
10
58.9664128022
20
63.6267779287
30
0.0000000000
10
58.9905701291
20
63.6309797603
30
0.0000000000
11
57.1667271362
21
63.5401394219
31
0.0000000000
11
57.4945383662
21
63.5421714070
31
0.0000000000
11
57.8138987040
21
63.5482428917
31
0.0000000000
11
58.1141497175
21
63.5581568438
31
0.0000000000
11
58.3899964583
21
63.5717946629
31
0.0000000000
11
58.6309334109
21
63.5886869566
31
0.0000000000
11
58.8332610964
21
63.6086018082
31
0.0000000000
11
58.9179203180
21
63.6195350719
31
0.0000000000
11
58.9905701291
21
63.6309797603
31
0.0000000000
0
SPLINE
5
38A
100
AcDbEntity
8
0
100
AcDbSpline
62
7
6
CONTINUOUS
70
0
71
3
72
11
73
7
74
5
42
0.0000001000
43
0.0000001000
44
0.0000000001
12
-0.3163077756
22
-0.0059227488
32
0.0000000000
13
-0.3163599917
23
0.0014295265
33
0.0000000000
40
0.0000000000
40
0.0000000000
40
0.0000000000
40
0.0000000000
40
0.2261831993
40
0.4699659499
40
0.7287085646
40
1.0000000000
40
1.0000000000
40
1.0000000000
40
1.0000000000
10
55.1221757961
20
63.5401394218
30
0.0000000000
10
55.0983279613
20
63.5396928797
30
0.0000000000
10
55.0487588186
20
63.5404591671
30
0.0000000000
10
54.9719354691
20
63.5419596347
30
0.0000000000
10
54.8903430721
20
63.5436257264
30
0.0000000000
10
54.8345566159
20
63.5480571555
30
0.0000000000
10
54.8059480304
20
63.5481864283
30
0.0000000000
11
55.1221757961
21
63.5401394218
31
0.0000000000
11
55.0506205474
21
63.5404771224
31
0.0000000000
11
54.9735105253
21
63.5419399485
31
0.0000000000
11
54.8916903366
21
63.5443827755
31
0.0000000000
11
54.8059480304
21
63.5481864283
31
0.0000000000
0
SPLINE
5
38B
100
AcDbEntity
8
0
100
AcDbSpline
62
7
6
CONTINUOUS
70
0
71
3
72
18
73
14
74
12
42
0.0000001000
43
0.0000001000
44
0.0000000001
12
0.0459778848
22
-0.9556167823
32
0.0000000000
13
0.9567222092
23
-0.0001224600
33
0.0000000000
40
0.0000000000
40
0.0000000000
40
0.0000000000
40
0.0000000000
40
0.0982766948
40
0.1906185448
40
0.2836971379
40
0.3831762798
40
0.4911349913
40
0.6026546704
40
0.7099913045
40
0.8047826234
40
0.8834324557
40
0.9468023865
40
1.0000000000
40
1.0000000000
40
1.0000000000
40
1.0000000000
10
54.8059597468
20
63.5481919396
30
0.0000000000
10
54.8074659316
20
63.5168869866
30
0.0000000000
10
54.8113262595
20
63.4562079009
30
0.0000000000
10
54.8199178195
20
63.3661293939
30
0.0000000000
10
54.8315281641
20
63.2759993195
30
0.0000000000
10
54.8473732764
20
63.1814535239
30
0.0000000000
10
54.8689102438
20
63.0819924693
30
0.0000000000
10
54.8972180494
20
62.9815949770
30
0.0000000000
10
54.9322836710
20
62.8877564485
30
0.0000000000
10
54.9731479762
20
62.8077614738
30
0.0000000000
10
55.0184952026
20
62.7467745282
30
0.0000000000
10
55.0677989689
20
62.7070354351
30
0.0000000000
10
55.1052106832
20
62.6969692258
30
0.0000000000
10
55.1221757960
20
62.6969670543
30
0.0000000000
11
54.8059597468
21
63.5481919396
31
0.0000000000
11
54.8119547880
21
63.4543597621
31
0.0000000000
11
54.8203769111
21
63.3664166264
31
0.0000000000
11
54.8318060586
21
63.2781027495
31
0.0000000000
11
54.8476320776
21
63.1842538852
31
0.0000000000
11
54.8696837675
21
63.0833488625
31
0.0000000000
11
54.8990113667
21
62.9807654143
31
0.0000000000
11
54.9356094009
21
62.8848170129
31
0.0000000000
11
54.9778777923
21
62.8045806702
31
0.0000000000
11
55.0240810016
21
62.7451901804
31
0.0000000000
11
55.0727239754
21
62.7090025411
31
0.0000000000
11
55.1221757960
21
62.6969670543
31
0.0000000000
0
SPLINE
5
38C
100
AcDbEntity
8
0
100
AcDbSpline
62
7
6
CONTINUOUS
70
0
71
3
72
13
73
9
74
7
42
0.0000001000
43
0.0000001000
44
0.0000000001
12
0.1046182435
22
1.0045650801
32
0.0000000000
13
0.5780948449
23
0.8281908200
33
0.0000000000
40
0.0000000000
40
0.0000000000
40
0.0000000000
40
0.0000000000
40
0.0418494434
40
0.1153520576
40
0.4103448753
40
0.5580688691
40
0.8520291550
40
1.0000000000
40
1.0000000000
40
1.0000000000
40
1.0000000000
10
51.8263516526
20
89.8611747489
30
0.0000000000
10
51.8278110577
20
89.8751882454
30
0.0000000000
10
51.8322426838
20
89.9137742190
30
0.0000000000
10
51.8519961318
20
90.0505107041
30
0.0000000000
10
51.8928999162
20
90.2202755984
30
0.0000000000
10
51.9776935785
20
90.4534620386
30
0.0000000000
10
52.0659793764
20
90.6322623611
30
0.0000000000
10
52.1466744006
20
90.7574050126
30
0.0000000000
10
52.1751881281
20
90.7982543777
30
0.0000000000
11
51.8263516526
21
89.8611747489
31
0.0000000000
11
51.8311742072
21
89.9031665614
31
0.0000000000
11
51.8417898389
21
89.9766410567
31
0.0000000000
11
51.9116188731
21
90.2662843476
31
0.0000000000
11
51.9625719135
21
90.4065150787
31
0.0000000000
11
52.0942651507
21
90.6726088388
31
0.0000000000
11
52.1751881281
21
90.7982543777
31
0.0000000000
0
SPLINE
5
38D
100
AcDbEntity
8
0
100
AcDbSpline
62
7
6
CONTINUOUS
70
0
71
3
72
17
73
13
74
11
42
0.0000001000
43
0.0000001000
44
0.0000000001
12
0.0469203677
22
-0.9526229669
32
0.0000000000
13
0.9537808052
23
-0.0001668681
33
0.0000000000
40
0.0000000000
40
0.0000000000
40
0.0000000000
40
0.0000000000
40
0.2059251574
40
0.3985660048
40
0.5712439841
40
0.7185764337
40
0.7816682058
40
0.8374682282
40
0.8861681560
40
0.9284549332
40
0.9656685225
40
1.0000000000
40
1.0000000000
40
1.0000000000
40
1.0000000000
10
53.1831354511
20
63.5447605337
30
0.0000000000
10
53.1863561458
20
63.4793708556
30
0.0000000000
10
53.1966587077
20
63.3529648315
30
0.0000000000
10
53.2242826648
20
63.1732773702
30
0.0000000000
10
53.2625812190
20
63.0146533659
30
0.0000000000
10
53.3038562696
20
62.8996124137
30
0.0000000000
10
53.3421610160
20
62.8240134295
30
0.0000000000
10
53.3710036038
20
62.7790736782
30
0.0000000000
10
53.4012560241
20
62.7433153819
30
0.0000000000
10
53.4327848978
20
62.7170506989
30
0.0000000000
10
53.4655458841
20
62.7007491181
30
0.0000000000
10
53.4884178431
20
62.6969520022
30
0.0000000000
10
53.4993327445
20
62.6969500926
30
0.0000000000
11
53.1831354511
21
63.5447605337
31
0.0000000000
11
53.1993968691
21
63.3490280319
31
0.0000000000
11
53.2279246825
21
63.1675196659
31
0.0000000000
11
53.2675525495
21
63.0076617834
31
0.0000000000
11
53.3166606493
21
62.8759995491
31
0.0000000000
11
53.3441549471
21
62.8224723783
31
0.0000000000
11
53.3732385088
21
62.7779010619
31
0.0000000000
11
53.4036161539
21
62.7427627664
31
0.0000000000
11
53.4349742706
21
62.7173983439
31
0.0000000000
11
53.4669925268
21
62.7020810526
31
0.0000000000
11
53.4993327445
21
62.6969500926
31
0.0000000000
0
SPLINE
5
38E
100
AcDbEntity
8
0
100
AcDbSpline
62
7
6
CONTINUOUS
70
0
71
3
72
12
73
8
74
6
42
0.0000001000
43
0.0000001000
44
0.0000000001
12
0.0350999363
22
-1.5364516883
32
0.0000000000
13
1.5368524988
23
-0.0004392193
33
0.0000000000
40
0.0000000000
40
0.0000000000
40
0.0000000000
40
0.0000000000
40
0.1998916582
40
0.4004543666
40
0.6009921673
40
0.8008458484
40
1.0000000000
40
1.0000000000
40
1.0000000000
40
1.0000000000
10
51.8265035433
20
63.6743441411
30
0.0000000000
10
51.8288422715
20
63.5719695159
30
0.0000000000
10
51.8653142229
20
63.3662286883
30
0.0000000000
10
52.0105808280
20
63.0894456029
30
0.0000000000
10
52.2334727158
20
62.8697818831
30
0.0000000000
10
52.5119282183
20
62.7292325230
30
0.0000000000
10
52.7177348366
20
62.6969922070
30
0.0000000000
10
52.8197583551
20
62.6969630495
30
0.0000000000
11
51.8265035433
21
63.6743441411
31
0.0000000000
11
51.8802832063
21
63.3718841443
31
0.0000000000
11
52.0235425323
21
63.0989633257
31
0.0000000000
11
52.2431223933
21
62.8826993768
31
0.0000000000
11
52.5173935219
21
62.7444467339
31
0.0000000000
11
52.8197583551
21
62.6969630495
31
0.0000000000
0
SPLINE
5
38F
100
AcDbEntity
8
0
100
AcDbSpline
62
7
6
CONTINUOUS
70
0
71
3
72
13
73
9
74
7
42
0.0000001000
43
0.0000001000
44
0.0000000001
12
0.7322963276
22
1.0490985521
32
0.0000000000
13
1.2136860455
23
0.4047615316
33
0.0000000000
40
0.0000000000
40
0.0000000000
40
0.0000000000
40
0.0000000000
40
0.2342054338
40
0.4675110206
40
0.7021679291
40
0.7905326536
40
0.9374578694
40
1.0000000000
40
1.0000000000
40
1.0000000000
40
1.0000000000
10
52.1751906809
20
90.7982525956
30
0.0000000000
10
52.2323599406
20
90.8801541227
30
0.0000000000
10
52.3587042094
20
91.0355350856
30
0.0000000000
10
52.5811799023
20
91.2375156067
30
0.0000000000
10
52.7794343675
20
91.3696747460
30
0.0000000000
10
52.9568720461
20
91.4629848421
30
0.0000000000
10
53.0736260950
20
91.5135760352
30
0.0000000000
10
53.1577980987
20
91.5435462950
30
0.0000000000
10
53.1831002691
20
91.5519845112
30
0.0000000000
11
52.1751906809
21
90.7982525956
31
0.0000000000
11
52.3644139901
21
91.0305889881
31
0.0000000000
11
52.5853487752
21
91.2312999038
31
0.0000000000
11
52.8351824824
21
91.3977789443
31
0.0000000000
11
52.9352406968
21
91.4504052917
31
0.0000000000
11
53.1077179249
21
91.5251492353
31
0.0000000000
11
53.1831002691
21
91.5519845112
31
0.0000000000
0
SPLINE
5
390
100
AcDbEntity
8
0
100
AcDbSpline
62
7
6
CONTINUOUS
70
0
71
3
72
12
73
8
74
6
42
0.0000001000
43
0.0000001000
44
0.0000000001
12
0.9992799088
22
-0.0294487232
32
0.0000000000
13
0.9936066034
23
-0.1103334995
33
0.0000000000
40
0.0000000000
40
0.0000000000
40
0.0000000000
40
0.0000000000
40
0.0541327658
40
0.1984228532
40
0.4195314525
40
0.6956544509
40
1.0000000000
40
1.0000000000
40
1.0000000000
40
1.0000000000
10
51.8265035465
20
89.8603401355
30
0.0000000000
10
51.8445348083
20
89.8598087552
30
0.0000000000
10
51.9100525629
20
89.8494850983
30
0.0000000000
10
52.0490529186
20
89.8356157065
30
0.0000000000
10
52.2613421057
20
89.8098305048
30
0.0000000000
10
52.5267495859
20
89.7798876480
30
0.0000000000
10
52.7189584393
20
89.7580917653
30
0.0000000000
10
52.8197583551
20
89.7468985955
30
0.0000000000
11
51.8265035465
21
89.8603401355
31
0.0000000000
11
51.8802999759
21
89.8544559982
31
0.0000000000
11
52.0235779556
21
89.8377487559
31
0.0000000000
11
52.2431558447
21
89.8123208691
31
0.0000000000
11
52.5174076035
21
89.7809164378
31
0.0000000000
11
52.8197583551
21
89.7468985955
31
0.0000000000
0
SPLINE
5
391
100
AcDbEntity
8
0
100
AcDbSpline
62
7
6
CONTINUOUS
70
0
71
3
72
10
73
6
74
4
42
0.0000001000
43
0.0000001000
44
0.0000000001
12
-0.3214662204
22
0.0000026247
32
0.0000000000
13
-0.3053474626
23
-0.1005159586
33
0.0000000000
40
0.0000000000
40
0.0000000000
40
0.0000000000
40
0.0000000000
40
0.3334560347
40
0.6668194567
40
1.0000000000
40
1.0000000000
40
1.0000000000
40
1.0000000000
10
55.1221757963
20
92.1511227163
30
0.0000000000
10
55.0864441793
20
92.1511230080
30
0.0000000000
10
55.0149309199
20
92.1473326309
30
0.0000000000
10
54.9089465705
20
92.1303496144
30
0.0000000000
10
54.8398599729
20
92.1116041895
30
0.0000000000
10
54.8059480284
20
92.1004408689
30
0.0000000000
11
55.1221757963
21
92.1511227163
31
0.0000000000
11
55.0151312543
21
92.1454480240
31
0.0000000000
11
54.9093165595
21
92.1284891153
31
0.0000000000
11
54.8059480284
21
92.1004408689
31
0.0000000000
0
SPLINE
5
392
100
AcDbEntity
8
0
100
AcDbSpline
62
7
6
CONTINUOUS
70
0
71
3
72
15
73
11
74
9
42
0.0000001000
43
0.0000001000
44
0.0000000001
12
-0.0872135656
22
-1.4338306007
32
0.0000000000
13
-1.4401161754
23
0.0016964929
33
0.0000000000
40
0.0000000000
40
0.0000000000
40
0.0000000000
40
0.0000000000
40
0.1119828870
40
0.2233110471
40
0.3335961093
40
0.4425218861
40
0.5852520362
40
0.7253171391
40
0.8632432084
40
1.0000000000
40
1.0000000000
40
1.0000000000
40
1.0000000000
10
58.9905700085
20
63.6309777650
30
0.0000000000
10
58.9873145329
20
63.5774562683
30
0.0000000000
10
58.9729675435
20
63.4711564425
30
0.0000000000
10
58.9283971600
20
63.3172625875
30
0.0000000000
10
58.8617399824
20
63.1731412041
30
0.0000000000
10
58.7655322661
20
63.0283235429
30
0.0000000000
10
58.6336518128
20
62.8930246685
30
0.0000000000
10
58.4640011998
20
62.7815501805
30
0.0000000000
10
58.2759089137
20
62.7127935810
30
0.0000000000
10
58.1442963330
20
62.6968727557
30
0.0000000000
10
58.0786477771
20
62.6969500914
30
0.0000000000
11
58.9905700085
21
63.6309777650
31
0.0000000000
11
58.9690305737
21
63.4716702114
31
0.0000000000
11
58.9244516771
21
63.3181962390
31
0.0000000000
11
58.8579066248
21
63.1745407150
31
0.0000000000
11
58.7711770420
21
63.0444289373
31
0.0000000000
11
58.6279591605
21
62.8978985606
31
0.0000000000
11
58.4595908698
21
62.7879827772
31
0.0000000000
11
58.2736033167
21
62.7200668803
31
0.0000000000
11
58.0786477771
21
62.6969500914
31
0.0000000000
0
SPLINE
5
393
100
AcDbEntity
8
0
100
AcDbSpline
62
7
6
CONTINUOUS
70
0
71
3
72
15
73
11
74
9
42
0.0000001000
43
0.0000001000
44
0.0000000001
12
-0.1201873662
22
-1.4062922140
32
0.0000000000
13
-1.4147784067
23
0.0015584041
33
0.0000000000
40
0.0000000000
40
0.0000000000
40
0.0000000000
40
0.0000000000
40
0.1118891917
40
0.2230883130
40
0.3332410432
40
0.4420633879
40
0.5847445419
40
0.7248819947
40
0.8629927677
40
1.0000000000
40
1.0000000000
40
1.0000000000
40
1.0000000000
10
62.0132850283
20
63.6044331809
30
0.0000000000
10
62.0088024725
20
63.5519835479
30
0.0000000000
10
61.9922809659
20
63.4480086783
30
0.0000000000
10
61.9453200172
20
63.2979415581
30
0.0000000000
10
61.8771853032
20
63.1577909811
30
0.0000000000
10
61.7803038921
20
63.0172712507
30
0.0000000000
10
61.6488694232
20
62.8862751783
30
0.0000000000
10
61.4809351954
20
62.7785729009
30
0.0000000000
10
61.2954995813
20
62.7122184264
30
0.0000000000
10
61.1659748921
20
62.6968789205
30
0.0000000000
10
61.1013632675
20
62.6969500914
30
0.0000000000
11
62.0132850283
21
63.6044331809
31
0.0000000000
11
61.9884776260
21
63.4485705958
31
0.0000000000
11
61.9415170324
21
63.2989144615
31
0.0000000000
11
61.8735017317
21
63.1592171618
31
0.0000000000
11
61.7861855622
21
63.0329726298
31
0.0000000000
11
61.6434548805
21
62.8910830427
31
0.0000000000
11
61.4767672529
21
62.7848352859
31
0.0000000000
11
61.2933262442
21
62.7192551419
31
0.0000000000
11
61.1013632675
21
62.6969500914
31
0.0000000000
0
SPLINE
5
394
100
AcDbEntity
8
0
100
AcDbSpline
62
7
6
CONTINUOUS
70
0
71
3
72
14
73
10
74
8
42
0.0000001000
43
0.0000001000
44
0.0000000001
12
-0.1745848188
22
-1.3827717549
32
0.0000000000
13
-1.3883381346
23
-0.0538204480
33
0.0000000000
40
0.0000000000
40
0.0000000000
40
0.0000000000
40
0.0000000000
40
0.2208403871
40
0.3309064070
40
0.4400548863
40
0.5835932626
40
0.7246660193
40
0.8633097284
40
1.0000000000
40
1.0000000000
40
1.0000000000
40
1.0000000000
10
62.5127849523
20
63.5429681936
30
0.0000000000
10
62.4999331593
20
63.4411775770
30
0.0000000000
10
62.4589287975
20
63.2920142751
30
0.0000000000
10
62.3649640024
20
63.1111672586
30
0.0000000000
10
62.2670313340
20
62.9746005778
30
0.0000000000
10
62.1364929005
20
62.8463128768
30
0.0000000000
10
61.9716136626
20
62.7389082175
30
0.0000000000
10
61.7906794260
20
62.6696120285
30
0.0000000000
10
61.6641208842
20
62.6502118053
30
0.0000000000
10
61.6008634453
20
62.6477595615
30
0.0000000000
11
62.5127849523
21
63.5429681936
31
0.0000000000
11
62.4319943817
21
63.2479472693
31
0.0000000000
11
62.3616489589
21
63.1126963052
31
0.0000000000
11
62.2734138375
21
62.9899364239
31
0.0000000000
11
62.1314744650
21
62.8507248499
31
0.0000000000
11
61.9674683931
21
62.7445062684
31
0.0000000000
11
61.7880754172
21
62.6759858478
31
0.0000000000
11
61.6008634453
21
62.6477595615
31
0.0000000000
0
SPLINE
5
395
100
AcDbEntity
8
0
100
AcDbSpline
62
7
6
CONTINUOUS
70
0
71
3
72
10
73
6
74
4
42
0.0000001000
43
0.0000001000
44
0.0000000001
12
1.6228271866
22
0.5485171917
32
0.0000000000
13
1.6228863965
23
0.5483419837
33
0.0000000000
40
0.0000000000
40
0.0000000000
40
0.0000000000
40
0.0000000000
40
0.3333446927
40
0.6666780037
40
1.0000000000
40
1.0000000000
40
1.0000000000
40
1.0000000000
10
53.1830998139
20
91.5519858627
30
0.0000000000
10
53.3634200905
20
91.6129342943
30
0.0000000000
10
53.7240661491
20
91.7347945697
30
0.0000000000
10
54.2650190797
20
91.9176024611
30
0.0000000000
10
54.6256452228
20
92.0394811885
30
0.0000000000
10
54.8059598006
20
92.1004060034
30
0.0000000000
11
53.1830998139
21
91.5519858627
31
0.0000000000
11
53.7240711464
21
91.7348000814
31
0.0000000000
11
54.2650244506
21
91.9176067487
31
0.0000000000
11
54.8059598006
21
92.1004060034
31
0.0000000000
0
SPLINE
5
396
100
AcDbEntity
8
0
100
AcDbSpline
62
7
6
CONTINUOUS
70
0
71
3
72
11
73
7
74
5
42
0.0000001000
43
0.0000001000
44
0.0000000001
12
-0.5356086961
22
-0.5372843478
32
0.0000000000
13
-0.7437491358
23
-0.1498208299
33
0.0000000000
40
0.0000000000
40
0.0000000000
40
0.0000000000
40
0.0000000000
40
0.2483059840
40
0.5003134678
40
0.7521600331
40
1.0000000000
40
1.0000000000
40
1.0000000000
40
1.0000000000
10
66.9598981369
20
60.7054049160
30
0.0000000000
10
66.9155665221
20
60.6609346098
30
0.0000000000
10
66.8195553103
20
60.5781421646
30
0.0000000000
10
66.6585928682
20
60.4760011878
30
0.0000000000
10
66.4847146383
20
60.3981266854
30
0.0000000000
10
66.3628377514
20
60.3637987760
30
0.0000000000
10
66.3013941643
20
60.3514215795
30
0.0000000000
11
66.9598981369
21
60.7054049160
31
0.0000000000
11
66.8175423828
21
60.5824128189
31
0.0000000000
11
66.6563759912
21
60.4800377244
31
0.0000000000
11
66.4821895728
21
60.4021415402
31
0.0000000000
11
66.3013941643
21
60.3514215795
31
0.0000000000
0
SPLINE
5
397
100
AcDbEntity
8
0
100
AcDbSpline
62
7
6
CONTINUOUS
70
0
71
3
72
14
73
10
74
8
42
0.0000001000
43
0.0000001000
44
0.0000000001
12
-0.3136853353
22
-0.9697986222
32
0.0000000000
13
-0.9908108984
23
-0.2574871085
33
0.0000000000
40
0.0000000000
40
0.0000000000
40
0.0000000000
40
0.0000000000
40
0.1582851912
40
0.3139180537
40
0.4649837967
40
0.6098854498
40
0.7475420637
40
0.8774583726
40
1.0000000000
40
1.0000000000
40
1.0000000000
40
1.0000000000
10
63.7798694319
20
62.9857287152
30
0.0000000000
10
63.7633188508
20
62.9345604617
30
0.0000000000
10
63.7248841037
20
62.8348013577
30
0.0000000000
10
63.6513418507
20
62.6945998951
30
0.0000000000
10
63.5640336091
20
62.5679548678
30
0.0000000000
10
63.4650705245
20
62.4582225829
30
0.0000000000
10
63.3571226233
20
62.3680833996
30
0.0000000000
10
63.2425351085
20
62.3000882950
30
0.0000000000
10
63.1618367342
20
62.2700619320
30
0.0000000000
10
63.1213648743
20
62.2595443023
30
0.0000000000
11
63.7798694319
21
62.9857287152
31
0.0000000000
11
63.7217080833
21
62.8352568565
31
0.0000000000
11
63.6478419598
21
62.6948878483
31
0.0000000000
11
63.5601514835
21
62.5683372055
31
0.0000000000
11
63.4609288353
21
62.4589547321
31
0.0000000000
11
63.3528292978
21
62.3695247594
31
0.0000000000
11
63.2386358656
21
62.3025039953
31
0.0000000000
11
63.1213648743
21
62.2595443023
31
0.0000000000
0
SPLINE
5
398
100
AcDbEntity
8
0
100
AcDbSpline
62
7
6
CONTINUOUS
70
0
71
3
72
13
73
9
74
7
42
0.0000001000
43
0.0000001000
44
0.0000000001
12
-1.8039003066
22
-3.6093489171
32
0.0000000000
13
-3.8178598154
23
-1.2236833485
33
0.0000000000
40
0.0000000000
40
0.0000000000
40
0.0000000000
40
0.0000000000
40
0.1488114696
40
0.2976278639
40
0.4704443362
40
0.6452128107
40
0.8220164235
40
1.0000000000
40
1.0000000000
40
1.0000000000
40
1.0000000000
10
66.9603474685
20
74.2151824117
30
0.0000000000
10
66.8708671166
20
74.0361449061
30
0.0000000000
10
66.6543635541
20
73.7005849944
30
0.0000000000
10
66.2231243881
20
73.2386184097
30
0.0000000000
10
65.7003932340
20
72.8260481785
30
0.0000000000
10
65.0963493700
20
72.4670821409
30
0.0000000000
10
64.4532348752
20
72.1688697901
30
0.0000000000
10
64.0064452297
20
72.0074625781
30
0.0000000000
10
63.7799397814
20
71.9348640652
30
0.0000000000
11
66.9603474685
21
74.2151824117
31
0.0000000000
11
66.6402873410
21
73.7114140685
31
0.0000000000
11
66.2357339652
21
73.2725733794
31
0.0000000000
11
65.6939544346
21
72.8402651407
31
0.0000000000
11
65.0932602364
21
72.4790227640
31
0.0000000000
11
64.4507139845
21
72.1790671829
31
0.0000000000
11
63.7799397814
21
71.9348640652
31
0.0000000000
0
SPLINE
5
399
100
AcDbEntity
8
0
100
AcDbSpline
62
7
6
CONTINUOUS
70
0
71
3
72
14
73
10
74
8
42
0.0000001000
43
0.0000001000
44
0.0000000001
12
3.8186000386
22
-1.2238413269
32
0.0000000000
13
1.7929020728
23
-3.5919361323
33
0.0000000000
40
0.0000000000
40
0.0000000000
40
0.0000000000
40
0.0000000000
40
0.1779487190
40
0.3547080617
40
0.5294078186
40
0.7021955145
40
0.8170690279
40
0.9316976784
40
1.0000000000
40
1.0000000000
40
1.0000000000
40
1.0000000000
10
63.7799486742
20
62.9859758786
30
0.0000000000
10
64.0064536693
20
62.9133822132
30
0.0000000000
10
64.4532255355
20
62.7519265269
30
0.0000000000
10
65.0963057927
20
62.4537273993
30
0.0000000000
10
65.7003952410
20
62.0950947887
30
0.0000000000
10
66.1875994588
20
61.7104920215
30
0.0000000000
10
66.5615483535
20
61.3221965678
30
0.0000000000
10
66.7989735621
20
61.0006029085
30
0.0000000000
10
66.9192443958
20
60.7872672777
30
0.0000000000
10
66.9600641871
20
60.7054880854
30
0.0000000000
11
63.7799486742
21
62.9859758786
31
0.0000000000
11
64.4507213477
21
62.7417356485
31
0.0000000000
11
65.0932589321
21
62.4418265171
31
0.0000000000
11
65.6939411896
21
62.0808113483
31
0.0000000000
11
66.2357370927
21
61.6484734956
31
0.0000000000
11
66.5541690373
21
61.3153669962
31
0.0000000000
11
66.8258666253
21
60.9443752093
31
0.0000000000
11
66.9600641871
21
60.7054880854
31
0.0000000000
0
SPLINE
5
39A
100
AcDbEntity
8
0
100
AcDbSpline
62
7
6
CONTINUOUS
70
0
71
3
72
14
73
10
74
8
42
0.0000001000
43
0.0000001000
44
0.0000000001
12
0.9908108984
22
-0.2574871085
32
0.0000000000
13
0.3136853353
23
-0.9697986222
33
0.0000000000
40
0.0000000000
40
0.0000000000
40
0.0000000000
40
0.0000000000
40
0.1225416274
40
0.2524579363
40
0.3901145502
40
0.5350162033
40
0.6860819463
40
0.8417148088
40
1.0000000000
40
1.0000000000
40
1.0000000000
40
1.0000000000
10
63.1213648743
20
72.6612678805
30
0.0000000000
10
63.1618367342
20
72.6507502507
30
0.0000000000
10
63.2425351085
20
72.6207238878
30
0.0000000000
10
63.3571226233
20
72.5527287831
30
0.0000000000
10
63.4650705245
20
72.4625895998
30
0.0000000000
10
63.5640336091
20
72.3528573150
30
0.0000000000
10
63.6513418507
20
72.2262122877
30
0.0000000000
10
63.7248841037
20
72.0860108251
30
0.0000000000
10
63.7633188508
20
71.9862517210
30
0.0000000000
10
63.7798694319
20
71.9350834676
30
0.0000000000
11
63.1213648743
21
72.6612678805
31
0.0000000000
11
63.2386358656
21
72.6183081875
31
0.0000000000
11
63.3528292978
21
72.5512874233
31
0.0000000000
11
63.4609288353
21
72.4618574506
31
0.0000000000
11
63.5601514835
21
72.3524749772
31
0.0000000000
11
63.6478419598
21
72.2259243344
31
0.0000000000
11
63.7217080833
21
72.0855553263
31
0.0000000000
11
63.7798694319
21
71.9350834676
31
0.0000000000
0
SPLINE
5
39B
100
AcDbEntity
8
0
100
AcDbSpline
62
7
6
CONTINUOUS
70
0
71
3
72
11
73
7
74
5
42
0.0000001000
43
0.0000001000
44
0.0000000001
12
0.7437482941
22
-0.1498206605
32
0.0000000000
13
0.5356084667
23
-0.5372833596
33
0.0000000000
40
0.0000000000
40
0.0000000000
40
0.0000000000
40
0.0000000000
40
0.2478402467
40
0.4996870963
40
0.7516942872
40
1.0000000000
40
1.0000000000
40
1.0000000000
40
1.0000000000
10
66.3013941643
20
74.5693906033
30
0.0000000000
10
66.3628377512
20
74.5570134068
30
0.0000000000
10
66.4847146383
20
74.5226854973
30
0.0000000000
10
66.6585927349
20
74.4448110547
30
0.0000000000
10
66.8195549490
20
74.3426702591
30
0.0000000000
10
66.9155659849
20
74.2598780511
30
0.0000000000
10
66.9598975323
20
74.2154078752
30
0.0000000000
11
66.3013941643
21
74.5693906033
31
0.0000000000
11
66.4821895728
21
74.5186706426
31
0.0000000000
11
66.6563759912
21
74.4407744583
31
0.0000000000
11
66.8175420306
21
74.3383996253
31
0.0000000000
11
66.9598975323
21
74.2154078752
31
0.0000000000
0
SPLINE
5
39C
100
AcDbEntity
8
0
100
AcDbSpline
62
7
6
CONTINUOUS
70
0
71
3
72
14
73
10
74
8
42
0.0000001000
43
0.0000001000
44
0.0000000001
12
1.5387728612
22
0.3097783396
32
0.0000000000
13
1.5169137078
23
0.4028567914
33
0.0000000000
40
0.0000000000
40
0.0000000000
40
0.0000000000
40
0.0000000000
40
0.0927684301
40
0.1958715711
40
0.3087824167
40
0.4309579766
40
0.7007389712
40
0.8470211552
40
1.0000000000
40
1.0000000000
40
1.0000000000
40
1.0000000000
10
61.6008634516
20
72.2730526225
30
0.0000000000
10
61.6484466324
20
72.2826318393
30
0.0000000000
10
61.7486452213
20
72.3041135885
30
0.0000000000
10
61.9059178101
20
72.3410557588
30
0.0000000000
10
62.0776199441
20
72.3837509798
30
0.0000000000
10
62.3333364771
20
72.4498892608
30
0.0000000000
10
62.6052920981
20
72.5229147231
30
0.0000000000
10
62.8927677739
20
72.6002705051
30
0.0000000000
10
63.0440129925
20
72.6407250305
30
0.0000000000
10
63.1213648947
20
72.6612678860
30
0.0000000000
11
61.6008634516
21
72.2730526225
31
0.0000000000
11
61.7432608880
21
72.3034180094
31
0.0000000000
11
61.9008426341
21
72.3402075802
31
0.0000000000
11
62.0728506806
21
72.3828392016
31
0.0000000000
11
62.2585270240
21
72.4307307415
31
0.0000000000
11
62.6676787839
21
72.5397168524
31
0.0000000000
11
62.8893992083
21
72.5993058892
31
0.0000000000
11
63.1213648947
21
72.6612678860
31
0.0000000000
0
SPLINE
5
39D
100
AcDbEntity
8
0
100
AcDbSpline
62
7
6
CONTINUOUS
70
0
71
3
72
11
73
7
74
5
42
0.0000001000
43
0.0000001000
44
0.0000000001
12
3.6637946878
22
0.9651554733
32
0.0000000000
13
1.9308073043
23
3.2598925988
33
0.0000000000
40
0.0000000000
40
0.0000000000
40
0.0000000000
40
0.0000000000
40
0.3041000999
40
0.5708554385
40
0.8034319579
40
1.0000000000
40
1.0000000000
40
1.0000000000
40
1.0000000000
10
63.1213648947
20
72.6612678859
30
0.0000000000
10
63.4927516716
20
72.7591025112
30
0.0000000000
10
64.1806544532
20
72.9816060562
30
0.0000000000
10
65.0998109470
20
73.4204157730
30
0.0000000000
10
65.8183917808
20
73.9361966189
30
0.0000000000
10
66.1748824942
20
74.3557937020
30
0.0000000000
10
66.3013941647
20
74.5693906039
30
0.0000000000
11
63.1213648947
21
72.6612678859
31
0.0000000000
11
64.2157743905
21
73.0214978444
31
0.0000000000
11
65.1230310118
21
73.4668723760
31
0.0000000000
11
65.8301262974
21
73.9927051171
31
0.0000000000
11
66.3013941647
21
74.5693906039
31
0.0000000000
0
SPLINE
5
39E
100
AcDbEntity
8
0
100
AcDbSpline
62
7
6
CONTINUOUS
70
0
71
3
72
13
73
9
74
7
42
0.0000001000
43
0.0000001000
44
0.0000000001
12
-0.2979656014
22
-0.4324764715
32
0.0000000000
13
-0.0470895704
23
-0.5187696090
33
0.0000000000
40
0.0000000000
40
0.0000000000
40
0.0000000000
40
0.0000000000
40
0.1439336451
40
0.4318009625
40
0.5757346211
40
0.8636019385
40
0.9355687679
40
1.0000000000
40
1.0000000000
40
1.0000000000
40
1.0000000000
10
52.9953794156
20
90.2338965872
30
0.0000000000
10
52.9810836572
20
90.2131472822
30
0.0000000000
10
52.9405500426
20
90.1493962853
30
0.0000000000
10
52.8967883682
20
90.0595868103
30
0.0000000000
10
52.8541775386
20
89.9409084844
30
0.0000000000
10
52.8337613186
20
89.8548454726
30
0.0000000000
10
52.8233288008
20
89.7816077373
30
0.0000000000
10
52.8208028610
20
89.7580481057
30
0.0000000000
10
52.8197915147
20
89.7469064507
30
0.0000000000
11
52.9953794156
21
90.2338965872
31
0.0000000000
11
52.9549181779
21
90.1702459416
31
0.0000000000
11
52.8890722866
21
90.0354233799
31
0.0000000000
11
52.8635960246
21
89.9643595607
31
0.0000000000
11
52.8286818044
21
89.8175505232
31
0.0000000000
11
52.8233740172
21
89.7803029536
31
0.0000000000
11
52.8197915147
21
89.7469064507
31
0.0000000000
0
SPLINE
5
39F
100
AcDbEntity
8
0
100
AcDbSpline
62
7
6
CONTINUOUS
70
0
71
3
72
13
73
9
74
7
42
0.0000001000
43
0.0000001000
44
0.0000000001
12
-0.6059752918
22
-0.2045813212
32
0.0000000000
13
-0.3660507781
23
-0.5312962316
33
0.0000000000
40
0.0000000000
40
0.0000000000
40
0.0000000000
40
0.0000000000
40
0.0626910367
40
0.2091455622
40
0.2970182775
40
0.5313455183
40
0.7656727592
40
1.0000000000
40
1.0000000000
40
1.0000000000
40
1.0000000000
10
53.4993753564
20
90.6156154727
30
0.0000000000
10
53.4867122834
20
90.6113403344
30
0.0000000000
10
53.4447615972
20
90.5962204020
30
0.0000000000
10
53.3862971133
20
90.5705872957
30
0.0000000000
10
53.2972670106
20
90.5231783961
30
0.0000000000
10
53.1979679113
20
90.4560353869
30
0.0000000000
10
53.0874220200
20
90.3543920935
30
0.0000000000
10
53.0239617439
20
90.2754022347
30
0.0000000000
10
52.9953698543
20
90.2339031747
30
0.0000000000
11
53.4993753564
21
90.6156154727
31
0.0000000000
11
53.4616333278
21
90.6020127602
31
0.0000000000
11
53.3753946800
21
90.5641715734
31
0.0000000000
11
53.3253655557
21
90.5375266702
31
0.0000000000
11
53.2004486696
21
90.4532302083
31
0.0000000000
11
53.0899812662
21
90.3515851777
31
0.0000000000
11
52.9953698543
21
90.2339031747
31
0.0000000000
0
SPLINE
5
3A0
100
AcDbEntity
8
0
100
AcDbSpline
62
7
6
CONTINUOUS
70
0
71
3
72
13
73
9
74
7
42
0.0000001000
43
0.0000001000
44
0.0000000001
12
-0.4651196447
22
1.0472198308
32
0.0000000000
13
-1.1458645901
23
0.0000000021
33
0.0000000000
40
0.0000000000
40
0.0000000000
40
0.0000000000
40
0.0000000000
40
0.1785714288
40
0.2857142861
40
0.4285714292
40
0.5714285723
40
0.8571428584
40
1.0000000000
40
1.0000000000
40
1.0000000000
40
1.0000000000
10
58.0786486326
20
90.5662831309
30
0.0000000000
10
58.0509629395
20
90.6286176447
30
0.0000000000
10
57.9960222365
20
90.7249204854
30
0.0000000000
10
57.8918789364
20
90.8531179939
30
0.0000000000
10
57.7812408993
20
90.9555003101
30
0.0000000000
10
57.5960663967
20
91.0773399847
30
0.0000000000
10
57.3871566672
20
91.1495325831
30
0.0000000000
10
57.2212921179
20
91.1634940340
30
0.0000000000
10
57.1667271379
20
91.1634940341
30
0.0000000000
11
58.0786486326
21
90.5662831309
31
0.0000000000
11
57.9766276218
21
90.7447626663
31
0.0000000000
11
57.8987840369
21
90.8406661851
31
0.0000000000
11
57.7782100932
21
90.9521153028
31
0.0000000000
11
57.6403820867
21
91.0427428097
31
0.0000000000
11
57.3308482331
21
91.1497216227
31
0.0000000000
11
57.1667271379
21
91.1634940341
31
0.0000000000
0
SPLINE
5
3A1
100
AcDbEntity
8
0
100
AcDbSpline
62
7
6
CONTINUOUS
70
0
71
3
72
8
73
4
74
2
42
0.0000001000
43
0.0000001000
44
0.0000000001
12
-3.0035220898
22
6.8508675710
32
0.0000000000
13
-3.0363574588
23
6.8363780519
33
0.0000000000
40
0.0000000000
40
0.0000000000
40
0.0000000000
40
0.0000000000
40
1.0000000000
40
1.0000000000
40
1.0000000000
40
1.0000000000
10
61.1013627696
20
83.7238617222
30
0.0000000000
10
60.1001887397
20
86.0074842458
30
0.0000000000
10
59.0907669301
20
88.2874900669
30
0.0000000000
10
58.0786477771
20
90.5662827509
30
0.0000000000
11
61.1013627696
21
83.7238617222
31
0.0000000000
11
58.0786477771
21
90.5662827509
31
0.0000000000
0
SPLINE
5
3A2
100
AcDbEntity
8
0
100
AcDbSpline
62
7
6
CONTINUOUS
70
0
71
3
72
15
73
11
74
9
42
0.0000001000
43
0.0000001000
44
0.0000000001
12
0.0462902938
22
1.5321588609
32
0.0000000000
13
1.5345462400
23
-0.0002353230
33
0.0000000000
40
0.0000000000
40
0.0000000000
40
0.0000000000
40
0.0000000000
40
0.1073299478
40
0.2149550893
40
0.3224848137
40
0.4298862467
40
0.5727326897
40
0.7153317441
40
0.8577215041
40
1.0000000000
40
1.0000000000
40
1.0000000000
40
1.0000000000
10
51.0393791306
20
71.2542559687
30
0.0000000000
10
51.0410352422
20
71.3090714789
30
0.0000000000
10
51.0533780866
20
71.4185841358
30
0.0000000000
10
51.0982288337
20
71.5777214084
30
0.0000000000
10
51.1686639130
20
71.7273630554
30
0.0000000000
10
51.2726777066
20
71.8784043908
30
0.0000000000
10
51.4172187368
20
72.0198138317
30
0.0000000000
10
51.6043609386
20
72.1357607690
30
0.0000000000
10
51.8122379200
20
72.2073794561
30
0.0000000000
10
51.9577831463
20
72.2238732518
30
0.0000000000
10
52.0305607900
20
72.2238620914
30
0.0000000000
11
51.0393791306
21
71.2542559687
31
0.0000000000
11
51.0577372961
21
71.4175765264
31
0.0000000000
11
51.1025106118
21
71.5761777338
31
0.0000000000
11
51.1725844975
21
71.7251760827
31
0.0000000000
11
51.2659320386
21
71.8605734307
31
0.0000000000
11
51.4222768538
21
72.0135441167
31
0.0000000000
11
51.6079565973
21
72.1284405572
31
0.0000000000
11
51.8140550556
21
72.1995864056
31
0.0000000000
11
52.0305607900
21
72.2238620914
31
0.0000000000
0
SPLINE
5
3A3
100
AcDbEntity
8
0
100
AcDbSpline
62
7
6
CONTINUOUS
70
0
71
3
72
29
73
25
74
23
42
0.0000001000
43
0.0000001000
44
0.0000000001
12
-1.6507129022
22
-11.6771089422
32
0.0000000000
13
11.8456020502
23
0.0458480423
33
0.0000000000
40
0.0000000000
40
0.0000000000
40
0.0000000000
40
0.0000000000
40
0.1096326978
40
0.2180261550
40
0.3237375155
40
0.4253728718
40
0.5215871128
40
0.6111458337
40
0.6929319730
40
0.7660321253
40
0.8146936731
40
0.8578325848
40
0.8709550831
40
0.8834282577
40
0.9063925051
40
0.9267647763
40
0.9446070682
40
0.9525812043
40
0.9599239639
40
0.9727589379
40
0.9833555544
40
0.9921669069
40
0.9961469050
40
1.0000000000
40
1.0000000000
40
1.0000000000
40
1.0000000000
10
52.0305607869
20
83.7238620914
30
0.0000000000
10
51.9702367506
20
83.2971311059
30
0.0000000000
10
51.8518204395
20
82.4482633599
30
0.0000000000
10
51.6833779817
20
81.1868110310
30
0.0000000000
10
51.5288360174
20
79.9552463872
30
0.0000000000
10
51.3954501926
20
78.7693499458
30
0.0000000000
10
51.2903819097
20
77.6443294103
30
0.0000000000
10
51.2213368237
20
76.5945925005
30
0.0000000000
10
51.1963055504
20
75.6337006065
30
0.0000000000
10
51.2139722868
20
74.8332776346
30
0.0000000000
10
51.2644075097
20
74.1867536491
30
0.0000000000
10
51.3182739993
20
73.7775576757
30
0.0000000000
10
51.3651169234
20
73.5114266820
30
0.0000000000
10
51.4024393465
20
73.3242058138
30
0.0000000000
10
51.4529017771
20
73.1105819599
30
0.0000000000
10
51.5215714230
20
72.8799469060
30
0.0000000000
10
51.5854225746
20
72.7097409127
30
0.0000000000
10
51.6396890760
20
72.5911556742
30
0.0000000000
10
51.6910649419
20
72.4931054224
30
0.0000000000
10
51.7567206016
20
72.3909575755
30
0.0000000000
10
51.8429966468
20
72.2970245205
30
0.0000000000
10
51.9216117306
20
72.2462642490
30
0.0000000000
10
51.9845686249
20
72.2270201719
30
0.0000000000
10
52.0153467101
20
72.2238032057
30
0.0000000000
10
52.0305607869
20
72.2238620914
30
0.0000000000
11
52.0305607869
21
83.7238620914
31
0.0000000000
11
51.8524055718
21
82.4432672193
31
0.0000000000
11
51.6836751852
21
81.1761387135
31
0.0000000000
11
51.5295387084
21
79.9390214217
31
0.0000000000
11
51.3969229243
21
78.7477673030
31
0.0000000000
11
51.2933064303
21
77.6178278090
31
0.0000000000
11
51.2266173800
21
76.5637452484
31
0.0000000000
11
51.2035867182
21
75.5994943178
31
0.0000000000
11
51.2257069977
21
74.7376884057
31
0.0000000000
11
51.2714499739
21
74.1656356452
31
0.0000000000
11
51.3392448653
21
73.6614242027
31
0.0000000000
11
51.3661452917
21
73.5090229475
31
0.0000000000
11
51.3949713990
21
73.3647755253
31
0.0000000000
11
51.4579013165
21
73.1013647866
31
0.0000000000
11
51.5272344310
21
72.8713306429
31
0.0000000000
11
51.6021982296
21
72.6747179240
31
0.0000000000
11
51.6415045167
21
72.5892852009
31
0.0000000000
11
51.6818662341
21
72.5126715616
31
0.0000000000
11
51.7653090983
21
72.3863820328
31
0.0000000000
11
51.8517399668
21
72.2961218940
31
0.0000000000
11
51.9404076071
21
72.2419342214
31
0.0000000000
11
51.9853454566
21
72.2283810213
31
0.0000000000
11
52.0305607869
21
72.2238620914
31
0.0000000000
0
SPLINE
5
3A4
100
AcDbEntity
8
0
100
AcDbSpline
62
7
6
CONTINUOUS
70
0
71
3
72
9
73
5
74
3
42
0.0000001000
43
0.0000001000
44
0.0000000001
12
-0.4936637682
22
1.0652699899
32
0.0000000000
13
-0.5053359071
23
1.0597828918
33
0.0000000000
40
0.0000000000
40
0.0000000000
40
0.0000000000
40
0.0000000000
40
0.4994628021
40
1.0000000000
40
1.0000000000
40
1.0000000000
40
1.0000000000
10
61.6008631102
20
82.6613354888
30
0.0000000000
10
61.5186742139
20
82.8386897335
30
0.0000000000
10
61.3531479913
20
83.1933229632
30
0.0000000000
10
61.1856764122
20
83.5470416766
30
0.0000000000
10
61.1013632726
20
83.7238619297
30
0.0000000000
11
61.6008631102
21
82.6613354888
31
0.0000000000
11
61.3528405374
21
83.1927138087
31
0.0000000000
11
61.1013632726
21
83.7238619297
31
0.0000000000
0
SPLINE
5
3A5
100
AcDbEntity
8
0
100
AcDbSpline
62
7
6
CONTINUOUS
70
0
71
3
72
11
73
7
74
5
42
0.0000001000
43
0.0000001000
44
0.0000000001
12
-1.8918387364
22
1.7704761615
32
0.0000000000
13
-1.0900321303
23
2.3520520182
33
0.0000000000
40
0.0000000000
40
0.0000000000
40
0.0000000000
40
0.0000000000
40
0.2507512173
40
0.5017107025
40
0.7517656584
40
1.0000000000
40
1.0000000000
40
1.0000000000
40
1.0000000000
10
63.1213648708
20
80.5823641518
30
0.0000000000
10
62.9632379155
20
80.7303471693
30
0.0000000000
10
62.6600773224
20
81.0407291048
30
0.0000000000
10
62.2506633776
20
81.5456953704
30
0.0000000000
10
61.8924260705
20
82.0857197823
30
0.0000000000
10
61.6910579100
20
82.4667156139
30
0.0000000000
10
61.6008634406
20
82.6613356419
30
0.0000000000
11
63.1213648708
21
80.5823641518
31
0.0000000000
11
62.6676787999
21
81.0472499018
31
0.0000000000
11
62.2585270306
21
81.5524685230
31
0.0000000000
11
61.9008426341
21
82.0925348888
31
0.0000000000
11
61.6008634406
21
82.6613356419
31
0.0000000000
0
SPLINE
5
3A6
100
AcDbEntity
8
0
100
AcDbSpline
62
7
6
CONTINUOUS
70
0
71
3
72
17
73
13
74
11
42
0.0000001000
43
0.0000001000
44
0.0000000001
12
-2.0532832146
22
4.5580382213
32
0.0000000000
13
-3.6491619450
23
3.4139520797
33
0.0000000000
40
0.0000000000
40
0.0000000000
40
0.0000000000
40
0.0000000000
40
0.0478223150
40
0.0968411000
40
0.1981382679
40
0.2606417703
40
0.3242275768
40
0.4539934373
40
0.5871830790
40
0.7231430019
40
0.8609983085
40
1.0000000000
40
1.0000000000
40
1.0000000000
40
1.0000000000
10
66.3017037211
20
76.7637104501
30
0.0000000000
10
66.2689728023
20
76.8363690967
30
0.0000000000
10
66.1986514273
20
76.9816009060
30
0.0000000000
10
66.0404707927
20
77.2714153881
30
0.0000000000
10
65.8508934593
20
77.5714270200
30
0.0000000000
10
65.6325773260
20
77.8810156974
30
0.0000000000
10
65.3754584372
20
78.2210114817
30
0.0000000000
10
65.0286735518
20
78.6404015079
30
0.0000000000
10
64.5839618821
20
79.1343429596
30
0.0000000000
10
64.1139416147
20
79.6230850852
30
0.0000000000
10
63.6250301620
20
80.1067277817
30
0.0000000000
10
63.2906390106
20
80.4243900755
30
0.0000000000
10
63.1215591163
20
80.5825717801
30
0.0000000000
11
66.3017037211
21
76.7637104501
31
0.0000000000
11
66.1978156055
21
76.9789326982
31
0.0000000000
11
66.0807285182
21
77.1941013952
31
0.0000000000
11
65.8119939327
21
77.6230955563
31
0.0000000000
11
65.6322275062
21
77.8785305686
31
0.0000000000
11
65.4407723027
21
78.1321364715
31
0.0000000000
11
65.0289278633
21
78.6330501992
31
0.0000000000
11
64.5844121580
21
79.1284487629
31
0.0000000000
11
64.1141387362
21
79.6188337881
31
0.0000000000
11
63.6247760142
21
80.1037249859
31
0.0000000000
11
63.1215591163
21
80.5825717801
31
0.0000000000
0
SPLINE
5
3A7
100
AcDbEntity
8
0
100
AcDbSpline
62
7
6
CONTINUOUS
70
0
71
3
72
36
73
32
74
30
42
0.0000001000
43
0.0000001000
44
0.0000000001
12
-0.7226068354
22
1.1345209019
32
0.0000000000
13
-0.5525479248
23
1.2263525101
33
0.0000000000
40
0.0000000000
40
0.0000000000
40
0.0000000000
40
0.0000000000
40
0.0025615070
40
0.0043682273
40
0.0064742361
40
0.0086235484
40
0.0172263857
40
0.0344571300
40
0.0690114536
40
0.1036844925
40
0.1384729277
40
0.1733727530
40
0.2083806073
40
0.2434925890
40
0.2787058530
40
0.3317083213
40
0.3494224564
40
0.3849194131
40
0.4205048846
40
0.5816632314
40
0.5996659162
40
0.6357264540
40
0.6718581930
40
0.7080593124
40
0.7988570210
40
0.8170645418
40
0.8535278114
40
0.8900535789
40
0.9266412821
40
0.9632901971
40
1.0000000000
40
1.0000000000
40
1.0000000000
40
1.0000000000
10
66.9598987143
20
75.5921340983
30
0.0000000000
10
66.9592817268
20
75.5931027927
30
0.0000000000
10
66.9582154360
20
75.5947456290
30
0.0000000000
10
66.9566333362
20
75.5971793858
30
0.0000000000
10
66.9551706038
20
75.5994702104
30
0.0000000000
10
66.9520541487
20
75.6043203361
30
0.0000000000
10
66.9452776074
20
75.6148792368
30
0.0000000000
10
66.9306639904
20
75.6376722857
30
0.0000000000
10
66.9098021550
20
75.6703442429
30
0.0000000000
10
66.8848044768
20
75.7097152679
30
0.0000000000
10
66.8598350163
20
75.7492875012
30
0.0000000000
10
66.8349053884
20
75.7890621299
30
0.0000000000
10
66.8100277693
20
75.8290402812
30
0.0000000000
10
66.7852141042
20
75.8692234442
30
0.0000000000
10
66.7563336343
20
75.9163772161
30
0.0000000000
10
66.7317235542
20
75.9569988456
30
0.0000000000
10
66.7072185874
20
75.9978319760
30
0.0000000000
10
66.6868421838
20
76.0320353920
30
0.0000000000
10
66.6339549226
20
76.1217314099
30
0.0000000000
10
66.5861348758
20
76.2053145871
30
0.0000000000
10
66.5394239817
20
76.2897519299
30
0.0000000000
10
66.5200050806
20
76.3252244666
30
0.0000000000
10
66.4969300701
20
76.3679966200
30
0.0000000000
10
66.4626144717
20
76.4325883427
30
0.0000000000
10
66.4327373170
20
76.4904374512
30
0.0000000000
10
66.4034426057
20
76.5487104915
30
0.0000000000
10
66.3852806854
20
76.5853448433
30
0.0000000000
10
66.3637977914
20
76.6295292650
30
0.0000000000
10
66.3426321770
20
76.6739588270
30
0.0000000000
10
66.3217996313
20
76.7186366482
30
0.0000000000
10
66.3081554800
20
76.7485646194
30
0.0000000000
10
66.3013941715
20
76.7635710057
30
0.0000000000
11
66.9598987143
21
75.5921340983
31
0.0000000000
11
66.9580307903
21
75.5950292343
31
0.0000000000
11
66.9567090381
21
75.5970685329
31
0.0000000000
11
66.9551799290
21
75.5994531224
31
0.0000000000
11
66.9536183891
21
75.6018861088
31
0.0000000000
11
66.9473674955
21
75.6116239478
31
0.0000000000
11
66.9348602457
21
75.6311361832
31
0.0000000000
11
66.9098475022
21
75.6703100150
31
0.0000000000
11
66.8848506598
21
75.7096832700
31
0.0000000000
11
66.8598815625
21
75.7492577771
31
0.0000000000
11
66.8349525212
21
75.7890344617
31
0.0000000000
11
66.8100753676
21
75.8290148619
31
0.0000000000
11
66.7852624479
21
75.8691998605
31
0.0000000000
11
66.7605254875
21
75.9095914997
31
0.0000000000
11
66.7235891827
21
75.9705695128
31
0.0000000000
11
66.7113286549
21
75.9909998753
31
0.0000000000
11
66.6868934617
21
76.0320195806
31
0.0000000000
11
66.6625835997
21
76.0732519576
31
0.0000000000
11
66.5550751117
21
76.2614841170
31
0.0000000000
11
66.5433536051
21
76.2826730913
31
0.0000000000
11
66.5200639483
21
76.3252201281
31
0.0000000000
11
66.4969904202
21
76.3679936074
31
0.0000000000
11
66.4741466962
21
76.4109959574
31
0.0000000000
11
66.4181322774
21
76.5195229414
31
0.0000000000
11
66.4071325067
21
76.5414042291
31
0.0000000000
11
66.3853495646
21
76.5853474347
31
0.0000000000
11
66.3638687309
21
76.6295325994
31
0.0000000000
11
66.3427052530
21
76.6739629382
31
0.0000000000
11
66.3218750098
21
76.7186413386
31
0.0000000000
11
66.3013941715
21
76.7635710057
31
0.0000000000
0
SPLINE
5
3A8
100
AcDbEntity
8
0
100
AcDbSpline
62
7
6
CONTINUOUS
70
0
71
3
72
37
73
33
74
31
42
0.0000001000
43
0.0000001000
44
0.0000000001
12
0.6203797645
22
1.0465322544
32
0.0000000000
13
0.6535031946
23
1.0260831074
33
0.0000000000
40
0.0000000000
40
0.0000000000
40
0.0000000000
40
0.0000000000
40
0.1499003743
40
0.1668622058
40
0.2009633665
40
0.2352949033
40
0.2698516393
40
0.3220966821
40
0.3396180979
40
0.3748169610
40
0.4102189473
40
0.4458186596
40
0.4816107413
40
0.5175895954
40
0.5537503383
40
0.6083208019
40
0.6265957369
40
0.6632699620
40
0.7001049353
40
0.7370956017
40
0.7742369358
40
0.8115235540
40
0.8489510815
40
0.8865145836
40
0.9242088333
40
0.9620295270
40
0.9809850291
40
0.9904730174
40
0.9928459784
40
0.9951720926
40
0.9971683966
40
1.0000000000
40
1.0000000000
40
1.0000000000
40
1.0000000000
10
66.3013941647
20
74.5693906039
30
0.0000000000
10
66.3323925510
20
74.6216824628
30
0.0000000000
10
66.3676561576
20
74.6794318264
30
0.0000000000
10
66.4108149917
20
74.7485545382
30
0.0000000000
10
66.4292390111
20
74.7778735719
30
0.0000000000
10
66.4515820348
20
74.8131560311
30
0.0000000000
10
66.4779913741
20
74.8545715852
30
0.0000000000
10
66.5008609664
20
74.8901596993
30
0.0000000000
10
66.5239545372
20
74.9259131065
30
0.0000000000
10
66.5433916890
20
74.9558975801
30
0.0000000000
10
66.5668845607
20
74.9919890627
30
0.0000000000
10
66.5905667965
20
75.0282442318
30
0.0000000000
10
66.6144252497
20
75.0646636423
30
0.0000000000
10
66.6384470432
20
75.1012479801
30
0.0000000000
10
66.6666823847
20
75.1441749652
30
0.0000000000
10
66.6909975924
20
75.1810878008
30
0.0000000000
10
66.7154336211
20
75.2181703749
30
0.0000000000
10
66.7359136215
20
75.2492471018
30
0.0000000000
10
66.7605626192
20
75.2866653631
30
0.0000000000
10
66.7852999201
20
75.3242522673
30
0.0000000000
10
66.8101132669
20
75.3620083589
30
0.0000000000
10
66.8349906435
20
75.3999343301
30
0.0000000000
10
66.8599199795
20
75.4380309201
30
0.0000000000
10
66.8848892784
20
75.4762988546
30
0.0000000000
10
66.9098868430
20
75.5147386521
30
0.0000000000
10
66.9307133567
20
75.5468901825
30
0.0000000000
10
66.9452899295
20
75.5694626578
30
0.0000000000
10
66.9520564614
20
75.5799680646
30
0.0000000000
10
66.9551709223
20
75.5848048959
30
0.0000000000
10
66.9566336063
20
75.5870921716
30
0.0000000000
10
66.9582158062
20
75.5895236575
30
0.0000000000
10
66.9592819233
20
75.5911656115
30
0.0000000000
10
66.9598987440
20
75.5921340983
30
0.0000000000
11
66.3013941647
21
74.5693906039
31
0.0000000000
11
66.3962119075
21
74.7251532607
31
0.0000000000
11
66.4071397438
21
74.7426558533
31
0.0000000000
11
66.4292095810
21
74.7777816810
31
0.0000000000
11
66.4515515544
21
74.8130672011
31
0.0000000000
11
66.4741514980
21
74.8485133860
31
0.0000000000
11
66.5085040498
21
74.9019850469
31
0.0000000000
11
66.5200685509
21
74.9198896908
31
0.0000000000
11
66.5433581531
21
74.9558211435
31
0.0000000000
11
66.5668504305
21
74.9919156001
31
0.0000000000
11
66.5905321217
21
75.0281737006
31
0.0000000000
11
66.6143901438
21
75.0645960946
31
0.0000000000
11
66.6384113961
21
75.1011831494
31
0.0000000000
11
66.6625833612
21
75.1379359305
31
0.0000000000
11
66.6990961171
21
75.1933770380
31
0.0000000000
11
66.7113284437
21
75.2119404561
31
0.0000000000
11
66.7358765801
21
75.2491934480
31
0.0000000000
11
66.7605252566
21
75.2866143747
31
0.0000000000
11
66.7852622511
21
75.3242039175
31
0.0000000000
11
66.8100754003
21
75.3619627461
31
0.0000000000
11
66.8349523546
21
75.3998911070
31
0.0000000000
11
66.8598814099
21
75.4379902588
31
0.0000000000
11
66.8848505484
21
75.4762608103
31
0.0000000000
11
66.9098474399
21
75.5147031022
31
0.0000000000
11
66.9348602288
21
75.5533184488
31
0.0000000000
11
66.9473674916
21
75.5726909767
31
0.0000000000
11
66.9536183884
21
75.5823938230
31
0.0000000000
11
66.9551799285
21
75.5848216913
31
0.0000000000
11
66.9567090378
21
75.5872026592
31
0.0000000000
11
66.9580307901
21
75.5892399399
31
0.0000000000
11
66.9598987440
21
75.5921340983
31
0.0000000000
0
SPLINE
5
3A9
100
AcDbEntity
8
0
100
AcDbSpline
62
7
6
CONTINUOUS
70
0
71
3
72
10
73
6
74
4
42
0.0000001000
43
0.0000001000
44
0.0000000001
12
-6.4630155387
22
-0.3777842426
32
0.0000000000
13
-6.4534100709
23
-0.5165164513
33
0.0000000000
40
0.0000000000
40
0.0000000000
40
0.0000000000
40
0.0000000000
40
0.3334097356
40
0.6667463521
40
1.0000000000
40
1.0000000000
40
1.0000000000
40
1.0000000000
10
172.4598987291
20
87.8142729743
30
0.0000000000
10
171.7416212952
20
87.7722873261
30
0.0000000000
10
170.3055190874
20
87.6831812679
30
0.0000000000
10
168.1526410015
20
87.5341178972
30
0.0000000000
10
166.7182979242
20
87.4244816508
30
0.0000000000
10
166.0014237750
20
87.3671046536
30
0.0000000000
11
172.4598987291
21
87.8142729743
31
0.0000000000
11
170.3055312830
21
87.6806005821
31
0.0000000000
11
168.1526485504
21
87.5315368766
31
0.0000000000
11
166.0014237750
21
87.3671046536
31
0.0000000000
0
SPLINE
5
3AA
100
AcDbEntity
8
0
100
AcDbSpline
62
7
6
CONTINUOUS
70
0
71
3
72
10
73
6
74
4
42
0.0000001000
43
0.0000001000
44
0.0000000001
12
-6.4630155387
22
0.3777842426
32
0.0000000000
13
-6.4534100709
23
0.5165164513
33
0.0000000000
40
0.0000000000
40
0.0000000000
40
0.0000000000
40
0.0000000000
40
0.3334097356
40
0.6667463521
40
1.0000000000
40
1.0000000000
40
1.0000000000
40
1.0000000000
10
172.4598987291
20
47.1065392085
30
0.0000000000
10
171.7416212952
20
47.1485248566
30
0.0000000000
10
170.3055190874
20
47.2376309148
30
0.0000000000
10
168.1526410015
20
47.3866942855
30
0.0000000000
10
166.7182979242
20
47.4963305320
30
0.0000000000
10
166.0014237750
20
47.5537075292
30
0.0000000000
11
172.4598987291
21
47.1065392085
31
0.0000000000
11
170.3055312830
21
47.2402116006
31
0.0000000000
11
168.1526485504
21
47.3892753061
31
0.0000000000
11
166.0014237750
21
47.5537075292
31
0.0000000000
0
SPLINE
5
3AB
100
AcDbEntity
8
0
100
AcDbSpline
62
7
6
CONTINUOUS
70
0
71
3
72
10
73
6
74
4
42
0.0000001000
43
0.0000001000
44
0.0000000001
12
-8.7347065156
22
-0.0052605378
32
0.0000000000
13
-8.7307060355
23
-0.2643817497
33
0.0000000000
40
0.0000000000
40
0.0000000000
40
0.0000000000
40
0.0000000000
40
0.3333333604
40
0.6666667002
40
1.0000000000
40
1.0000000000
40
1.0000000000
40
1.0000000000
10
172.4598987291
20
82.3535410779
30
0.0000000000
10
171.4893757042
20
82.3529565737
30
0.0000000000
10
169.5483212559
20
82.3421888464
30
0.0000000000
10
166.6370561014
20
82.2972428574
30
0.0000000000
10
164.6965945173
20
82.2480852402
30
0.0000000000
10
163.7265161664
20
82.2187094932
30
0.0000000000
11
172.4598987291
21
82.3535410779
31
0.0000000000
11
169.5483739246
21
82.3373897791
31
0.0000000000
11
166.6371514284
21
82.2924444486
31
0.0000000000
11
163.7265161664
21
82.2187094932
31
0.0000000000
0
SPLINE
5
3AC
100
AcDbEntity
8
0
100
AcDbSpline
62
7
6
CONTINUOUS
70
0
71
3
72
10
73
6
74
4
42
0.0000001000
43
0.0000001000
44
0.0000000001
12
-3.4772823774
22
0.2032584452
32
0.0000000000
13
-3.4794386201
23
0.1622147249
33
0.0000000000
40
0.0000000000
40
0.0000000000
40
0.0000000000
40
0.0000000000
40
0.3333015123
40
0.6666357890
40
1.0000000000
40
1.0000000000
40
1.0000000000
40
1.0000000000
10
172.4598987291
20
81.6512161536
30
0.0000000000
10
172.0735709041
20
81.6737982693
30
0.0000000000
10
171.3007875644
20
81.7174453311
30
0.0000000000
10
170.1413112169
20
81.7783591444
30
0.0000000000
10
169.3681357322
20
81.8159294269
30
0.0000000000
10
168.9814956287
20
81.8339549549
30
0.0000000000
11
172.4598987291
21
81.6512161536
31
0.0000000000
11
171.3007842773
21
81.7166833272
31
0.0000000000
11
170.1413073391
21
81.7775971731
31
0.0000000000
11
168.9814956287
21
81.8339549549
31
0.0000000000
0
SPLINE
5
3AD
100
AcDbEntity
8
0
100
AcDbSpline
62
7
6
CONTINUOUS
70
0
71
3
72
10
73
6
74
4
42
0.0000001000
43
0.0000001000
44
0.0000000001
12
-8.8688079408
22
0.0053413013
32
0.0000000000
13
-8.8650628156
23
-0.2577675253
33
0.0000000000
40
0.0000000000
40
0.0000000000
40
0.0000000000
40
0.0000000000
40
0.3333333580
40
0.6666666978
40
1.0000000000
40
1.0000000000
40
1.0000000000
40
1.0000000000
10
172.4598987291
20
86.8679329239
30
0.0000000000
10
171.4744755516
20
86.8685264019
30
0.0000000000
10
169.5036089223
20
86.8599671160
30
0.0000000000
10
166.5475951398
20
86.8178908287
30
0.0000000000
10
164.5772835316
20
86.7703508707
30
0.0000000000
10
163.5922766441
20
86.7417100372
30
0.0000000000
11
172.4598987291
21
86.8679329239
31
0.0000000000
11
169.5036565390
21
86.8550942221
31
0.0000000000
11
166.5476860721
21
86.8130185514
31
0.0000000000
11
163.5922766441
21
86.7417100372
31
0.0000000000
0
SPLINE
5
3AE
100
AcDbEntity
8
0
100
AcDbSpline
62
7
6
CONTINUOUS
70
0
71
3
72
10
73
6
74
4
42
0.0000001000
43
0.0000001000
44
0.0000000001
12
-8.7623979522
22
0.0105576470
32
0.0000000000
13
-8.7582282208
23
0.2704954149
33
0.0000000000
40
0.0000000000
40
0.0000000000
40
0.0000000000
40
0.0000000000
40
0.3333333616
40
0.6666667014
40
1.0000000000
40
1.0000000000
40
1.0000000000
40
1.0000000000
10
172.4598987291
20
51.6313233676
30
0.0000000000
10
171.4862988740
20
51.6324964396
30
0.0000000000
10
169.5390965452
20
51.6444716450
30
0.0000000000
10
166.6186279799
20
51.6913196669
30
0.0000000000
10
164.6720435985
20
51.7418057381
30
0.0000000000
10
163.6989072311
20
51.7718607811
30
0.0000000000
11
172.4598987291
21
51.6313233676
31
0.0000000000
11
169.5391522774
21
51.6492858484
31
0.0000000000
11
166.6187265043
21
51.6961331839
31
0.0000000000
11
163.6989072311
21
51.7718607811
31
0.0000000000
0
SPLINE
5
3AF
100
AcDbEntity
8
0
100
AcDbSpline
62
7
6
CONTINUOUS
70
0
71
3
72
10
73
6
74
4
42
0.0000001000
43
0.0000001000
44
0.0000000001
12
-8.8688079409
22
-0.0053413013
32
0.0000000000
13
-8.8650628156
23
0.2577675253
33
0.0000000000
40
0.0000000000
40
0.0000000000
40
0.0000000000
40
0.0000000000
40
0.3333333580
40
0.6666666978
40
1.0000000000
40
1.0000000000
40
1.0000000000
40
1.0000000000
10
172.4598987292
20
48.0528792589
30
0.0000000000
10
171.4744755516
20
48.0522857809
30
0.0000000000
10
169.5036089223
20
48.0608450667
30
0.0000000000
10
166.5475951398
20
48.1029213540
30
0.0000000000
10
164.5772835315
20
48.1504613121
30
0.0000000000
10
163.5922766441
20
48.1791021455
30
0.0000000000
11
172.4598987292
21
48.0528792589
31
0.0000000000
11
169.5036565390
21
48.0657179607
31
0.0000000000
11
166.5476860721
21
48.1077936314
31
0.0000000000
11
163.5922766441
21
48.1791021455
31
0.0000000000
0
SPLINE
5
3B0
100
AcDbEntity
8
0
100
AcDbSpline
62
7
6
CONTINUOUS
70
0
71
3
72
10
73
6
74
4
42
0.0000001000
43
0.0000001000
44
0.0000000001
12
-3.4761084952
22
-0.4065035091
32
0.0000000000
13
-3.4806143731
23
-0.3659220661
33
0.0000000000
40
0.0000000000
40
0.0000000000
40
0.0000000000
40
0.0000000000
40
0.3332645111
40
0.6665987916
40
1.0000000000
40
1.0000000000
40
1.0000000000
40
1.0000000000
10
172.4598987291
20
53.0364013145
30
0.0000000000
10
172.0737441964
20
52.9912435834
30
0.0000000000
10
171.3011778123
20
52.9024201717
30
0.0000000000
10
170.1417017349
20
52.7736792688
30
0.0000000000
10
169.3683093081
20
52.6908503691
30
0.0000000000
10
168.9814956287
20
52.6501840828
30
0.0000000000
11
172.4598987291
21
53.0364013145
31
0.0000000000
11
171.3011739486
21
52.9031805315
31
0.0000000000
11
170.1416972084
21
52.7744395415
31
0.0000000000
11
168.9814956287
21
52.6501840828
31
0.0000000000
0
SPLINE
5
3B1
100
AcDbEntity
8
0
100
AcDbSpline
62
7
6
CONTINUOUS
70
0
71
3
72
18
73
14
74
12
42
0.0000001000
43
0.0000001000
44
0.0000000001
12
-0.0000000001
22
-5.2173225033
32
0.0000000000
13
3.0989339694
23
-4.1972568936
33
0.0000000000
40
0.0000000000
40
0.0000000000
40
0.0000000000
40
0.0000000000
40
0.1516529692
40
0.3014526053
40
0.4438073397
40
0.5747968058
40
0.6907938199
40
0.7890974264
40
0.8687768629
40
0.9298360836
40
0.9710123494
40
0.9934606979
40
1.0000000000
40
1.0000000000
40
1.0000000000
40
1.0000000000
10
104.2570228609
20
167.7283817092
30
0.0000000000
10
104.2570228609
20
167.4646408928
30
0.0000000000
10
104.2712363764
20
166.9402664289
30
0.0000000000
10
104.3349907926
20
166.1706713255
30
0.0000000000
10
104.4388234674
20
165.4416730769
30
0.0000000000
10
104.5767571599
20
164.7782559854
30
0.0000000000
10
104.7394604755
20
164.1996780530
30
0.0000000000
10
104.9141768220
20
163.7186643280
30
0.0000000000
10
105.0858538847
20
163.3395969073
30
0.0000000000
10
105.2376051995
20
163.0616882521
30
0.0000000000
10
105.3535841603
20
162.8783388096
30
0.0000000000
10
105.4234042381
20
162.7782378893
30
0.0000000000
10
105.4531437740
20
162.7375307528
30
0.0000000000
10
105.4598987291
20
162.7283817092
30
0.0000000000
11
104.2570228609
21
167.7283817092
31
0.0000000000
11
104.2786862536
21
166.9374558838
31
0.0000000000
11
104.3438740432
21
166.1586262086
31
0.0000000000
11
104.4496851312
21
165.4234915346
31
0.0000000000
11
104.5901919847
21
164.7546769753
31
0.0000000000
11
104.7555272080
21
164.1725053183
31
0.0000000000
11
104.9319711362
21
163.6909296810
31
0.0000000000
11
105.1044595777
21
163.3126899426
31
0.0000000000
11
105.2576920236
21
163.0333981805
31
0.0000000000
11
105.3727344505
21
162.8519674557
31
0.0000000000
11
105.4397714284
21
162.7559299517
31
0.0000000000
11
105.4598987291
21
162.7283817092
31
0.0000000000
0
SPLINE
5
3B2
100
AcDbEntity
8
0
100
AcDbSpline
62
7
6
CONTINUOUS
70
0
71
3
72
18
73
14
74
12
42
0.0000001000
43
0.0000001000
44
0.0000000001
12
-3.0989282745
22
-4.1972508548
32
0.0000000000
13
-0.0000000001
23
-5.2173140517
33
0.0000000000
40
0.0000000000
40
0.0000000000
40
0.0000000000
40
0.0000000000
40
0.0068259853
40
0.0292419377
40
0.0689051824
40
0.1274060889
40
0.2024239333
40
0.2973649327
40
0.4113179265
40
0.5415298185
40
0.6857958164
40
0.8399711179
40
1.0000000000
40
1.0000000000
40
1.0000000000
40
1.0000000000
10
105.4598987291
20
172.7283817092
30
0.0000000000
10
105.4528476495
20
172.7188315849
30
0.0000000000
10
105.4228563010
20
172.6777607431
30
0.0000000000
10
105.3543276700
20
172.5794287280
30
0.0000000000
10
105.2420412142
20
172.4022029705
30
0.0000000000
10
105.0967752709
20
172.1380940750
30
0.0000000000
10
104.9304985246
20
171.7768526050
30
0.0000000000
10
104.7580430363
20
171.3136910610
30
0.0000000000
10
104.5936549622
20
170.7467821351
30
0.0000000000
10
104.4512155231
20
170.0859241891
30
0.0000000000
10
104.3416896069
20
169.3480385945
30
0.0000000000
10
104.2726477292
20
168.5532598673
30
0.0000000000
10
104.2570228609
20
168.0066886875
30
0.0000000000
10
104.2570228609
20
167.7283817092
30
0.0000000000
11
105.4598987291
21
172.7283817092
31
0.0000000000
11
105.4388953500
21
172.6996212179
31
0.0000000000
11
105.3719931991
21
172.6036959687
31
0.0000000000
11
105.2610642144
21
172.4290045138
31
0.0000000000
11
105.1134746290
21
172.1618433288
31
0.0000000000
11
104.9489852822
21
171.8066945135
31
0.0000000000
11
104.7748840815
21
171.3429623434
31
0.0000000000
11
104.6078157295
21
170.7723903763
31
0.0000000000
11
104.4632378798
21
170.1085965276
31
0.0000000000
11
104.3515384442
21
169.3642498670
31
0.0000000000
11
104.2811597054
21
168.5629536836
31
0.0000000000
11
104.2570228609
21
167.7283817092
31
0.0000000000
0
SPLINE
5
3B3
100
AcDbEntity
8
0
100
AcDbSpline
62
7
6
CONTINUOUS
70
0
71
3
72
13
73
9
74
7
42
0.0000001000
43
0.0000001000
44
0.0000000001
12
-1.2132242427
22
0.4044974800
32
0.0000000000
13
-0.7318257258
23
1.0487909105
33
0.0000000000
40
0.0000000000
40
0.0000000000
40
0.0000000000
40
0.0000000000
40
0.0630349103
40
0.2393987938
40
0.2983844607
40
0.6492111739
40
0.7661143014
40
1.0000000000
40
1.0000000000
40
1.0000000000
40
1.0000000000
10
53.1831455318
20
143.6369398583
30
0.0000000000
10
53.1576537047
20
143.6454390125
30
0.0000000000
10
53.0614970444
20
143.6796684080
30
0.0000000000
10
52.9449423330
20
143.7315005854
30
0.0000000000
10
52.7249533615
20
143.8499415782
30
0.0000000000
10
52.5408045628
20
143.9828066405
30
0.0000000000
10
52.3271105750
20
144.1921436939
30
0.0000000000
10
52.2321801392
20
144.3086769944
30
0.0000000000
10
52.1751256154
20
144.3904427260
30
0.0000000000
11
53.1831455318
21
143.6369398583
31
0.0000000000
11
53.1071998671
21
143.6639745748
31
0.0000000000
11
52.9011174334
21
143.7556367496
31
0.0000000000
11
52.8346978264
21
143.7913992206
31
0.0000000000
11
52.4708735618
21
144.0539484252
31
0.0000000000
11
52.3640632690
21
144.1585586058
31
0.0000000000
11
52.1751256154
21
144.3904427260
31
0.0000000000
0
SPLINE
5
3B4
100
AcDbEntity
8
0
100
AcDbSpline
62
7
6
CONTINUOUS
70
0
71
3
72
14
73
10
74
8
42
0.0000001000
43
0.0000001000
44
0.0000000001
12
-0.3136853353
22
-0.9697986222
32
0.0000000000
13
-0.9908108984
23
-0.2574871085
33
0.0000000000
40
0.0000000000
40
0.0000000000
40
0.0000000000
40
0.0000000000
40
0.1582851912
40
0.3139180537
40
0.4649837967
40
0.6098854498
40
0.7475420637
40
0.8774583726
40
1.0000000000
40
1.0000000000
40
1.0000000000
40
1.0000000000
10
63.7798694319
20
163.2537043329
30
0.0000000000
10
63.7633188508
20
163.2025360795
30
0.0000000000
10
63.7248841037
20
163.1027769755
30
0.0000000000
10
63.6513418507
20
162.9625755129
30
0.0000000000
10
63.5640336091
20
162.8359304856
30
0.0000000000
10
63.4650705245
20
162.7261982007
30
0.0000000000
10
63.3571226233
20
162.6360590174
30
0.0000000000
10
63.2425351085
20
162.5680639128
30
0.0000000000
10
63.1618367342
20
162.5380375498
30
0.0000000000
10
63.1213648743
20
162.5275199201
30
0.0000000000
11
63.7798694319
21
163.2537043329
31
0.0000000000
11
63.7217080833
21
163.1032324743
31
0.0000000000
11
63.6478419598
21
162.9628634661
31
0.0000000000
11
63.5601514835
21
162.8363128233
31
0.0000000000
11
63.4609288353
21
162.7269303499
31
0.0000000000
11
63.3528292978
21
162.6375003772
31
0.0000000000
11
63.2386358656
21
162.5704796131
31
0.0000000000
11
63.1213648743
21
162.5275199201
31
0.0000000000
0
SPLINE
5
3B5
100
AcDbEntity
8
0
100
AcDbSpline
62
7
6
CONTINUOUS
70
0
71
3
72
29
73
25
74
23
42
0.0000001000
43
0.0000001000
44
0.0000000001
12
-11.8456020502
22
0.0458480423
32
0.0000000000
13
1.6507129022
23
-11.6771089422
33
0.0000000000
40
0.0000000000
40
0.0000000000
40
0.0000000000
40
0.0000000000
40
0.0038530950
40
0.0078330931
40
0.0166444456
40
0.0272410621
40
0.0400760361
40
0.0474187957
40
0.0553929318
40
0.0732352237
40
0.0936074949
40
0.1165717423
40
0.1290449169
40
0.1421674152
40
0.1853063269
40
0.2339678747
40
0.3070680270
40
0.3888541663
40
0.4784128872
40
0.5746271282
40
0.6762624845
40
0.7819738450
40
0.8903673022
40
1.0000000000
40
1.0000000000
40
1.0000000000
40
1.0000000000
10
52.0305607869
20
162.9649257092
30
0.0000000000
10
52.0153467101
20
162.9649845948
30
0.0000000000
10
51.9845686249
20
162.9617676287
30
0.0000000000
10
51.9216117306
20
162.9425235515
30
0.0000000000
10
51.8429966468
20
162.8917632800
30
0.0000000000
10
51.7567206016
20
162.7978302251
30
0.0000000000
10
51.6910649419
20
162.6956823781
30
0.0000000000
10
51.6396890760
20
162.5976321264
30
0.0000000000
10
51.5854225746
20
162.4790468878
30
0.0000000000
10
51.5215714230
20
162.3088408946
30
0.0000000000
10
51.4529017771
20
162.0782058406
30
0.0000000000
10
51.4024393465
20
161.8645819868
30
0.0000000000
10
51.3651169234
20
161.6773611185
30
0.0000000000
10
51.3182739993
20
161.4112301249
30
0.0000000000
10
51.2644075097
20
161.0020341515
30
0.0000000000
10
51.2139722868
20
160.3555101659
30
0.0000000000
10
51.1963055504
20
159.5550871941
30
0.0000000000
10
51.2213368237
20
158.5941953001
30
0.0000000000
10
51.2903819097
20
157.5444583902
30
0.0000000000
10
51.3954501926
20
156.4194378547
30
0.0000000000
10
51.5288360174
20
155.2335414133
30
0.0000000000
10
51.6833779817
20
154.0019767695
30
0.0000000000
10
51.8518204395
20
152.7405244406
30
0.0000000000
10
51.9702367506
20
151.8916566946
30
0.0000000000
10
52.0305607869
20
151.4649257092
30
0.0000000000
11
52.0305607869
21
162.9649257092
31
0.0000000000
11
51.9853454566
21
162.9604067792
31
0.0000000000
11
51.9404076071
21
162.9468535791
31
0.0000000000
11
51.8517399668
21
162.8926659066
31
0.0000000000
11
51.7653090983
21
162.8024057677
31
0.0000000000
11
51.6818662341
21
162.6761162389
31
0.0000000000
11
51.6415045167
21
162.5995025996
31
0.0000000000
11
51.6021982296
21
162.5140698765
31
0.0000000000
11
51.5272344310
21
162.3174571577
31
0.0000000000
11
51.4579013165
21
162.0874230139
31
0.0000000000
11
51.3949713990
21
161.8240122752
31
0.0000000000
11
51.3661452917
21
161.6797648531
31
0.0000000000
11
51.3392448653
21
161.5273635978
31
0.0000000000
11
51.2714499739
21
161.0231521554
31
0.0000000000
11
51.2257069977
21
160.4510993949
31
0.0000000000
11
51.2035867182
21
159.5892934827
31
0.0000000000
11
51.2266173800
21
158.6250425521
31
0.0000000000
11
51.2933064303
21
157.5709599916
31
0.0000000000
11
51.3969229243
21
156.4410204975
31
0.0000000000
11
51.5295387084
21
155.2497663788
31
0.0000000000
11
51.6836751852
21
154.0126490870
31
0.0000000000
11
51.8524055718
21
152.7455205812
31
0.0000000000
11
52.0305607869
21
151.4649257092
31
0.0000000000
0
SPLINE
5
3B6
100
AcDbEntity
8
0
100
AcDbSpline
62
7
6
CONTINUOUS
70
0
71
3
72
9
73
5
74
3
42
0.0000001000
43
0.0000001000
44
0.0000000001
12
-0.4946223236
22
0.0986675412
32
0.0000000000
13
-0.5043773254
23
-0.0002863245
33
0.0000000000
40
0.0000000000
40
0.0000000000
40
0.0000000000
40
0.0000000000
40
0.4989836923
40
1.0000000000
40
1.0000000000
40
1.0000000000
40
1.0000000000
10
61.6008634362
20
162.9157351011
30
0.0000000000
10
61.5185939451
20
162.9321462657
30
0.0000000000
10
61.3529085728
20
162.9568060519
30
0.0000000000
10
61.1855973668
20
162.9649735271
30
0.0000000000
10
61.1013636117
20
162.9649257094
30
0.0000000000
11
61.6008634362
21
162.9157351011
31
0.0000000000
11
61.3528405396
21
162.9526495945
31
0.0000000000
11
61.1013636117
21
162.9649257094
31
0.0000000000
0
SPLINE
5
3B7
100
AcDbEntity
8
0
100
AcDbSpline
62
7
6
CONTINUOUS
70
0
71
3
72
14
73
10
74
8
42
0.0000001000
43
0.0000001000
44
0.0000000001
12
-1.5169136640
22
0.4028567808
32
0.0000000000
13
-1.5387728170
23
0.3097783307
33
0.0000000000
40
0.0000000000
40
0.0000000000
40
0.0000000000
40
0.0000000000
40
0.1529788204
40
0.2992610087
40
0.5690420111
40
0.6912175744
40
0.8041284233
40
0.9072315672
40
1.0000000000
40
1.0000000000
40
1.0000000000
40
1.0000000000
10
63.1213648511
20
162.5275199261
30
0.0000000000
10
63.0440129634
20
162.5480627778
30
0.0000000000
10
62.8927677594
20
162.5885172993
30
0.0000000000
10
62.6052920981
20
162.6658730775
30
0.0000000000
10
62.3333364771
20
162.7388985397
30
0.0000000000
10
62.0776199441
20
162.8050368208
30
0.0000000000
10
61.9059178101
20
162.8477320417
30
0.0000000000
10
61.7486452213
20
162.8846742121
30
0.0000000000
10
61.6484466324
20
162.9061559613
30
0.0000000000
10
61.6008634516
20
162.9157351780
30
0.0000000000
11
63.1213648511
21
162.5275199261
31
0.0000000000
11
62.8893992083
21
162.5894819114
31
0.0000000000
11
62.6676787839
21
162.6490709481
31
0.0000000000
11
62.2585270240
21
162.7580570590
31
0.0000000000
11
62.0728506806
21
162.8059485989
31
0.0000000000
11
61.9008426341
21
162.8485802203
31
0.0000000000
11
61.7432608880
21
162.8853697911
31
0.0000000000
11
61.6008634516
21
162.9157351780
31
0.0000000000
0
SPLINE
5
3B8
100
AcDbEntity
8
0
100
AcDbSpline
62
7
6
CONTINUOUS
70
0
71
3
72
14
73
10
74
8
42
0.0000001000
43
0.0000001000
44
0.0000000001
12
-1.9339984578
22
3.2680233577
32
0.0000000000
13
-3.6634131927
23
0.9755853328
33
0.0000000000
40
0.0000000000
40
0.0000000000
40
0.0000000000
40
0.0000000000
40
0.0637840528
40
0.1728374669
40
0.2844948983
40
0.4562275537
40
0.6334037890
40
0.8151726883
40
1.0000000000
40
1.0000000000
40
1.0000000000
40
1.0000000000
10
66.3015641454
20
160.6194977903
30
0.0000000000
10
66.2604447255
20
160.6889803817
30
0.0000000000
10
66.1387423732
20
160.8707763704
30
0.0000000000
10
65.8998594845
20
161.1417383982
30
0.0000000000
10
65.5243807425
20
161.4676189432
30
0.0000000000
10
65.0361122456
20
161.7887032564
30
0.0000000000
10
64.4336050590
20
162.0864662364
30
0.0000000000
10
63.7915892488
20
162.3342291828
30
0.0000000000
10
63.3470915689
20
162.4675168028
30
0.0000000000
10
63.1213919649
20
162.5276217409
30
0.0000000000
11
66.3015641454
21
160.6194977903
31
0.0000000000
11
66.1674282557
21
160.8208208345
31
0.0000000000
11
65.8957363867
21
161.1326821321
31
0.0000000000
11
65.5773110817
21
161.4118715664
31
0.0000000000
11
65.0355263342
21
161.7734082616
31
0.0000000000
11
64.4348562705
21
162.0746661367
31
0.0000000000
11
63.7923315617
21
162.3245390298
31
0.0000000000
11
63.1213919649
21
162.5276217409
31
0.0000000000
0
SPLINE
5
3B9
100
AcDbEntity
8
0
100
AcDbSpline
62
7
6
CONTINUOUS
70
0
71
3
72
36
73
32
74
30
42
0.0000001000
43
0.0000001000
44
0.0000000001
12
-0.6535048510
22
1.0260857426
32
0.0000000000
13
-0.6201812682
23
1.0465377099
33
0.0000000000
40
0.0000000000
40
0.0000000000
40
0.0000000000
40
0.0000000000
40
0.0028315959
40
0.0048278947
40
0.0071540028
40
0.0095269574
40
0.0190149175
40
0.0379703551
40
0.0757908971
40
0.1134849894
40
0.1510483475
40
0.1884757734
40
0.2257626273
40
0.2629035167
40
0.2998940539
40
0.3550867904
40
0.3734031276
40
0.4099112749
40
0.4462483470
40
0.6075130998
40
0.6251887722
40
0.6603876659
40
0.6953779917
40
0.7301543209
40
0.8161261063
40
0.8331471774
40
0.8670123299
40
0.9006356715
40
0.9340118627
40
0.9671351536
40
1.0000000000
40
1.0000000000
40
1.0000000000
40
1.0000000000
10
66.9598987440
20
159.5966537023
30
0.0000000000
10
66.9592819234
20
159.5976221890
30
0.0000000000
10
66.9582158063
20
159.5992641428
30
0.0000000000
10
66.9566336066
20
159.6016956286
30
0.0000000000
10
66.9551709228
20
159.6039829041
30
0.0000000000
10
66.9520564628
20
159.6088197339
30
0.0000000000
10
66.9452899361
20
159.6193251344
30
0.0000000000
10
66.9307133821
20
159.6418975857
30
0.0000000000
10
66.9098869067
20
159.6740490770
30
0.0000000000
10
66.8848893852
20
159.7124888234
30
0.0000000000
10
66.8599201231
20
159.7507567264
30
0.0000000000
10
66.8349907281
20
159.7888534122
30
0.0000000000
10
66.8101133933
20
159.8267793989
30
0.0000000000
10
66.7853000385
20
159.8645354596
30
0.0000000000
10
66.7564704088
20
159.9083404639
30
0.0000000000
10
66.7318174860
20
159.9457561546
30
0.0000000000
10
66.7072694570
20
159.9830067041
30
0.0000000000
10
66.6869297912
20
160.0138736895
30
0.0000000000
10
66.6347194507
20
160.0931579251
30
0.0000000000
10
66.5868133162
20
160.1661335857
30
0.0000000000
10
66.5394771854
20
160.2389296974
30
0.0000000000
10
66.5200968437
20
160.2688267242
30
0.0000000000
10
66.4970225323
20
160.3045928604
30
0.0000000000
10
66.4629193973
20
160.3577445754
30
0.0000000000
10
66.4329803658
20
160.4049108292
30
0.0000000000
10
66.4034983059
20
160.4519275954
30
0.0000000000
10
66.3853767486
20
160.4810127015
30
0.0000000000
10
66.3638945114
20
160.5158174282
30
0.0000000000
10
66.3427296032
20
160.5504640288
30
0.0000000000
10
66.3218976650
20
160.5849530721
30
0.0000000000
10
66.3081882187
20
160.6079324296
30
0.0000000000
10
66.3013941647
20
160.6193971966
30
0.0000000000
11
66.9598987440
21
159.5966537023
31
0.0000000000
11
66.9580307903
21
159.5995478604
31
0.0000000000
11
66.9567090381
21
159.6015851410
31
0.0000000000
11
66.9551799289
21
159.6039661087
31
0.0000000000
11
66.9536183891
21
159.6063939767
31
0.0000000000
11
66.9473674953
21
159.6160968195
31
0.0000000000
11
66.9348602454
21
159.6354693325
31
0.0000000000
11
66.9098475016
21
159.6740846286
31
0.0000000000
11
66.8848506589
21
159.7125268638
31
0.0000000000
11
66.8598815613
21
159.7507973726
31
0.0000000000
11
66.8349525197
21
159.7888965247
31
0.0000000000
11
66.8100753658
21
159.8268252364
31
0.0000000000
11
66.7852624458
21
159.8645837066
31
0.0000000000
11
66.7605254852
21
159.9021732212
31
0.0000000000
11
66.7235891799
21
159.9582419991
31
0.0000000000
11
66.7113286519
21
159.9768472190
31
0.0000000000
11
66.6868934584
21
160.0139328197
31
0.0000000000
11
66.6625835962
21
160.0508517722
31
0.0000000000
11
66.5550751070
21
160.2149480068
31
0.0000000000
11
66.5433536003
21
160.2329745782
31
0.0000000000
11
66.5200639433
21
160.2689061702
31
0.0000000000
11
66.4969904150
21
160.3046753716
31
0.0000000000
11
66.4741466907
21
160.3402828668
31
0.0000000000
11
66.4181322714
21
160.4286017818
31
0.0000000000
11
66.4071325006
21
160.4461444363
31
0.0000000000
11
66.3853495583
21
160.4811112192
31
0.0000000000
11
66.3638687244
21
160.5159192037
31
0.0000000000
11
66.3427052464
21
160.5505692296
31
0.0000000000
11
66.3218750030
21
160.5850616958
31
0.0000000000
11
66.3013941647
21
160.6193971966
31
0.0000000000
0
SPLINE
5
3BA
100
AcDbEntity
8
0
100
AcDbSpline
62
7
6
CONTINUOUS
70
0
71
3
72
37
73
33
74
31
42
0.0000001000
43
0.0000001000
44
0.0000000001
12
0.5527377558
22
1.2265357815
32
0.0000000000
13
0.7226036047
23
1.1345157808
33
0.0000000000
40
0.0000000000
40
0.0000000000
40
0.0000000000
40
0.0000000000
40
0.1647149143
40
0.1829381951
40
0.2193378502
40
0.2556725812
40
0.2919413470
40
0.3462170951
40
0.3642741006
40
0.4003346826
40
0.4363220232
40
0.4722339527
40
0.5080681630
40
0.5438219593
40
0.5794931205
40
0.6328387009
40
0.6505758029
40
0.6859815295
40
0.7212926965
40
0.7565061460
40
0.7916185994
40
0.8266263086
40
0.8615262931
40
0.8963149247
40
0.9309881716
40
0.9655426972
40
0.9827735327
40
0.9913764121
40
0.9935257343
40
0.9956317527
40
0.9974384813
40
1.0000000000
40
1.0000000000
40
1.0000000000
40
1.0000000000
10
66.3013941715
20
158.4252167948
30
0.0000000000
10
66.3317422222
20
158.4925597069
30
0.0000000000
10
66.3669154868
20
158.5666702926
30
0.0000000000
10
66.4107594903
20
158.6546977205
30
0.0000000000
10
66.4291444441
20
158.6911004317
30
0.0000000000
10
66.4514881502
20
158.7345665488
30
0.0000000000
10
66.4778442354
20
158.7849803801
30
0.0000000000
10
66.5007607532
20
158.8279438306
30
0.0000000000
10
66.5239011258
20
158.8706800093
30
0.0000000000
10
66.5433006137
20
158.9061169450
30
0.0000000000
10
66.5667941305
20
158.9484381149
30
0.0000000000
10
66.5904769934
20
158.9905371966
30
0.0000000000
10
66.6143360570
20
159.0324161689
30
0.0000000000
10
66.6383584074
20
159.0740771158
30
0.0000000000
10
66.6665431079
20
159.1224002363
30
0.0000000000
10
66.6909027232
20
159.1636021744
30
0.0000000000
10
66.7153828577
20
159.2045935553
30
0.0000000000
10
66.7358269402
20
159.2385771460
30
0.0000000000
10
66.7604763254
20
159.2791746586
30
0.0000000000
10
66.7852139830
20
159.3195643224
30
0.0000000000
10
66.8100276541
20
159.3597474937
30
0.0000000000
10
66.8349052977
20
159.3997256387
30
0.0000000000
10
66.8598348731
20
159.4395001618
30
0.0000000000
10
66.8848043698
20
159.4790724222
30
0.0000000000
10
66.9098020913
20
159.5184434931
30
0.0000000000
10
66.9306639655
20
159.5511154850
30
0.0000000000
10
66.9452776008
20
159.5739085559
30
0.0000000000
10
66.9520541473
20
159.5844674626
30
0.0000000000
10
66.9551706034
20
159.5893175896
30
0.0000000000
10
66.9566333359
20
159.5916084144
30
0.0000000000
10
66.9582154358
20
159.5940421714
30
0.0000000000
10
66.9592817268
20
159.5956850078
30
0.0000000000
10
66.9598987143
20
159.5966537023
30
0.0000000000
11
66.3013941715
21
158.4252167948
31
0.0000000000
11
66.3962119136
21
158.6254552975
31
0.0000000000
11
66.4071397499
21
158.6473961605
31
0.0000000000
11
66.4292095868
21
158.6910998966
31
0.0000000000
11
66.4515515601
21
158.7345669759
31
0.0000000000
11
66.4741515035
21
158.7778003937
31
0.0000000000
11
66.5085040549
21
158.8422177472
31
0.0000000000
11
66.5200685559
21
158.8635758196
31
0.0000000000
11
66.5433581579
21
158.9061227052
31
0.0000000000
11
66.5668504351
21
158.9484453815
31
0.0000000000
11
66.5905321260
21
158.9905460220
31
0.0000000000
11
66.6143901478
21
159.0324267209
31
0.0000000000
11
66.6384113998
21
159.0740892041
31
0.0000000000
11
66.6625833647
21
159.1155358059
31
0.0000000000
11
66.6990961202
21
159.1773047193
31
0.0000000000
11
66.7113284467
21
159.1977878443
31
0.0000000000
11
66.7358765827
21
159.2385966734
31
0.0000000000
11
66.7605252590
21
159.2791961331
31
0.0000000000
11
66.7852622532
21
159.3195877941
31
0.0000000000
11
66.8100754021
21
159.3597731470
31
0.0000000000
11
66.8349523561
21
159.3997531918
31
0.0000000000
11
66.8598814111
21
159.4395298713
31
0.0000000000
11
66.8848505493
21
159.4791044158
31
0.0000000000
11
66.9098474405
21
159.5184777225
31
0.0000000000
11
66.9348602291
21
159.5576515998
31
0.0000000000
11
66.9473674917
21
159.5771638488
31
0.0000000000
11
66.9536183885
21
159.5869016910
31
0.0000000000
11
66.9551799286
21
159.5893346777
31
0.0000000000
11
66.9567090378
21
159.5917192673
31
0.0000000000
11
66.9580307901
21
159.5937585660
31
0.0000000000
11
66.9598987143
21
159.5966537023
31
0.0000000000
0
SPLINE
5
3BB
100
AcDbEntity
8
0
100
AcDbSpline
62
7
6
CONTINUOUS
70
0
71
3
72
10
73
6
74
4
42
0.0000001000
43
0.0000001000
44
0.0000000001
12
0.0471702493
22
-0.5209034764
32
0.0000000000
13
0.2966833101
23
-0.4307487408
33
0.0000000000
40
0.0000000000
40
0.0000000000
40
0.0000000000
40
0.0000000000
40
0.3344442043
40
0.6675949015
40
1.0000000000
40
1.0000000000
40
1.0000000000
40
1.0000000000
10
52.8197196011
20
145.4421849416
30
0.0000000000
10
52.8249782066
20
145.3841138920
30
0.0000000000
10
52.8456533234
20
145.2688769570
30
0.0000000000
10
52.9050032911
20
145.1041729272
30
0.0000000000
10
52.9624660332
20
145.0025673823
30
0.0000000000
10
52.9953390482
20
144.9548396898
30
0.0000000000
11
52.8197196011
21
145.4421849416
31
0.0000000000
11
52.8504484104
21
145.2699791407
31
0.0000000000
11
52.9095481159
21
145.1060581598
31
0.0000000000
11
52.9953390482
21
144.9548396898
31
0.0000000000
0
SPLINE
5
3BC
100
AcDbEntity
8
0
100
AcDbSpline
62
7
6
CONTINUOUS
70
0
71
3
72
10
73
6
74
4
42
0.0000001000
43
0.0000001000
44
0.0000000001
12
0.3642906954
22
-0.5289065915
32
0.0000000000
13
0.6084887714
23
-0.2054052297
33
0.0000000000
40
0.0000000000
40
0.0000000000
40
0.0000000000
40
0.0000000000
40
0.3343001918
40
0.6675177942
40
1.0000000000
40
1.0000000000
40
1.0000000000
40
1.0000000000
10
52.9953390482
20
144.9548396898
30
0.0000000000
10
53.0359331980
20
144.8959018315
30
0.0000000000
10
53.1301562361
20
144.7867196246
30
0.0000000000
10
53.3019850145
20
144.6567123599
30
0.0000000000
10
53.4322985633
20
144.5958052642
30
0.0000000000
10
53.4997357930
20
144.5730407362
30
0.0000000000
11
52.9953390482
21
144.9548396898
31
0.0000000000
11
53.1354445979
21
144.7921607416
31
0.0000000000
11
53.3061019700
21
144.6630406012
31
0.0000000000
11
53.4997357930
21
144.5730407362
31
0.0000000000
0
SPLINE
5
3BD
100
AcDbEntity
8
0
100
AcDbSpline
62
7
6
CONTINUOUS
70
0
71
3
72
14
73
10
74
8
42
0.0000001000
43
0.0000001000
44
0.0000000001
12
1.1458645908
22
0.0000000009
32
0.0000000000
13
0.4651196451
23
1.0472198317
33
0.0000000000
40
0.0000000000
40
0.0000000000
40
0.0000000000
40
0.0000000000
40
0.1785714280
40
0.2857142852
40
0.4285714282
40
0.5714285711
40
0.7142857141
40
0.8571428570
40
1.0000000000
40
1.0000000000
40
1.0000000000
40
1.0000000000
10
57.1667271370
20
144.0252937665
30
0.0000000000
10
57.2349333624
20
144.0252937665
30
0.0000000000
10
57.3452350641
20
144.0367425181
30
0.0000000000
10
57.5045744296
20
144.0811482014
30
0.0000000000
10
57.6422840880
20
144.1418933547
30
0.0000000000
10
57.7814973290
20
144.2334393397
30
0.0000000000
10
57.9019266346
20
144.3449002228
30
0.0000000000
10
58.0037991496
20
144.4756323573
30
0.0000000000
10
58.0565000781
20
144.5726370586
30
0.0000000000
10
58.0786486326
20
144.6225046697
30
0.0000000000
11
57.1667271370
21
144.0252937665
31
0.0000000000
11
57.3712185135
21
144.0466965174
31
0.0000000000
11
57.4903200083
21
144.0797900589
31
0.0000000000
11
57.6404481751
21
144.1461064456
31
0.0000000000
11
57.7783666731
21
144.2367584894
31
0.0000000000
11
57.8988338362
21
144.3481120980
31
0.0000000000
11
57.9999956292
21
144.4780948435
31
0.0000000000
11
58.0786486326
21
144.6225046697
31
0.0000000000
0
SPLINE
5
3BE
100
AcDbEntity
8
0
100
AcDbSpline
62
7
6
CONTINUOUS
70
0
71
3
72
11
73
7
74
5
42
0.0000001000
43
0.0000001000
44
0.0000000001
12
3.6623678503
22
3.3974127477
32
0.0000000000
13
2.0512359032
23
4.5549734267
33
0.0000000000
40
0.0000000000
40
0.0000000000
40
0.0000000000
40
0.0000000000
40
0.3059332551
40
0.5750579797
40
0.8085696744
40
1.0000000000
40
1.0000000000
40
1.0000000000
40
1.0000000000
10
63.1213648992
20
154.6064236754
30
0.0000000000
10
63.4948449386
20
154.9528841890
30
0.0000000000
10
64.1816734543
20
155.6206314201
30
0.0000000000
10
65.0984069715
20
156.6082469388
30
0.0000000000
10
65.8094430975
20
157.5214148232
30
0.0000000000
10
66.1705045859
20
158.1345634461
30
0.0000000000
10
66.3013941715
20
158.4252167948
30
0.0000000000
11
63.1213648992
21
154.6064236754
31
0.0000000000
11
64.2157743982
21
155.6731794553
31
0.0000000000
11
65.1230310212
21
156.6653258951
31
0.0000000000
11
65.8301263065
21
157.5931052194
31
0.0000000000
11
66.3013941715
21
158.4252167948
31
0.0000000000
0
SPLINE
5
3BF
100
AcDbEntity
8
0
100
AcDbSpline
62
7
6
CONTINUOUS
70
0
71
3
72
8
73
4
74
2
42
0.0000001000
43
0.0000001000
44
0.0000000001
12
3.0363574588
22
6.8363780519
32
0.0000000000
13
3.0035220898
23
6.8508675710
33
0.0000000000
40
0.0000000000
40
0.0000000000
40
0.0000000000
40
0.0000000000
40
1.0000000000
40
1.0000000000
40
1.0000000000
40
1.0000000000
10
58.0786477771
20
144.6225050496
30
0.0000000000
10
59.0907669301
20
146.9012977336
30
0.0000000000
10
60.1001887397
20
149.1813035547
30
0.0000000000
10
61.1013627696
20
151.4649260784
30
0.0000000000
11
58.0786477771
21
144.6225050496
31
0.0000000000
11
61.1013627696
21
151.4649260784
31
0.0000000000
0
SPLINE
5
3C0
100
AcDbEntity
8
0
100
AcDbSpline
62
7
6
CONTINUOUS
70
0
71
3
72
13
73
9
74
7
42
0.0000001000
43
0.0000001000
44
0.0000000001
12
-1.8039003066
22
-3.6093489171
32
0.0000000000
13
-3.8178598154
23
-1.2236833485
33
0.0000000000
40
0.0000000000
40
0.0000000000
40
0.0000000000
40
0.0000000000
40
0.1488114696
40
0.2976278639
40
0.4704443362
40
0.6452128107
40
0.8220164235
40
1.0000000000
40
1.0000000000
40
1.0000000000
40
1.0000000000
10
66.9603474685
20
174.4831580295
30
0.0000000000
10
66.8708671166
20
174.3041205239
30
0.0000000000
10
66.6543635541
20
173.9685606122
30
0.0000000000
10
66.2231243881
20
173.5065940275
30
0.0000000000
10
65.7003932340
20
173.0940237963
30
0.0000000000
10
65.0963493700
20
172.7350577587
30
0.0000000000
10
64.4532348752
20
172.4368454079
30
0.0000000000
10
64.0064452297
20
172.2754381959
30
0.0000000000
10
63.7799397814
20
172.2028396830
30
0.0000000000
11
66.9603474685
21
174.4831580295
31
0.0000000000
11
66.6402873410
21
173.9793896863
31
0.0000000000
11
66.2357339652
21
173.5405489972
31
0.0000000000
11
65.6939544346
21
173.1082407585
31
0.0000000000
11
65.0932602364
21
172.7469983818
31
0.0000000000
11
64.4507139845
21
172.4470428007
31
0.0000000000
11
63.7799397814
21
172.2028396830
31
0.0000000000
0
SPLINE
5
3C1
100
AcDbEntity
8
0
100
AcDbSpline
62
7
6
CONTINUOUS
70
0
71
3
72
14
73
10
74
8
42
0.0000001000
43
0.0000001000
44
0.0000000001
12
3.8186000386
22
-1.2238413269
32
0.0000000000
13
1.7929020728
23
-3.5919361323
33
0.0000000000
40
0.0000000000
40
0.0000000000
40
0.0000000000
40
0.0000000000
40
0.1779487190
40
0.3547080617
40
0.5294078186
40
0.7021955145
40
0.8170690279
40
0.9316976784
40
1.0000000000
40
1.0000000000
40
1.0000000000
40
1.0000000000
10
63.7799486742
20
163.2539514964
30
0.0000000000
10
64.0064536693
20
163.1813578310
30
0.0000000000
10
64.4532255355
20
163.0199021447
30
0.0000000000
10
65.0963057927
20
162.7217030171
30
0.0000000000
10
65.7003952410
20
162.3630704065
30
0.0000000000
10
66.1875994588
20
161.9784676393
30
0.0000000000
10
66.5615483535
20
161.5901721856
30
0.0000000000
10
66.7989735621
20
161.2685785263
30
0.0000000000
10
66.9192443958
20
161.0552428955
30
0.0000000000
10
66.9600641871
20
160.9734637032
30
0.0000000000
11
63.7799486742
21
163.2539514964
31
0.0000000000
11
64.4507213477
21
163.0097112663
31
0.0000000000
11
65.0932589321
21
162.7098021348
31
0.0000000000
11
65.6939411896
21
162.3487869661
31
0.0000000000
11
66.2357370927
21
161.9164491134
31
0.0000000000
11
66.5541690373
21
161.5833426140
31
0.0000000000
11
66.8258666253
21
161.2123508271
31
0.0000000000
11
66.9600641871
21
160.9734637032
31
0.0000000000
0
SPLINE
5
3C2
100
AcDbEntity
8
0
100
AcDbSpline
62
7
6
CONTINUOUS
70
0
71
3
72
14
73
10
74
8
42
0.0000001000
43
0.0000001000
44
0.0000000001
12
0.9908108984
22
-0.2574871085
32
0.0000000000
13
0.3136853353
23
-0.9697986222
33
0.0000000000
40
0.0000000000
40
0.0000000000
40
0.0000000000
40
0.0000000000
40
0.1225416274
40
0.2524579363
40
0.3901145502
40
0.5350162033
40
0.6860819463
40
0.8417148088
40
1.0000000000
40
1.0000000000
40
1.0000000000
40
1.0000000000
10
63.1213648743
20
172.9292434983
30
0.0000000000
10
63.1618367342
20
172.9187258685
30
0.0000000000
10
63.2425351085
20
172.8886995056
30
0.0000000000
10
63.3571226233
20
172.8207044009
30
0.0000000000
10
63.4650705245
20
172.7305652176
30
0.0000000000
10
63.5640336091
20
172.6208329328
30
0.0000000000
10
63.6513418507
20
172.4941879055
30
0.0000000000
10
63.7248841037
20
172.3539864429
30
0.0000000000
10
63.7633188508
20
172.2542273388
30
0.0000000000
10
63.7798694319
20
172.2030590854
30
0.0000000000
11
63.1213648743
21
172.9292434983
31
0.0000000000
11
63.2386358656
21
172.8862838053
31
0.0000000000
11
63.3528292978
21
172.8192630411
31
0.0000000000
11
63.4609288353
21
172.7298330684
31
0.0000000000
11
63.5601514835
21
172.6204505950
31
0.0000000000
11
63.6478419598
21
172.4938999522
31
0.0000000000
11
63.7217080833
21
172.3535309441
31
0.0000000000
11
63.7798694319
21
172.2030590854
31
0.0000000000
0
SPLINE
5
3C3
100
AcDbEntity
8
0
100
AcDbSpline
62
7
6
CONTINUOUS
70
0
71
3
72
11
73
7
74
5
42
0.0000001000
43
0.0000001000
44
0.0000000001
12
0.7437484021
22
-0.1498206822
32
0.0000000000
13
0.5356084961
23
-0.5372834863
33
0.0000000000
40
0.0000000000
40
0.0000000000
40
0.0000000000
40
0.0000000000
40
0.2478402108
40
0.4996870240
40
0.7516942524
40
1.0000000000
40
1.0000000000
40
1.0000000000
40
1.0000000000
10
66.3013941643
20
174.8373662211
30
0.0000000000
10
66.3628377512
20
174.8249890246
30
0.0000000000
10
66.4847146383
20
174.7906611151
30
0.0000000000
10
66.6585927520
20
174.7127866649
30
0.0000000000
10
66.8195549954
20
174.6106458460
30
0.0000000000
10
66.9155660538
20
174.5278536076
30
0.0000000000
10
66.9598976098
20
174.4833834150
30
0.0000000000
11
66.3013941643
21
174.8373662211
31
0.0000000000
11
66.4821895728
21
174.7866462604
31
0.0000000000
11
66.6563759912
21
174.7087500761
31
0.0000000000
11
66.8175420758
21
174.6063752096
31
0.0000000000
11
66.9598976098
21
174.4833834150
31
0.0000000000
0
SPLINE
5
3C4
100
AcDbEntity
8
0
100
AcDbSpline
62
7
6
CONTINUOUS
70
0
71
3
72
27
73
23
74
21
42
0.0000001000
43
0.0000001000
44
0.0000000001
12
-1.6504933739
22
-11.6769962210
32
0.0000000000
13
11.8442809252
23
0.0465712259
33
0.0000000000
40
0.0000000000
40
0.0000000000
40
0.0000000000
40
0.0000000000
40
0.1100368990
40
0.2191988058
40
0.3254003125
40
0.4269421017
40
0.5230388871
40
0.6125198113
40
0.6941739901
40
0.7671213574
40
0.8306435955
40
0.8587005133
40
0.8842005436
40
0.9070944064
40
0.9273759752
40
0.9450640540
40
0.9602067521
40
0.9729130260
40
0.9834232772
40
0.9921839440
40
0.9961511455
40
1.0000000000
40
1.0000000000
40
1.0000000000
40
1.0000000000
10
52.0305607869
20
183.9918377092
30
0.0000000000
10
51.9700223959
20
183.5635375578
30
0.0000000000
10
51.8509406601
20
182.7101173534
30
0.0000000000
10
51.6816651553
20
181.4421954057
30
0.0000000000
10
51.5268578249
20
180.2060622045
30
0.0000000000
10
51.3934556748
20
179.0190770767
30
0.0000000000
10
51.2889588374
20
177.8951510595
30
0.0000000000
10
51.2205870344
20
176.8466787766
30
0.0000000000
10
51.1962216263
20
175.8871760530
30
0.0000000000
10
51.2160014874
20
175.0295448061
30
0.0000000000
10
51.2712903008
20
174.3845635605
30
0.0000000000
10
51.3371017506
20
173.9289383131
30
0.0000000000
10
51.3925239707
20
173.6334578981
30
0.0000000000
10
51.4550489275
20
173.3707062093
30
0.0000000000
10
51.5237337132
20
173.1413551279
30
0.0000000000
10
51.5976643068
20
172.9458629132
30
0.0000000000
10
51.6759507870
20
172.7845378699
30
0.0000000000
10
51.7580503743
20
172.6574299559
30
0.0000000000
10
51.8437601632
20
172.5644027103
30
0.0000000000
10
51.9219344588
20
172.5140728050
30
0.0000000000
10
51.9846520686
20
172.4949717031
30
0.0000000000
10
52.0153651489
20
172.4917779605
30
0.0000000000
10
52.0305607869
20
172.4918377092
30
0.0000000000
11
52.0305607869
21
183.9918377092
31
0.0000000000
11
51.8517386663
21
182.7065373936
31
0.0000000000
11
51.6818796696
21
181.4304310603
31
0.0000000000
11
51.5272659404
21
180.1875621396
31
0.0000000000
11
51.3949832205
21
178.9973946101
31
0.0000000000
11
51.2919300503
21
177.8688071693
31
0.0000000000
11
51.2258845468
21
176.8156151016
31
0.0000000000
11
51.2035683206
21
175.8529147227
31
0.0000000000
11
51.2264236663
21
174.9929400101
31
0.0000000000
11
51.2931689078
21
174.2467928290
31
0.0000000000
11
51.3409322972
21
173.9193792689
31
0.0000000000
11
51.3969058013
21
173.6239089334
31
0.0000000000
11
51.4600744608
21
173.3614121123
31
0.0000000000
11
51.5295146710
21
173.1325306424
31
0.0000000000
11
51.6043256660
21
172.9378092471
31
0.0000000000
11
51.6836066798
21
172.7777926497
31
0.0000000000
11
51.7665060900
21
172.6529657142
31
0.0000000000
11
51.8523688480
21
172.5635738674
31
0.0000000000
11
51.9405890486
21
172.5098026766
31
0.0000000000
11
51.9853938446
21
172.4963328170
31
0.0000000000
11
52.0305607869
21
172.4918377092
31
0.0000000000
0
SPLINE
5
3C5
100
AcDbEntity
8
0
100
AcDbSpline
62
7
6
CONTINUOUS
70
0
71
3
72
9
73
5
74
3
42
0.0000001000
43
0.0000001000
44
0.0000000001
12
-0.4936637789
22
1.0652700138
32
0.0000000000
13
-0.5053359184
23
1.0597829154
33
0.0000000000
40
0.0000000000
40
0.0000000000
40
0.0000000000
40
0.0000000000
40
0.4994628086
40
1.0000000000
40
1.0000000000
40
1.0000000000
40
1.0000000000
10
61.6008631212
20
182.9293110828
30
0.0000000000
10
61.5186742220
20
183.1066653338
30
0.0000000000
10
61.3531479958
20
183.4612985715
30
0.0000000000
10
61.1856764130
20
183.8150172928
30
0.0000000000
10
61.1013632725
20
183.9918375474
30
0.0000000000
11
61.6008631212
21
182.9293110828
31
0.0000000000
11
61.3528405396
21
183.4606894216
31
0.0000000000
11
61.1013632725
21
183.9918375474
31
0.0000000000
0
SPLINE
5
3C6
100
AcDbEntity
8
0
100
AcDbSpline
62
7
6
CONTINUOUS
70
0
71
3
72
11
73
7
74
5
42
0.0000001000
43
0.0000001000
44
0.0000000001
12
-1.8918386912
22
1.7704761324
32
0.0000000000
13
-1.0900321181
23
2.3520519653
33
0.0000000000
40
0.0000000000
40
0.0000000000
40
0.0000000000
40
0.0000000000
40
0.2507512211
40
0.5017107065
40
0.7517656631
40
1.0000000000
40
1.0000000000
40
1.0000000000
40
1.0000000000
10
63.1213648509
20
180.8503397877
30
0.0000000000
10
62.9632378969
20
180.9983228051
30
0.0000000000
10
62.6600773087
20
181.3087047378
30
0.0000000000
10
62.2506633710
20
181.8136709972
30
0.0000000000
10
61.8924260735
20
182.3536953955
30
0.0000000000
10
61.6910579179
20
182.7346912158
30
0.0000000000
10
61.6008634512
20
182.9293112358
30
0.0000000000
11
63.1213648509
21
180.8503397877
31
0.0000000000
11
62.6676787839
21
181.3152255370
31
0.0000000000
11
62.2585270240
21
181.8204441490
31
0.0000000000
11
61.9008426341
21
182.3605105058
31
0.0000000000
11
61.6008634512
21
182.9293112358
31
0.0000000000
0
SPLINE
5
3C7
100
AcDbEntity
8
0
100
AcDbSpline
62
7
6
CONTINUOUS
70
0
71
3
72
15
73
11
74
9
42
0.0000001000
43
0.0000001000
44
0.0000000001
12
-2.0521040026
22
4.5570219408
32
0.0000000000
13
-3.6478689907
23
3.4142581356
33
0.0000000000
40
0.0000000000
40
0.0000000000
40
0.0000000000
40
0.0000000000
40
0.0301980784
40
0.0608967745
40
0.1677382638
40
0.2790996011
40
0.4520290293
40
0.6308443073
40
0.8141236424
40
1.0000000000
40
1.0000000000
40
1.0000000000
40
1.0000000000
10
66.3015745447
20
177.0316278669
30
0.0000000000
10
66.2809180122
20
177.0774989689
30
0.0000000000
10
66.2376330942
20
177.1692489262
30
0.0000000000
10
66.1102811346
20
177.4179830514
30
0.0000000000
10
65.8972311286
20
177.7743616092
30
0.0000000000
10
65.5223359980
20
178.3076448348
30
0.0000000000
10
65.0355955128
20
178.9070030276
30
0.0000000000
10
64.4339009412
20
179.5647994719
30
0.0000000000
10
63.7924210853
20
180.2143089149
30
0.0000000000
10
63.3475736791
20
180.6390008822
30
0.0000000000
10
63.1215561454
20
180.8505441710
30
0.0000000000
11
66.3015745447
21
177.0316278669
31
0.0000000000
11
66.2372635654
21
177.1681386174
31
0.0000000000
11
66.1674282557
21
177.3047232567
31
0.0000000000
11
65.8957363867
21
177.7643132973
31
0.0000000000
11
65.5773110817
21
178.2206812184
31
0.0000000000
11
65.0355263342
21
178.8938811764
31
0.0000000000
11
64.4348562705
21
179.5554104348
31
0.0000000000
11
63.7923315617
21
180.2080587941
31
0.0000000000
11
63.1215561454
21
180.8505441710
31
0.0000000000
0
SPLINE
5
3C8
100
AcDbEntity
8
0
100
AcDbSpline
62
7
6
CONTINUOUS
70
0
71
3
72
39
73
35
74
33
42
0.0000001000
43
0.0000001000
44
0.0000000001
12
-0.7226097440
22
1.1345254916
32
0.0000000000
13
-0.5525501817
23
1.2263572189
33
0.0000000000
40
0.0000000000
40
0.0000000000
40
0.0000000000
40
0.0000000000
40
0.0025614974
40
0.0043682107
40
0.0064742114
40
0.0086235158
40
0.0172263287
40
0.0344570445
40
0.0690113744
40
0.1036844264
40
0.1384728515
40
0.1733726479
40
0.2083801116
40
0.2434924275
40
0.2787057237
40
0.3671653098
40
0.3849244443
40
0.4205100096
40
0.4740480231
40
0.4919349362
40
0.5277690480
40
0.5636809001
40
0.5996681957
40
0.6357287682
40
0.6718603230
40
0.7080613755
40
0.7443301187
40
0.7806650208
40
0.8352884943
40
0.8535278015
40
0.8900536399
40
0.9266412958
40
0.9632902309
40
1.0000000000
40
1.0000000000
40
1.0000000000
40
1.0000000000
10
66.9598987143
20
175.8601097161
30
0.0000000000
10
66.9592817267
20
175.8610784108
30
0.0000000000
10
66.9582154355
20
175.8627212475
30
0.0000000000
10
66.9566333354
20
175.8651550048
30
0.0000000000
10
66.9551706027
20
175.8674458300
30
0.0000000000
10
66.9520541448
20
175.8722959601
30
0.0000000000
10
66.9452775911
20
175.8828548808
30
0.0000000000
10
66.9306639274
20
175.9056480048
30
0.0000000000
10
66.9098020125
20
175.9383200921
30
0.0000000000
10
66.8848042339
20
175.9776912814
30
0.0000000000
10
66.8598346794
20
176.0172636650
30
0.0000000000
10
66.8349050561
20
176.0570382941
30
0.0000000000
10
66.8100273458
20
176.0970165638
30
0.0000000000
10
66.7852135904
20
176.1371998964
30
0.0000000000
10
66.7480296965
20
176.1979108632
30
0.0000000000
10
66.7152765128
20
176.2522116171
30
0.0000000000
10
66.6827980073
20
176.3068696558
30
0.0000000000
10
66.6584577419
20
176.3481502529
30
0.0000000000
10
66.6343338167
20
176.3896243565
30
0.0000000000
10
66.6103654261
20
176.4313165617
30
0.0000000000
10
66.5904716910
20
176.4662353492
30
0.0000000000
10
66.5667886867
20
176.5083346992
30
0.0000000000
10
66.5432949919
20
176.5506561909
30
0.0000000000
10
66.5200039193
20
176.5932018889
30
0.0000000000
10
66.4969289260
20
176.6359741254
30
0.0000000000
10
66.4740836435
20
176.6789752339
30
0.0000000000
10
66.4514818971
20
176.7222078122
30
0.0000000000
10
66.4254023580
20
176.7729412432
30
0.0000000000
10
66.4034084646
20
176.8166844178
30
0.0000000000
10
66.3817082458
20
176.8606682210
30
0.0000000000
10
66.3637980641
20
176.8975044189
30
0.0000000000
10
66.3426323647
20
176.9419341601
30
0.0000000000
10
66.3217997156
20
176.9866121270
30
0.0000000000
10
66.3081554945
20
177.0165402086
30
0.0000000000
10
66.3013941647
20
177.0315466387
30
0.0000000000
11
66.9598987143
21
175.8601097161
31
0.0000000000
11
66.9580307898
21
175.8630048529
31
0.0000000000
11
66.9567090374
21
175.8650441519
31
0.0000000000
11
66.9551799280
21
175.8674287419
31
0.0000000000
11
66.9536183875
21
175.8698617293
31
0.0000000000
11
66.9473674866
21
175.8795995800
31
0.0000000000
11
66.9348602078
21
175.8991118626
31
0.0000000000
11
66.9098473615
21
175.9382858614
31
0.0000000000
11
66.8848504111
21
175.9776592920
31
0.0000000000
11
66.8598812217
21
176.0172339483
31
0.0000000000
11
66.8349521007
21
176.0570107610
31
0.0000000000
11
66.8100751180
21
176.0969908728
31
0.0000000000
11
66.7852618672
21
176.1371764195
31
0.0000000000
11
66.7605247867
21
176.1775682602
31
0.0000000000
11
66.6990910115
21
176.2794673835
31
0.0000000000
11
66.6868886672
21
176.3000031010
31
0.0000000000
11
66.6625786193
21
176.3412357395
31
0.0000000000
11
66.6263759623
21
176.4034872298
31
0.0000000000
11
66.6143849826
21
176.4243455632
31
0.0000000000
11
66.5905268316
21
176.4662265097
31
0.0000000000
11
66.5668449957
21
176.5083274227
31
0.0000000000
11
66.5433525506
21
176.5506504092
31
0.0000000000
11
66.5200627573
21
176.5931976479
31
0.0000000000
11
66.4969892613
21
176.6359710860
31
0.0000000000
11
66.4741454686
21
176.6789735204
31
0.0000000000
11
66.4515453473
21
176.7222072811
31
0.0000000000
11
66.4292030501
21
176.7656749220
31
0.0000000000
11
66.3962045347
21
176.8313208896
31
0.0000000000
11
66.3853499848
21
176.8533223745
31
0.0000000000
11
66.3638689985
21
176.8975077918
31
0.0000000000
11
66.3427054472
21
176.9419382453
31
0.0000000000
11
66.3218750851
21
176.9866168398
31
0.0000000000
11
66.3013941647
21
177.0315466387
31
0.0000000000
0
SPLINE
5
3C9
100
AcDbEntity
8
0
100
AcDbSpline
62
7
6
CONTINUOUS
70
0
71
3
72
33
73
29
74
27
42
0.0000001000
43
0.0000001000
44
0.0000000001
12
0.6203795176
22
1.0465315586
32
0.0000000000
13
0.6535028512
23
1.0260825261
33
0.0000000000
40
0.0000000000
40
0.0000000000
40
0.0000000000
40
0.0000000000
40
0.1498979607
40
0.1668598572
40
0.2009609587
40
0.2352924706
40
0.2698491705
40
0.4279943286
40
0.4458183200
40
0.4816102190
40
0.5175891109
40
0.5537496965
40
0.6449145052
40
0.6632715440
40
0.7001063888
40
0.7556490670
40
0.7742378875
40
0.8115246130
40
0.8489519313
40
0.8865151868
40
0.9242091728
40
0.9620296058
40
0.9809850419
40
0.9904730161
40
0.9928459769
40
0.9951720917
40
0.9971683963
40
1.0000000000
40
1.0000000000
40
1.0000000000
40
1.0000000000
10
66.3013941647
20
174.8373662217
30
0.0000000000
10
66.3323920395
20
174.8896572039
30
0.0000000000
10
66.3676550560
20
174.9474057707
30
0.0000000000
10
66.4108133515
20
175.0165276144
30
0.0000000000
10
66.4292373736
20
175.0458466144
30
0.0000000000
10
66.4515802979
20
175.0811290524
30
0.0000000000
10
66.5010782141
20
175.1587515932
30
0.0000000000
10
66.5475337375
20
175.2303743634
30
0.0000000000
10
66.5945165424
20
175.3022491914
30
0.0000000000
10
66.6144251478
20
175.3326390934
30
0.0000000000
10
66.6384468207
20
175.3692233303
30
0.0000000000
10
66.6748366632
20
175.4245476733
30
0.0000000000
10
66.7073461140
20
175.4738715436
30
0.0000000000
10
66.7400006871
20
175.5234272103
30
0.0000000000
10
66.7647020331
20
175.5609249192
30
0.0000000000
10
66.7894351604
20
175.5985142405
30
0.0000000000
10
66.8142401687
20
175.6362755854
30
0.0000000000
10
66.8349913029
20
175.6679110544
30
0.0000000000
10
66.8599205607
20
175.7060074964
30
0.0000000000
10
66.8848896947
20
175.7442751600
30
0.0000000000
10
66.9098870840
20
175.7827146683
30
0.0000000000
10
66.9307134645
20
175.8148659743
30
0.0000000000
10
66.9452899566
20
175.8374383195
30
0.0000000000
10
66.9520564678
20
175.8479436927
30
0.0000000000
10
66.9551709241
20
175.8527805165
30
0.0000000000
10
66.9566336074
20
175.8550677913
30
0.0000000000
10
66.9582158068
20
175.8574992764
30
0.0000000000
10
66.9592819236
20
175.8591412297
30
0.0000000000
10
66.9598987440
20
175.8601097161
30
0.0000000000
11
66.3013941647
21
174.8373662217
31
0.0000000000
11
66.3962102603
21
174.9931263255
31
0.0000000000
11
66.4071381332
21
175.0106289749
31
0.0000000000
11
66.4292079226
21
175.0457547206
31
0.0000000000
11
66.4515498605
21
175.0810401998
31
0.0000000000
11
66.4741497869
21
175.1164863160
31
0.0000000000
11
66.5786685562
21
175.2780000064
31
0.0000000000
11
66.5905320706
21
175.2961493027
31
0.0000000000
11
66.6143899710
21
175.3325714819
31
0.0000000000
11
66.6384112319
21
175.3691585570
31
0.0000000000
11
66.6625830886
21
175.4059111511
31
0.0000000000
11
66.7235906066
21
175.4985239755
31
0.0000000000
11
66.7358776914
21
175.5171709090
31
0.0000000000
11
66.7605262757
21
175.5545916795
31
0.0000000000
11
66.7976609810
21
175.6110392625
31
0.0000000000
11
66.8100760769
21
175.6299394865
31
0.0000000000
11
66.8349530886
21
175.6678679359
31
0.0000000000
11
66.8598819987
21
175.7059668483
31
0.0000000000
11
66.8848509687
21
175.7442371214
31
0.0000000000
11
66.9098476805
21
175.7826791171
31
0.0000000000
11
66.9348602918
21
175.8212941705
31
0.0000000000
11
66.9473675063
21
175.8406666188
31
0.0000000000
11
66.9536183909
21
175.8503694450
31
0.0000000000
11
66.9551799300
21
175.8527973117
31
0.0000000000
11
66.9567090389
21
175.8551782788
31
0.0000000000
11
66.9580307909
21
175.8572155591
31
0.0000000000
11
66.9598987440
21
175.8601097161
31
0.0000000000
0
SPLINE
5
3CA
100
AcDbEntity
8
0
100
AcDbSpline
62
7
6
CONTINUOUS
70
0
71
3
72
11
73
7
74
5
42
0.0000001000
43
0.0000001000
44
0.0000000001
12
3.6637946878
22
0.9651554733
32
0.0000000000
13
1.9308073043
23
3.2598925988
33
0.0000000000
40
0.0000000000
40
0.0000000000
40
0.0000000000
40
0.0000000000
40
0.3041000999
40
0.5708554385
40
0.8034319579
40
1.0000000000
40
1.0000000000
40
1.0000000000
40
1.0000000000
10
63.1213648947
20
172.9292435037
30
0.0000000000
10
63.4927516716
20
173.0270781290
30
0.0000000000
10
64.1806544532
20
173.2495816740
30
0.0000000000
10
65.0998109470
20
173.6883913908
30
0.0000000000
10
65.8183917808
20
174.2041722367
30
0.0000000000
10
66.1748824942
20
174.6237693198
30
0.0000000000
10
66.3013941647
20
174.8373662217
30
0.0000000000
11
63.1213648947
21
172.9292435037
31
0.0000000000
11
64.2157743905
21
173.2894734622
31
0.0000000000
11
65.1230310118
21
173.7348479938
31
0.0000000000
11
65.8301262974
21
174.2606807349
31
0.0000000000
11
66.3013941647
21
174.8373662217
31
0.0000000000
0
SPLINE
5
3CB
100
AcDbEntity
8
0
100
AcDbSpline
62
7
6
CONTINUOUS
70
0
71
3
72
14
73
10
74
8
42
0.0000001000
43
0.0000001000
44
0.0000000001
12
1.5387728612
22
0.3097783396
32
0.0000000000
13
1.5169137078
23
0.4028567914
33
0.0000000000
40
0.0000000000
40
0.0000000000
40
0.0000000000
40
0.0000000000
40
0.0927684301
40
0.1958715711
40
0.3087824167
40
0.4309579766
40
0.7007389712
40
0.8470211552
40
1.0000000000
40
1.0000000000
40
1.0000000000
40
1.0000000000
10
61.6008634516
20
172.5410282403
30
0.0000000000
10
61.6484466324
20
172.5506074571
30
0.0000000000
10
61.7486452213
20
172.5720892063
30
0.0000000000
10
61.9059178101
20
172.6090313766
30
0.0000000000
10
62.0776199441
20
172.6517265976
30
0.0000000000
10
62.3333364771
20
172.7178648786
30
0.0000000000
10
62.6052920981
20
172.7908903409
30
0.0000000000
10
62.8927677739
20
172.8682461229
30
0.0000000000
10
63.0440129925
20
172.9087006483
30
0.0000000000
10
63.1213648947
20
172.9292435038
30
0.0000000000
11
61.6008634516
21
172.5410282403
31
0.0000000000
11
61.7432608880
21
172.5713936272
31
0.0000000000
11
61.9008426341
21
172.6081831980
31
0.0000000000
11
62.0728506806
21
172.6508148194
31
0.0000000000
11
62.2585270240
21
172.6987063593
31
0.0000000000
11
62.6676787839
21
172.8076924702
31
0.0000000000
11
62.8893992083
21
172.8672815070
31
0.0000000000
11
63.1213648947
21
172.9292435038
31
0.0000000000
0
SPLINE
5
3CC
100
AcDbEntity
8
0
100
AcDbSpline
62
7
6
CONTINUOUS
70
0
71
3
72
11
73
7
74
5
42
0.0000001000
43
0.0000001000
44
0.0000000001
12
0.3047132942
22
-0.1026244174
32
0.0000000000
13
0.3215292390
23
-0.0009545592
33
0.0000000000
40
0.0000000000
40
0.0000000000
40
0.0000000000
40
0.0000000000
40
0.2770154180
40
0.5360889394
40
0.7773317331
40
1.0000000000
40
1.0000000000
40
1.0000000000
40
1.0000000000
10
54.8059480304
20
143.0883469310
30
0.0000000000
10
54.8340847906
20
143.0788707490
30
0.0000000000
10
54.8895766352
20
143.0635793533
30
0.0000000000
10
54.9714629641
20
143.0478362468
30
0.0000000000
10
55.0485764391
20
143.0394162067
30
0.0000000000
10
55.0983110101
20
143.0377359343
30
0.0000000000
10
55.1221757963
20
143.0376650843
30
0.0000000000
11
54.8059480304
21
143.0883469310
31
0.0000000000
11
54.8916958605
21
143.0642515513
31
0.0000000000
11
54.9735179943
21
143.0486297197
31
0.0000000000
11
55.0506262444
21
143.0402065337
31
0.0000000000
11
55.1221757963
21
143.0376650843
31
0.0000000000
0
SPLINE
5
3CD
100
AcDbEntity
8
0
100
AcDbSpline
62
7
6
CONTINUOUS
70
0
71
3
72
10
73
6
74
4
42
0.0000001000
43
0.0000001000
44
0.0000000001
12
-1.6228862812
22
0.5483419447
32
0.0000000000
13
-1.6228270457
23
0.5485172283
33
0.0000000000
40
0.0000000000
40
0.0000000000
40
0.0000000000
40
0.0000000000
40
0.3333220201
40
0.6666553548
40
1.0000000000
40
1.0000000000
40
1.0000000000
40
1.0000000000
10
54.8059598007
20
143.0883817971
30
0.0000000000
10
54.6256452228
20
143.1493066120
30
0.0000000000
10
54.2650192276
20
143.2711857771
30
0.0000000000
10
53.7240656699
20
143.4539916859
30
0.0000000000
10
53.3634212769
20
143.5758567631
30
0.0000000000
10
53.1831010416
20
143.6368051900
30
0.0000000000
11
54.8059598007
21
143.0883817971
31
0.0000000000
11
54.2650244506
21
143.2711810519
31
0.0000000000
11
53.7240711464
21
143.4539877192
31
0.0000000000
11
53.1831010416
21
143.6368051900
31
0.0000000000
0
SPLINE
5
3CE
100
AcDbEntity
8
0
100
AcDbSpline
62
7
6
CONTINUOUS
70
0
71
3
72
10
73
6
74
4
42
0.0000001000
43
0.0000001000
44
0.0000000001
12
0.7870247570
22
6.0075140717
32
0.0000000000
13
0.7872169275
23
6.0074888929
33
0.0000000000
40
0.0000000000
40
0.0000000000
40
0.0000000000
40
0.0000000000
40
0.3335304165
40
0.6668638372
40
1.0000000000
40
1.0000000000
40
1.0000000000
40
1.0000000000
10
51.0393678366
20
184.1208162184
30
0.0000000000
10
51.1268667349
20
184.7887124419
30
0.0000000000
10
51.3018229329
20
186.1241090831
30
0.0000000000
10
51.5642062784
20
188.1266083024
30
0.0000000000
10
51.7390867345
20
189.4612118210
30
0.0000000000
10
51.8265035433
20
190.1283157536
30
0.0000000000
11
51.0393678366
21
184.1208162184
31
0.0000000000
11
51.3018790604
21
186.1245029855
31
0.0000000000
11
51.5642605213
21
188.1270029854
31
0.0000000000
11
51.8265035433
21
190.1283157536
31
0.0000000000
0
SPLINE
5
3CF
100
AcDbEntity
8
0
100
AcDbSpline
62
7
6
CONTINUOUS
70
0
71
3
72
27
73
23
74
21
42
0.0000001000
43
0.0000001000
44
0.0000000001
12
-13.3622145234
22
0.1592007536
32
0.0000000000
13
1.6592734984
23
12.7649082672
33
0.0000000000
40
0.0000000000
40
0.0000000000
40
0.0000000000
40
0.0000000000
40
0.0071763993
40
0.0154777230
40
0.0203191241
40
0.0257010868
40
0.0382421063
40
0.0533317148
40
0.0710615841
40
0.0914677825
40
0.1145605690
40
0.1403253470
40
0.1686971727
40
0.2329327772
40
0.3065864749
40
0.3887948700
40
0.4785658335
40
0.5746856650
40
0.6760207628
40
0.7818472429
40
0.8905212255
40
1.0000000000
40
1.0000000000
40
1.0000000000
40
1.0000000000
10
51.0393627432
20
171.5216842190
30
0.0000000000
10
51.0073985476
20
171.5220650484
30
0.0000000000
10
50.9425715151
20
171.5389030115
30
0.0000000000
10
50.8703384722
20
171.5912282057
30
0.0000000000
10
50.8155502209
20
171.6487796551
30
0.0000000000
10
50.7557479614
20
171.7262639992
30
0.0000000000
10
50.6844087445
20
171.8492284562
30
0.0000000000
10
50.6062485012
20
172.0277568806
30
0.0000000000
10
50.5324089178
20
172.2440973367
30
0.0000000000
10
50.4637703316
20
172.4978383586
30
0.0000000000
10
50.4012780608
20
172.7885059152
30
0.0000000000
10
50.3458840002
20
173.1153113511
30
0.0000000000
10
50.2800965843
20
173.6190434375
30
0.0000000000
10
50.2248468866
20
174.3308218222
30
0.0000000000
10
50.2050250656
20
175.2753725246
30
0.0000000000
10
50.2293037211
20
176.3293385850
30
0.0000000000
10
50.2976263663
20
177.4778491306
30
0.0000000000
10
50.4021187892
20
178.7059251640
30
0.0000000000
10
50.5355509295
20
180.0004289671
30
0.0000000000
10
50.6903908989
20
181.3467571950
30
0.0000000000
10
50.8596898623
20
182.7265438927
30
0.0000000000
10
50.9788110002
20
183.6549880329
30
0.0000000000
10
51.0393627432
20
184.1208168706
30
0.0000000000
11
51.0393627432
21
171.5216842190
31
0.0000000000
11
50.9493910050
21
171.5426280327
31
0.0000000000
11
50.8611708043
21
171.6029253228
31
0.0000000000
11
50.8179068759
21
171.6477812254
31
0.0000000000
11
50.7753080463
21
171.7024151420
31
0.0000000000
11
50.6924086361
21
171.8409365433
31
0.0000000000
11
50.6131276223
21
172.0182591542
31
0.0000000000
11
50.5383166274
21
172.2338749012
31
0.0000000000
11
50.4688764172
21
172.4872062857
31
0.0000000000
11
50.4057077577
21
172.7776758088
31
0.0000000000
11
50.3497342535
21
173.1045720442
31
0.0000000000
11
50.3019708641
21
173.4666478538
31
0.0000000000
11
50.2352256226
21
174.2908139333
31
0.0000000000
11
50.2123702769
21
175.2386359247
31
0.0000000000
11
50.2346865031
21
176.2966173172
31
0.0000000000
11
50.3007320066
21
177.4502932741
31
0.0000000000
11
50.4037851768
21
178.6832840433
31
0.0000000000
11
50.5360678968
21
179.9809819379
31
0.0000000000
11
50.6906816259
21
181.3344165924
31
0.0000000000
11
50.8605406226
21
182.7229573336
31
0.0000000000
11
51.0393627432
21
184.1208168706
31
0.0000000000
0
SPLINE
5
3D0
100
AcDbEntity
8
0
100
AcDbSpline
62
7
6
CONTINUOUS
70
0
71
3
72
10
73
6
74
4
42
0.0000001000
43
0.0000001000
44
0.0000000001
12
-0.7871801793
22
0.0079960463
32
0.0000000000
13
-0.7871512872
23
0.0104605198
33
0.0000000000
40
0.0000000000
40
0.0000000000
40
0.0000000000
40
0.0000000000
40
0.3331932017
40
0.6665098191
40
1.0000000000
40
1.0000000000
40
1.0000000000
40
1.0000000000
10
51.8265440238
20
171.5138935454
30
0.0000000000
10
51.7391163291
20
171.5147816215
30
0.0000000000
10
51.5642287607
20
171.5165781310
30
0.0000000000
10
51.3018319562
20
171.5189062619
30
0.0000000000
10
51.1268702521
20
171.5210691006
30
0.0000000000
10
51.0393678437
20
171.5222319275
30
0.0000000000
11
51.8265440238
21
171.5138935454
31
0.0000000000
11
51.5642605248
21
171.5165166242
31
0.0000000000
11
51.3018790652
21
171.5190583847
31
0.0000000000
11
51.0393678437
21
171.5222319275
31
0.0000000000
0
SPLINE
5
3D1
100
AcDbEntity
8
0
100
AcDbSpline
62
7
6
CONTINUOUS
70
0
71
3
72
12
73
8
74
6
42
0.0000001000
43
0.0000001000
44
0.0000000001
12
-1.0096948827
22
-0.0259192300
32
0.0000000000
13
-1.0035395281
23
-0.1142977599
33
0.0000000000
40
0.0000000000
40
0.0000000000
40
0.0000000000
40
0.0000000000
40
0.3444788284
40
0.4088739170
40
0.5922897830
40
0.8116609406
40
1.0000000000
40
1.0000000000
40
1.0000000000
40
1.0000000000
10
53.1830929242
20
171.6440787520
30
0.0000000000
10
53.0671534208
20
171.6411025433
30
0.0000000000
10
52.9295613964
20
171.6365081179
30
0.0000000000
10
52.7303577080
20
171.6274482029
30
0.0000000000
10
52.5732882747
20
171.6190494719
30
0.0000000000
10
52.3747400206
20
171.6052180511
30
0.0000000000
10
52.2380550018
20
171.5923233694
30
0.0000000000
10
52.1750531049
20
171.5851477918
30
0.0000000000
11
53.1830929242
21
171.6440787520
31
0.0000000000
11
52.8353632597
21
171.6321826664
31
0.0000000000
11
52.7703897809
21
171.6292239327
31
0.0000000000
11
52.5854037719
21
171.6192430851
31
0.0000000000
11
52.3643913936
21
171.6035206878
31
0.0000000000
11
52.1750531049
21
171.5851477918
31
0.0000000000
0
SPLINE
5
3D2
100
AcDbEntity
8
0
100
AcDbSpline
62
7
6
CONTINUOUS
70
0
71
3
72
13
73
9
74
7
42
0.0000001000
43
0.0000001000
44
0.0000000001
12
1.0035046789
22
-0.1143171490
32
0.0000000000
13
1.0096629194
23
-0.0259006260
33
0.0000000000
40
0.0000000000
40
0.0000000000
40
0.0000000000
40
0.0000000000
40
0.1883030378
40
0.4076667199
40
0.6553612397
40
0.7211635040
40
0.9252305446
40
1.0000000000
40
1.0000000000
40
1.0000000000
40
1.0000000000
10
52.1750878993
20
163.8716472706
30
0.0000000000
10
52.2380755591
20
163.8644718484
30
0.0000000000
10
52.3747422598
20
163.8515843378
30
0.0000000000
10
52.5948581307
20
163.8362478127
30
0.0000000000
10
52.7740316312
20
163.8271205261
30
0.0000000000
10
52.9481266475
20
163.8198806094
30
0.0000000000
10
53.0640902263
20
163.8159336600
30
0.0000000000
10
53.1579296136
20
163.8133651300
30
0.0000000000
10
53.1830935958
20
163.8127196048
30
0.0000000000
11
52.1750878993
21
163.8716472706
31
0.0000000000
11
52.3643840971
21
163.8532804493
31
0.0000000000
11
52.5853817043
21
163.8375570780
31
0.0000000000
11
52.8352171918
21
163.8246195094
31
0.0000000000
11
52.9016196497
21
163.8218554091
31
0.0000000000
11
53.1076051337
21
163.8147875494
31
0.0000000000
11
53.1830935958
21
163.8127196048
31
0.0000000000
0
SPLINE
5
3D3
100
AcDbEntity
8
0
100
AcDbSpline
62
7
6
CONTINUOUS
70
0
71
3
72
15
73
11
74
9
42
0.0000001000
43
0.0000001000
44
0.0000000001
12
0.2814869454
22
-0.2229984280
32
0.0000000000
13
0.3568060804
23
-0.0406469896
33
0.0000000000
40
0.0000000000
40
0.0000000000
40
0.0000000000
40
0.0000000000
40
0.0324301595
40
0.0502738966
40
0.1655822445
40
0.3251280534
40
0.4417973520
40
0.5738320924
40
0.7733854129
40
1.0000000000
40
1.0000000000
40
1.0000000000
40
1.0000000000
10
51.8262905449
20
163.9476560899
30
0.0000000000
10
51.8293334337
20
163.9452454650
30
0.0000000000
10
51.8344214058
20
163.9419753516
30
0.0000000000
10
51.8519202580
20
163.9326642026
30
0.0000000000
10
51.8851557203
20
163.9209307176
30
0.0000000000
10
51.9305837087
20
163.9094733116
30
0.0000000000
10
51.9784992329
20
163.8997732893
30
0.0000000000
10
52.0313738139
20
163.8906202161
30
0.0000000000
10
52.0975009330
20
163.8809620770
30
0.0000000000
10
52.1481388339
20
163.8747477107
30
0.0000000000
10
52.1750913214
20
163.8716773104
30
0.0000000000
11
51.8262905449
21
163.9476560899
31
0.0000000000
11
51.8359912553
21
163.9412109330
31
0.0000000000
11
51.8416389412
21
163.9381835157
31
0.0000000000
11
51.8802525884
21
163.9232276751
31
0.0000000000
11
51.9356820477
21
163.9087257812
31
0.0000000000
11
51.9767279859
21
163.9003212152
31
0.0000000000
11
52.0234363363
21
163.8921627710
31
0.0000000000
11
52.0943285069
21
163.8816844787
31
0.0000000000
11
52.1750913214
21
163.8716773104
31
0.0000000000
0
SPLINE
5
3D4
100
AcDbEntity
8
0
100
AcDbSpline
62
7
6
CONTINUOUS
70
0
71
3
72
13
73
9
74
7
42
0.0000001000
43
0.0000001000
44
0.0000000001
12
-0.3567398005
22
-0.0406317469
32
0.0000000000
13
-0.2815251071
23
-0.2228314923
33
0.0000000000
40
0.0000000000
40
0.0000000000
40
0.0000000000
40
0.0000000000
40
0.2264904035
40
0.4260970204
40
0.6748238945
40
0.8607768371
40
0.9493764995
40
1.0000000000
40
1.0000000000
40
1.0000000000
40
1.0000000000
10
52.1750589318
20
171.5850966314
30
0.0000000000
10
52.1481262180
20
171.5820290644
30
0.0000000000
10
52.0975059068
20
171.5758217749
30
0.0000000000
10
52.0175777517
20
171.5641442635
30
0.0000000000
10
51.9428915430
20
171.5505034013
30
0.0000000000
10
51.8820294510
20
171.5351729048
30
0.0000000000
10
51.8456340830
20
171.5212023549
30
0.0000000000
10
51.8310688391
20
171.5128330505
30
0.0000000000
10
51.8263182436
20
171.5090728804
30
0.0000000000
11
52.1750589318
21
171.5850966314
31
0.0000000000
11
52.0943550910
21
171.5751006602
31
0.0000000000
11
52.0234574287
21
171.5646209019
31
0.0000000000
11
51.9357048783
21
171.5480445378
31
0.0000000000
11
51.8712585170
21
171.5305995783
31
0.0000000000
11
51.8417955997
21
171.5186037333
31
0.0000000000
11
51.8263182436
21
171.5090728804
31
0.0000000000
0
SPLINE
5
3D5
100
AcDbEntity
8
0
100
AcDbSpline
62
7
6
CONTINUOUS
70
0
71
3
72
17
73
13
74
11
42
0.0000001000
43
0.0000001000
44
0.0000000001
12
0.0469314983
22
0.9526230610
32
0.0000000000
13
0.9537777381
23
0.0000465046
33
0.0000000000
40
0.0000000000
40
0.0000000000
40
0.0000000000
40
0.0000000000
40
0.2059088887
40
0.3985475476
40
0.5712236910
40
0.7185556492
40
0.7816474830
40
0.8374479941
40
0.8861492079
40
0.9284379756
40
0.9656539490
40
1.0000000000
40
1.0000000000
40
1.0000000000
40
1.0000000000
10
53.1830918870
20
171.6440520288
30
0.0000000000
10
53.1863130912
20
171.7094365474
30
0.0000000000
10
53.1966148048
20
171.8358368139
30
0.0000000000
10
53.2242393646
20
172.0155177985
30
0.0000000000
10
53.2625396488
20
172.1741400897
30
0.0000000000
10
53.3038185568
20
172.2891790464
30
0.0000000000
10
53.3421260537
20
172.3647767113
30
0.0000000000
10
53.3709708337
20
172.4097158127
30
0.0000000000
10
53.4012259181
20
172.4454734930
30
0.0000000000
10
53.4327575652
20
172.4717376804
30
0.0000000000
10
53.4655245950
20
172.4880407244
30
0.0000000000
10
53.4884024019
20
172.4918371769
30
0.0000000000
10
53.4993219015
20
172.4918377093
30
0.0000000000
11
53.1830918870
21
171.6440520288
31
0.0000000000
11
53.1993527165
21
171.8397691390
31
0.0000000000
11
53.2278815173
21
172.0212753488
31
0.0000000000
11
53.2675115598
21
172.1811309900
31
0.0000000000
11
53.3166237196
21
172.3127912999
31
0.0000000000
11
53.3441200260
21
172.3663175458
31
0.0000000000
11
53.3732057312
21
172.4108880583
31
0.0000000000
11
53.4035859482
21
172.4460257886
31
0.0000000000
11
53.4349468070
21
172.4713898784
31
0.0000000000
11
53.4669676924
21
172.4867069924
31
0.0000000000
11
53.4993219015
21
172.4918377093
31
0.0000000000
0
SPLINE
5
3D6
100
AcDbEntity
8
0
100
AcDbSpline
62
7
6
CONTINUOUS
70
0
71
3
72
12
73
8
74
6
42
0.0000001000
43
0.0000001000
44
0.0000000001
12
0.0338758172
22
1.5370136820
32
0.0000000000
13
1.5373868858
23
0.0004393703
33
0.0000000000
40
0.0000000000
40
0.0000000000
40
0.0000000000
40
0.0000000000
40
0.2003694745
40
0.4015135296
40
0.6025301960
40
0.8022101198
40
1.0000000000
40
1.0000000000
40
1.0000000000
40
1.0000000000
10
51.8265440238
20
171.5138935454
30
0.0000000000
10
51.8288065837
20
171.6165504200
30
0.0000000000
10
51.8653294909
20
171.8229448099
30
0.0000000000
10
52.0112752448
20
172.1004369467
30
0.0000000000
10
52.2349759631
20
172.3201309836
30
0.0000000000
10
52.5133361701
20
172.4598864557
30
0.0000000000
10
52.7183984991
20
172.4917957808
30
0.0000000000
10
52.8197583551
20
172.4918247485
30
0.0000000000
11
51.8265440238
21
171.5138935454
31
0.0000000000
11
51.8803835815
21
171.8171974849
31
0.0000000000
11
52.0243315669
21
172.0908871501
31
0.0000000000
11
52.2448928952
21
172.3073557826
31
0.0000000000
11
52.5193124673
21
172.4449562124
31
0.0000000000
11
52.8197583551
21
172.4918247485
31
0.0000000000
0
SPLINE
5
3D7
100
AcDbEntity
8
0
100
AcDbSpline
62
7
6
CONTINUOUS
70
0
71
3
72
15
73
11
74
9
42
0.0000001000
43
0.0000001000
44
0.0000000001
12
-1.5345462401
22
0.0002353230
32
0.0000000000
13
-0.0462902938
23
-1.5321588609
33
0.0000000000
40
0.0000000000
40
0.0000000000
40
0.0000000000
40
0.0000000000
40
0.1422784959
40
0.2846682559
40
0.4272673103
40
0.5701137533
40
0.6775151863
40
0.7850449107
40
0.8926700522
40
1.0000000000
40
1.0000000000
40
1.0000000000
40
1.0000000000
10
52.0305607900
20
172.4918377092
30
0.0000000000
10
51.9577831463
20
172.4918488696
30
0.0000000000
10
51.8122379200
20
172.4753550739
30
0.0000000000
10
51.6043609386
20
172.4037363868
30
0.0000000000
10
51.4172187368
20
172.2877894495
30
0.0000000000
10
51.2726777066
20
172.1463800086
30
0.0000000000
10
51.1686639130
20
171.9953386732
30
0.0000000000
10
51.0982288337
20
171.8456970262
30
0.0000000000
10
51.0533780866
20
171.6865597536
30
0.0000000000
10
51.0410352422
20
171.5770470967
30
0.0000000000
10
51.0393791306
20
171.5222315865
30
0.0000000000
11
52.0305607900
21
172.4918377092
31
0.0000000000
11
51.8140550556
21
172.4675620234
31
0.0000000000
11
51.6079565973
21
172.3964161750
31
0.0000000000
11
51.4222768538
21
172.2815197345
31
0.0000000000
11
51.2659320386
21
172.1285490485
31
0.0000000000
11
51.1725844975
21
171.9931517005
31
0.0000000000
11
51.1025106118
21
171.8441533516
31
0.0000000000
11
51.0577372961
21
171.6855521442
31
0.0000000000
11
51.0393791306
21
171.5222315865
31
0.0000000000
0
SPLINE
5
3D8
100
AcDbEntity
8
0
100
AcDbSpline
62
7
6
CONTINUOUS
70
0
71
3
72
11
73
7
74
5
42
0.0000001000
43
0.0000001000
44
0.0000000001
12
1.0900321467
22
2.3520520535
32
0.0000000000
13
1.8918387743
23
1.7704761779
33
0.0000000000
40
0.0000000000
40
0.0000000000
40
0.0000000000
40
0.0000000000
40
0.2482343379
40
0.4982892900
40
0.7492487715
40
1.0000000000
40
1.0000000000
40
1.0000000000
40
1.0000000000
10
61.6008634406
20
152.5274521586
30
0.0000000000
10
61.6910579100
20
152.7220721867
30
0.0000000000
10
61.8924260705
20
153.1030680182
30
0.0000000000
10
62.2506633776
20
153.6430924301
30
0.0000000000
10
62.6600773306
20
154.1480587058
30
0.0000000000
10
62.9632379336
20
154.4584406498
30
0.0000000000
10
63.1213648992
20
154.6064236754
30
0.0000000000
11
61.6008634406
21
152.5274521586
31
0.0000000000
11
61.9008426341
21
153.0962529117
31
0.0000000000
11
62.2585270306
21
153.6363192776
31
0.0000000000
11
62.6676787999
21
154.1415378987
31
0.0000000000
11
63.1213648992
21
154.6064236754
31
0.0000000000
0
SPLINE
5
3D9
100
AcDbEntity
8
0
100
AcDbSpline
62
7
6
CONTINUOUS
70
0
71
3
72
9
73
5
74
3
42
0.0000001000
43
0.0000001000
44
0.0000000001
12
0.5053359071
22
1.0597828918
32
0.0000000000
13
0.4936637682
23
1.0652699899
33
0.0000000000
40
0.0000000000
40
0.0000000000
40
0.0000000000
40
0.0000000000
40
0.5005371979
40
1.0000000000
40
1.0000000000
40
1.0000000000
40
1.0000000000
10
61.1013632726
20
151.4649258709
30
0.0000000000
10
61.1856764122
20
151.6417461239
30
0.0000000000
10
61.3531479913
20
151.9954648373
30
0.0000000000
10
61.5186742139
20
152.3500980670
30
0.0000000000
10
61.6008631102
20
152.5274523117
30
0.0000000000
11
61.1013632726
21
151.4649258709
31
0.0000000000
11
61.3528405374
21
151.9960739919
31
0.0000000000
11
61.6008631102
21
152.5274523117
31
0.0000000000
0
SPLINE
5
3DA
100
AcDbEntity
8
0
100
AcDbSpline
62
7
6
CONTINUOUS
70
0
71
3
72
15
73
11
74
9
42
0.0000001000
43
0.0000001000
44
0.0000000001
12
-1.5345462402
22
-0.0002353230
32
0.0000000000
13
-0.0462902935
23
1.5321588610
33
0.0000000000
40
0.0000000000
40
0.0000000000
40
0.0000000000
40
0.0000000000
40
0.1422784959
40
0.2846682559
40
0.4272673102
40
0.5701137532
40
0.6775151862
40
0.7850449106
40
0.8926700521
40
1.0000000000
40
1.0000000000
40
1.0000000000
40
1.0000000000
10
52.0305607899
20
162.9649257092
30
0.0000000000
10
51.9577831463
20
162.9649145487
30
0.0000000000
10
51.8122379200
20
162.9814083445
30
0.0000000000
10
51.6043609386
20
163.0530270316
30
0.0000000000
10
51.4172187368
20
163.1689739689
30
0.0000000000
10
51.2726777066
20
163.3103834098
30
0.0000000000
10
51.1686639130
20
163.4614247451
30
0.0000000000
10
51.0982288337
20
163.6110663922
30
0.0000000000
10
51.0533780866
20
163.7702036648
30
0.0000000000
10
51.0410352422
20
163.8797163218
30
0.0000000000
10
51.0393791306
20
163.9345318320
30
0.0000000000
11
52.0305607899
21
162.9649257092
31
0.0000000000
11
51.8140550556
21
162.9892013950
31
0.0000000000
11
51.6079565973
21
163.0603472433
31
0.0000000000
11
51.4222768538
21
163.1752436839
31
0.0000000000
11
51.2659320386
21
163.3282143698
31
0.0000000000
11
51.1725844975
21
163.4636117178
31
0.0000000000
11
51.1025106118
21
163.6126100668
31
0.0000000000
11
51.0577372961
21
163.7712112741
31
0.0000000000
11
51.0393791306
21
163.9345318320
31
0.0000000000
0
SPLINE
5
3DB
100
AcDbEntity
8
0
100
AcDbSpline
62
7
6
CONTINUOUS
70
0
71
3
72
15
73
11
74
9
42
0.0000001000
43
0.0000001000
44
0.0000000001
12
1.4401161754
22
0.0016964929
32
0.0000000000
13
0.0872135656
23
-1.4338306007
33
0.0000000000
40
0.0000000000
40
0.0000000000
40
0.0000000000
40
0.0000000000
40
0.1367567916
40
0.2746828609
40
0.4147479638
40
0.5574781139
40
0.6664038907
40
0.7766889529
40
0.8880171130
40
1.0000000000
40
1.0000000000
40
1.0000000000
40
1.0000000000
10
58.0786477771
20
172.4918377092
30
0.0000000000
10
58.1442963330
20
172.4919150448
30
0.0000000000
10
58.2759089137
20
172.4759942195
30
0.0000000000
10
58.4640011998
20
172.4072376201
30
0.0000000000
10
58.6336518128
20
172.2957631321
30
0.0000000000
10
58.7655322661
20
172.1604642576
30
0.0000000000
10
58.8617399824
20
172.0156465965
30
0.0000000000
10
58.9283971600
20
171.8715252130
30
0.0000000000
10
58.9729675435
20
171.7176313580
30
0.0000000000
10
58.9873145329
20
171.6113315322
30
0.0000000000
10
58.9905700085
20
171.5578100355
30
0.0000000000
11
58.0786477771
21
172.4918377092
31
0.0000000000
11
58.2736033167
21
172.4687209203
31
0.0000000000
11
58.4595908698
21
172.4008050234
31
0.0000000000
11
58.6279591605
21
172.2908892400
31
0.0000000000
11
58.7711770420
21
172.1443588632
31
0.0000000000
11
58.8579066248
21
172.0142470855
31
0.0000000000
11
58.9244516771
21
171.8705915615
31
0.0000000000
11
58.9690305737
21
171.7171175892
31
0.0000000000
11
58.9905700085
21
171.5578100355
31
0.0000000000
0
SPLINE
5
3DC
100
AcDbEntity
8
0
100
AcDbSpline
62
7
6
CONTINUOUS
70
0
71
3
72
15
73
11
74
9
42
0.0000001000
43
0.0000001000
44
0.0000000001
12
-1.8008927833
22
0.3132389921
32
0.0000000000
13
-1.8275891059
23
0.0004720109
33
0.0000000000
40
0.0000000000
40
0.0000000000
40
0.0000000000
40
0.0000000000
40
0.0402417625
40
0.0869485275
40
0.1981895524
40
0.3303459581
40
0.4814609334
40
0.6458426668
40
0.7762088362
40
1.0000000000
40
1.0000000000
40
1.0000000000
40
1.0000000000
10
58.9905701291
20
171.5578080402
30
0.0000000000
10
58.9664130958
20
171.5620098033
30
0.0000000000
10
58.9140755172
20
171.5701777447
30
0.0000000000
10
58.7942899371
20
171.5854125365
30
0.0000000000
10
58.6183156189
20
171.6021167865
30
0.0000000000
10
58.3785260935
20
171.6185271690
30
0.0000000000
10
58.1061237926
20
171.6317240347
30
0.0000000000
10
57.8346411006
20
171.6405345899
30
0.0000000000
10
57.5188137048
20
171.6470235174
30
0.0000000000
10
57.3030599005
20
171.6486131681
30
0.0000000000
10
57.1667271362
20
171.6486483787
30
0.0000000000
11
58.9905701291
21
171.5578080402
31
0.0000000000
11
58.9179211982
21
171.5692524942
31
0.0000000000
11
58.8332641222
21
171.5801853788
31
0.0000000000
11
58.6309405362
21
171.6000998556
31
0.0000000000
11
58.3900062101
21
171.6169915042
31
0.0000000000
11
58.1141692141
21
171.6306294340
31
0.0000000000
11
57.8139128805
21
171.6405424001
31
0.0000000000
11
57.5757098909
21
171.6454692898
31
0.0000000000
11
57.1667271362
21
171.6486483787
31
0.0000000000
0
SPLINE
5
3DD
100
AcDbEntity
8
0
100
AcDbSpline
62
7
6
CONTINUOUS
70
0
71
3
72
15
73
11
74
9
42
0.0000001000
43
0.0000001000
44
0.0000000001
12
1.8275710938
22
0.0003732955
32
0.0000000000
13
1.8014539599
23
0.3109112763
33
0.0000000000
40
0.0000000000
40
0.0000000000
40
0.0000000000
40
0.0000000000
40
0.1793694383
40
0.3541537499
40
0.5184336990
40
0.6695413351
40
0.8017592169
40
0.8873392314
40
0.9486486018
40
1.0000000000
40
1.0000000000
40
1.0000000000
40
1.0000000000
10
57.1667271362
20
163.8081150397
30
0.0000000000
10
57.2759972697
20
163.8081373589
30
0.0000000000
10
57.4917480399
20
163.8094184485
30
0.0000000000
10
57.8075268059
20
163.8153432522
30
0.0000000000
10
58.1059897578
20
163.8250288194
30
0.0000000000
10
58.3783601170
20
163.8382375709
30
0.0000000000
10
58.6025945530
20
163.8535576075
30
0.0000000000
10
58.7719139973
20
163.8692226853
30
0.0000000000
10
58.8918729058
20
163.8833487507
30
0.0000000000
10
58.9597344025
20
163.8936334685
30
0.0000000000
10
58.9905701291
20
163.8989553781
30
0.0000000000
11
57.1667271362
21
163.8081150397
31
0.0000000000
11
57.4945322802
21
163.8101446268
31
0.0000000000
11
57.8139063711
21
163.8162139417
31
0.0000000000
11
58.1139770171
21
163.8261234350
31
0.0000000000
11
58.3898007662
21
163.8397635912
31
0.0000000000
11
58.6308472177
21
163.8566660552
31
0.0000000000
11
58.7865614478
21
163.8713393490
31
0.0000000000
11
58.8978064042
21
163.8847266840
31
0.0000000000
11
58.9905701291
21
163.8989553781
31
0.0000000000
0
SPLINE
5
3DE
100
AcDbEntity
8
0
100
AcDbSpline
62
7
6
CONTINUOUS
70
0
71
3
72
9
73
5
74
3
42
0.0000001000
43
0.0000001000
44
0.0000000001
12
-0.4926827830
22
-0.1168604146
32
0.0000000000
13
-0.5063164996
23
-0.0060713415
33
0.0000000000
40
0.0000000000
40
0.0000000000
40
0.0000000000
40
0.0000000000
40
0.4999536609
40
1.0000000000
40
1.0000000000
40
1.0000000000
40
1.0000000000
10
62.5127847382
20
171.6458204985
30
0.0000000000
10
62.4306785512
20
171.6263455678
30
0.0000000000
10
62.2653149191
20
171.5966236634
30
0.0000000000
10
62.0976790009
20
171.5853666045
30
0.0000000000
10
62.0132850969
20
171.5843546205
30
0.0000000000
11
62.5127847382
21
171.6458204985
31
0.0000000000
11
62.2647622785
21
171.6012417738
31
0.0000000000
11
62.0132850969
21
171.5843546205
31
0.0000000000
0
SPLINE
5
3DF
100
AcDbEntity
8
0
100
AcDbSpline
62
7
6
CONTINUOUS
70
0
71
3
72
9
73
5
74
3
42
0.0000001000
43
0.0000001000
44
0.0000000001
12
0.5063164996
22
-0.0060713415
32
0.0000000000
13
0.4926827830
23
-0.1168604146
33
0.0000000000
40
0.0000000000
40
0.0000000000
40
0.0000000000
40
0.0000000000
40
0.5000463391
40
1.0000000000
40
1.0000000000
40
1.0000000000
40
1.0000000000
10
62.0132850969
20
163.8724087979
30
0.0000000000
10
62.0976790009
20
163.8713968138
30
0.0000000000
10
62.2653149191
20
163.8601397549
30
0.0000000000
10
62.4306785512
20
163.8304178505
30
0.0000000000
10
62.5127847382
20
163.8109429198
30
0.0000000000
11
62.0132850969
21
163.8724087979
31
0.0000000000
11
62.2647622785
21
163.8555216446
31
0.0000000000
11
62.5127847382
21
163.8109429198
31
0.0000000000
0
SPLINE
5
3E0
100
AcDbEntity
8
0
100
AcDbSpline
62
7
6
CONTINUOUS
70
0
71
3
72
11
73
7
74
5
42
0.0000001000
43
0.0000001000
44
0.0000000001
12
3.0227760798
22
-0.0189327993
32
0.0000000000
13
3.0226085441
23
-0.0372190877
33
0.0000000000
40
0.0000000000
40
0.0000000000
40
0.0000000000
40
0.0000000000
40
0.2509278894
40
0.5013511124
40
0.7510986533
40
1.0000000000
40
1.0000000000
40
1.0000000000
40
1.0000000000
10
58.9905701166
20
163.8989533821
30
0.0000000000
10
59.2434030572
20
163.8973697930
30
0.0000000000
10
59.7485594346
20
163.8940129688
30
0.0000000000
10
60.5053526793
20
163.8881233661
30
0.0000000000
10
61.2600945576
20
163.8811120319
30
0.0000000000
10
61.7625079717
20
163.8754957409
30
0.0000000000
10
62.0132850841
20
163.8724077805
30
0.0000000000
11
58.9905701166
21
163.8989533821
31
0.0000000000
11
59.7490668843
21
163.8938656933
31
0.0000000000
11
60.5060319010
21
163.8879276510
31
0.0000000000
11
61.2609447048
21
163.8808660745
31
0.0000000000
11
62.0132850841
21
163.8724077805
31
0.0000000000
0
SPLINE
5
3E1
100
AcDbEntity
8
0
100
AcDbSpline
62
7
6
CONTINUOUS
70
0
71
3
72
11
73
7
74
5
42
0.0000001000
43
0.0000001000
44
0.0000000001
12
-3.0226085441
22
-0.0372190877
32
0.0000000000
13
-3.0227760798
23
-0.0189327993
33
0.0000000000
40
0.0000000000
40
0.0000000000
40
0.0000000000
40
0.0000000000
40
0.2489013467
40
0.4986488876
40
0.7490721106
40
1.0000000000
40
1.0000000000
40
1.0000000000
40
1.0000000000
10
62.0132850841
20
171.5843556378
30
0.0000000000
10
61.7625079717
20
171.5812676774
30
0.0000000000
10
61.2600945576
20
171.5756513864
30
0.0000000000
10
60.5053526793
20
171.5686400522
30
0.0000000000
10
59.7485594346
20
171.5627504496
30
0.0000000000
10
59.2434030572
20
171.5593936253
30
0.0000000000
10
58.9905701166
20
171.5578100362
30
0.0000000000
11
62.0132850841
21
171.5843556378
31
0.0000000000
11
61.2609447048
21
171.5758973438
31
0.0000000000
11
60.5060319010
21
171.5688357673
31
0.0000000000
11
59.7490668843
21
171.5628977250
31
0.0000000000
11
58.9905701166
21
171.5578100362
31
0.0000000000
0
SPLINE
5
3E2
100
AcDbEntity
8
0
100
AcDbSpline
62
7
6
CONTINUOUS
70
0
71
3
72
15
73
11
74
9
42
0.0000001000
43
0.0000001000
44
0.0000000001
12
1.4147784067
22
0.0015584041
32
0.0000000000
13
0.1201873662
23
-1.4062922140
33
0.0000000000
40
0.0000000000
40
0.0000000000
40
0.0000000000
40
0.0000000000
40
0.1370072323
40
0.2751180053
40
0.4152554581
40
0.5579366121
40
0.6667589568
40
0.7769116870
40
0.8881108083
40
1.0000000000
40
1.0000000000
40
1.0000000000
40
1.0000000000
10
61.1013632675
20
172.4918377092
30
0.0000000000
10
61.1659748921
20
172.4919088800
30
0.0000000000
10
61.2954995813
20
172.4765693741
30
0.0000000000
10
61.4809351954
20
172.4102148996
30
0.0000000000
10
61.6488694232
20
172.3025126223
30
0.0000000000
10
61.7803038921
20
172.1715165498
30
0.0000000000
10
61.8771853032
20
172.0309968195
30
0.0000000000
10
61.9453200172
20
171.8908462425
30
0.0000000000
10
61.9922809659
20
171.7407791223
30
0.0000000000
10
62.0088024725
20
171.6368042527
30
0.0000000000
10
62.0132850283
20
171.5843546197
30
0.0000000000
11
61.1013632675
21
172.4918377092
31
0.0000000000
11
61.2933262442
21
172.4695326587
31
0.0000000000
11
61.4767672529
21
172.4039525146
31
0.0000000000
11
61.6434548805
21
172.2977047579
31
0.0000000000
11
61.7861855622
21
172.1558151707
31
0.0000000000
11
61.8735017317
21
172.0295706387
31
0.0000000000
11
61.9415170324
21
171.8898733390
31
0.0000000000
11
61.9884776260
21
171.7402172048
31
0.0000000000
11
62.0132850283
21
171.5843546197
31
0.0000000000
0
SPLINE
5
3E3
100
AcDbEntity
8
0
100
AcDbSpline
62
7
6
CONTINUOUS
70
0
71
3
72
14
73
10
74
8
42
0.0000001000
43
0.0000001000
44
0.0000000001
12
1.3883381346
22
-0.0538204480
32
0.0000000000
13
0.1745848188
23
-1.3827717549
33
0.0000000000
40
0.0000000000
40
0.0000000000
40
0.0000000000
40
0.0000000000
40
0.1366902716
40
0.2753339807
40
0.4164067374
40
0.5599451137
40
0.6690935930
40
0.7791596129
40
1.0000000000
40
1.0000000000
40
1.0000000000
40
1.0000000000
10
61.6008634453
20
172.5410282391
30
0.0000000000
10
61.6641208842
20
172.5385759952
30
0.0000000000
10
61.7906794260
20
172.5191757721
30
0.0000000000
10
61.9716136626
20
172.4498795830
30
0.0000000000
10
62.1364929005
20
172.3424749238
30
0.0000000000
10
62.2670313340
20
172.2141872228
30
0.0000000000
10
62.3649640024
20
172.0776205419
30
0.0000000000
10
62.4589287975
20
171.8967735254
30
0.0000000000
10
62.4999331593
20
171.7476102235
30
0.0000000000
10
62.5127849523
20
171.6458196070
30
0.0000000000
11
61.6008634453
21
172.5410282391
31
0.0000000000
11
61.7880754172
21
172.5128019527
31
0.0000000000
11
61.9674683931
21
172.4442815321
31
0.0000000000
11
62.1314744650
21
172.3380629506
31
0.0000000000
11
62.2734138375
21
172.1988513767
31
0.0000000000
11
62.3616489589
21
172.0760914953
31
0.0000000000
11
62.4319943817
21
171.9408405312
31
0.0000000000
11
62.5127849523
21
171.6458196070
31
0.0000000000
0
SPLINE
5
3E4
100
AcDbEntity
8
0
100
AcDbSpline
62
7
6
CONTINUOUS
70
0
71
3
72
12
73
8
74
6
42
0.0000001000
43
0.0000001000
44
0.0000000001
12
-1.2682686519
22
-0.5549083737
32
0.0000000000
13
-1.2874920638
23
-0.5088077620
33
0.0000000000
40
0.0000000000
40
0.0000000000
40
0.0000000000
40
0.0000000000
40
0.2989524867
40
0.5690635547
40
0.8044174346
40
0.9074752741
40
1.0000000000
40
1.0000000000
40
1.0000000000
40
1.0000000000
10
63.7798694568
20
172.2030590648
30
0.0000000000
10
63.6534854344
20
172.1477619854
30
0.0000000000
10
63.4138323300
20
172.0404566055
30
0.0000000000
10
63.0756346699
20
171.8874939819
30
0.0000000000
10
62.8190207336
20
171.7734893888
30
0.0000000000
10
62.6360735439
20
171.6955585672
30
0.0000000000
10
62.5524932334
20
171.6615120389
30
0.0000000000
10
62.5127849500
20
171.6458196060
30
0.0000000000
11
63.7798694568
21
172.2030590648
31
0.0000000000
11
63.4017977344
21
172.0347686587
31
0.0000000000
11
63.0608379345
21
171.8812899321
31
0.0000000000
11
62.7627676096
21
171.7497690713
31
0.0000000000
11
62.6314494878
21
171.6940210166
31
0.0000000000
11
62.5127849500
21
171.6458196060
31
0.0000000000
0
SPLINE
5
3E5
100
AcDbEntity
8
0
100
AcDbSpline
62
7
6
CONTINUOUS
70
0
71
3
72
12
73
8
74
6
42
0.0000001000
43
0.0000001000
44
0.0000000001
12
1.2874920638
22
-0.5088077620
32
0.0000000000
13
1.2682686519
23
-0.5549083737
33
0.0000000000
40
0.0000000000
40
0.0000000000
40
0.0000000000
40
0.0000000000
40
0.0925247259
40
0.1955825654
40
0.4309364453
40
0.7010475133
40
1.0000000000
40
1.0000000000
40
1.0000000000
40
1.0000000000
10
62.5127849500
20
163.8109438123
30
0.0000000000
10
62.5524932334
20
163.7952513794
30
0.0000000000
10
62.6360735439
20
163.7612048511
30
0.0000000000
10
62.8190207336
20
163.6832740295
30
0.0000000000
10
63.0756346699
20
163.5692694364
30
0.0000000000
10
63.4138323300
20
163.4163068129
30
0.0000000000
10
63.6534854344
20
163.3090014329
30
0.0000000000
10
63.7798694568
20
163.2537043535
30
0.0000000000
11
62.5127849500
21
163.8109438123
31
0.0000000000
11
62.6314494878
21
163.7627424017
31
0.0000000000
11
62.7627676096
21
163.7069943470
31
0.0000000000
11
63.0608379345
21
163.5754734862
31
0.0000000000
11
63.4017977344
21
163.4219947596
31
0.0000000000
11
63.7798694568
21
163.2537043535
31
0.0000000000
0
SPLINE
5
3E6
100
AcDbEntity
8
0
100
AcDbSpline
62
7
6
CONTINUOUS
70
0
71
3
72
14
73
10
74
8
42
0.0000001000
43
0.0000001000
44
0.0000000001
12
-0.1745848188
22
-1.3827717549
32
0.0000000000
13
-1.3883381346
23
-0.0538204480
33
0.0000000000
40
0.0000000000
40
0.0000000000
40
0.0000000000
40
0.0000000000
40
0.2208403871
40
0.3309064070
40
0.4400548863
40
0.5835932626
40
0.7246660193
40
0.8633097284
40
1.0000000000
40
1.0000000000
40
1.0000000000
40
1.0000000000
10
62.5127849523
20
163.8109438114
30
0.0000000000
10
62.4999331593
20
163.7091531948
30
0.0000000000
10
62.4589287975
20
163.5599898929
30
0.0000000000
10
62.3649640024
20
163.3791428764
30
0.0000000000
10
62.2670313340
20
163.2425761956
30
0.0000000000
10
62.1364929005
20
163.1142884946
30
0.0000000000
10
61.9716136626
20
163.0068838353
30
0.0000000000
10
61.7906794260
20
162.9375876463
30
0.0000000000
10
61.6641208842
20
162.9181874231
30
0.0000000000
10
61.6008634453
20
162.9157351793
30
0.0000000000
11
62.5127849523
21
163.8109438114
31
0.0000000000
11
62.4319943817
21
163.5159228871
31
0.0000000000
11
62.3616489589
21
163.3806719230
31
0.0000000000
11
62.2734138375
21
163.2579120417
31
0.0000000000
11
62.1314744650
21
163.1187004677
31
0.0000000000
11
61.9674683931
21
163.0124818862
31
0.0000000000
11
61.7880754172
21
162.9439614656
31
0.0000000000
11
61.6008634453
21
162.9157351793
31
0.0000000000
0
SPLINE
5
3E7
100
AcDbEntity
8
0
100
AcDbSpline
62
7
6
CONTINUOUS
70
0
71
3
72
15
73
11
74
9
42
0.0000001000
43
0.0000001000
44
0.0000000001
12
-0.1201873662
22
-1.4062922140
32
0.0000000000
13
-1.4147784067
23
0.0015584041
33
0.0000000000
40
0.0000000000
40
0.0000000000
40
0.0000000000
40
0.0000000000
40
0.1118891917
40
0.2230883130
40
0.3332410432
40
0.4420633879
40
0.5847445419
40
0.7248819947
40
0.8629927677
40
1.0000000000
40
1.0000000000
40
1.0000000000
40
1.0000000000
10
62.0132850283
20
163.8724087987
30
0.0000000000
10
62.0088024725
20
163.8199591657
30
0.0000000000
10
61.9922809659
20
163.7159842961
30
0.0000000000
10
61.9453200172
20
163.5659171759
30
0.0000000000
10
61.8771853032
20
163.4257665989
30
0.0000000000
10
61.7803038921
20
163.2852468685
30
0.0000000000
10
61.6488694232
20
163.1542507961
30
0.0000000000
10
61.4809351954
20
163.0465485187
30
0.0000000000
10
61.2954995813
20
162.9801940442
30
0.0000000000
10
61.1659748921
20
162.9648545383
30
0.0000000000
10
61.1013632675
20
162.9649257092
30
0.0000000000
11
62.0132850283
21
163.8724087987
31
0.0000000000
11
61.9884776260
21
163.7165462136
31
0.0000000000
11
61.9415170324
21
163.5668900793
31
0.0000000000
11
61.8735017317
21
163.4271927796
31
0.0000000000
11
61.7861855622
21
163.3009482476
31
0.0000000000
11
61.6434548805
21
163.1590586604
31
0.0000000000
11
61.4767672529
21
163.0528109037
31
0.0000000000
11
61.2933262442
21
162.9872307597
31
0.0000000000
11
61.1013632675
21
162.9649257092
31
0.0000000000
0
SPLINE
5
3E8
100
AcDbEntity
8
0
100
AcDbSpline
62
7
6
CONTINUOUS
70
0
71
3
72
15
73
11
74
9
42
0.0000001000
43
0.0000001000
44
0.0000000001
12
-0.0872135656
22
-1.4338306007
32
0.0000000000
13
-1.4401161754
23
0.0016964929
33
0.0000000000
40
0.0000000000
40
0.0000000000
40
0.0000000000
40
0.0000000000
40
0.1119828870
40
0.2233110471
40
0.3335961093
40
0.4425218861
40
0.5852520362
40
0.7253171391
40
0.8632432084
40
1.0000000000
40
1.0000000000
40
1.0000000000
40
1.0000000000
10
58.9905700085
20
163.8989533828
30
0.0000000000
10
58.9873145329
20
163.8454318861
30
0.0000000000
10
58.9729675435
20
163.7391320603
30
0.0000000000
10
58.9283971600
20
163.5852382053
30
0.0000000000
10
58.8617399824
20
163.4411168219
30
0.0000000000
10
58.7655322661
20
163.2962991607
30
0.0000000000
10
58.6336518128
20
163.1610002863
30
0.0000000000
10
58.4640011998
20
163.0495257983
30
0.0000000000
10
58.2759089137
20
162.9807691988
30
0.0000000000
10
58.1442963330
20
162.9648483735
30
0.0000000000
10
58.0786477771
20
162.9649257092
30
0.0000000000
11
58.9905700085
21
163.8989533828
31
0.0000000000
11
58.9690305737
21
163.7396458292
31
0.0000000000
11
58.9244516771
21
163.5861718568
31
0.0000000000
11
58.8579066248
21
163.4425163328
31
0.0000000000
11
58.7711770420
21
163.3124045551
31
0.0000000000
11
58.6279591605
21
163.1658741784
31
0.0000000000
11
58.4595908698
21
163.0559583950
31
0.0000000000
11
58.2736033167
21
162.9880424981
31
0.0000000000
11
58.0786477771
21
162.9649257092
31
0.0000000000
0
SPLINE
5
3E9
100
AcDbEntity
8
0
100
AcDbSpline
62
7
6
CONTINUOUS
70
0
71
3
72
10
73
6
74
4
42
0.0000001000
43
0.0000001000
44
0.0000000001
12
-0.7872181987
22
6.0078979711
32
0.0000000000
13
-0.7870774656
23
6.0079164097
33
0.0000000000
40
0.0000000000
40
0.0000000000
40
0.0000000000
40
0.0000000000
40
0.3331808226
40
0.6664919206
40
1.0000000000
40
1.0000000000
40
1.0000000000
40
1.0000000000
10
51.8265440204
20
145.3280437240
30
0.0000000000
10
51.7391153514
20
145.9952825200
30
0.0000000000
10
51.5642268984
20
147.3300214082
30
0.0000000000
10
51.3018220606
20
149.3326542262
30
0.0000000000
10
51.1268667348
20
150.6680509791
30
0.0000000000
10
51.0393678368
20
151.3359472000
30
0.0000000000
11
51.8265440204
21
145.3280437240
31
0.0000000000
11
51.5642605203
21
147.3297604406
31
0.0000000000
11
51.3018790594
21
149.3322604406
31
0.0000000000
11
51.0393678368
21
151.3359472000
31
0.0000000000
0
SPLINE
5
3EA
100
AcDbEntity
8
0
100
AcDbSpline
62
7
6
CONTINUOUS
70
0
71
3
72
12
73
8
74
6
42
0.0000001000
43
0.0000001000
44
0.0000000001
12
0.0350969828
22
-1.5364519535
32
0.0000000000
13
1.5368526965
23
-0.0004390926
33
0.0000000000
40
0.0000000000
40
0.0000000000
40
0.0000000000
40
0.0000000000
40
0.1998638985
40
0.4004145059
40
0.6009548325
40
0.8008239420
40
1.0000000000
40
1.0000000000
40
1.0000000000
40
1.0000000000
10
51.8265034636
20
163.9423197571
30
0.0000000000
10
51.8288416702
20
163.8399593313
30
0.0000000000
10
51.8653051929
20
163.6342391888
30
0.0000000000
10
52.0105482140
20
163.3574662090
30
0.0000000000
10
52.2334291926
20
163.1377868939
30
0.0000000000
10
52.5118973751
20
162.9972148776
30
0.0000000000
10
52.7177236011
20
162.9649678869
30
0.0000000000
10
52.8197583551
20
162.9649387347
30
0.0000000000
11
51.8265034636
21
163.9423197571
31
0.0000000000
11
51.8802688585
21
163.6399005149
31
0.0000000000
11
52.0235053753
21
163.3669886832
31
0.0000000000
11
52.2430750944
21
163.1507088490
31
0.0000000000
11
52.5173610378
21
163.0124328321
31
0.0000000000
11
52.8197583551
21
162.9649387347
31
0.0000000000
0
SPLINE
5
3EB
100
AcDbEntity
8
0
100
AcDbSpline
62
7
6
CONTINUOUS
70
0
71
3
72
17
73
13
74
11
42
0.0000001000
43
0.0000001000
44
0.0000000001
12
-0.9538253031
22
-0.0002147125
32
0.0000000000
13
-0.0469295729
23
0.9526799575
33
0.0000000000
40
0.0000000000
40
0.0000000000
40
0.0000000000
40
0.0000000000
40
0.0343751389
40
0.0715898979
40
0.1138767181
40
0.1625754757
40
0.2183731607
40
0.2814614957
40
0.4287841245
40
0.6014493513
40
0.7940754708
40
1.0000000000
40
1.0000000000
40
1.0000000000
40
1.0000000000
10
53.4993327512
20
162.9649257113
30
0.0000000000
10
53.4884034588
20
162.9649232510
30
0.0000000000
10
53.4655145022
20
162.9687186249
30
0.0000000000
10
53.4327376413
20
162.9850254655
30
0.0000000000
10
53.4012048653
20
163.0112893347
30
0.0000000000
10
53.3709486739
20
163.0470467021
30
0.0000000000
10
53.3421025274
20
163.0919853780
30
0.0000000000
10
53.3037932061
20
163.1675822147
30
0.0000000000
10
53.2625128288
20
163.2826203482
30
0.0000000000
10
53.2242092953
20
163.4412410997
30
0.0000000000
10
53.1965807126
20
163.6209299132
30
0.0000000000
10
53.1862764504
20
163.7473385959
30
0.0000000000
10
53.1830551336
20
163.8127319865
30
0.0000000000
11
53.4993327512
21
162.9649257113
31
0.0000000000
11
53.4669488594
21
162.9700566063
31
0.0000000000
11
53.4349267803
21
162.9853734417
31
0.0000000000
11
53.4035648988
21
163.0107371346
31
0.0000000000
11
53.3731835938
21
163.0458744858
31
0.0000000000
11
53.3440965221
21
163.0904446743
31
0.0000000000
11
53.3165988766
21
163.1439705113
31
0.0000000000
11
53.2674846523
21
163.2756294898
31
0.0000000000
11
53.2278516933
21
163.4354837903
31
0.0000000000
11
53.1993199409
21
163.6169885107
31
0.0000000000
11
53.1830551336
21
163.8127319865
31
0.0000000000
0
SPLINE
5
3EC
100
AcDbEntity
8
0
100
AcDbSpline
62
7
6
CONTINUOUS
70
0
71
3
72
12
73
8
74
6
42
0.0000001000
43
0.0000001000
44
0.0000000001
12
-0.9541187811
22
0.0001275113
32
0.0000000000
13
-0.0458663254
23
0.9530157107
33
0.0000000000
40
0.0000000000
40
0.0000000000
40
0.0000000000
40
0.0000000000
40
0.1027091802
40
0.2537485038
40
0.4610205141
40
0.7151025143
40
1.0000000000
40
1.0000000000
40
1.0000000000
40
1.0000000000
10
55.1221757957
20
162.9649430747
30
0.0000000000
10
55.0895102098
20
162.9649474403
30
0.0000000000
10
55.0119838801
20
163.0089617756
30
0.0000000000
10
54.9370620126
20
163.1368588208
30
0.0000000000
10
54.8718190697
20
163.3211577146
30
0.0000000000
10
54.8262069979
20
163.5547270817
30
0.0000000000
10
54.8103157056
20
163.7256637370
30
0.0000000000
10
54.8059599720
20
163.8161676636
30
0.0000000000
11
55.1221757957
21
162.9649430747
31
0.0000000000
11
55.0326953672
21
163.0049007725
31
0.0000000000
11
54.9497643909
21
163.1227565686
31
0.0000000000
11
54.8810352789
21
163.3081916384
31
0.0000000000
11
54.8318799577
21
163.5455802421
31
0.0000000000
11
54.8059599720
21
163.8161676636
31
0.0000000000
0
SPLINE
5
3ED
100
AcDbEntity
8
0
100
AcDbSpline
62
7
6
CONTINUOUS
70
0
71
3
72
11
73
7
74
5
42
0.0000001000
43
0.0000001000
44
0.0000000001
12
-1.5945742884
22
-1.7012043183
32
0.0000000000
13
-0.9003216642
23
-2.1516031304
33
0.0000000000
40
0.0000000000
40
0.0000000000
40
0.0000000000
40
0.0000000000
40
0.2487421127
40
0.4991913026
40
0.7499917300
40
1.0000000000
40
1.0000000000
40
1.0000000000
40
1.0000000000
10
63.7798694665
20
154.1649090910
30
0.0000000000
10
63.6476568741
20
154.0238553722
30
0.0000000000
10
63.3943826896
20
153.7294332155
30
0.0000000000
10
63.0534875714
20
153.2558768748
30
0.0000000000
10
62.7551863623
20
152.7531643800
30
0.0000000000
10
62.5878142353
20
152.4012875131
30
0.0000000000
10
62.5127849480
20
152.2219813210
30
0.0000000000
11
63.7798694665
21
154.1649090910
31
0.0000000000
11
63.4017977475
21
153.7252817759
31
0.0000000000
11
63.0608379397
21
153.2513752857
31
0.0000000000
11
62.7627676093
21
152.7484322354
31
0.0000000000
11
62.5127849480
21
152.2219813210
31
0.0000000000
0
SPLINE
5
3EE
100
AcDbEntity
8
0
100
AcDbSpline
62
7
6
CONTINUOUS
70
0
71
3
72
10
73
6
74
4
42
0.0000001000
43
0.0000001000
44
0.0000000001
12
-0.3163616966
22
0.0000162683
32
0.0000000000
13
-0.3159279036
23
0.0165614932
33
0.0000000000
40
0.0000000000
40
0.0000000000
40
0.0000000000
40
0.0000000000
40
0.3383732353
40
0.6729553026
40
1.0000000000
40
1.0000000000
40
1.0000000000
40
1.0000000000
10
55.1221757935
20
163.8081150397
30
0.0000000000
10
55.0864930165
20
163.8081168746
30
0.0000000000
10
55.0155256707
20
163.8087074134
30
0.0000000000
10
54.9101010721
20
163.8113792999
30
0.0000000000
10
54.8403888762
20
163.8143565967
30
0.0000000000
10
54.8059480276
20
163.8161620462
30
0.0000000000
11
55.1221757935
21
163.8081150397
31
0.0000000000
11
55.0151312543
21
163.8090160315
31
0.0000000000
11
54.9093165594
21
163.8117087439
31
0.0000000000
11
54.8059480276
21
163.8161620462
31
0.0000000000
0
SPLINE
5
3EF
100
AcDbEntity
8
0
100
AcDbSpline
62
7
6
CONTINUOUS
70
0
71
3
72
10
73
6
74
4
42
0.0000001000
43
0.0000001000
44
0.0000000001
12
0.7871055740
22
0.0104599039
32
0.0000000000
13
0.7871557171
23
0.0055200803
33
0.0000000000
40
0.0000000000
40
0.0000000000
40
0.0000000000
40
0.0000000000
40
0.3335094169
40
0.6668452584
40
1.0000000000
40
1.0000000000
40
1.0000000000
40
1.0000000000
10
51.0393680775
20
163.9345314981
30
0.0000000000
10
51.1268704512
20
163.9356943235
30
0.0000000000
10
51.3018324273
20
163.9378204786
30
0.0000000000
10
51.5642124558
20
163.9403134360
30
0.0000000000
10
51.7390885771
20
163.9417067435
30
0.0000000000
10
51.8265034636
20
163.9423197571
30
0.0000000000
11
51.0393680775
21
163.9345314981
31
0.0000000000
11
51.3018791948
21
163.9377050371
31
0.0000000000
11
51.5642605489
21
163.9402467948
31
0.0000000000
11
51.8265034636
21
163.9423197571
31
0.0000000000
0
SPLINE
5
3F0
100
AcDbEntity
8
0
100
AcDbSpline
62
7
6
CONTINUOUS
70
0
71
3
72
10
73
6
74
4
42
0.0000001000
43
0.0000001000
44
0.0000000001
12
0.3159279047
22
0.0165614933
32
0.0000000000
13
0.3163616977
23
0.0000162684
33
0.0000000000
40
0.0000000000
40
0.0000000000
40
0.0000000000
40
0.0000000000
40
0.3270446918
40
0.6616267578
40
1.0000000000
40
1.0000000000
40
1.0000000000
40
1.0000000000
10
54.8059480291
20
171.6406013722
30
0.0000000000
10
54.8403888772
20
171.6424068217
30
0.0000000000
10
54.9101010726
20
171.6453841185
30
0.0000000000
10
55.0155256715
20
171.6480560050
30
0.0000000000
10
55.0864930183
20
171.6486465438
30
0.0000000000
10
55.1221757960
20
171.6486483787
30
0.0000000000
11
54.8059480291
21
171.6406013722
31
0.0000000000
11
54.9093165595
21
171.6450546745
31
0.0000000000
11
55.0151312543
21
171.6477473868
31
0.0000000000
11
55.1221757960
21
171.6486483787
31
0.0000000000
0
SPLINE
5
3F1
100
AcDbEntity
8
0
100
AcDbSpline
62
7
6
CONTINUOUS
70
0
71
3
72
12
73
8
74
6
42
0.0000001000
43
0.0000001000
44
0.0000000001
12
0.0458660023
22
0.9530168482
32
0.0000000000
13
0.9541199024
23
0.0001221252
33
0.0000000000
40
0.0000000000
40
0.0000000000
40
0.0000000000
40
0.0000000000
40
0.2848971416
40
0.5389842744
40
0.7462742190
40
0.8973020658
40
1.0000000000
40
1.0000000000
40
1.0000000000
40
1.0000000000
10
54.8059597469
20
171.6405958610
30
0.0000000000
10
54.8103154445
20
171.7310997863
30
0.0000000000
10
54.8262067630
20
171.9020381719
30
0.0000000000
10
54.8718206018
20
172.1356149016
30
0.0000000000
10
54.9370660627
20
172.3199171045
30
0.0000000000
10
55.0119927813
20
172.4478108889
30
0.0000000000
10
55.0895137486
20
172.4918165656
30
0.0000000000
10
55.1221757963
20
172.4918207462
30
0.0000000000
11
54.8059597469
21
171.6405958610
31
0.0000000000
11
54.8318796093
21
171.9111832851
31
0.0000000000
11
54.8810362135
21
172.1485769150
31
0.0000000000
11
54.9497739458
21
172.3340272865
31
0.0000000000
11
55.0327034805
21
172.4518709142
31
0.0000000000
11
55.1221757963
21
172.4918207462
31
0.0000000000
0
SPLINE
5
3F2
100
AcDbEntity
8
0
100
AcDbSpline
62
7
6
CONTINUOUS
70
0
71
3
72
10
73
6
74
4
42
0.0000001000
43
0.0000001000
44
0.0000000001
12
-1.6228589529
22
0.0033634283
32
0.0000000000
13
-1.6228586740
23
0.0034954261
33
0.0000000000
40
0.0000000000
40
0.0000000000
40
0.0000000000
40
0.0000000000
40
0.3333224975
40
0.6666560576
40
1.0000000000
40
1.0000000000
40
1.0000000000
40
1.0000000000
10
54.8059597469
20
171.6405958610
30
0.0000000000
10
54.6256479471
20
171.6409695631
30
0.0000000000
10
54.2650184250
20
171.6417464440
30
0.0000000000
10
53.7240654584
20
171.6428762332
30
0.0000000000
10
53.3634243576
20
171.6436631874
30
0.0000000000
10
53.1831009882
20
171.6440515804
30
0.0000000000
11
54.8059597469
21
171.6405958610
31
0.0000000000
11
54.2650243969
21
171.6417405063
31
0.0000000000
11
53.7240710928
21
171.6428846585
31
0.0000000000
11
53.1831009882
21
171.6440515804
31
0.0000000000
0
SPLINE
5
3F3
100
AcDbEntity
8
0
100
AcDbSpline
62
7
6
CONTINUOUS
70
0
71
3
72
10
73
6
74
4
42
0.0000001000
43
0.0000001000
44
0.0000000001
12
1.6228604724
22
0.0034958364
32
0.0000000000
13
1.6228607508
23
0.0033640995
33
0.0000000000
40
0.0000000000
40
0.0000000000
40
0.0000000000
40
0.0000000000
40
0.3333443797
40
0.6666777212
40
1.0000000000
40
1.0000000000
40
1.0000000000
40
1.0000000000
10
53.1830993666
20
163.8127341654
30
0.0000000000
10
53.3634231724
20
163.8131226046
30
0.0000000000
10
53.7240648620
20
163.8138765166
30
0.0000000000
10
54.2650183991
20
163.8150199930
30
0.0000000000
10
54.6256480908
20
163.8157938872
30
0.0000000000
10
54.8059599720
20
163.8161676636
30
0.0000000000
11
53.1830993666
21
163.8127341654
31
0.0000000000
11
53.7240708285
21
163.8138786337
31
0.0000000000
11
54.2650243775
21
163.8150229030
31
0.0000000000
11
54.8059599720
21
163.8161676636
31
0.0000000000
0
SPLINE
5
3F4
100
AcDbEntity
8
0
100
AcDbSpline
62
7
6
CONTINUOUS
70
0
71
3
72
30
73
26
74
24
42
0.0000001000
43
0.0000001000
44
0.0000000001
12
-1.6594934757
22
12.7650516475
32
0.0000000000
13
13.3641713410
23
0.1701423689
33
0.0000000000
40
0.0000000000
40
0.0000000000
40
0.0000000000
40
0.0000000000
40
0.1090771575
40
0.2169853717
40
0.3223196719
40
0.4237465392
40
0.5199802109
40
0.6098235938
40
0.6921586664
40
0.7659642765
40
0.8151708707
40
0.8587980595
40
0.8720594602
40
0.8846569844
40
0.9078220972
40
0.9283228843
40
0.9375949325
40
0.9462133640
40
0.9541746898
40
0.9614786456
40
0.9741488382
40
0.9795784458
40
0.9844576327
40
0.9928078484
40
1.0000000000
40
1.0000000000
40
1.0000000000
40
1.0000000000
10
51.0393627432
20
151.3359465477
30
0.0000000000
10
50.9790251328
20
151.8000717306
30
0.0000000000
10
50.8605709480
20
152.7235625219
30
0.0000000000
10
50.6921069895
20
154.0962941573
30
0.0000000000
10
50.5375269338
20
155.4376322073
30
0.0000000000
10
50.4041146736
20
156.7309183988
30
0.0000000000
10
50.2990495581
20
157.9601535483
30
0.0000000000
10
50.2300523451
20
159.1099904218
30
0.0000000000
10
50.2051082917
20
160.1654334864
30
0.0000000000
10
50.2228100605
20
161.0467782511
30
0.0000000000
10
50.2732194871
20
161.7602469979
30
0.0000000000
10
50.3270546218
20
162.2125321507
30
0.0000000000
10
50.3739104939
20
162.5069994480
30
0.0000000000
10
50.4112147874
20
162.7140318857
30
0.0000000000
10
50.4616333961
20
162.9502170016
30
0.0000000000
10
50.5206265321
20
163.1697213775
30
0.0000000000
10
50.5712871965
20
163.3265025712
30
0.0000000000
10
50.6092756891
20
163.4307478210
30
0.0000000000
10
50.6484179525
20
163.5255105822
30
0.0000000000
10
50.6996581741
20
163.6338840562
30
0.0000000000
10
50.7543675288
20
163.7286544156
30
0.0000000000
10
50.8146074975
20
163.8069654633
30
0.0000000000
10
50.8697177431
20
163.8650056929
30
0.0000000000
10
50.9422448717
20
163.9177083456
30
0.0000000000
10
51.0073236946
20
163.9346713028
30
0.0000000000
10
51.0393627432
20
163.9350791994
30
0.0000000000
11
51.0393627432
21
151.3359465477
31
0.0000000000
11
50.8612075281
21
152.7286970447
31
0.0000000000
11
50.6924771415
21
154.1074624498
31
0.0000000000
11
50.5383406647
21
155.4545917848
31
0.0000000000
11
50.4057248807
21
156.7534593818
31
0.0000000000
11
50.3021083866
21
157.9878888934
31
0.0000000000
11
50.2354193363
21
159.1424759448
31
0.0000000000
11
50.2123886745
21
160.2020861860
31
0.0000000000
11
50.2345089541
21
161.1518933942
31
0.0000000000
11
50.2802519303
21
161.7836527772
31
0.0000000000
11
50.3480468216
21
162.3411378841
31
0.0000000000
11
50.3749472480
21
162.5097127993
31
0.0000000000
11
50.4037733554
21
162.6692921298
31
0.0000000000
11
50.4667032728
21
162.9607697820
31
0.0000000000
11
50.5360363873
21
163.2153960151
31
0.0000000000
11
50.5728699503
21
163.3289250081
31
0.0000000000
11
50.6110001859
21
163.4331074932
31
0.0000000000
11
50.6503064730
21
163.5277523833
31
0.0000000000
11
50.6906681904
21
163.6126685912
31
0.0000000000
11
50.7741110546
21
163.7528044237
31
0.0000000000
11
50.8169999403
21
163.8079908654
31
0.0000000000
11
50.8605419231
21
163.8532553531
31
0.0000000000
11
50.9492095634
21
163.9140155536
31
0.0000000000
11
51.0393627432
21
163.9350791994
31
0.0000000000
0
SPLINE
5
3F5
100
AcDbEntity
8
0
100
AcDbSpline
62
7
6
CONTINUOUS
70
0
71
3
72
11
73
7
74
5
42
0.0000001000
43
0.0000001000
44
0.0000000001
12
-3.0022986505
22
-6.8566361887
32
0.0000000000
13
-3.0371523563
23
-6.8412645377
33
0.0000000000
40
0.0000000000
40
0.0000000000
40
0.0000000000
40
0.0000000000
40
0.2500694408
40
0.5000834379
40
0.7500557941
40
1.0000000000
40
1.0000000000
40
1.0000000000
40
1.0000000000
10
62.0132849417
20
151.0651258578
30
0.0000000000
10
61.7630238934
20
150.4935807986
30
0.0000000000
10
61.2614570198
20
149.3510999518
30
0.0000000000
10
60.5064368981
20
147.6387422128
30
0.0000000000
10
59.7493648619
20
145.9276328573
30
0.0000000000
10
59.2436095531
20
144.7874555845
30
0.0000000000
10
58.9905700085
20
144.2174774405
30
0.0000000000
11
62.0132849417
21
151.0651258578
31
0.0000000000
11
61.2609447048
21
149.3511741936
31
0.0000000000
11
60.5060319010
21
147.6388075974
31
0.0000000000
11
59.7490668843
21
145.9276880271
31
0.0000000000
11
58.9905700085
21
144.2174774405
31
0.0000000000
0
SPLINE
5
3F6
100
AcDbEntity
8
0
100
AcDbSpline
62
7
6
CONTINUOUS
70
0
71
3
72
9
73
5
74
3
42
0.0000001000
43
0.0000001000
44
0.0000000001
12
-0.4933024813
22
-1.1595313798
32
0.0000000000
13
-0.5056971884
23
-1.1541796989
33
0.0000000000
40
0.0000000000
40
0.0000000000
40
0.0000000000
40
0.0000000000
40
0.4996436577
40
1.0000000000
40
1.0000000000
40
1.0000000000
40
1.0000000000
10
62.5127848630
20
152.2219813593
30
0.0000000000
10
62.4306263777
20
152.0288638594
30
0.0000000000
10
62.2651600611
20
151.6427990550
30
0.0000000000
10
62.0976279600
20
151.2576261975
30
0.0000000000
10
62.0132850282
20
151.0651258200
30
0.0000000000
11
62.5127848630
21
152.2219813593
31
0.0000000000
11
62.2647622762
21
151.6432968665
31
0.0000000000
11
62.0132850282
21
151.0651258200
31
0.0000000000
0
SPLINE
5
3F7
100
AcDbEntity
8
0
100
AcDbSpline
62
7
6
CONTINUOUS
70
0
71
3
72
15
73
11
74
9
42
0.0000001000
43
0.0000001000
44
0.0000000001
12
-0.9402419779
22
-2.0956503902
32
0.0000000000
13
-2.2950703120
23
-0.0008659228
33
0.0000000000
40
0.0000000000
40
0.0000000000
40
0.0000000000
40
0.0000000000
40
0.1419716570
40
0.2844640274
40
0.4266835134
40
0.5700502253
40
0.7128575368
40
0.8205344041
40
0.9104609341
40
1.0000000000
40
1.0000000000
40
1.0000000000
40
1.0000000000
10
58.9905701291
20
144.2174773870
30
0.0000000000
10
58.9460742252
20
144.1183030675
30
0.0000000000
10
58.8404379990
20
143.9270559281
30
0.0000000000
10
58.6376238719
20
143.6696115932
30
0.0000000000
10
58.3948072583
20
143.4479018354
30
0.0000000000
10
58.1188358161
20
143.2686698948
30
0.0000000000
10
57.8415031021
20
143.1476837302
30
0.0000000000
10
57.5898726600
20
143.0785566354
30
0.0000000000
10
57.3725196525
20
143.0447819979
30
0.0000000000
10
57.2352266202
20
143.0376909289
30
0.0000000000
10
57.1667271362
20
143.0376650843
30
0.0000000000
11
58.9905701291
21
144.2174773870
31
0.0000000000
11
58.8332641222
21
143.9322912092
31
0.0000000000
11
58.6309405362
21
143.6755402648
31
0.0000000000
11
58.3900062101
21
143.4555456099
31
0.0000000000
11
58.1141692141
21
143.2764221785
31
0.0000000000
11
57.8139128805
21
143.1453691754
31
0.0000000000
11
57.5757098909
21
143.0799656169
31
0.0000000000
11
57.3718632419
21
143.0482561377
31
0.0000000000
11
57.1667271362
21
143.0376650843
31
0.0000000000
0
SPLINE
5
3F8
100
AcDbEntity
8
0
100
AcDbSpline
62
7
6
CONTINUOUS
70
0
71
3
72
19
73
15
74
13
42
0.0000001000
43
0.0000001000
44
0.0000000001
12
-0.9314121615
22
-0.2717997987
32
0.0000000000
13
-0.8897092528
23
0.3750821908
33
0.0000000000
40
0.0000000000
40
0.0000000000
40
0.0000000000
40
0.0000000000
40
0.0058377343
40
0.0129617999
40
0.0312715805
40
0.0551302559
40
0.0845418393
40
0.1194286134
40
0.1596046951
40
0.2549303957
40
0.4099629847
40
0.5908344107
40
0.7902957985
40
1.0000000000
40
1.0000000000
40
1.0000000000
40
1.0000000000
10
62.5127848282
20
152.2219812774
30
0.0000000000
10
62.5109723826
20
152.2214523790
30
0.0000000000
10
62.5068825730
20
152.2206152660
30
0.0000000000
10
62.4968193786
20
152.2198771094
30
0.0000000000
10
62.4809354511
20
152.2206955257
30
0.0000000000
10
62.4580967550
20
152.2238103880
30
0.0000000000
10
62.4302275964
20
152.2291998448
30
0.0000000000
10
62.3974789171
20
152.2368531499
30
0.0000000000
10
62.3444499499
20
152.2508556031
30
0.0000000000
10
62.2548860764
20
152.2778158458
30
0.0000000000
10
62.1233962741
20
152.3223170183
30
0.0000000000
10
61.9616460875
20
152.3817555314
30
0.0000000000
10
61.7847891653
20
152.4509698332
30
0.0000000000
10
61.6630550342
20
152.5012335438
30
0.0000000000
10
61.6008631114
20
152.5274523143
30
0.0000000000
11
62.5127848282
21
152.2219812774
31
0.0000000000
11
62.5072719558
21
152.2208060815
31
0.0000000000
11
62.5004180674
21
152.2202213785
31
0.0000000000
11
62.4827487417
21
152.2208173563
31
0.0000000000
11
62.4598998497
21
152.2237570216
31
0.0000000000
11
62.4319943901
21
152.2290281850
31
0.0000000000
11
62.3991731874
21
152.2366103801
31
0.0000000000
11
62.3616489727
21
152.2464498901
31
0.0000000000
11
62.2734138530
21
152.2726528234
31
0.0000000000
11
62.1314744826
21
152.3202106904
31
0.0000000000
11
61.9674684085
21
152.3802318431
31
0.0000000000
11
61.7880752589
21
152.4503069189
31
0.0000000000
11
61.6008631114
21
152.5274523143
31
0.0000000000
0
SPLINE
5
3F9
100
AcDbEntity
8
0
100
AcDbSpline
62
7
6
CONTINUOUS
70
0
71
3
72
16
73
12
74
10
42
0.0000001000
43
0.0000001000
44
0.0000000001
12
-0.7975087351
22
0.0847949588
32
0.0000000000
13
-0.5922113639
23
0.5379387197
33
0.0000000000
40
0.0000000000
40
0.0000000000
40
0.0000000000
40
0.0000000000
40
0.0251357681
40
0.0538459429
40
0.1222693059
40
0.2053648976
40
0.3024420314
40
0.4517477838
40
0.6205259812
40
0.8048125752
40
1.0000000000
40
1.0000000000
40
1.0000000000
40
1.0000000000
10
63.7798694792
20
154.1649091045
30
0.0000000000
10
63.7731874810
20
154.1656195666
30
0.0000000000
10
63.7590145503
20
154.1679998572
30
0.0000000000
10
63.7274891102
20
154.1765354314
30
0.0000000000
10
63.6826769721
20
154.1942687021
30
0.0000000000
10
63.6234787188
20
154.2242530166
30
0.0000000000
10
63.5478386041
20
154.2690873486
30
0.0000000000
10
63.4560836680
20
154.3311928571
30
0.0000000000
10
63.3489712503
20
154.4117674976
30
0.0000000000
10
63.2358209468
20
154.5044485693
30
0.0000000000
10
63.1598956150
20
154.5714240310
30
0.0000000000
10
63.1213648780
20
154.6064236555
30
0.0000000000
11
63.7798694792
21
154.1649091045
31
0.0000000000
11
63.7600184651
21
154.1681422763
31
0.0000000000
11
63.7378066430
21
154.1740056263
31
0.0000000000
11
63.6866498051
21
154.1935116818
31
0.0000000000
11
63.6271360055
21
154.2231592020
31
0.0000000000
11
63.5601566029
21
154.2624972719
31
0.0000000000
11
63.4609336805
21
154.3290364515
31
0.0000000000
11
63.3528289415
21
154.4099787818
31
0.0000000000
11
63.2386348156
21
154.5032723070
31
0.0000000000
11
63.1213648780
21
154.6064236555
31
0.0000000000
0
SPLINE
5
3FA
100
AcDbEntity
8
0
100
AcDbSpline
62
7
6
CONTINUOUS
70
0
71
3
72
13
73
9
74
7
42
0.0000001000
43
0.0000001000
44
0.0000000001
12
0.6456590112
22
-0.1694653176
32
0.0000000000
13
0.6307791439
23
0.2206446175
33
0.0000000000
40
0.0000000000
40
0.0000000000
40
0.0000000000
40
0.0000000000
40
0.1396914137
40
0.2764661621
40
0.5382011498
40
0.7802673271
40
0.8930501072
40
1.0000000000
40
1.0000000000
40
1.0000000000
40
1.0000000000
10
66.3013941718
20
158.4252167955
30
0.0000000000
10
66.3314585119
20
158.4173258456
30
0.0000000000
10
66.3913924813
20
158.4033927741
30
0.0000000000
10
66.5094613561
20
158.3832230518
30
0.0000000000
10
66.6519212031
20
158.3719294109
30
0.0000000000
10
66.7894107722
20
158.3804573445
30
0.0000000000
10
66.8904358687
20
158.3998396031
30
0.0000000000
10
66.9374102784
20
158.4135304710
30
0.0000000000
10
66.9598975323
20
158.4213964438
30
0.0000000000
11
66.3013941718
21
158.4252167955
31
0.0000000000
11
66.3922076485
21
158.4041577692
31
0.0000000000
11
66.4821895778
21
158.3888377065
31
0.0000000000
11
66.6563759939
21
158.3758606553
31
0.0000000000
11
66.8175420316
21
158.3868922453
31
0.0000000000
11
66.8914233532
21
158.4012616168
31
0.0000000000
11
66.9598975323
21
158.4213964438
31
0.0000000000
0
SPLINE
5
3FB
100
AcDbEntity
8
0
100
AcDbSpline
62
7
6
CONTINUOUS
70
0
71
3
72
15
73
11
74
9
42
0.0000001000
43
0.0000001000
44
0.0000000001
12
-1.9667003911
22
-4.9708987323
32
0.0000000000
13
-3.7281273292
23
-3.8289998191
33
0.0000000000
40
0.0000000000
40
0.0000000000
40
0.0000000000
40
0.0000000000
40
0.0558097966
40
0.1127670642
40
0.2294454494
40
0.3530456109
40
0.4791025457
40
0.7371049162
40
0.8682353988
40
1.0000000000
40
1.0000000000
40
1.0000000000
40
1.0000000000
10
66.9602051868
20
158.4212756151
30
0.0000000000
10
66.9236181372
20
158.3288006661
30
0.0000000000
10
66.8443472245
20
158.1441685659
30
0.0000000000
10
66.6642071985
20
157.7771303243
30
0.0000000000
10
66.3996061150
20
157.3178593380
30
0.0000000000
10
66.0357560557
20
156.7757122281
30
0.0000000000
10
65.4915464776
20
156.0531342205
30
0.0000000000
10
64.8956611890
20
155.3542158164
30
0.0000000000
10
64.2676412338
20
154.6711842385
30
0.0000000000
10
63.9436352108
20
154.3330644961
30
0.0000000000
10
63.7798901405
20
154.1648889513
30
0.0000000000
11
66.9602051868
21
158.4212756151
31
0.0000000000
11
66.8428848217
21
158.1470861865
31
0.0000000000
11
66.7091313175
21
157.8736836395
31
0.0000000000
11
66.3999315463
21
157.3322497488
31
0.0000000000
11
66.0333753471
21
156.7828095577
31
0.0000000000
11
65.6294898669
21
156.2436998701
31
0.0000000000
11
64.7405321097
21
155.1898584532
31
0.0000000000
11
64.2666525981
21
154.6736587412
31
0.0000000000
11
63.7798901405
21
154.1648889513
31
0.0000000000
0
SPLINE
5
3FC
100
AcDbEntity
8
0
100
AcDbSpline
62
7
6
CONTINUOUS
70
0
71
3
72
11
73
7
74
5
42
0.0000001000
43
0.0000001000
44
0.0000000001
12
3.0371523563
22
-6.8412645377
32
0.0000000000
13
3.0022986505
23
-6.8566361887
33
0.0000000000
40
0.0000000000
40
0.0000000000
40
0.0000000000
40
0.0000000000
40
0.2499442059
40
0.4999165621
40
0.7499305592
40
1.0000000000
40
1.0000000000
40
1.0000000000
40
1.0000000000
10
58.9905700085
20
191.2392859779
30
0.0000000000
10
59.2436095531
20
190.6693078338
30
0.0000000000
10
59.7493648619
20
189.5291305610
30
0.0000000000
10
60.5064368981
20
187.8180212055
30
0.0000000000
10
61.2614570198
20
186.1056634666
30
0.0000000000
10
61.7630238934
20
184.9631826198
30
0.0000000000
10
62.0132849417
20
184.3916375605
30
0.0000000000
11
58.9905700085
21
191.2392859779
31
0.0000000000
11
59.7490668843
21
189.5290753912
31
0.0000000000
11
60.5060319010
21
187.8179558209
31
0.0000000000
11
61.2609447048
21
186.1055892248
31
0.0000000000
11
62.0132849417
21
184.3916375605
31
0.0000000000
0
SPLINE
5
3FD
100
AcDbEntity
8
0
100
AcDbSpline
62
7
6
CONTINUOUS
70
0
71
3
72
9
73
5
74
3
42
0.0000001000
43
0.0000001000
44
0.0000000001
12
0.5056971884
22
-1.1541796989
32
0.0000000000
13
0.4933024813
23
-1.1595313799
33
0.0000000000
40
0.0000000000
40
0.0000000000
40
0.0000000000
40
0.0000000000
40
0.5003563469
40
1.0000000000
40
1.0000000000
40
1.0000000000
40
1.0000000000
10
62.0132850282
20
184.3916375984
30
0.0000000000
10
62.0976279608
20
184.1991372191
30
0.0000000000
10
62.2651600619
20
183.8139643615
30
0.0000000000
10
62.4306263784
20
183.4278995571
30
0.0000000000
10
62.5127848631
20
183.2347820590
30
0.0000000000
11
62.0132850282
21
184.3916375984
31
0.0000000000
11
62.2647622785
21
183.8134665465
31
0.0000000000
11
62.5127848631
21
183.2347820590
31
0.0000000000
0
SPLINE
5
3FE
100
AcDbEntity
8
0
100
AcDbSpline
62
7
6
CONTINUOUS
70
0
71
3
72
11
73
7
74
5
42
0.0000001000
43
0.0000001000
44
0.0000000001
12
0.9003216586
22
-2.1516031119
32
0.0000000000
13
1.5945742716
23
-1.7012043077
33
0.0000000000
40
0.0000000000
40
0.0000000000
40
0.0000000000
40
0.0000000000
40
0.2500082702
40
0.5008086953
40
0.7512578822
40
1.0000000000
40
1.0000000000
40
1.0000000000
40
1.0000000000
10
62.5127849500
20
183.2347820926
30
0.0000000000
10
62.5878142368
20
183.0554759019
30
0.0000000000
10
62.7551863619
20
182.7035990395
30
0.0000000000
10
63.0534875662
20
182.2008865520
30
0.0000000000
10
63.3943826804
20
181.7273302146
30
0.0000000000
10
63.6476568631
20
181.4329080584
30
0.0000000000
10
63.7798694568
20
181.2918543377
30
0.0000000000
11
62.5127849500
21
183.2347820926
31
0.0000000000
11
62.7627676096
21
182.7083311823
31
0.0000000000
11
63.0608379345
21
182.2053881405
31
0.0000000000
11
63.4017977344
21
181.7314816591
31
0.0000000000
11
63.7798694568
21
181.2918543377
31
0.0000000000
0
SPLINE
5
3FF
100
AcDbEntity
8
0
100
AcDbSpline
62
7
6
CONTINUOUS
70
0
71
3
72
11
73
7
74
5
42
0.0000001000
43
0.0000001000
44
0.0000000001
12
0.1042927338
22
1.0029509802
32
0.0000000000
13
0.5769172481
23
0.8270191833
33
0.0000000000
40
0.0000000000
40
0.0000000000
40
0.0000000000
40
0.0000000000
40
0.1155463180
40
0.7046770009
40
0.9257944919
40
1.0000000000
40
1.0000000000
40
1.0000000000
40
1.0000000000
10
51.8263292637
20
190.1291526769
30
0.0000000000
10
51.8303461442
20
190.1677817745
30
0.0000000000
10
51.8617870868
20
190.4025311333
30
0.0000000000
10
51.9587071652
20
190.7045206378
30
0.0000000000
10
52.1056709043
20
190.9633621762
30
0.0000000000
10
52.1609799658
20
191.0458273032
30
0.0000000000
10
52.1752501116
20
191.0662837628
30
0.0000000000
11
51.8263292637
21
190.1291526769
31
0.0000000000
11
51.8417950429
21
190.2446343650
31
0.0000000000
11
52.0235670317
21
190.8101984761
31
0.0000000000
11
52.1335788567
21
191.0041352254
31
0.0000000000
11
52.1752501116
21
191.0662837628
31
0.0000000000
0
SPLINE
5
400
100
AcDbEntity
8
0
100
AcDbSpline
62
7
6
CONTINUOUS
70
0
71
3
72
12
73
8
74
6
42
0.0000001000
43
0.0000001000
44
0.0000000001
12
0.7315693805
22
1.0487097619
32
0.0000000000
13
1.2130110503
23
0.4044627364
33
0.0000000000
40
0.0000000000
40
0.0000000000
40
0.0000000000
40
0.0000000000
40
0.1173357745
40
0.4674273568
40
0.7021480395
40
0.9373578746
40
1.0000000000
40
1.0000000000
40
1.0000000000
40
1.0000000000
10
52.1752531775
20
191.0662816237
30
0.0000000000
10
52.2038662641
20
191.1072986810
30
0.0000000000
10
52.3238020075
20
191.2665228638
30
0.0000000000
10
52.5398243145
20
191.4779824499
30
0.0000000000
10
52.8316209017
20
191.6723231020
30
0.0000000000
10
53.0381920951
20
191.7688302109
30
0.0000000000
10
53.1578060394
20
191.8114103620
30
0.0000000000
10
53.1831345695
20
191.8198558305
30
0.0000000000
11
52.1752531775
21
191.0662816237
31
0.0000000000
11
52.2655842047
21
191.1860742561
31
0.0000000000
11
52.5854168761
21
191.4992797256
31
0.0000000000
11
52.8352024853
21
191.6656670295
31
0.0000000000
11
53.1076739949
21
191.7929961002
31
0.0000000000
11
53.1831345695
21
191.8198558305
31
0.0000000000
0
SPLINE
5
401
100
AcDbEntity
8
0
100
AcDbSpline
62
7
6
CONTINUOUS
70
0
71
3
72
10
73
6
74
4
42
0.0000001000
43
0.0000001000
44
0.0000000001
12
1.6228271862
22
0.5485171928
32
0.0000000000
13
1.6228863962
23
0.5483419848
33
0.0000000000
40
0.0000000000
40
0.0000000000
40
0.0000000000
40
0.0000000000
40
0.3333446927
40
0.6666780037
40
1.0000000000
40
1.0000000000
40
1.0000000000
40
1.0000000000
10
53.1830997605
20
191.8199616388
30
0.0000000000
10
53.3634200370
20
191.8809100705
30
0.0000000000
10
53.7240660956
20
192.0027703462
30
0.0000000000
10
54.2650190260
20
192.1855782379
30
0.0000000000
10
54.6256451690
20
192.3074569656
30
0.0000000000
10
54.8059597468
20
192.3683817806
30
0.0000000000
11
53.1830997605
21
191.8199616388
31
0.0000000000
11
53.7240710928
21
192.0027758579
31
0.0000000000
11
54.2650243969
21
192.1855825255
31
0.0000000000
11
54.8059597468
21
192.3683817806
31
0.0000000000
0
SPLINE
5
402
100
AcDbEntity
8
0
100
AcDbSpline
62
7
6
CONTINUOUS
70
0
71
3
72
14
73
10
74
8
42
0.0000001000
43
0.0000001000
44
0.0000000001
12
2.2966770830
22
0.0024218834
32
0.0000000000
13
0.9400284355
23
-2.0953375768
33
0.0000000000
40
0.0000000000
40
0.0000000000
40
0.0000000000
40
0.0000000000
40
0.1434045365
40
0.2870073563
40
0.4298391827
40
0.5732334933
40
0.7154806905
40
0.8580002284
40
1.0000000000
40
1.0000000000
40
1.0000000000
40
1.0000000000
10
57.1667271362
20
192.4190983341
30
0.0000000000
10
57.2765117737
20
192.4192141038
30
0.0000000000
10
57.4961704051
20
192.4009457519
30
0.0000000000
10
57.8162640443
20
192.3201652987
30
0.0000000000
10
58.1188004936
20
192.1881038070
30
0.0000000000
10
58.3948046183
20
192.0088910209
30
0.0000000000
10
58.6376140225
20
191.7871643809
30
0.0000000000
10
58.8404358076
20
191.5297159689
30
0.0000000000
10
58.9460755214
20
191.3384651838
30
0.0000000000
10
58.9905701291
20
191.2392860314
30
0.0000000000
11
57.1667271362
21
192.4190983341
31
0.0000000000
11
57.4945383662
21
192.3920533254
31
0.0000000000
11
57.8138987040
21
192.3114307083
31
0.0000000000
11
58.1141497175
21
192.1803638302
31
0.0000000000
11
58.3899964583
21
192.0012415780
31
0.0000000000
11
58.6309334109
21
191.7812375870
31
0.0000000000
11
58.8332610964
21
191.5244811114
31
0.0000000000
11
58.9905701291
21
191.2392860314
31
0.0000000000
0
SPLINE
5
403
100
AcDbEntity
8
0
100
AcDbSpline
62
7
6
CONTINUOUS
70
0
71
3
72
11
73
7
74
5
42
0.0000001000
43
0.0000001000
44
0.0000000001
12
-0.3215292372
22
-0.0009559075
32
0.0000000000
13
-0.3047131837
23
-0.1026247523
33
0.0000000000
40
0.0000000000
40
0.0000000000
40
0.0000000000
40
0.0000000000
40
0.2226860170
40
0.4639345253
40
0.7230022057
40
1.0000000000
40
1.0000000000
40
1.0000000000
40
1.0000000000
10
55.1221757961
20
192.4190983341
30
0.0000000000
10
55.0983091078
20
192.4190273783
30
0.0000000000
10
55.0485720176
20
192.4173470283
30
0.0000000000
10
54.9714567136
20
192.4089262171
30
0.0000000000
10
54.8895723626
20
192.3931829494
30
0.0000000000
10
54.8340829904
20
192.3778920974
30
0.0000000000
10
54.8059480304
20
192.3684164874
30
0.0000000000
11
55.1221757961
21
192.4190983341
31
0.0000000000
11
55.0506205474
21
192.4165564787
31
0.0000000000
11
54.9735105253
21
192.4081325890
31
0.0000000000
11
54.8916903366
21
192.3925105807
31
0.0000000000
11
54.8059480304
21
192.3684164874
31
0.0000000000
0
SPLINE
5
404
100
AcDbEntity
8
0
100
AcDbSpline
62
7
6
CONTINUOUS
70
0
71
3
72
12
73
8
74
6
42
0.0000001000
43
0.0000001000
44
0.0000000001
12
0.9992759241
22
-0.0295836389
32
0.0000000000
13
0.9936066193
23
-0.1103333599
33
0.0000000000
40
0.0000000000
40
0.0000000000
40
0.0000000000
40
0.0000000000
40
0.0541159402
40
0.1983872208
40
0.4194977895
40
0.6956402795
40
1.0000000000
40
1.0000000000
40
1.0000000000
40
1.0000000000
10
51.8265035433
20
190.1283157536
30
0.0000000000
10
51.8445291287
20
190.1277821048
30
0.0000000000
10
51.9100351798
20
190.1174649396
30
0.0000000000
10
52.0490243667
20
190.1035929677
30
0.0000000000
10
52.2613144586
20
190.0778096656
30
0.0000000000
10
52.5267337441
20
190.0478648639
30
0.0000000000
10
52.7189537441
20
190.0260678901
30
0.0000000000
10
52.8197583551
20
190.0148742132
30
0.0000000000
11
51.8265035433
21
190.1283157536
31
0.0000000000
11
51.8802832063
21
190.1224330299
31
0.0000000000
11
52.0235425323
21
190.1057281473
31
0.0000000000
11
52.2431223933
21
190.0803001722
31
0.0000000000
11
52.5173935219
21
190.0488936142
31
0.0000000000
11
52.8197583551
21
190.0148742132
31
0.0000000000
0
SPLINE
5
405
100
AcDbEntity
8
0
100
AcDbSpline
62
7
6
CONTINUOUS
70
0
71
3
72
12
73
8
74
6
42
0.0000001000
43
0.0000001000
44
0.0000000001
12
-0.9936118452
22
-0.1103334782
32
0.0000000000
13
-0.9930471031
23
-0.1153057949
33
0.0000000000
40
0.0000000000
40
0.0000000000
40
0.0000000000
40
0.0000000000
40
0.3043053026
40
0.5804395976
40
0.8015715901
40
0.9458683703
40
1.0000000000
40
1.0000000000
40
1.0000000000
40
1.0000000000
10
52.8197583551
20
145.4418892051
30
0.0000000000
10
52.7189712373
20
145.4306975176
30
0.0000000000
10
52.5267641895
20
145.4090186616
30
0.0000000000
10
52.2613835674
20
145.3786243269
30
0.0000000000
10
52.0490111718
20
145.3540080102
30
0.0000000000
10
51.9101346091
20
145.3378431699
30
0.0000000000
10
51.8444624398
20
145.3301242875
30
0.0000000000
10
51.8265440204
20
145.3280437240
30
0.0000000000
11
52.8197583551
21
145.4418892051
31
0.0000000000
11
52.5174460139
21
145.4078756616
31
0.0000000000
11
52.2431816283
21
145.3764695922
31
0.0000000000
11
52.0235793904
21
145.3510386544
31
0.0000000000
11
51.8802940544
21
145.3343302436
31
0.0000000000
11
51.8265440204
21
145.3280437240
31
0.0000000000
0
SPLINE
5
406
100
AcDbEntity
8
0
100
AcDbSpline
62
7
6
CONTINUOUS
70
0
71
3
72
11
73
7
74
5
42
0.0000001000
43
0.0000001000
44
0.0000000001
12
-0.5356086531
22
-0.5372841627
32
0.0000000000
13
-0.7437489782
23
-0.1498207982
33
0.0000000000
40
0.0000000000
40
0.0000000000
40
0.0000000000
40
0.0000000000
40
0.2483059332
40
0.5003133621
40
0.7521599807
40
1.0000000000
40
1.0000000000
40
1.0000000000
40
1.0000000000
10
66.9598980237
20
160.9733804198
30
0.0000000000
10
66.9155664215
20
160.9289101380
30
0.0000000000
10
66.8195552426
20
160.8461177373
30
0.0000000000
10
66.6585928433
20
160.7439767944
30
0.0000000000
10
66.4847146383
20
160.6661023032
30
0.0000000000
10
66.3628377513
20
160.6317743938
30
0.0000000000
10
66.3013941643
20
160.6193971973
30
0.0000000000
11
66.9598980237
21
160.9733804198
31
0.0000000000
11
66.8175423168
21
160.8503883877
31
0.0000000000
11
66.6563759912
21
160.7480133422
31
0.0000000000
11
66.4821895728
21
160.6701171580
31
0.0000000000
11
66.3013941643
21
160.6193971973
31
0.0000000000
0
SPLINE
5
407
100
AcDbEntity
8
0
100
AcDbSpline
62
7
6
CONTINUOUS
70
0
71
3
72
9
73
5
74
3
42
0.0000001000
43
0.0000001000
44
0.0000000001
12
0.5043773254
22
-0.0002863245
32
0.0000000000
13
0.4946223236
23
0.0986675412
33
0.0000000000
40
0.0000000000
40
0.0000000000
40
0.0000000000
40
0.0000000000
40
0.5010163076
40
1.0000000000
40
1.0000000000
40
1.0000000000
40
1.0000000000
10
61.1013636117
20
172.4918377090
30
0.0000000000
10
61.1855973668
20
172.4917898912
30
0.0000000000
10
61.3529085728
20
172.4999573664
30
0.0000000000
10
61.5185939451
20
172.5246171526
30
0.0000000000
10
61.6008634362
20
172.5410283173
30
0.0000000000
11
61.1013636117
21
172.4918377090
31
0.0000000000
11
61.3528405396
21
172.5041138238
31
0.0000000000
11
61.6008634362
21
172.5410283173
31
0.0000000000
0
SPLINE
5
408
100
AcDbEntity
8
0
100
AcDbSpline
62
7
6
CONTINUOUS
70
0
71
3
72
15
73
11
74
9
42
0.0000001000
43
0.0000001000
44
0.0000000001
12
-0.5777155583
22
0.8279363406
32
0.0000000000
13
-0.1042905157
23
1.0041699241
33
0.0000000000
40
0.0000000000
40
0.0000000000
40
0.0000000000
40
0.0000000000
40
0.1480309405
40
0.5162956328
40
0.8839821287
40
0.9208105352
40
0.9575417014
40
0.9758936644
40
0.9942309702
40
1.0000000000
40
1.0000000000
40
1.0000000000
40
1.0000000000
10
52.1751233949
20
144.3904411766
30
0.0000000000
10
52.1466168024
20
144.4312945749
30
0.0000000000
10
52.0524723687
20
144.5774939479
30
0.0000000000
10
51.9247984319
20
144.8482069985
30
0.0000000000
10
51.8587660737
20
145.1014838729
30
0.0000000000
10
51.8361181725
20
145.2482321908
30
0.0000000000
10
51.8319882699
20
145.2788884121
30
0.0000000000
10
51.8290211529
20
145.3034174827
30
0.0000000000
10
51.8274389241
20
145.3176180978
30
0.0000000000
10
51.8265892364
20
145.3256858361
30
0.0000000000
10
51.8263886847
20
145.3276168648
30
0.0000000000
11
52.1751233949
21
144.3904411766
31
0.0000000000
11
52.0942403589
21
144.5161096622
31
0.0000000000
11
51.9355840591
21
144.8523469822
31
0.0000000000
11
51.8418984785
21
145.2115358739
31
0.0000000000
11
51.8362310718
21
145.2482822955
31
0.0000000000
11
51.8312731582
21
145.2850320923
31
0.0000000000
11
51.8290494508
21
145.3034257741
31
0.0000000000
11
51.8269987100
21
145.3218246533
31
0.0000000000
11
51.8263886847
21
145.3276168648
31
0.0000000000
0
SPLINE
5
409
100
AcDbEntity
8
0
100
AcDbSpline
62
7
6
CONTINUOUS
70
0
71
3
72
8
73
4
74
2
42
0.0000001000
43
0.0000001000
44
0.0000000001
12
-3.0035220898
22
6.8508675710
32
0.0000000000
13
-3.0363574588
23
6.8363780519
33
0.0000000000
40
0.0000000000
40
0.0000000000
40
0.0000000000
40
0.0000000000
40
1.0000000000
40
1.0000000000
40
1.0000000000
40
1.0000000000
10
61.1013627696
20
183.9918373400
30
0.0000000000
10
60.1001887397
20
186.2754598636
30
0.0000000000
10
59.0907669301
20
188.5554656847
30
0.0000000000
10
58.0786477771
20
190.8342583687
30
0.0000000000
11
61.1013627696
21
183.9918373400
31
0.0000000000
11
58.0786477771
21
190.8342583687
31
0.0000000000
0
SPLINE
5
40A
100
AcDbEntity
8
0
100
AcDbSpline
62
7
6
CONTINUOUS
70
0
71
3
72
14
73
10
74
8
42
0.0000001000
43
0.0000001000
44
0.0000000001
12
-0.4651196447
22
1.0472198308
32
0.0000000000
13
-1.1458645899
23
0.0000000020
33
0.0000000000
40
0.0000000000
40
0.0000000000
40
0.0000000000
40
0.0000000000
40
0.1428571431
40
0.2857142861
40
0.4285714292
40
0.5714285723
40
0.7142857154
40
0.8571428584
40
1.0000000000
40
1.0000000000
40
1.0000000000
40
1.0000000000
10
58.0786486326
20
190.8342587487
30
0.0000000000
10
58.0565000781
20
190.8841263598
30
0.0000000000
10
58.0037978109
20
190.9811371983
30
0.0000000000
10
57.9019222422
20
191.1118687005
30
0.0000000000
10
57.7814948616
20
191.2233396693
30
0.0000000000
10
57.6422690949
20
191.3148742457
30
0.0000000000
10
57.4920593198
20
191.3811736384
30
0.0000000000
10
57.3313711469
20
191.4223818920
30
0.0000000000
10
57.2212921179
20
191.4314696518
30
0.0000000000
10
57.1667271379
20
191.4314696519
30
0.0000000000
11
58.0786486326
21
190.8342587487
31
0.0000000000
11
57.9999941163
21
190.9786730724
31
0.0000000000
11
57.8988302735
21
191.1086586116
31
0.0000000000
11
57.7783617972
21
191.2200169372
31
0.0000000000
11
57.6404384268
21
191.3106683817
31
0.0000000000
11
57.4903129201
21
191.3769917819
31
0.0000000000
11
57.3306327512
21
191.4177857898
31
0.0000000000
11
57.1667271379
21
191.4314696519
31
0.0000000000
0
SPLINE
5
40B
100
AcDbEntity
8
0
100
AcDbSpline
62
7
6
CONTINUOUS
70
0
71
3
72
13
73
9
74
7
42
0.0000001000
43
0.0000001000
44
0.0000000001
12
-0.6071032427
22
-0.2045637785
32
0.0000000000
13
-0.3663492616
23
-0.5320606962
33
0.0000000000
40
0.0000000000
40
0.0000000000
40
0.0000000000
40
0.0000000000
40
0.0009050631
40
0.0634454682
40
0.2975841012
40
0.5317227341
40
0.8829306835
40
1.0000000000
40
1.0000000000
40
1.0000000000
40
1.0000000000
10
53.4998915588
20
190.8837065562
30
0.0000000000
10
53.4997084032
20
190.8836448418
30
0.0000000000
10
53.4868702074
20
190.8793148014
30
0.0000000000
10
53.4270226633
20
190.8577473648
30
0.0000000000
10
53.3234239768
20
190.8087755199
30
0.0000000000
10
53.1771477176
20
190.7099489030
30
0.0000000000
10
53.0700561049
20
190.6037974050
30
0.0000000000
10
53.0096972293
20
190.5226685432
30
0.0000000000
10
52.9954011435
20
190.5019058825
30
0.0000000000
11
53.4998915588
21
190.8837065562
31
0.0000000000
11
53.4993421400
21
190.8835212493
31
0.0000000000
11
53.4616113701
21
190.8699231610
31
0.0000000000
11
53.3253755667
21
190.8054579396
31
0.0000000000
11
53.2004827311
21
190.7212079286
31
0.0000000000
11
53.0405663879
21
190.5625853993
31
0.0000000000
11
52.9954011435
21
190.5019058825
31
0.0000000000
0
SPLINE
5
40C
100
AcDbEntity
8
0
100
AcDbSpline
62
7
6
CONTINUOUS
70
0
71
3
72
10
73
6
74
4
42
0.0000001000
43
0.0000001000
44
0.0000000001
12
-0.2965769556
22
-0.4307069612
32
0.0000000000
13
-0.0471354035
23
-0.5208115117
33
0.0000000000
40
0.0000000000
40
0.0000000000
40
0.0000000000
40
0.0000000000
40
0.3336031969
40
0.6674988854
40
1.0000000000
40
1.0000000000
40
1.0000000000
40
1.0000000000
10
52.9954011435
20
190.5019058825
30
0.0000000000
10
52.9624214700
20
190.4540108094
30
0.0000000000
10
52.9045448691
20
190.3522668811
30
0.0000000000
10
52.8455067654
20
190.1874501663
30
0.0000000000
10
52.8249627617
20
190.0724467166
30
0.0000000000
10
52.8197385703
20
190.0147232472
30
0.0000000000
11
52.9954011435
21
190.5019058825
31
0.0000000000
11
52.9091833677
21
190.3502455148
31
0.0000000000
11
52.8501438232
21
190.1859223724
31
0.0000000000
11
52.8197385703
21
190.0147232472
31
0.0000000000
0
SPLINE
5
40D
100
AcDbEntity
8
0
100
AcDbSpline
62
7
6
CONTINUOUS
70
0
71
3
72
19
73
15
74
13
42
0.0000001000
43
0.0000001000
44
0.0000000001
12
-0.9314108826
22
0.2718037767
32
0.0000000000
13
-0.8897090482
23
-0.3750820514
33
0.0000000000
40
0.0000000000
40
0.0000000000
40
0.0000000000
40
0.0000000000
40
0.0058377258
40
0.0129617901
40
0.0312715936
40
0.0551303274
40
0.0845420034
40
0.1194287900
40
0.1596048838
40
0.2549306098
40
0.4099632392
40
0.5908347065
40
0.7902959474
40
1.0000000000
40
1.0000000000
40
1.0000000000
40
1.0000000000
10
62.5127849523
20
183.2347820871
30
0.0000000000
10
62.5109725118
20
183.2353109924
30
0.0000000000
10
62.5068827090
20
183.2361481179
30
0.0000000000
10
62.4968195136
20
183.2368862914
30
0.0000000000
10
62.4809355634
20
183.2360678831
30
0.0000000000
10
62.4580968170
20
183.2329530180
30
0.0000000000
10
62.4302276136
20
183.2275635524
30
0.0000000000
10
62.3974789058
20
183.2199102406
30
0.0000000000
10
62.3444499362
20
183.2059077875
30
0.0000000000
10
62.2548860608
20
183.1789475463
30
0.0000000000
10
62.1233962584
20
183.1344463755
30
0.0000000000
10
61.9616461306
20
183.0750078889
30
0.0000000000
10
61.7847893253
20
183.0057936444
30
0.0000000000
10
61.6630553096
20
182.9555299905
30
0.0000000000
10
61.6008634453
20
182.9293112485
30
0.0000000000
11
62.5127849523
21
183.2347820871
31
0.0000000000
11
62.5072720933
21
183.2359572996
31
0.0000000000
11
62.5004182090
21
183.2365420152
31
0.0000000000
11
62.4827488652
21
183.2359460509
31
0.0000000000
11
62.4598999223
21
183.2330063845
31
0.0000000000
11
62.4319943817
21
183.2277352066
31
0.0000000000
11
62.3991731756
21
183.2201530103
31
0.0000000000
11
62.3616489589
21
183.2103135003
31
0.0000000000
11
62.2734138375
21
183.1841105681
31
0.0000000000
11
62.1314744650
21
183.1365527030
31
0.0000000000
11
61.9674683931
21
183.0765315562
31
0.0000000000
11
61.7880754172
21
183.0064565587
31
0.0000000000
11
61.6008634453
21
182.9293112485
31
0.0000000000
0
SPLINE
5
40E
100
AcDbEntity
8
0
100
AcDbSpline
62
7
6
CONTINUOUS
70
0
71
3
72
13
73
9
74
7
42
0.0000001000
43
0.0000001000
44
0.0000000001
12
-0.6307795454
22
0.2206454538
32
0.0000000000
13
-0.6456596368
23
-0.1694654808
33
0.0000000000
40
0.0000000000
40
0.0000000000
40
0.0000000000
40
0.0000000000
40
0.1069499892
40
0.2197328877
40
0.4617993649
40
0.7235341022
40
0.8603087198
40
1.0000000000
40
1.0000000000
40
1.0000000000
40
1.0000000000
10
66.9598981369
20
177.0353667763
30
0.0000000000
10
66.9374108484
20
177.0432327859
30
0.0000000000
10
66.8904363580
20
177.0569237181
30
0.0000000000
10
66.7894110598
20
177.0763060681
30
0.0000000000
10
66.6519213181
20
177.0848340332
30
0.0000000000
10
66.5094613514
20
177.0735403834
30
0.0000000000
10
66.3913924751
20
177.0533706611
30
0.0000000000
10
66.3314585047
20
177.0394375895
30
0.0000000000
10
66.3013941643
20
177.0315466395
30
0.0000000000
11
66.9598981369
21
177.0353667763
31
0.0000000000
11
66.8914238461
21
177.0555016967
31
0.0000000000
11
66.8175423828
21
177.0698711356
31
0.0000000000
11
66.6563759912
21
177.0809027794
31
0.0000000000
11
66.4821895728
21
177.0679257287
31
0.0000000000
11
66.3922076422
21
177.0526056660
31
0.0000000000
11
66.3013941643
21
177.0315466395
31
0.0000000000
0
SPLINE
5
40F
100
AcDbEntity
8
0
100
AcDbSpline
62
7
6
CONTINUOUS
70
0
71
3
72
17
73
13
74
11
42
0.0000001000
43
0.0000001000
44
0.0000000001
12
-0.7982871966
22
-0.0889298533
32
0.0000000000
13
-0.5922229522
23
-0.5379394384
33
0.0000000000
40
0.0000000000
40
0.0000000000
40
0.0000000000
40
0.0000000000
40
0.0343019710
40
0.0750348483
40
0.1223108040
40
0.1760899610
40
0.2362311149
40
0.3024669083
40
0.4517681808
40
0.6205323965
40
0.8048141937
40
1.0000000000
40
1.0000000000
40
1.0000000000
40
1.0000000000
10
63.7798694319
20
181.2918543539
30
0.0000000000
10
63.7707418238
20
181.2908375308
30
0.0000000000
10
63.7510592971
20
181.2871214769
30
0.0000000000
10
63.7198948028
20
181.2772224052
30
0.0000000000
10
63.6848665378
20
181.2629090754
30
0.0000000000
10
63.6461572552
20
181.2441370011
30
0.0000000000
10
63.6040087423
20
181.2210294949
30
0.0000000000
10
63.5410204556
20
181.1830605972
30
0.0000000000
10
63.4560799914
20
181.1255644217
30
0.0000000000
10
63.3489694183
20
181.0449970947
30
0.0000000000
10
63.2358212560
20
180.9523161561
30
0.0000000000
10
63.1598960457
20
180.8853391473
30
0.0000000000
10
63.1213648743
20
180.8503397663
30
0.0000000000
11
63.7798694319
21
181.2918543539
31
0.0000000000
11
63.7528640311
21
181.2869474316
31
0.0000000000
11
63.7217080833
21
181.2773746313
31
0.0000000000
11
63.6866259417
21
181.2632226238
31
0.0000000000
11
63.6478419598
21
181.2445780796
31
0.0000000000
11
63.6055911902
21
181.2215403174
31
0.0000000000
11
63.5601514835
21
181.1942592480
31
0.0000000000
11
63.4609288353
21
181.1277215618
31
0.0000000000
11
63.3528292978
21
181.0467861883
31
0.0000000000
11
63.2386358656
21
180.9534929542
31
0.0000000000
11
63.1213648743
21
180.8503397663
31
0.0000000000
0
SPLINE
5
410
100
AcDbEntity
8
0
100
AcDbSpline
62
7
6
CONTINUOUS
70
0
71
3
72
14
73
10
74
8
42
0.0000001000
43
0.0000001000
44
0.0000000001
12
3.7264392394
22
-3.8289974781
32
0.0000000000
13
1.9654442954
23
-4.9719755868
33
0.0000000000
40
0.0000000000
40
0.0000000000
40
0.0000000000
40
0.0000000000
40
0.1823210544
40
0.3629700501
40
0.5404380533
40
0.7138482249
40
0.8268546500
40
0.9366567074
40
1.0000000000
40
1.0000000000
40
1.0000000000
40
1.0000000000
10
63.7799143922
20
181.2918980599
30
0.0000000000
10
64.0063838359
20
181.0591957740
30
0.0000000000
10
64.4524081959
20
180.5909455421
30
0.0000000000
10
65.0944290362
20
179.8734387919
30
0.0000000000
10
65.6969973488
20
179.1427124446
30
0.0000000000
10
66.1833140409
20
178.4737044305
30
0.0000000000
10
66.5575515643
20
177.8748639702
30
0.0000000000
10
66.7958305805
20
177.4234745746
30
0.0000000000
10
66.9184995500
20
177.1403865465
30
0.0000000000
10
66.9599987877
20
177.0354061117
30
0.0000000000
11
63.7799143922
21
181.2918980599
31
0.0000000000
11
64.4507213477
21
180.5853462434
31
0.0000000000
11
65.0932589321
21
179.8649209191
31
0.0000000000
11
65.6939411896
21
179.1310823562
31
0.0000000000
11
66.2357370927
21
178.3793253476
31
0.0000000000
11
66.5541690373
21
177.8662347204
31
0.0000000000
11
66.8258666253
21
177.3461826621
31
0.0000000000
11
66.9599987877
21
177.0354061117
31
0.0000000000
0
ENDSEC
0
SECTION
2
OBJECTS
0
DICTIONARY
5
C
100
AcDbDictionary
280
0
281
1
3
ACAD_GROUP
350
D
3
ACAD_MLINESTYLE
350
17
3
ACAD_LAYOUT
350
1A
3
ACAD_PLOTSETTINGS
350
19
3
ACAD_PLOTSTYLENAME
350
E
0
DICTIONARY
5
D
102
{ACAD_REACTORS
330
C
102
}
100
AcDbDictionary
280
0
281
1
0
ACDBDICTIONARYWDFLT
5
E
102
{ACAD_REACTORS
330
C
102
}
100
AcDbDictionary
281
1
3
Normal
350
F
100
AcDbDictionaryWithDefault
340
F
0
DICTIONARY
5
17
102
{ACAD_REACTORS
330
C
102
}
100
AcDbDictionary
280
0
281
1
3
Standard
350
18
0
DICTIONARY
5
19
102
{ACAD_REACTORS
330
C
102
}
100
AcDbDictionary
281
1
0
DICTIONARY
5
1A
102
{ACAD_REACTORS
330
C
102
}
100
AcDbDictionary
281
1
3
Layout1
350
1E
3
Model
350
22
0
ACDBPLACEHOLDER
5
F
102
{ACAD_REACTORS
330
E
102
}
0
MLINESTYLE
5
18
102
{ACAD_REACTORS
330
17
102
}
100
AcDbMlineStyle
2
STANDARD
70
0
3

62
256
51
90.0
52
90.0
71
2
49
0.5
62
256
6
BYLAYER
49
-0.5
62
256
6
BYLAYER
0
LAYOUT
5
1E
102
{ACAD_REACTORS
330
1A
102
}
100
AcDbPlotSettings
1

2

4

6

40
0.0
41
0.0
42
0.0
43
0.0
44
0.0
45
0.0
46
0.0
47
0.0
48
0.0
49
0.0
140
0.0
141
0.0
142
1.0
143
1.0
70
0
72
0
73
0
74
0
7

75
0
147
1.0
148
0.0
149
0.0
100
AcDbLayout
1
Layout1
70
0
71
0
10
0.0
20
0.0
11
0.0
21
0.0
12
0.0
22
0.0
32
0.0
14
0.0
24
0.0
34
0.0
15
0.0
25
0.0
35
0.0
146
0.0
13
0.0
23
0.0
33
0.0
16
0.0
26
0.0
36
0.0
17
0.0
27
0.0
37
0.0
76
0
330
1B
331
0
345
0
346
0
0
LAYOUT
5
22
102
{ACAD_REACTORS
330
1A
102
}
100
AcDbPlotSettings
1

2

4

6

40
0.0
41
0.0
42
0.0
43
0.0
44
0.0
45
0.0
46
0.0
47
0.0
48
0.0
49
0.0
140
0.0
141
0.0
142
1.0
143
1.0
70
0
72
0
73
0
74
0
7

75
0
147
1.0
148
0.0
149
0.0
100
AcDbLayout
1
Model
70
0
71
0
10
0.0
20
0.0
11
0.0
21
0.0
12
0.0
22
0.0
32
0.0
14
0.0
24
0.0
34
0.0
15
0.0
25
0.0
35
0.0
146
0.0
13
0.0
23
0.0
33
0.0
16
0.0
26
0.0
36
0.0
17
0.0
27
0.0
37
0.0
76
0
330
1F
331
0
345
0
346
0
0
ENDSEC
0
EOF
