999
DXF file: s008150780.dxf
999
Pro/ENGINEER 2005310 by Parametric Technology Corporation
0
SECTION
2
HEADER
9
$ACADVER
1
AC1015
9
$DWGCODEPAGE
3
ANSI_1252
9
$EXTMAX
10
210.0000000000
20
297.0000000000
30
0.0000000000
9
$EXTMIN
10
0.0000000000
20
0.0000000000
30
0.0000000000
9
$LIMMIN
10
0.0000000000
20
0.0000000000
9
$LIMMAX
10
210.0000000000
20
297.0000000000
9
$VIEWCTR
10
105.0000000000
20
148.5000000000
9
$VIEWSIZE
40
297.0000000000
9
$CLAYER
8
0
9
$LTSCALE
40
19.3600000000
9
$CELTYPE
6
BYLAYER
9
$DIMSCALE
40
1
9
$DIMASZ
40
3.5000000000
9
$DIMEXO
40
2.2000000000
9
$DIMDLI
40
13.3760000000
9
$DIMEXE
40
6.3360000000
9
$DIMCEN
40
3.1680000000
9
$DIMLFAC
40
1.0000000000
9
$DIMBLK
1
_FILLED
9
$DIMTXT
40
3.5000000000
9
$DIMTOL
70
1
9
$DIMLIM
70
0
9
$DIMTFAC
40
1.0000000000
9
$DIMTP
40
0.0010000000
9
$DIMTM
40
0.0010000000
9
$PDMODE
70
3
9
$PDSIZE
40
0.3125000000
9
$HANDSEED
5
2E3
9
$MEASUREMENT
70
1
9
$INSUNITS
70
4
0
ENDSEC
0
SECTION
2
CLASSES
0
CLASS
1
ACDBDICTIONARYWDFLT
2
AcDbDictionaryWithDefault
3
AutoCAD 2000
90
0
280
0
281
0
0
CLASS
1
ACDBPLACEHOLDER
2
AcDbPlaceHolder
3
AutoCAD 2000
90
0
280
0
281
0
0
CLASS
1
LAYOUT
2
AcDbLayout
3
AutoCAD 2000
90
0
280
0
281
0
0
ENDSEC
0
SECTION
2
TABLES
0
TABLE
2
VPORT
5
8
100
AcDbSymbolTable
70
2
0
VPORT
5
1F4
100
AcDbSymbolTableRecord
100
AcDbViewportTableRecord
2
*ACTIVE
70
0
10
0.0
20
0.0
11
1.0
21
1.0
12
105.0000000000
22
148.5000000000
13
0.0
23
0.0
14
1.0
24
1.0
15
0.0
25
0.0
16
0.0
26
0.0
36
1.0
17
0.0
27
0.0
37
0.0
40
297.0000000000
41
0.7070707071
42
50.0
43
0.0
44
0.0
50
0.0
51
0.0
71
0
72
100
73
1
74
1
75
0
76
0
77
0
78
0
0
ENDTAB
0
TABLE
2
LTYPE
5
5
100
AcDbSymbolTable
70
6
0
LTYPE
5
14
100
AcDbSymbolTableRecord
100
AcDbLinetypeTableRecord
2
BYBLOCK
70
0
3

72
65
73
0
40
0.0
0
LTYPE
5
15
100
AcDbSymbolTableRecord
100
AcDbLinetypeTableRecord
2
BYLAYER
70
0
3

72
65
73
0
40
0.0
0
LTYPE
5
16
100
AcDbSymbolTableRecord
100
AcDbLinetypeTableRecord
2
CONTINUOUS
70
64
3
Solid line
72
65
73
0
40
0
0
LTYPE
5
1F5
100
AcDbSymbolTableRecord
100
AcDbLinetypeTableRecord
2
CENTER
70
64
3
____ _ ____ _ ____ _ ____ _ ____ _ ____ _ ____
72
65
73
4
40
0.6
49
0.375
74
0
49
-0.075
74
0
49
0.075
74
0
49
-0.075
74
0
0
LTYPE
5
1F6
100
AcDbSymbolTableRecord
100
AcDbLinetypeTableRecord
2
HIDDEN
70
64
3
- - - - - - - - - - - - - - - - - - - -
72
65
73
2
40
0.2
49
0.1
74
0
49
-0.1
74
0
0
LTYPE
5
1F7
100
AcDbSymbolTableRecord
100
AcDbLinetypeTableRecord
2
PHANTOM
70
64
3
_____ _ _ _____ _ _ _____ _ _ _____
72
65
73
6
40
0.8
49
0.45
74
0
49
-0.05
74
0
49
0.1
74
0
49
-0.05
74
0
49
0.1
74
0
49
-0.05
74
0
0
LTYPE
5
1F8
100
AcDbSymbolTableRecord
100
AcDbLinetypeTableRecord
2
DOT
70
64
3
. . . . . . . . . . . . . . . . . . . .
72
65
73
2
40
0.2
49
0.1
74
0
49
-0.1
74
0
0
LTYPE
5
1F9
100
AcDbSymbolTableRecord
100
AcDbLinetypeTableRecord
2
DASHED
70
64
3
- - - - - - - - - - - - - - - - - - - -
72
65
73
2
40
0.2
49
0.1
74
0
49
-0.1
74
0
0
ENDTAB
0
TABLE
2
LAYER
5
2
100
AcDbSymbolTable
70
36
0
LAYER
5
10
100
AcDbSymbolTableRecord
100
AcDbLayerTableRecord
2
0
70
0
62
7
6
CONTINUOUS
370
-3
390
F
0
LAYER
5
1FA
100
AcDbSymbolTableRecord
100
AcDbLayerTableRecord
2
DEFAULT_1
70
0
62
7
6
CENTER
370
-3
390
F
0
LAYER
5
1FB
100
AcDbSymbolTableRecord
100
AcDbLayerTableRecord
2
DEFAULT_2
70
0
62
8
6
HIDDEN
370
-3
390
F
0
LAYER
5
1FC
100
AcDbSymbolTableRecord
100
AcDbLayerTableRecord
2
DEFAULT_3
70
0
62
7
6
PHANTOM
370
-3
390
F
0
LAYER
5
1FD
100
AcDbSymbolTableRecord
100
AcDbLayerTableRecord
2
_2D_DELETED_OBJS
70
0
62
7
6
CONTINUOUS
370
-3
390
F
0
LAYER
5
1FE
100
AcDbSymbolTableRecord
100
AcDbLayerTableRecord
2
ASSI
70
0
62
7
6
CONTINUOUS
370
-3
390
F
0
LAYER
5
1FF
100
AcDbSymbolTableRecord
100
AcDbLayerTableRecord
2
PIANI
70
0
62
7
6
CONTINUOUS
370
-3
390
F
0
ENDTAB
0
TABLE
2
STYLE
5
3
100
AcDbSymbolTable
70
1
0
STYLE
5
11
100
AcDbSymbolTableRecord
100
AcDbTextStyleTableRecord
2
STANDARD
70
0
40
0.0
41
0.7143000000
50
0.0
71
0
42
0.2
3
txt
4

0
ENDTAB
0
TABLE
2
VIEW
5
6
100
AcDbSymbolTable
70
0
0
ENDTAB
0
TABLE
2
UCS
5
7
100
AcDbSymbolTable
70
0
0
ENDTAB
0
TABLE
2
APPID
5
9
100
AcDbSymbolTable
70
1
0
APPID
5
200
100
AcDbSymbolTableRecord
100
AcDbRegAppTableRecord
2
ACAD
70
0
0
ENDTAB
0
TABLE
2
BLOCK_RECORD
5
1
100
AcDbSymbolTable
70
0
0
BLOCK_RECORD
5
1F
100
AcDbSymbolTableRecord
100
AcDbBlockTableRecord
2
*MODEL_SPACE
0
BLOCK_RECORD
5
1B
100
AcDbSymbolTableRecord
100
AcDbBlockTableRecord
2
*PAPER_SPACE
0
BLOCK_RECORD
5
201
100
AcDbSymbolTableRecord
100
AcDbBlockTableRecord
2
_FILLED
0
BLOCK_RECORD
5
202
100
AcDbSymbolTableRecord
100
AcDbBlockTableRecord
2
*D0
0
BLOCK_RECORD
5
203
100
AcDbSymbolTableRecord
100
AcDbBlockTableRecord
2
*D1
0
BLOCK_RECORD
5
204
100
AcDbSymbolTableRecord
100
AcDbBlockTableRecord
2
*D2
0
BLOCK_RECORD
5
205
100
AcDbSymbolTableRecord
100
AcDbBlockTableRecord
2
*D3
0
BLOCK_RECORD
5
206
100
AcDbSymbolTableRecord
100
AcDbBlockTableRecord
2
*D4
0
BLOCK_RECORD
5
207
100
AcDbSymbolTableRecord
100
AcDbBlockTableRecord
2
*D5
0
BLOCK_RECORD
5
208
100
AcDbSymbolTableRecord
100
AcDbBlockTableRecord
2
*D6
0
BLOCK_RECORD
5
209
100
AcDbSymbolTableRecord
100
AcDbBlockTableRecord
2
*D7
0
BLOCK_RECORD
5
20A
100
AcDbSymbolTableRecord
100
AcDbBlockTableRecord
2
*D8
0
BLOCK_RECORD
5
20B
100
AcDbSymbolTableRecord
100
AcDbBlockTableRecord
2
*D9
0
BLOCK_RECORD
5
20C
100
AcDbSymbolTableRecord
100
AcDbBlockTableRecord
2
*D10
0
BLOCK_RECORD
5
20D
100
AcDbSymbolTableRecord
100
AcDbBlockTableRecord
2
*D11
0
BLOCK_RECORD
5
20E
100
AcDbSymbolTableRecord
100
AcDbBlockTableRecord
2
*D12
0
BLOCK_RECORD
5
20F
100
AcDbSymbolTableRecord
100
AcDbBlockTableRecord
2
*D13
0
ENDTAB
0
TABLE
2
DIMSTYLE
5
A
100
AcDbSymbolTable
70
1
100
AcDbDimStyleTable
71
0
0
DIMSTYLE
105
210
100
AcDbSymbolTableRecord
100
AcDbDimStyleTableRecord
2
STANDARD
70
0
3

4

40
1.0
41
3.5000000000
42
0.0625
43
0.38
44
0.18
45
0.0
46
0.0
47
0.0010000000
48
0.0010000000
140
3.5000000000
141
0.09
142
0.0
143
25.4
144
1.0000000000
145
0.0
146
1.0000000000
147
0.09
71
1
72
0
73
0
74
0
75
0
76
0
77
1
78
8
170
0
171
2
172
0
173
0
174
0
175
0
176
0
177
0
178
0
270
2
271
3
272
3
273
2
274
2
275
0
280
0
281
0
282
0
283
1
284
8
285
0
286
0
287
3
288
0
340
11
341
201
342
201
343
201
344
201
0
DIMSTYLE
105
211
100
AcDbSymbolTableRecord
100
AcDbDimStyleTableRecord
2
DIMSTYLE_1
70
0
3

4

40
1.0
41
3.5000000000
42
0.0625
43
0.38
44
0.18
45
0.0
46
0.0
47
0.1500000000
48
0.1500000000
140
3.5000000000
141
0.09
142
0.0
143
25.4
144
1.0000000000
145
0.0
146
1.0000000000
147
0.09
71
0
72
0
73
0
74
0
75
0
76
0
77
1
78
8
170
0
171
2
172
0
173
0
174
0
175
0
176
0
177
0
178
0
270
2
271
3
272
3
273
2
274
2
275
0
280
0
281
0
282
0
283
1
284
8
285
0
286
0
287
3
288
0
340
11
341
201
342
201
343
201
344
201
0
DIMSTYLE
105
212
100
AcDbSymbolTableRecord
100
AcDbDimStyleTableRecord
2
DIMSTYLE_2
70
0
3

4

40
1.0
41
3.5000000000
42
0.0625
43
0.38
44
0.18
45
0.0
46
0.0
47
0.1000000000
48
0.1000000000
140
3.5000000000
141
0.09
142
0.0
143
25.4
144
1.0000000000
145
0.0
146
1.0000000000
147
0.09
71
0
72
0
73
0
74
0
75
0
76
0
77
1
78
8
170
0
171
2
172
0
173
0
174
0
175
0
176
0
177
0
178
0
270
2
271
2
272
2
273
2
274
2
275
0
280
0
281
0
282
0
283
1
284
8
285
0
286
0
287
3
288
0
340
11
341
201
342
201
343
201
344
201
0
DIMSTYLE
105
213
100
AcDbSymbolTableRecord
100
AcDbDimStyleTableRecord
2
DIMSTYLE_3
70
0
3

4

40
1.0
41
3.5000000000
42
0.0625
43
0.38
44
0.18
45
0.0
46
0.0
47
0.1500000000
48
0.1500000000
140
3.5000000000
141
0.09
142
0.0
143
25.4
144
1.0000000000
145
0.0
146
1.0000000000
147
0.09
71
0
72
0
73
0
74
0
75
0
76
0
77
1
78
8
170
0
171
2
172
0
173
0
174
0
175
0
176
0
177
0
178
0
270
2
271
2
272
2
273
2
274
2
275
0
280
0
281
0
282
0
283
1
284
8
285
0
286
0
287
3
288
0
340
11
341
201
342
201
343
201
344
201
0
DIMSTYLE
105
214
100
AcDbSymbolTableRecord
100
AcDbDimStyleTableRecord
2
DIMSTYLE_4
70
0
3

4

40
1.0
41
3.5000000000
42
0.0625
43
0.38
44
0.18
45
0.0
46
0.0
47
0.0500000000
48
0.0500000000
140
3.5000000000
141
0.09
142
0.0
143
25.4
144
1.0000000000
145
0.0
146
1.0000000000
147
0.09
71
0
72
0
73
0
74
0
75
0
76
0
77
1
78
8
170
0
171
2
172
0
173
0
174
0
175
0
176
0
177
0
178
0
270
2
271
2
272
2
273
2
274
2
275
0
280
0
281
0
282
0
283
1
284
8
285
0
286
0
287
3
288
0
340
11
341
201
342
201
343
201
344
201
0
DIMSTYLE
105
215
100
AcDbSymbolTableRecord
100
AcDbDimStyleTableRecord
2
DIMSTYLE_5
70
0
3

4

40
1.0
41
3.5000000000
42
0.0625
43
0.38
44
0.18
45
0.0
46
0.0
47
0.2000000000
48
0.2000000000
140
3.5000000000
141
0.09
142
0.0
143
25.4
144
1.0000000000
145
0.0
146
1.0000000000
147
0.09
71
0
72
0
73
0
74
0
75
0
76
0
77
1
78
8
170
0
171
2
172
0
173
0
174
0
175
0
176
0
177
0
178
0
270
2
271
2
272
2
273
2
274
2
275
0
280
0
281
0
282
0
283
1
284
8
285
0
286
0
287
3
288
0
340
11
341
201
342
201
343
201
344
201
0
DIMSTYLE
105
216
100
AcDbSymbolTableRecord
100
AcDbDimStyleTableRecord
2
DIMSTYLE_6
70
0
3

4

40
1.0
41
3.5000000000
42
0.0625
43
0.38
44
0.18
45
0.0
46
0.0
47
0.1000000000
48
0.1000000000
140
3.5000000000
141
0.09
142
0.0
143
25.4
144
1.0000000000
145
0.0
146
1.0000000000
147
0.09
71
0
72
0
73
0
74
0
75
0
76
0
77
1
78
8
170
0
171
2
172
0
173
0
174
0
175
0
176
0
177
0
178
0
270
2
271
2
272
2
273
2
274
2
275
0
280
0
281
0
282
0
283
1
284
8
285
0
286
0
287
3
288
0
340
11
341
201
342
201
343
201
344
201
0
ENDTAB
0
ENDSEC
0
SECTION
2
BLOCKS
0
BLOCK
5
20
100
AcDbEntity
8
0
100
AcDbBlockBegin
2
*MODEL_SPACE
70
0
10
0.0
20
0.0
30
0.0
3
*MODEL_SPACE
1

0
ENDBLK
5
21
100
AcDbEntity
8
0
100
AcDbBlockEnd
0
BLOCK
5
1C
100
AcDbEntity
8
0
100
AcDbBlockBegin
2
*PAPER_SPACE
70
0
10
0.0
20
0.0
30
0.0
3
*PAPER_SPACE
1

0
ENDBLK
5
1D
100
AcDbEntity
8
0
100
AcDbBlockEnd
0
BLOCK
5
217
100
AcDbEntity
8
0
100
AcDbBlockBegin
62
2
6
CONTINUOUS
2
*D0
70
65
10
0.0000000000
20
0.0000000000
3
*D0
1

0
TEXT
5
218
100
AcDbEntity
8
0
100
AcDbText
62
2
6
CONTINUOUS
10
152.2144091554
20
80.6832903344
7
STANDARD
40
3.5000000000
1
45
41
0.7143000000
72
0
100
AcDbText
0
LINE
5
219
100
AcDbEntity
8
0
100
AcDbLine
62
2
6
CONTINUOUS
10
130.5649746193
20
106.7680412371
11
130.5649746193
21
78.3082903344
0
LINE
5
21A
100
AcDbEntity
8
0
100
AcDbLine
62
2
6
CONTINUOUS
10
175.5649746193
20
108.0876288660
11
175.5649746193
21
78.3082903344
0
LINE
5
21B
100
AcDbEntity
8
0
100
AcDbLine
62
2
6
CONTINUOUS
10
130.5649746193
20
79.8082903344
11
153.0649746193
21
79.8082903344
0
LINE
5
21C
100
AcDbEntity
8
0
100
AcDbLine
62
2
6
CONTINUOUS
10
175.5649746193
20
79.8082903344
11
153.0649746193
21
79.8082903344
0
INSERT
5
21D
100
AcDbEntity
8
0
100
AcDbBlockReference
62
2
6
CONTINUOUS
2
_FILLED
10
130.5649746193
20
79.8082903344
41
  3.500000
42
  3.500000
43
  3.500000
50
180.000000
0
INSERT
5
21E
100
AcDbEntity
8
0
100
AcDbBlockReference
62
2
6
CONTINUOUS
2
_FILLED
10
175.5649746193
20
79.8082903344
41
  3.500000
42
  3.500000
43
  3.500000
0
ENDBLK
5
21F
100
AcDbEntity
8
0
6
BYBLOCK
62
0
100
AcDbBlockEnd
0
BLOCK
5
220
100
AcDbEntity
8
0
100
AcDbBlockBegin
62
2
6
CONTINUOUS
2
*D1
70
65
10
0.0000000000
20
0.0000000000
3
*D1
1

0
TEXT
5
221
100
AcDbEntity
8
0
100
AcDbText
62
2
6
CONTINUOUS
10
74.0395439086
20
265.7492612400
7
STANDARD
40
3.5000000000
1
20
41
0.7143000000
72
0
100
AcDbText
0
LINE
5
222
100
AcDbEntity
8
0
100
AcDbLine
62
2
6
CONTINUOUS
10
67.1527918782
20
259.7705583756
11
67.1527918782
21
266.3742612400
0
LINE
5
223
100
AcDbEntity
8
0
100
AcDbLine
62
2
6
CONTINUOUS
10
87.1527918782
20
259.7705583756
11
87.1527918782
21
266.3742612400
0
LINE
5
224
100
AcDbEntity
8
0
100
AcDbLine
62
2
6
CONTINUOUS
10
67.1527918782
20
264.8742612400
11
77.1527918782
21
264.8742612400
0
LINE
5
225
100
AcDbEntity
8
0
100
AcDbLine
62
2
6
CONTINUOUS
10
87.1527918782
20
264.8742612400
11
77.1527918782
21
264.8742612400
0
INSERT
5
226
100
AcDbEntity
8
0
100
AcDbBlockReference
62
2
6
CONTINUOUS
2
_FILLED
10
67.1527918782
20
264.8742612400
41
  3.500000
42
  3.500000
43
  3.500000
50
180.000000
0
INSERT
5
227
100
AcDbEntity
8
0
100
AcDbBlockReference
62
2
6
CONTINUOUS
2
_FILLED
10
87.1527918782
20
264.8742612400
41
  3.500000
42
  3.500000
43
  3.500000
0
ENDBLK
5
228
100
AcDbEntity
8
0
6
BYBLOCK
62
0
100
AcDbBlockEnd
0
BLOCK
5
229
100
AcDbEntity
8
0
100
AcDbBlockBegin
62
2
6
CONTINUOUS
2
*D2
70
65
10
0.0000000000
20
0.0000000000
3
*D2
1

0
TEXT
5
22A
100
AcDbEntity
8
0
100
AcDbText
62
2
6
CONTINUOUS
10
20.9316436842
20
130.5656778370
7
STANDARD
40
3.5000000000
1
69.5
50
90.0000000000
41
0.7143000000
72
0
100
AcDbText
0
LINE
5
22B
100
AcDbEntity
8
0
100
AcDbLine
62
2
6
CONTINUOUS
10
40.6527918782
20
105.2705583756
11
20.3066436842
21
105.2705583756
0
LINE
5
22C
100
AcDbEntity
8
0
100
AcDbLine
62
2
6
CONTINUOUS
10
37.8544610786
20
174.7705583756
11
20.3066436842
21
174.7705583756
0
LINE
5
22D
100
AcDbEntity
8
0
100
AcDbLine
62
2
6
CONTINUOUS
10
21.8066436842
20
105.2705583756
11
21.8066436842
21
140.0205583756
0
LINE
5
22E
100
AcDbEntity
8
0
100
AcDbLine
62
2
6
CONTINUOUS
10
21.8066436842
20
174.7705583756
11
21.8066436842
21
140.0205583756
0
INSERT
5
22F
100
AcDbEntity
8
0
100
AcDbBlockReference
62
2
6
CONTINUOUS
2
_FILLED
10
21.8066436842
20
105.2705583756
41
  3.500000
42
  3.500000
43
  3.500000
50
270.000000
0
INSERT
5
230
100
AcDbEntity
8
0
100
AcDbBlockReference
62
2
6
CONTINUOUS
2
_FILLED
10
21.8066436842
20
174.7705583756
41
  3.500000
42
  3.500000
43
  3.500000
50
 90.000000
0
ENDBLK
5
231
100
AcDbEntity
8
0
6
BYBLOCK
62
0
100
AcDbBlockEnd
0
BLOCK
5
232
100
AcDbEntity
8
0
100
AcDbBlockBegin
62
2
6
CONTINUOUS
2
*D3
70
65
10
0.0000000000
20
0.0000000000
3
*D3
1

0
TEXT
5
233
100
AcDbEntity
8
0
100
AcDbText
62
2
6
CONTINUOUS
10
30.0161321910
20
195.8810101293
7
STANDARD
40
3.5000000000
1
3
41
0.7143000000
72
0
100
AcDbText
0
LINE
5
234
100
AcDbEntity
8
0
100
AcDbLine
62
2
6
CONTINUOUS
10
38.1527918782
20
178.7176340540
11
38.1527918782
21
196.5060101293
0
LINE
5
235
100
AcDbEntity
8
0
100
AcDbLine
62
2
6
CONTINUOUS
10
41.1527918782
20
175.2705583756
11
41.1527918782
21
196.5060101293
0
LINE
5
236
100
AcDbEntity
8
0
100
AcDbLine
62
2
6
CONTINUOUS
10
38.1527918782
20
195.0060101293
11
30.0161321910
21
195.0060101293
0
LINE
5
237
100
AcDbEntity
8
0
100
AcDbLine
62
2
6
CONTINUOUS
10
30.0161321910
20
195.0060101293
11
39.6527918782
21
195.0060101293
0
LINE
5
238
100
AcDbEntity
8
0
100
AcDbLine
62
2
6
CONTINUOUS
10
41.1527918782
20
195.0060101293
11
49.1527918782
21
195.0060101293
0
LINE
5
239
100
AcDbEntity
8
0
100
AcDbLine
62
2
6
CONTINUOUS
10
49.1527918782
20
195.0060101293
11
39.6527918782
21
195.0060101293
0
INSERT
5
23A
100
AcDbEntity
8
0
100
AcDbBlockReference
62
2
6
CONTINUOUS
2
_FILLED
10
38.1527918782
20
195.0060101293
41
  3.500000
42
  3.500000
43
  3.500000
0
INSERT
5
23B
100
AcDbEntity
8
0
100
AcDbBlockReference
62
2
6
CONTINUOUS
2
_FILLED
10
41.1527918782
20
195.0060101293
41
  3.500000
42
  3.500000
43
  3.500000
50
180.000000
0
ENDBLK
5
23C
100
AcDbEntity
8
0
6
BYBLOCK
62
0
100
AcDbBlockEnd
0
BLOCK
5
23D
100
AcDbEntity
8
0
100
AcDbBlockBegin
62
2
6
CONTINUOUS
2
*D4
70
65
10
0.0000000000
20
0.0000000000
3
*D4
1

0
TEXT
5
23E
100
AcDbEntity
8
0
100
AcDbText
62
2
6
CONTINUOUS
10
20.9316436842
20
190.3329852560
7
STANDARD
40
3.5000000000
1
4
50
90.0000000000
41
0.7143000000
72
0
100
AcDbText
0
LINE
5
23F
100
AcDbEntity
8
0
100
AcDbLine
62
2
6
CONTINUOUS
10
37.6527918782
20
174.7705583756
11
20.3066436842
21
174.7705583756
0
LINE
5
240
100
AcDbEntity
8
0
100
AcDbLine
62
2
6
CONTINUOUS
10
37.6527918782
20
178.7705583756
11
20.3066436842
21
178.7705583756
0
LINE
5
241
100
AcDbEntity
8
0
100
AcDbLine
62
2
6
CONTINUOUS
10
21.8066436842
20
174.7705583756
11
21.8066436842
21
166.7705583756
0
LINE
5
242
100
AcDbEntity
8
0
100
AcDbLine
62
2
6
CONTINUOUS
10
21.8066436842
20
166.7705583756
11
21.8066436842
21
176.7705583756
0
LINE
5
243
100
AcDbEntity
8
0
100
AcDbLine
62
2
6
CONTINUOUS
10
21.8066436842
20
178.7705583756
11
21.8066436842
21
192.8330352560
0
LINE
5
244
100
AcDbEntity
8
0
100
AcDbLine
62
2
6
CONTINUOUS
10
21.8066436842
20
192.8330352560
11
21.8066436842
21
176.7705583756
0
INSERT
5
245
100
AcDbEntity
8
0
100
AcDbBlockReference
62
2
6
CONTINUOUS
2
_FILLED
10
21.8066436842
20
174.7705583756
41
  3.500000
42
  3.500000
43
  3.500000
50
 90.000000
0
INSERT
5
246
100
AcDbEntity
8
0
100
AcDbBlockReference
62
2
6
CONTINUOUS
2
_FILLED
10
21.8066436842
20
178.7705583756
41
  3.500000
42
  3.500000
43
  3.500000
50
270.000000
0
ENDBLK
5
247
100
AcDbEntity
8
0
6
BYBLOCK
62
0
100
AcDbBlockEnd
0
BLOCK
5
248
100
AcDbEntity
8
0
100
AcDbBlockBegin
62
2
6
CONTINUOUS
2
*D5
70
65
10
0.0000000000
20
0.0000000000
3
*D5
1

0
TEXT
5
249
100
AcDbEntity
8
0
100
AcDbText
62
2
6
CONTINUOUS
10
63.7204060914
20
92.0993702449
7
STANDARD
40
3.5000000000
1
15
41
0.7143000000
72
0
100
AcDbText
0
LINE
5
24A
100
AcDbEntity
8
0
100
AcDbLine
62
2
6
CONTINUOUS
10
56.1527918782
20
104.7705583756
11
56.1527918782
21
89.7243702449
0
LINE
5
24B
100
AcDbEntity
8
0
100
AcDbLine
62
2
6
CONTINUOUS
10
41.1527918782
20
104.7705583756
11
41.1527918782
21
89.7243702449
0
LINE
5
24C
100
AcDbEntity
8
0
100
AcDbLine
62
2
6
CONTINUOUS
10
56.1527918782
20
91.2243702449
11
48.6527918782
21
91.2243702449
0
LINE
5
24D
100
AcDbEntity
8
0
100
AcDbLine
62
2
6
CONTINUOUS
10
48.6527918782
20
91.2243702449
11
68.7205060914
21
91.2243702449
0
LINE
5
24E
100
AcDbEntity
8
0
100
AcDbLine
62
2
6
CONTINUOUS
10
41.1527918782
20
91.2243702449
11
48.6527918782
21
91.2243702449
0
INSERT
5
24F
100
AcDbEntity
8
0
100
AcDbBlockReference
62
2
6
CONTINUOUS
2
_FILLED
10
56.1527918782
20
91.2243702449
41
  3.500000
42
  3.500000
43
  3.500000
0
INSERT
5
250
100
AcDbEntity
8
0
100
AcDbBlockReference
62
2
6
CONTINUOUS
2
_FILLED
10
41.1527918782
20
91.2243702449
41
  3.500000
42
  3.500000
43
  3.500000
50
180.000000
0
ENDBLK
5
251
100
AcDbEntity
8
0
6
BYBLOCK
62
0
100
AcDbBlockEnd
0
BLOCK
5
252
100
AcDbEntity
8
0
100
AcDbBlockBegin
62
2
6
CONTINUOUS
2
*D6
70
65
10
0.0000000000
20
0.0000000000
3
*D6
1

0
TEXT
5
253
100
AcDbEntity
8
0
100
AcDbText
62
2
6
CONTINUOUS
10
105.2815213895
20
178.2789547163
7
STANDARD
40
3.5000000000
1
154
50
90.0000000000
41
0.7143000000
72
0
100
AcDbText
0
LINE
5
254
100
AcDbEntity
8
0
100
AcDbLine
62
2
6
CONTINUOUS
10
87.6527918782
20
259.2705583756
11
107.6565213895
21
259.2705583756
0
LINE
5
255
100
AcDbEntity
8
0
100
AcDbLine
62
2
6
CONTINUOUS
10
56.6527918782
20
105.2705583756
11
107.6565213895
21
105.2705583756
0
LINE
5
256
100
AcDbEntity
8
0
100
AcDbLine
62
2
6
CONTINUOUS
10
106.1565213895
20
259.2705583756
11
106.1565213895
21
182.2705583756
0
LINE
5
257
100
AcDbEntity
8
0
100
AcDbLine
62
2
6
CONTINUOUS
10
106.1565213895
20
105.2705583756
11
106.1565213895
21
182.2705583756
0
INSERT
5
258
100
AcDbEntity
8
0
100
AcDbBlockReference
62
2
6
CONTINUOUS
2
_FILLED
10
106.1565213895
20
259.2705583756
41
  3.500000
42
  3.500000
43
  3.500000
50
 90.000000
0
INSERT
5
259
100
AcDbEntity
8
0
100
AcDbBlockReference
62
2
6
CONTINUOUS
2
_FILLED
10
106.1565213895
20
105.2705583756
41
  3.500000
42
  3.500000
43
  3.500000
50
270.000000
0
ENDBLK
5
25A
100
AcDbEntity
8
0
6
BYBLOCK
62
0
100
AcDbBlockEnd
0
BLOCK
5
25B
100
AcDbEntity
8
0
100
AcDbBlockBegin
62
2
6
CONTINUOUS
2
*D7
70
65
10
0.0000000000
20
0.0000000000
3
*D7
1

0
TEXT
5
25C
100
AcDbEntity
8
0
100
AcDbText
62
2
6
CONTINUOUS
10
147.6889105522
20
271.6466665769
7
STANDARD
40
3.5000000000
1
35.5
41
0.7143000000
72
0
100
AcDbText
0
LINE
5
25D
100
AcDbEntity
8
0
100
AcDbLine
62
2
6
CONTINUOUS
10
170.8149746193
20
254.5618556701
11
170.8149746193
21
272.2716665769
0
LINE
5
25E
100
AcDbEntity
8
0
100
AcDbLine
62
2
6
CONTINUOUS
10
135.3149746193
20
255.8814432990
11
135.3149746193
21
272.2716665769
0
LINE
5
25F
100
AcDbEntity
8
0
100
AcDbLine
62
2
6
CONTINUOUS
10
170.8149746193
20
270.7716665769
11
153.0649746193
21
270.7716665769
0
LINE
5
260
100
AcDbEntity
8
0
100
AcDbLine
62
2
6
CONTINUOUS
10
135.3149746193
20
270.7716665769
11
153.0649746193
21
270.7716665769
0
INSERT
5
261
100
AcDbEntity
8
0
100
AcDbBlockReference
62
2
6
CONTINUOUS
2
_FILLED
10
170.8149746193
20
270.7716665769
41
  3.500000
42
  3.500000
43
  3.500000
0
INSERT
5
262
100
AcDbEntity
8
0
100
AcDbBlockReference
62
2
6
CONTINUOUS
2
_FILLED
10
135.3149746193
20
270.7716665769
41
  3.500000
42
  3.500000
43
  3.500000
50
180.000000
0
ENDBLK
5
263
100
AcDbEntity
8
0
6
BYBLOCK
62
0
100
AcDbBlockEnd
0
BLOCK
5
264
100
AcDbEntity
8
0
100
AcDbBlockBegin
62
2
6
CONTINUOUS
2
*D8
70
65
10
0.0000000000
20
0.0000000000
3
*D8
1

0
TEXT
5
265
100
AcDbEntity
8
0
100
AcDbText
62
2
6
CONTINUOUS
10
189.8178140812
20
133.6355918159
7
STANDARD
40
3.5000000000
1
34.5
50
90.0000000000
41
0.7143000000
72
0
100
AcDbText
0
LINE
5
266
100
AcDbEntity
8
0
100
AcDbLine
62
2
6
CONTINUOUS
10
154.4944162437
20
122.7705583756
11
192.1928140812
21
122.7705583756
0
LINE
5
267
100
AcDbEntity
8
0
100
AcDbLine
62
2
6
CONTINUOUS
10
154.4005274809
20
157.2705583756
11
192.1928140812
21
157.2705583756
0
LINE
5
268
100
AcDbEntity
8
0
100
AcDbLine
62
2
6
CONTINUOUS
10
190.6928140812
20
122.7705583756
11
190.6928140812
21
140.0205583756
0
LINE
5
269
100
AcDbEntity
8
0
100
AcDbLine
62
2
6
CONTINUOUS
10
190.6928140812
20
157.2705583756
11
190.6928140812
21
140.0205583756
0
INSERT
5
26A
100
AcDbEntity
8
0
100
AcDbBlockReference
62
2
6
CONTINUOUS
2
_FILLED
10
190.6928140812
20
122.7705583756
41
  3.500000
42
  3.500000
43
  3.500000
50
270.000000
0
INSERT
5
26B
100
AcDbEntity
8
0
100
AcDbBlockReference
62
2
6
CONTINUOUS
2
_FILLED
10
190.6928140812
20
157.2705583756
41
  3.500000
42
  3.500000
43
  3.500000
50
 90.000000
0
ENDBLK
5
26C
100
AcDbEntity
8
0
6
BYBLOCK
62
0
100
AcDbBlockEnd
0
BLOCK
5
26D
100
AcDbEntity
8
0
100
AcDbBlockBegin
62
2
6
CONTINUOUS
2
*D9
70
65
10
0.0000000000
20
0.0000000000
3
*D9
1

0
TEXT
5
26E
100
AcDbEntity
8
0
100
AcDbText
62
2
6
CONTINUOUS
10
164.0103974877
20
93.3953797459
7
STANDARD
40
3.5000000000
1
10.5
41
0.7143000000
72
0
100
AcDbText
0
LINE
5
26F
100
AcDbEntity
8
0
100
AcDbLine
62
2
6
CONTINUOUS
10
158.3149746193
20
121.2705583756
11
158.3149746193
21
91.0203797459
0
LINE
5
270
100
AcDbEntity
8
0
100
AcDbLine
62
2
6
CONTINUOUS
10
147.8149746193
20
121.2705583756
11
147.8149746193
21
91.0203797459
0
LINE
5
271
100
AcDbEntity
8
0
100
AcDbLine
62
2
6
CONTINUOUS
10
158.3149746193
20
92.5203797459
11
174.0105974877
21
92.5203797459
0
LINE
5
272
100
AcDbEntity
8
0
100
AcDbLine
62
2
6
CONTINUOUS
10
174.0105974877
20
92.5203797459
11
153.0649746193
21
92.5203797459
0
LINE
5
273
100
AcDbEntity
8
0
100
AcDbLine
62
2
6
CONTINUOUS
10
147.8149746193
20
92.5203797459
11
139.8149746193
21
92.5203797459
0
LINE
5
274
100
AcDbEntity
8
0
100
AcDbLine
62
2
6
CONTINUOUS
10
139.8149746193
20
92.5203797459
11
153.0649746193
21
92.5203797459
0
INSERT
5
275
100
AcDbEntity
8
0
100
AcDbBlockReference
62
2
6
CONTINUOUS
2
_FILLED
10
158.3149746193
20
92.5203797459
41
  3.500000
42
  3.500000
43
  3.500000
50
180.000000
0
INSERT
5
276
100
AcDbEntity
8
0
100
AcDbBlockReference
62
2
6
CONTINUOUS
2
_FILLED
10
147.8149746193
20
92.5203797459
41
  3.500000
42
  3.500000
43
  3.500000
0
ENDBLK
5
277
100
AcDbEntity
8
0
6
BYBLOCK
62
0
100
AcDbBlockEnd
0
BLOCK
5
278
100
AcDbEntity
8
0
100
AcDbBlockBegin
62
2
6
CONTINUOUS
2
*D10
70
65
10
0.0000000000
20
0.0000000000
3
*D10
1

0
TEXT
5
279
100
AcDbEntity
8
0
100
AcDbText
62
2
6
CONTINUOUS
10
189.8178140812
20
110.9952684976
7
STANDARD
40
3.5000000000
1
17.5
50
90.0000000000
41
0.7143000000
72
0
100
AcDbText
0
LINE
5
27A
100
AcDbEntity
8
0
100
AcDbLine
62
2
6
CONTINUOUS
10
175.9360406091
20
105.2705583756
11
192.1928140812
21
105.2705583756
0
LINE
5
27B
100
AcDbEntity
8
0
100
AcDbLine
62
2
6
CONTINUOUS
10
154.4944162437
20
122.7705583756
11
192.1928140812
21
122.7705583756
0
LINE
5
27C
100
AcDbEntity
8
0
100
AcDbLine
62
2
6
CONTINUOUS
10
190.6928140812
20
105.2705583756
11
190.6928140812
21
114.0205583756
0
LINE
5
27D
100
AcDbEntity
8
0
100
AcDbLine
62
2
6
CONTINUOUS
10
190.6928140812
20
122.7705583756
11
190.6928140812
21
114.0205583756
0
INSERT
5
27E
100
AcDbEntity
8
0
100
AcDbBlockReference
62
2
6
CONTINUOUS
2
_FILLED
10
190.6928140812
20
105.2705583756
41
  3.500000
42
  3.500000
43
  3.500000
50
270.000000
0
INSERT
5
27F
100
AcDbEntity
8
0
100
AcDbBlockReference
62
2
6
CONTINUOUS
2
_FILLED
10
190.6928140812
20
122.7705583756
41
  3.500000
42
  3.500000
43
  3.500000
50
 90.000000
0
ENDBLK
5
280
100
AcDbEntity
8
0
6
BYBLOCK
62
0
100
AcDbBlockEnd
0
BLOCK
5
281
100
AcDbEntity
8
0
100
AcDbBlockBegin
62
2
6
CONTINUOUS
2
*D11
70
65
10
0.0000000000
20
0.0000000000
3
*D11
1

0
TEXT
5
282
100
AcDbEntity
8
0
100
AcDbText
62
2
6
CONTINUOUS
10
118.1786718281
20
226.3470010876
7
STANDARD
40
3.5000000000
1
%%c
50
12.6348137137
41
1.3333333333
72
0
100
AcDbText
0
TEXT
5
283
100
AcDbEntity
8
0
100
AcDbText
62
2
6
CONTINUOUS
10
122.7323306577
20
227.3677699356
7
STANDARD
40
3.5000000000
1
14
50
12.6348137137
41
0.7143000000
72
0
100
AcDbText
0
LINE
5
284
100
AcDbEntity
8
0
100
AcDbLine
62
2
6
CONTINUOUS
10
146.2344863741
20
231.7394051035
11
153.0649746193
21
233.2705583756
0
LINE
5
285
100
AcDbEntity
8
0
100
AcDbLine
62
2
6
CONTINUOUS
10
153.0649746193
20
233.2705583756
11
118.3700659871
21
225.4931900571
0
LINE
5
286
100
AcDbEntity
8
0
100
AcDbLine
62
2
6
CONTINUOUS
10
159.8954628644
20
234.8017116478
11
153.0649746193
21
233.2705583756
0
LINE
5
287
100
AcDbEntity
8
0
100
AcDbLine
62
2
6
CONTINUOUS
10
153.0649746193
20
233.2705583756
11
167.7017351431
21
236.5516011013
0
INSERT
5
288
100
AcDbEntity
8
0
100
AcDbBlockReference
62
2
6
CONTINUOUS
2
_FILLED
10
146.2344863748
20
231.7394051037
41
  3.500000
42
  3.500000
43
  3.500000
50
 12.634685
0
INSERT
5
289
100
AcDbEntity
8
0
100
AcDbBlockReference
62
2
6
CONTINUOUS
2
_FILLED
10
159.8954628638
20
234.8017116476
41
  3.500000
42
  3.500000
43
  3.500000
50
192.635191
0
ENDBLK
5
28A
100
AcDbEntity
8
0
6
BYBLOCK
62
0
100
AcDbBlockEnd
0
BLOCK
5
28B
100
AcDbEntity
8
0
100
AcDbBlockBegin
62
2
6
CONTINUOUS
2
*D12
70
65
10
0.0000000000
20
0.0000000000
3
*D12
1

0
TEXT
5
28C
100
AcDbEntity
8
0
100
AcDbText
62
2
6
CONTINUOUS
10
189.7028083694
20
197.1403739390
7
STANDARD
40
3.5000000000
1
76
50
90.0000000000
41
0.7143000000
72
0
100
AcDbText
0
LINE
5
28D
100
AcDbEntity
8
0
100
AcDbLine
62
2
6
CONTINUOUS
10
153.5649746193
20
157.2705583756
11
192.0778083694
21
157.2705583756
0
LINE
5
28E
100
AcDbEntity
8
0
100
AcDbLine
62
2
6
CONTINUOUS
10
153.5649746193
20
233.2705583756
11
192.0778083694
21
233.2705583756
0
LINE
5
28F
100
AcDbEntity
8
0
100
AcDbLine
62
2
6
CONTINUOUS
10
190.5778083694
20
157.2705583756
11
190.5778083694
21
195.2705583756
0
LINE
5
290
100
AcDbEntity
8
0
100
AcDbLine
62
2
6
CONTINUOUS
10
190.5778083694
20
233.2705583756
11
190.5778083694
21
195.2705583756
0
INSERT
5
291
100
AcDbEntity
8
0
100
AcDbBlockReference
62
2
6
CONTINUOUS
2
_FILLED
10
190.5778083694
20
157.2705583756
41
  3.500000
42
  3.500000
43
  3.500000
50
270.000000
0
INSERT
5
292
100
AcDbEntity
8
0
100
AcDbBlockReference
62
2
6
CONTINUOUS
2
_FILLED
10
190.5778083694
20
233.2705583756
41
  3.500000
42
  3.500000
43
  3.500000
50
 90.000000
0
ENDBLK
5
293
100
AcDbEntity
8
0
6
BYBLOCK
62
0
100
AcDbBlockEnd
0
BLOCK
5
294
100
AcDbEntity
8
0
100
AcDbBlockBegin
62
2
6
CONTINUOUS
2
*D13
70
65
10
0.0000000000
20
0.0000000000
3
*D13
1

0
TEXT
5
295
100
AcDbEntity
8
0
100
AcDbText
62
2
6
CONTINUOUS
10
50.8727900790
20
265.5101199657
7
STANDARD
40
3.5000000000
1
26
41
0.7143000000
72
0
100
AcDbText
0
LINE
5
296
100
AcDbEntity
8
0
100
AcDbLine
62
2
6
CONTINUOUS
10
67.1527918782
20
259.7705583756
11
67.1527918782
21
266.1351199657
0
LINE
5
297
100
AcDbEntity
8
0
100
AcDbLine
62
2
6
CONTINUOUS
10
41.1527918782
20
175.2705583756
11
41.1527918782
21
266.1351199657
0
LINE
5
298
100
AcDbEntity
8
0
100
AcDbLine
62
2
6
CONTINUOUS
10
67.1527918782
20
264.6351199657
11
54.1527918782
21
264.6351199657
0
LINE
5
299
100
AcDbEntity
8
0
100
AcDbLine
62
2
6
CONTINUOUS
10
41.1527918782
20
264.6351199657
11
54.1527918782
21
264.6351199657
0
INSERT
5
29A
100
AcDbEntity
8
0
100
AcDbBlockReference
62
2
6
CONTINUOUS
2
_FILLED
10
67.1527918782
20
264.6351199657
41
  3.500000
42
  3.500000
43
  3.500000
0
INSERT
5
29B
100
AcDbEntity
8
0
100
AcDbBlockReference
62
2
6
CONTINUOUS
2
_FILLED
10
41.1527918782
20
264.6351199657
41
  3.500000
42
  3.500000
43
  3.500000
50
180.000000
0
ENDBLK
5
29C
100
AcDbEntity
8
0
6
BYBLOCK
62
0
100
AcDbBlockEnd
0
BLOCK
5
29D
100
AcDbEntity
8
0
100
AcDbBlockBegin
2
_FILLED
70
64
10
0.0000000000
20
0.0000000000
3
_FILLED
1

0
SOLID
5
29E
100
AcDbEntity
8
0
6
BYBLOCK
62
0
100
AcDbTrace
10
0.0000000000
20
0.0000000000
11
-1.0000000000
21
0.1857142857
12
-1.0000000000
22
-0.1857142857
13
-1.0000000000
23
-0.1857142857
0
ENDBLK
5
29F
100
AcDbEntity
8
0
6
BYBLOCK
62
0
100
AcDbBlockEnd
0
ENDSEC
0
SECTION
2
ENTITIES
0
DIMENSION
5
2A0
100
AcDbEntity
8
0
100
AcDbDimension
62
2
6
CONTINUOUS
2
*D0
10
175.5649746193
20
79.8082903344
11
154.7144591554
21
82.4332903344
70
160
42
45.000000
3
DIMSTYLE_1
100
AcDbAlignedDimension
13
130.5649746193
23
106.7680412371
14
175.5649746193
24
108.0876288660
100
AcDbRotatedDimension
0
DIMENSION
5
2A1
100
AcDbEntity
8
0
100
AcDbDimension
62
2
6
CONTINUOUS
2
*D1
10
87.1527918782
20
264.8742612400
11
76.5395939086
21
267.4992612400
70
160
42
20.000000
3
DIMSTYLE_2
100
AcDbAlignedDimension
13
67.1527918782
23
259.7705583756
14
87.1527918782
24
259.7705583756
100
AcDbRotatedDimension
0
DIMENSION
5
2A2
100
AcDbEntity
8
0
100
AcDbDimension
62
2
6
CONTINUOUS
2
*D2
10
21.8066436842
20
174.7705583756
11
19.1816436842
21
135.5657778370
70
160
42
69.500000
3
DIMSTYLE_3
100
AcDbAlignedDimension
13
40.6527918782
23
105.2705583756
14
37.8544610786
24
174.7705583756
50
90.000000
100
AcDbRotatedDimension
0
DIMENSION
5
2A3
100
AcDbEntity
8
0
100
AcDbDimension
62
2
6
CONTINUOUS
2
*D3
10
41.1527918782
20
195.0060101293
11
31.2661571910
21
197.6310101293
70
160
42
3.000000
3
DIMSTYLE_4
100
AcDbAlignedDimension
13
38.1527918782
23
178.7176340540
14
41.1527918782
24
175.2705583756
100
AcDbRotatedDimension
0
DIMENSION
5
2A4
100
AcDbEntity
8
0
100
AcDbDimension
62
2
6
CONTINUOUS
2
*D4
10
21.8066436842
20
178.7705583756
11
19.1816436842
21
191.5830102560
70
160
42
4.000000
3
DIMSTYLE_4
100
AcDbAlignedDimension
13
37.6527918782
23
174.7705583756
14
37.6527918782
24
178.7705583756
50
90.000000
100
AcDbRotatedDimension
0
DIMENSION
5
2A5
100
AcDbEntity
8
0
100
AcDbDimension
62
2
6
CONTINUOUS
2
*D5
10
41.1527918782
20
91.2243702449
11
66.2204560914
21
93.8493702449
70
160
42
15.000000
3
DIMSTYLE_2
100
AcDbAlignedDimension
13
56.1527918782
23
104.7705583756
14
41.1527918782
24
104.7705583756
50
180.000000
100
AcDbRotatedDimension
0
DIMENSION
5
2A6
100
AcDbEntity
8
0
100
AcDbDimension
62
2
6
CONTINUOUS
2
*D6
10
106.1565213895
20
105.2705583756
11
103.5315213895
21
182.0290297163
70
160
42
154.000000
3
DIMSTYLE_5
100
AcDbAlignedDimension
13
87.6527918782
23
259.2705583756
14
56.6527918782
24
105.2705583756
50
270.000000
100
AcDbRotatedDimension
0
DIMENSION
5
2A7
100
AcDbEntity
8
0
100
AcDbDimension
62
2
6
CONTINUOUS
2
*D7
10
135.3149746193
20
270.7716665769
11
152.6890105522
21
273.3966665769
70
160
42
35.500000
3
DIMSTYLE_3
100
AcDbAlignedDimension
13
170.8149746193
23
254.5618556701
14
135.3149746193
24
255.8814432990
50
180.000000
100
AcDbRotatedDimension
0
DIMENSION
5
2A8
100
AcDbEntity
8
0
100
AcDbDimension
62
2
6
CONTINUOUS
2
*D8
10
190.6928140812
20
157.2705583756
11
188.0678140812
21
138.6356918159
70
160
42
34.500000
3
DIMSTYLE_3
100
AcDbAlignedDimension
13
154.4944162437
23
122.7705583756
14
154.4005274809
24
157.2705583756
50
90.000000
100
AcDbRotatedDimension
0
DIMENSION
5
2A9
100
AcDbEntity
8
0
100
AcDbDimension
62
2
6
CONTINUOUS
2
*D9
10
147.8149746193
20
92.5203797459
11
169.0104974877
21
95.1453797459
70
160
42
10.500000
3
DIMSTYLE_2
100
AcDbAlignedDimension
13
158.3149746193
23
121.2705583756
14
147.8149746193
24
121.2705583756
50
180.000000
100
AcDbRotatedDimension
0
DIMENSION
5
2AA
100
AcDbEntity
8
0
100
AcDbDimension
62
2
6
CONTINUOUS
2
*D10
10
190.6928140812
20
122.7705583756
11
188.0678140812
21
115.9953684976
70
160
42
17.500000
3
DIMSTYLE_2
100
AcDbAlignedDimension
13
175.9360406091
23
105.2705583756
14
154.4944162437
24
122.7705583756
50
90.000000
100
AcDbRotatedDimension
0
DIMENSION
5
2AB
100
AcDbEntity
8
0
100
AcDbDimension
62
2
6
CONTINUOUS
2
*D11
10
146.2344863748
20
231.7394051037
11
122.5122218014
21
229.1118589638
70
163
42
14.000000
1
<>
3
DIMSTYLE_6
100
AcDbDiametricDimension
15
159.8954628638
25
234.8017116476
0
DIMENSION
5
2AC
100
AcDbEntity
8
0
100
AcDbDimension
62
2
6
CONTINUOUS
2
*D12
10
190.5778083694
20
233.2705583756
11
187.9528083694
21
199.6404239390
70
160
42
76.000000
3
DIMSTYLE_3
100
AcDbAlignedDimension
13
153.5649746193
23
157.2705583756
14
153.5649746193
24
233.2705583756
50
90.000000
100
AcDbRotatedDimension
0
DIMENSION
5
2AD
100
AcDbEntity
8
0
100
AcDbDimension
62
2
6
CONTINUOUS
2
*D13
10
41.1527918782
20
264.6351199657
11
53.3728400790
21
267.2601199657
70
160
42
26.000000
3
DIMSTYLE_2
100
AcDbAlignedDimension
13
67.1527918782
23
259.7705583756
14
41.1527918782
24
175.2705583756
50
180.000000
100
AcDbRotatedDimension
0
LINE
5
2AE
100
AcDbEntity
8
0
100
AcDbLine
62
7
6
CONTINUOUS
10
0.0000000000
20
0.0000000000
11
210.0000000000
21
0.0000000000
0
LINE
5
2AF
100
AcDbEntity
8
0
100
AcDbLine
62
7
6
CONTINUOUS
10
0.0000000000
20
0.0000000000
11
0.0000000000
21
297.0000000000
0
LINE
5
2B0
100
AcDbEntity
8
0
100
AcDbLine
62
7
6
CONTINUOUS
10
210.0000000000
20
0.0000000000
11
210.0000000000
21
297.0000000000
0
LINE
5
2B1
100
AcDbEntity
8
0
100
AcDbLine
62
7
6
CONTINUOUS
10
0.0000000000
20
297.0000000000
11
210.0000000000
21
297.0000000000
0
LINE
5
2B2
100
AcDbEntity
8
0
100
AcDbLine
62
7
6
CONTINUOUS
10
41.1527918782
20
105.2705583756
11
56.1527918782
21
105.2705583756
0
LINE
5
2B3
100
AcDbEntity
8
0
100
AcDbLine
62
7
6
CONTINUOUS
10
41.1527918782
20
107.2705583756
11
56.1527918782
21
107.2705583756
0
LINE
5
2B4
100
AcDbEntity
8
0
100
AcDbLine
62
7
6
CONTINUOUS
10
56.1527918782
20
111.2705583756
11
59.8027918782
21
111.2705583756
0
LINE
5
2B5
100
AcDbEntity
8
0
100
AcDbLine
62
7
6
CONTINUOUS
10
38.1527918782
20
174.7705583756
11
38.1527918782
21
178.7705583756
0
LINE
5
2B6
100
AcDbEntity
8
0
100
AcDbLine
62
7
6
CONTINUOUS
10
41.1527918782
20
105.2705583756
11
41.1527918782
21
174.7705583756
0
LINE
5
2B7
100
AcDbEntity
8
0
100
AcDbLine
62
7
6
CONTINUOUS
10
74.2660405322
20
250.6305583756
11
71.3792891863
21
245.6305583756
0
LINE
5
2B8
100
AcDbEntity
8
0
100
AcDbLine
62
7
6
CONTINUOUS
10
80.0395432241
20
240.6305583756
11
82.9262945701
21
245.6305583756
0
LINE
5
2B9
100
AcDbEntity
8
0
100
AcDbLine
62
7
6
CONTINUOUS
10
41.1527918782
20
178.7705583756
11
65.9812190029
21
203.5989855004
0
LINE
5
2BA
100
AcDbEntity
8
0
100
AcDbLine
62
7
6
CONTINUOUS
10
56.1527918782
20
105.2705583756
11
56.1527918782
21
178.7705583756
0
LINE
5
2BB
100
AcDbEntity
8
0
100
AcDbLine
62
7
6
CONTINUOUS
10
38.1527918782
20
174.7705583756
11
41.1527918782
21
174.7705583756
0
LINE
5
2BC
100
AcDbEntity
8
0
100
AcDbLine
62
7
6
CONTINUOUS
10
38.1527918782
20
176.7705583756
11
56.1527918782
21
176.7705583756
0
LINE
5
2BD
100
AcDbEntity
8
0
100
AcDbLine
62
7
6
CONTINUOUS
10
38.1527918782
20
178.7705583756
11
56.1527918782
21
178.7705583756
0
LINE
5
2BE
100
AcDbEntity
8
0
100
AcDbLine
62
7
6
CONTINUOUS
10
67.1527918782
20
206.4274126251
11
67.1527918782
21
259.2705583756
0
LINE
5
2BF
100
AcDbEntity
8
0
100
AcDbLine
62
7
6
CONTINUOUS
10
87.1527918782
20
183.9392945693
11
87.1527918782
21
259.2705583756
0
LINE
5
2C0
100
AcDbEntity
8
0
100
AcDbLine
62
7
6
CONTINUOUS
10
63.5898386557
20
113.9828174449
11
86.9398386557
21
182.6515536386
0
LINE
5
2C1
100
AcDbEntity
8
0
100
AcDbLine
62
7
6
CONTINUOUS
10
71.3792891863
20
245.6305583756
11
74.2660405322
21
240.6305583756
0
LINE
5
2C2
100
AcDbEntity
8
0
100
AcDbLine
62
7
6
CONTINUOUS
10
82.9262945701
20
245.6305583756
11
80.0395432241
21
250.6305583756
0
LINE
5
2C3
100
AcDbEntity
8
0
100
AcDbLine
62
7
6
CONTINUOUS
10
74.2660405322
20
240.6305583756
11
80.0395432241
21
240.6305583756
0
LINE
5
2C4
100
AcDbEntity
8
0
100
AcDbLine
62
7
6
CONTINUOUS
10
80.0395432241
20
250.6305583756
11
74.2660405322
21
250.6305583756
0
LINE
5
2C5
100
AcDbEntity
8
0
100
AcDbLine
62
7
6
CONTINUOUS
10
67.1527918782
20
257.2705583756
11
87.1527918782
21
257.2705583756
0
LINE
5
2C6
100
AcDbEntity
8
0
100
AcDbLine
62
7
6
CONTINUOUS
10
67.1527918782
20
259.2705583756
11
87.1527918782
21
259.2705583756
0
LINE
5
2C7
100
AcDbEntity
8
0
100
AcDbLine
62
7
6
CONTINUOUS
10
132.5649746193
20
105.2705583756
11
173.5649746193
21
105.2705583756
0
LINE
5
2C8
100
AcDbEntity
8
0
100
AcDbLine
62
7
6
CONTINUOUS
10
130.5649746193
20
176.7705583756
11
130.5649746193
21
107.2705583756
0
LINE
5
2C9
100
AcDbEntity
8
0
100
AcDbLine
62
7
6
CONTINUOUS
10
135.3149746193
20
178.7705583756
11
135.3149746193
21
257.2705583756
0
LINE
5
2CA
100
AcDbEntity
8
0
100
AcDbLine
62
7
6
CONTINUOUS
10
147.8149746193
20
121.7705583756
11
147.8149746193
21
157.2705583756
0
LINE
5
2CB
100
AcDbEntity
8
0
100
AcDbLine
62
7
6
CONTINUOUS
10
130.5649746193
20
174.7705583756
11
175.5649746193
21
174.7705583756
0
LINE
5
2CC
100
AcDbEntity
8
0
100
AcDbLine
62
7
6
CONTINUOUS
10
151.0649746193
20
259.2705583756
11
151.0649746193
21
239.9787623081
0
LINE
5
2CD
100
AcDbEntity
8
0
100
AcDbLine
62
7
6
CONTINUOUS
10
132.5649746193
20
178.7705583756
11
173.5649746193
21
178.7705583756
0
LINE
5
2CE
100
AcDbEntity
8
0
100
AcDbLine
62
7
6
CONTINUOUS
10
155.0649746193
20
259.2705583756
11
155.0649746193
21
239.9787623081
0
LINE
5
2CF
100
AcDbEntity
8
0
100
AcDbLine
62
7
6
CONTINUOUS
10
158.3149746193
20
157.2705583756
11
158.3149746193
21
121.7705583756
0
LINE
5
2D0
100
AcDbEntity
8
0
100
AcDbLine
62
7
6
CONTINUOUS
10
170.8149746193
20
178.7705583756
11
170.8149746193
21
257.2705583756
0
LINE
5
2D1
100
AcDbEntity
8
0
100
AcDbLine
62
7
6
CONTINUOUS
10
135.3149746193
20
203.5989855004
11
170.8149746193
21
203.5989855004
0
LINE
5
2D2
100
AcDbEntity
8
0
100
AcDbLine
62
7
6
CONTINUOUS
10
175.5649746193
20
176.7705583756
11
175.5649746193
21
107.2705583756
0
LINE
5
2D3
100
AcDbEntity
8
0
100
AcDbLine
62
7
6
CONTINUOUS
10
135.3149746193
20
206.4274126251
11
170.8149746193
21
206.4274126251
0
LINE
5
2D4
100
AcDbEntity
8
0
100
AcDbLine
62
7
6
CONTINUOUS
10
137.3149746193
20
259.2705583756
11
151.0649746193
21
259.2705583756
0
LINE
5
2D5
100
AcDbEntity
8
0
100
AcDbLine
62
7
6
CONTINUOUS
10
155.0649746193
20
259.2705583756
11
168.8149746193
21
259.2705583756
0
ARC
5
2D6
100
AcDbEntity
8
0
100
AcDbCircle
62
7
6
CONTINUOUS
10
83.1527918782
20
183.9392945693
40
4.0000000000
100
AcDbArc
50
341.2200000000
51
360.0000000000
0
CIRCLE
5
2D7
100
AcDbEntity
8
0
100
AcDbCircle
62
7
6
CONTINUOUS
10
77.1527918782
20
245.6305583756
40
3.2500000000
0
ARC
5
2D8
100
AcDbEntity
8
0
100
AcDbCircle
62
7
6
CONTINUOUS
10
59.8027918782
20
115.2705583756
40
4.0000000000
100
AcDbArc
50
270.0000000000
51
341.2200000000
0
ARC
5
2D9
100
AcDbEntity
8
0
100
AcDbCircle
62
7
6
CONTINUOUS
10
63.1527918782
20
206.4274126251
40
4.0000000000
100
AcDbArc
50
315.0000000000
51
360.0000000000
0
ARC
5
2DA
100
AcDbEntity
8
0
100
AcDbCircle
62
7
6
CONTINUOUS
10
132.5649746193
20
107.2705583756
40
2.0000000000
100
AcDbArc
50
180.0000000000
51
270.0000000000
0
ARC
5
2DB
100
AcDbEntity
8
0
100
AcDbCircle
62
7
6
CONTINUOUS
10
173.5649746193
20
107.2705583756
40
2.0000000000
100
AcDbArc
50
270.0000000000
51
360.0000000000
0
ARC
5
2DC
100
AcDbEntity
8
0
100
AcDbCircle
62
7
6
CONTINUOUS
10
153.0649746193
20
122.7705583756
40
5.3443895816
100
AcDbArc
50
190.7842978676
51
349.2157021324
0
ARC
5
2DD
100
AcDbEntity
8
0
100
AcDbCircle
62
7
6
CONTINUOUS
10
153.0649746193
20
157.2705583756
40
5.2500000000
100
AcDbArc
50
0.0000000000
51
180.0000000000
0
ARC
5
2DE
100
AcDbEntity
8
0
100
AcDbCircle
62
7
6
CONTINUOUS
10
132.5649746193
20
176.7705583756
40
2.0000000000
100
AcDbArc
50
90.0000000000
51
180.0000000000
0
ARC
5
2DF
100
AcDbEntity
8
0
100
AcDbCircle
62
7
6
CONTINUOUS
10
173.5649746193
20
176.7705583756
40
2.0000000000
100
AcDbArc
50
0.0000000000
51
90.0000000000
0
ARC
5
2E0
100
AcDbEntity
8
0
100
AcDbCircle
62
7
6
CONTINUOUS
10
168.8149746193
20
257.2705583756
40
2.0000000000
100
AcDbArc
50
0.0000000000
51
90.0000000000
0
ARC
5
2E1
100
AcDbEntity
8
0
100
AcDbCircle
62
7
6
CONTINUOUS
10
137.3149746193
20
257.2705583756
40
2.0000000000
100
AcDbArc
50
90.0000000000
51
180.0000000000
0
ARC
5
2E2
100
AcDbEntity
8
0
100
AcDbCircle
62
7
6
CONTINUOUS
10
153.0649746193
20
233.2705583756
40
7.0000000000
100
AcDbArc
50
106.6015495990
51
73.3984504010
0
ENDSEC
0
SECTION
2
OBJECTS
0
DICTIONARY
5
C
100
AcDbDictionary
280
0
281
1
3
ACAD_GROUP
350
D
3
ACAD_MLINESTYLE
350
17
3
ACAD_LAYOUT
350
1A
3
ACAD_PLOTSETTINGS
350
19
3
ACAD_PLOTSTYLENAME
350
E
0
DICTIONARY
5
D
102
{ACAD_REACTORS
330
C
102
}
100
AcDbDictionary
280
0
281
1
0
ACDBDICTIONARYWDFLT
5
E
102
{ACAD_REACTORS
330
C
102
}
100
AcDbDictionary
281
1
3
Normal
350
F
100
AcDbDictionaryWithDefault
340
F
0
DICTIONARY
5
17
102
{ACAD_REACTORS
330
C
102
}
100
AcDbDictionary
280
0
281
1
3
Standard
350
18
0
DICTIONARY
5
19
102
{ACAD_REACTORS
330
C
102
}
100
AcDbDictionary
281
1
0
DICTIONARY
5
1A
102
{ACAD_REACTORS
330
C
102
}
100
AcDbDictionary
281
1
3
Layout1
350
1E
3
Model
350
22
0
ACDBPLACEHOLDER
5
F
102
{ACAD_REACTORS
330
E
102
}
0
MLINESTYLE
5
18
102
{ACAD_REACTORS
330
17
102
}
100
AcDbMlineStyle
2
STANDARD
70
0
3

62
256
51
90.0
52
90.0
71
2
49
0.5
62
256
6
BYLAYER
49
-0.5
62
256
6
BYLAYER
0
LAYOUT
5
1E
102
{ACAD_REACTORS
330
1A
102
}
100
AcDbPlotSettings
1

2

4

6

40
0.0
41
0.0
42
0.0
43
0.0
44
0.0
45
0.0
46
0.0
47
0.0
48
0.0
49
0.0
140
0.0
141
0.0
142
1.0
143
1.0
70
0
72
0
73
0
74
0
7

75
0
147
1.0
148
0.0
149
0.0
100
AcDbLayout
1
Layout1
70
0
71
0
10
0.0
20
0.0
11
0.0
21
0.0
12
0.0
22
0.0
32
0.0
14
0.0
24
0.0
34
0.0
15
0.0
25
0.0
35
0.0
146
0.0
13
0.0
23
0.0
33
0.0
16
0.0
26
0.0
36
0.0
17
0.0
27
0.0
37
0.0
76
0
330
1B
331
0
345
0
346
0
0
LAYOUT
5
22
102
{ACAD_REACTORS
330
1A
102
}
100
AcDbPlotSettings
1

2

4

6

40
0.0
41
0.0
42
0.0
43
0.0
44
0.0
45
0.0
46
0.0
47
0.0
48
0.0
49
0.0
140
0.0
141
0.0
142
1.0
143
1.0
70
0
72
0
73
0
74
0
7

75
0
147
1.0
148
0.0
149
0.0
100
AcDbLayout
1
Model
70
0
71
0
10
0.0
20
0.0
11
0.0
21
0.0
12
0.0
22
0.0
32
0.0
14
0.0
24
0.0
34
0.0
15
0.0
25
0.0
35
0.0
146
0.0
13
0.0
23
0.0
33
0.0
16
0.0
26
0.0
36
0.0
17
0.0
27
0.0
37
0.0
76
0
330
1F
331
0
345
0
346
0
0
ENDSEC
0
EOF
