999
DXF file: s005051000.dxf
999
Pro/ENGINEER 2005310 by Parametric Technology Corporation
0
SECTION
2
HEADER
9
$ACADVER
1
AC1015
9
$DWGCODEPAGE
3
ANSI_1252
9
$EXTMAX
10
210.0000000000
20
297.0000000000
30
0.0000000000
9
$EXTMIN
10
0.0000000000
20
0.0000000000
30
0.0000000000
9
$LIMMIN
10
0.0000000000
20
0.0000000000
9
$LIMMAX
10
210.0000000000
20
297.0000000000
9
$VIEWCTR
10
105.0000000000
20
148.5000000000
9
$VIEWSIZE
40
297.0000000000
9
$CLAYER
8
0
9
$LTSCALE
40
19.3600000000
9
$CELTYPE
6
BYLAYER
9
$DIMSCALE
40
1
9
$DIMASZ
40
3.5000000000
9
$DIMEXO
40
2.2000000000
9
$DIMDLI
40
13.3760000000
9
$DIMEXE
40
6.3360000000
9
$DIMCEN
40
3.1680000000
9
$DIMLFAC
40
1.0000000000
9
$DIMBLK
1
_FILLED
9
$DIMTXT
40
3.5000000000
9
$DIMTOL
70
1
9
$DIMLIM
70
0
9
$DIMTFAC
40
1.0000000000
9
$DIMTP
40
0.0010000000
9
$DIMTM
40
0.0010000000
9
$PDMODE
70
3
9
$PDSIZE
40
0.3125000000
9
$HANDSEED
5
2A0
9
$MEASUREMENT
70
1
9
$INSUNITS
70
4
0
ENDSEC
0
SECTION
2
CLASSES
0
CLASS
1
ACDBDICTIONARYWDFLT
2
AcDbDictionaryWithDefault
3
AutoCAD 2000
90
0
280
0
281
0
0
CLASS
1
ACDBPLACEHOLDER
2
AcDbPlaceHolder
3
AutoCAD 2000
90
0
280
0
281
0
0
CLASS
1
LAYOUT
2
AcDbLayout
3
AutoCAD 2000
90
0
280
0
281
0
0
ENDSEC
0
SECTION
2
TABLES
0
TABLE
2
VPORT
5
8
100
AcDbSymbolTable
70
2
0
VPORT
5
1F4
100
AcDbSymbolTableRecord
100
AcDbViewportTableRecord
2
*ACTIVE
70
0
10
0.0
20
0.0
11
1.0
21
1.0
12
105.0000000000
22
148.5000000000
13
0.0
23
0.0
14
1.0
24
1.0
15
0.0
25
0.0
16
0.0
26
0.0
36
1.0
17
0.0
27
0.0
37
0.0
40
297.0000000000
41
0.7070707071
42
50.0
43
0.0
44
0.0
50
0.0
51
0.0
71
0
72
100
73
1
74
1
75
0
76
0
77
0
78
0
0
ENDTAB
0
TABLE
2
LTYPE
5
5
100
AcDbSymbolTable
70
6
0
LTYPE
5
14
100
AcDbSymbolTableRecord
100
AcDbLinetypeTableRecord
2
BYBLOCK
70
0
3

72
65
73
0
40
0.0
0
LTYPE
5
15
100
AcDbSymbolTableRecord
100
AcDbLinetypeTableRecord
2
BYLAYER
70
0
3

72
65
73
0
40
0.0
0
LTYPE
5
16
100
AcDbSymbolTableRecord
100
AcDbLinetypeTableRecord
2
CONTINUOUS
70
64
3
Solid line
72
65
73
0
40
0
0
LTYPE
5
1F5
100
AcDbSymbolTableRecord
100
AcDbLinetypeTableRecord
2
CENTER
70
64
3
____ _ ____ _ ____ _ ____ _ ____ _ ____ _ ____
72
65
73
4
40
0.6
49
0.375
74
0
49
-0.075
74
0
49
0.075
74
0
49
-0.075
74
0
0
LTYPE
5
1F6
100
AcDbSymbolTableRecord
100
AcDbLinetypeTableRecord
2
HIDDEN
70
64
3
- - - - - - - - - - - - - - - - - - - -
72
65
73
2
40
0.2
49
0.1
74
0
49
-0.1
74
0
0
LTYPE
5
1F7
100
AcDbSymbolTableRecord
100
AcDbLinetypeTableRecord
2
PHANTOM
70
64
3
_____ _ _ _____ _ _ _____ _ _ _____
72
65
73
6
40
0.8
49
0.45
74
0
49
-0.05
74
0
49
0.1
74
0
49
-0.05
74
0
49
0.1
74
0
49
-0.05
74
0
0
LTYPE
5
1F8
100
AcDbSymbolTableRecord
100
AcDbLinetypeTableRecord
2
DOT
70
64
3
. . . . . . . . . . . . . . . . . . . .
72
65
73
2
40
0.2
49
0.1
74
0
49
-0.1
74
0
0
LTYPE
5
1F9
100
AcDbSymbolTableRecord
100
AcDbLinetypeTableRecord
2
DASHED
70
64
3
- - - - - - - - - - - - - - - - - - - -
72
65
73
2
40
0.2
49
0.1
74
0
49
-0.1
74
0
0
ENDTAB
0
TABLE
2
LAYER
5
2
100
AcDbSymbolTable
70
36
0
LAYER
5
10
100
AcDbSymbolTableRecord
100
AcDbLayerTableRecord
2
0
70
0
62
7
6
CONTINUOUS
370
-3
390
F
0
LAYER
5
1FA
100
AcDbSymbolTableRecord
100
AcDbLayerTableRecord
2
DEFAULT_1
70
0
62
7
6
CENTER
370
-3
390
F
0
LAYER
5
1FB
100
AcDbSymbolTableRecord
100
AcDbLayerTableRecord
2
DEFAULT_2
70
0
62
8
6
HIDDEN
370
-3
390
F
0
LAYER
5
1FC
100
AcDbSymbolTableRecord
100
AcDbLayerTableRecord
2
DEFAULT_3
70
0
62
7
6
PHANTOM
370
-3
390
F
0
LAYER
5
1FD
100
AcDbSymbolTableRecord
100
AcDbLayerTableRecord
2
_2D_DELETED_OBJS
70
0
62
7
6
CONTINUOUS
370
-3
390
F
0
LAYER
5
1FE
100
AcDbSymbolTableRecord
100
AcDbLayerTableRecord
2
_BLACK_HOLE
70
0
62
7
6
CONTINUOUS
370
-3
390
F
0
LAYER
5
1FF
100
AcDbSymbolTableRecord
100
AcDbLayerTableRecord
2
ASSI
70
0
62
7
6
CONTINUOUS
370
-3
390
F
0
LAYER
5
200
100
AcDbSymbolTableRecord
100
AcDbLayerTableRecord
2
CURVE
70
0
62
7
6
CONTINUOUS
370
-3
390
F
0
LAYER
5
201
100
AcDbSymbolTableRecord
100
AcDbLayerTableRecord
2
PIANI
70
0
62
7
6
CONTINUOUS
370
-3
390
F
0
LAYER
5
202
100
AcDbSymbolTableRecord
100
AcDbLayerTableRecord
2
SURF_FILETTI
70
0
62
7
6
CONTINUOUS
370
-3
390
F
0
ENDTAB
0
TABLE
2
STYLE
5
3
100
AcDbSymbolTable
70
1
0
STYLE
5
11
100
AcDbSymbolTableRecord
100
AcDbTextStyleTableRecord
2
STANDARD
70
0
40
0.0
41
0.7143000000
50
0.0
71
0
42
0.2
3
txt
4

0
ENDTAB
0
TABLE
2
VIEW
5
6
100
AcDbSymbolTable
70
0
0
ENDTAB
0
TABLE
2
UCS
5
7
100
AcDbSymbolTable
70
0
0
ENDTAB
0
TABLE
2
APPID
5
9
100
AcDbSymbolTable
70
1
0
APPID
5
203
100
AcDbSymbolTableRecord
100
AcDbRegAppTableRecord
2
ACAD
70
0
0
ENDTAB
0
TABLE
2
BLOCK_RECORD
5
1
100
AcDbSymbolTable
70
0
0
BLOCK_RECORD
5
1F
100
AcDbSymbolTableRecord
100
AcDbBlockTableRecord
2
*MODEL_SPACE
0
BLOCK_RECORD
5
1B
100
AcDbSymbolTableRecord
100
AcDbBlockTableRecord
2
*PAPER_SPACE
0
BLOCK_RECORD
5
204
100
AcDbSymbolTableRecord
100
AcDbBlockTableRecord
2
_FILLED
0
BLOCK_RECORD
5
205
100
AcDbSymbolTableRecord
100
AcDbBlockTableRecord
2
*D0
0
BLOCK_RECORD
5
206
100
AcDbSymbolTableRecord
100
AcDbBlockTableRecord
2
*D1
0
BLOCK_RECORD
5
207
100
AcDbSymbolTableRecord
100
AcDbBlockTableRecord
2
*D2
0
BLOCK_RECORD
5
208
100
AcDbSymbolTableRecord
100
AcDbBlockTableRecord
2
*D3
0
BLOCK_RECORD
5
209
100
AcDbSymbolTableRecord
100
AcDbBlockTableRecord
2
*D4
0
ENDTAB
0
TABLE
2
DIMSTYLE
5
A
100
AcDbSymbolTable
70
1
100
AcDbDimStyleTable
71
0
0
DIMSTYLE
105
20A
100
AcDbSymbolTableRecord
100
AcDbDimStyleTableRecord
2
STANDARD
70
0
3

4

40
1.0
41
3.5000000000
42
0.0625
43
0.38
44
0.18
45
0.0
46
0.0
47
0.0010000000
48
0.0010000000
140
3.5000000000
141
0.09
142
0.0
143
25.4
144
1.0000000000
145
0.0
146
1.0000000000
147
0.09
71
1
72
0
73
0
74
0
75
0
76
0
77
1
78
8
170
0
171
2
172
0
173
0
174
0
175
0
176
0
177
0
178
0
270
2
271
3
272
3
273
2
274
2
275
0
280
0
281
0
282
0
283
1
284
8
285
0
286
0
287
3
288
0
340
11
341
204
342
204
343
204
344
204
0
DIMSTYLE
105
20B
100
AcDbSymbolTableRecord
100
AcDbDimStyleTableRecord
2
DIMSTYLE_1
70
0
3

4

40
1.0
41
3.5000000000
42
0.0625
43
0.38
44
0.18
45
0.0
46
0.0
47
0.1500000000
48
0.1500000000
140
3.5000000000
141
0.09
142
0.0
143
25.4
144
1.0000000000
145
0.0
146
1.0000000000
147
0.09
71
0
72
0
73
0
74
0
75
0
76
0
77
1
78
8
170
0
171
2
172
0
173
0
174
0
175
0
176
0
177
0
178
0
270
2
271
3
272
3
273
2
274
2
275
0
280
0
281
0
282
0
283
1
284
8
285
0
286
0
287
3
288
0
340
11
341
204
342
204
343
204
344
204
0
DIMSTYLE
105
20C
100
AcDbSymbolTableRecord
100
AcDbDimStyleTableRecord
2
DIMSTYLE_2
70
0
3

4

40
1.0
41
3.5000000000
42
0.0625
43
0.38
44
0.18
45
0.0
46
0.0
47
0.2000000000
48
0.2000000000
140
3.5000000000
141
0.09
142
0.0
143
25.4
144
1.0000000000
145
0.0
146
1.0000000000
147
0.09
71
0
72
0
73
0
74
0
75
0
76
0
77
1
78
8
170
0
171
2
172
0
173
0
174
0
175
0
176
0
177
0
178
0
270
2
271
2
272
2
273
2
274
2
275
0
280
0
281
0
282
0
283
1
284
8
285
0
286
0
287
3
288
0
340
11
341
204
342
204
343
204
344
204
0
DIMSTYLE
105
20D
100
AcDbSymbolTableRecord
100
AcDbDimStyleTableRecord
2
DIMSTYLE_3
70
0
3

4

40
1.0
41
3.5000000000
42
0.0625
43
0.38
44
0.18
45
0.0
46
0.0
47
0.1500000000
48
0.1500000000
140
3.5000000000
141
0.09
142
0.0
143
25.4
144
1.0000000000
145
0.0
146
1.0000000000
147
0.09
71
0
72
0
73
0
74
0
75
0
76
0
77
1
78
8
170
0
171
2
172
0
173
0
174
0
175
0
176
0
177
0
178
0
270
2
271
2
272
2
273
2
274
2
275
0
280
0
281
0
282
0
283
1
284
8
285
0
286
0
287
3
288
0
340
11
341
204
342
204
343
204
344
204
0
DIMSTYLE
105
20E
100
AcDbSymbolTableRecord
100
AcDbDimStyleTableRecord
2
DIMSTYLE_4
70
0
3

4

40
1.0
41
3.5000000000
42
0.0625
43
0.38
44
0.18
45
0.0
46
0.0
47
0.1000000000
48
0.1000000000
140
3.5000000000
141
0.09
142
0.0
143
25.4
144
1.0000000000
145
0.0
146
1.0000000000
147
0.09
71
0
72
0
73
0
74
0
75
0
76
0
77
1
78
8
170
0
171
2
172
0
173
0
174
0
175
0
176
0
177
0
178
0
270
2
271
3
272
3
273
2
274
2
275
0
280
0
281
0
282
0
283
1
284
8
285
0
286
0
287
3
288
0
340
11
341
204
342
204
343
204
344
204
0
ENDTAB
0
ENDSEC
0
SECTION
2
BLOCKS
0
BLOCK
5
20
100
AcDbEntity
8
0
100
AcDbBlockBegin
2
*MODEL_SPACE
70
0
10
0.0
20
0.0
30
0.0
3
*MODEL_SPACE
1

0
ENDBLK
5
21
100
AcDbEntity
8
0
100
AcDbBlockEnd
0
BLOCK
5
1C
100
AcDbEntity
8
0
100
AcDbBlockBegin
2
*PAPER_SPACE
70
0
10
0.0
20
0.0
30
0.0
3
*PAPER_SPACE
1

0
ENDBLK
5
1D
100
AcDbEntity
8
0
100
AcDbBlockEnd
0
BLOCK
5
20F
100
AcDbEntity
8
0
100
AcDbBlockBegin
62
2
6
CONTINUOUS
2
*D0
70
65
10
0.0000000000
20
0.0000000000
3
*D0
1

0
TEXT
5
210
100
AcDbEntity
8
0
100
AcDbText
62
2
6
CONTINUOUS
10
60.2594502182
20
203.4718544742
7
STANDARD
40
3.5000000000
1
53
50
90.0000000000
41
0.7143000000
72
0
100
AcDbText
0
LINE
5
211
100
AcDbEntity
8
0
100
AcDbLine
62
2
6
CONTINUOUS
10
79.9233530671
20
236.1269035533
11
59.6344502182
21
236.1269035533
0
LINE
5
212
100
AcDbEntity
8
0
100
AcDbLine
62
2
6
CONTINUOUS
10
79.9233530671
20
183.1269035533
11
59.6344502182
21
183.1269035533
0
LINE
5
213
100
AcDbEntity
8
0
100
AcDbLine
62
2
6
CONTINUOUS
10
61.1344502182
20
236.1269035533
11
61.1344502182
21
209.6269035533
0
LINE
5
214
100
AcDbEntity
8
0
100
AcDbLine
62
2
6
CONTINUOUS
10
61.1344502182
20
183.1269035533
11
61.1344502182
21
209.6269035533
0
INSERT
5
215
100
AcDbEntity
8
0
100
AcDbBlockReference
62
2
6
CONTINUOUS
2
_FILLED
10
61.1344502182
20
236.1269035533
41
  3.500000
42
  3.500000
43
  3.500000
50
 90.000000
0
INSERT
5
216
100
AcDbEntity
8
0
100
AcDbBlockReference
62
2
6
CONTINUOUS
2
_FILLED
10
61.1344502182
20
183.1269035533
41
  3.500000
42
  3.500000
43
  3.500000
50
270.000000
0
ENDBLK
5
217
100
AcDbEntity
8
0
6
BYBLOCK
62
0
100
AcDbBlockEnd
0
BLOCK
5
218
100
AcDbEntity
8
0
100
AcDbBlockBegin
62
2
6
CONTINUOUS
2
*D1
70
65
10
0.0000000000
20
0.0000000000
3
*D1
1

0
TEXT
5
219
100
AcDbEntity
8
0
100
AcDbText
62
2
6
CONTINUOUS
10
128.1958984158
20
151.5390025197
7
STANDARD
40
3.5000000000
1
121
41
0.7143000000
72
0
100
AcDbText
0
LINE
5
21A
100
AcDbEntity
8
0
100
AcDbLine
62
2
6
CONTINUOUS
10
75.9999971867
20
173.3365482234
11
75.9999971867
21
149.1640025197
0
LINE
5
21B
100
AcDbEntity
8
0
100
AcDbLine
62
2
6
CONTINUOUS
10
196.9999971867
20
204.0695431472
11
196.9999971867
21
149.1640025197
0
LINE
5
21C
100
AcDbEntity
8
0
100
AcDbLine
62
2
6
CONTINUOUS
10
75.9999971867
20
150.6640025197
11
136.4999971867
21
150.6640025197
0
LINE
5
21D
100
AcDbEntity
8
0
100
AcDbLine
62
2
6
CONTINUOUS
10
196.9999971867
20
150.6640025197
11
136.4999971867
21
150.6640025197
0
INSERT
5
21E
100
AcDbEntity
8
0
100
AcDbBlockReference
62
2
6
CONTINUOUS
2
_FILLED
10
75.9999971867
20
150.6640025197
41
  3.500000
42
  3.500000
43
  3.500000
50
180.000000
0
INSERT
5
21F
100
AcDbEntity
8
0
100
AcDbBlockReference
62
2
6
CONTINUOUS
2
_FILLED
10
196.9999971867
20
150.6640025197
41
  3.500000
42
  3.500000
43
  3.500000
0
ENDBLK
5
220
100
AcDbEntity
8
0
6
BYBLOCK
62
0
100
AcDbBlockEnd
0
BLOCK
5
221
100
AcDbEntity
8
0
100
AcDbBlockBegin
62
2
6
CONTINUOUS
2
*D2
70
65
10
0.0000000000
20
0.0000000000
3
*D2
1

0
TEXT
5
222
100
AcDbEntity
8
0
100
AcDbText
62
2
6
CONTINUOUS
10
140.5485830214
20
174.4484700415
7
STANDARD
40
3.5000000000
1
100
41
0.7143000000
72
0
100
AcDbText
0
LINE
5
223
100
AcDbEntity
8
0
100
AcDbLine
62
2
6
CONTINUOUS
10
96.9999971867
20
202.9974619289
11
96.9999971867
21
172.0734700415
0
LINE
5
224
100
AcDbEntity
8
0
100
AcDbLine
62
2
6
CONTINUOUS
10
196.9999971867
20
204.7842639594
11
196.9999971867
21
172.0734700415
0
LINE
5
225
100
AcDbEntity
8
0
100
AcDbLine
62
2
6
CONTINUOUS
10
96.9999971867
20
173.5734700415
11
146.9999971867
21
173.5734700415
0
LINE
5
226
100
AcDbEntity
8
0
100
AcDbLine
62
2
6
CONTINUOUS
10
196.9999971867
20
173.5734700415
11
146.9999971867
21
173.5734700415
0
INSERT
5
227
100
AcDbEntity
8
0
100
AcDbBlockReference
62
2
6
CONTINUOUS
2
_FILLED
10
96.9999971867
20
173.5734700415
41
  3.500000
42
  3.500000
43
  3.500000
50
180.000000
0
INSERT
5
228
100
AcDbEntity
8
0
100
AcDbBlockReference
62
2
6
CONTINUOUS
2
_FILLED
10
196.9999971867
20
173.5734700415
41
  3.500000
42
  3.500000
43
  3.500000
0
ENDBLK
5
229
100
AcDbEntity
8
0
6
BYBLOCK
62
0
100
AcDbBlockEnd
0
BLOCK
5
22A
100
AcDbEntity
8
0
100
AcDbBlockBegin
62
2
6
CONTINUOUS
2
*D3
70
65
10
0.0000000000
20
0.0000000000
3
*D3
1

0
TEXT
5
22B
100
AcDbEntity
8
0
100
AcDbText
62
2
6
CONTINUOUS
10
29.7771073604
20
161.8430303824
7
STANDARD
40
3.5000000000
1
25
41
0.7143000000
72
0
100
AcDbText
0
LINE
5
22C
100
AcDbEntity
8
0
100
AcDbLine
62
2
6
CONTINUOUS
10
44.7771573604
20
172.1269035533
11
44.7771573604
21
159.4680303824
0
LINE
5
22D
100
AcDbEntity
8
0
100
AcDbLine
62
2
6
CONTINUOUS
10
19.7771573604
20
172.1269035533
11
19.7771573604
21
159.4680303824
0
LINE
5
22E
100
AcDbEntity
8
0
100
AcDbLine
62
2
6
CONTINUOUS
10
44.7771573604
20
160.9680303824
11
32.2771573604
21
160.9680303824
0
LINE
5
22F
100
AcDbEntity
8
0
100
AcDbLine
62
2
6
CONTINUOUS
10
19.7771573604
20
160.9680303824
11
32.2771573604
21
160.9680303824
0
INSERT
5
230
100
AcDbEntity
8
0
100
AcDbBlockReference
62
2
6
CONTINUOUS
2
_FILLED
10
44.7771573604
20
160.9680303824
41
  3.500000
42
  3.500000
43
  3.500000
0
INSERT
5
231
100
AcDbEntity
8
0
100
AcDbBlockReference
62
2
6
CONTINUOUS
2
_FILLED
10
19.7771573604
20
160.9680303824
41
  3.500000
42
  3.500000
43
  3.500000
50
180.000000
0
ENDBLK
5
232
100
AcDbEntity
8
0
6
BYBLOCK
62
0
100
AcDbBlockEnd
0
BLOCK
5
233
100
AcDbEntity
8
0
100
AcDbBlockBegin
62
2
6
CONTINUOUS
2
*D4
70
65
10
0.0000000000
20
0.0000000000
3
*D4
1

0
TEXT
5
234
100
AcDbEntity
8
0
100
AcDbText
62
2
6
CONTINUOUS
10
7.7474179386
20
207.4596315898
7
STANDARD
40
3.5000000000
1
74
50
90.0000000000
41
0.7143000000
72
0
100
AcDbText
0
LINE
5
235
100
AcDbEntity
8
0
100
AcDbLine
62
2
6
CONTINUOUS
10
19.9875269482
20
246.6269035533
11
7.1224179386
21
246.6269035533
0
LINE
5
236
100
AcDbEntity
8
0
100
AcDbLine
62
2
6
CONTINUOUS
10
20.1358728359
20
172.6269035533
11
7.1224179386
21
172.6269035533
0
LINE
5
237
100
AcDbEntity
8
0
100
AcDbLine
62
2
6
CONTINUOUS
10
8.6224179386
20
246.6269035533
11
8.6224179386
21
209.6269035533
0
LINE
5
238
100
AcDbEntity
8
0
100
AcDbLine
62
2
6
CONTINUOUS
10
8.6224179386
20
172.6269035533
11
8.6224179386
21
209.6269035533
0
INSERT
5
239
100
AcDbEntity
8
0
100
AcDbBlockReference
62
2
6
CONTINUOUS
2
_FILLED
10
8.6224179386
20
246.6269035533
41
  3.500000
42
  3.500000
43
  3.500000
50
 90.000000
0
INSERT
5
23A
100
AcDbEntity
8
0
100
AcDbBlockReference
62
2
6
CONTINUOUS
2
_FILLED
10
8.6224179386
20
172.6269035533
41
  3.500000
42
  3.500000
43
  3.500000
50
270.000000
0
ENDBLK
5
23B
100
AcDbEntity
8
0
6
BYBLOCK
62
0
100
AcDbBlockEnd
0
BLOCK
5
23C
100
AcDbEntity
8
0
100
AcDbBlockBegin
2
_FILLED
70
64
10
0.0000000000
20
0.0000000000
3
_FILLED
1

0
SOLID
5
23D
100
AcDbEntity
8
0
6
BYBLOCK
62
0
100
AcDbTrace
10
0.0000000000
20
0.0000000000
11
-1.0000000000
21
0.1857142857
12
-1.0000000000
22
-0.1857142857
13
-1.0000000000
23
-0.1857142857
0
ENDBLK
5
23E
100
AcDbEntity
8
0
6
BYBLOCK
62
0
100
AcDbBlockEnd
0
ENDSEC
0
SECTION
2
ENTITIES
0
DIMENSION
5
23F
100
AcDbEntity
8
0
100
AcDbDimension
62
2
6
CONTINUOUS
2
*D0
10
61.1344502182
20
183.1269035533
11
58.5094502182
21
205.9719044742
70
160
42
53.000000
3
DIMSTYLE_1
100
AcDbAlignedDimension
13
79.9233530671
23
236.1269035533
14
79.9233530671
24
183.1269035533
50
270.000000
100
AcDbRotatedDimension
0
DIMENSION
5
240
100
AcDbEntity
8
0
100
AcDbDimension
62
2
6
CONTINUOUS
2
*D1
10
196.9999971867
20
150.6640025197
11
131.9459734158
21
153.2890025197
70
160
42
121.000000
3
DIMSTYLE_2
100
AcDbAlignedDimension
13
75.9999971867
23
173.3365482234
14
196.9999971867
24
204.0695431472
100
AcDbRotatedDimension
0
DIMENSION
5
241
100
AcDbEntity
8
0
100
AcDbDimension
62
2
6
CONTINUOUS
2
*D2
10
196.9999971867
20
173.5734700415
11
144.2986580214
21
176.1984700415
70
160
42
100.000000
3
DIMSTYLE_3
100
AcDbAlignedDimension
13
96.9999971867
23
202.9974619289
14
196.9999971867
24
204.7842639594
100
AcDbRotatedDimension
0
DIMENSION
5
242
100
AcDbEntity
8
0
100
AcDbDimension
62
2
6
CONTINUOUS
2
*D3
10
19.7771573604
20
160.9680303824
11
32.2771573604
21
163.5930303824
70
160
42
25.000000
3
DIMSTYLE_4
100
AcDbAlignedDimension
13
44.7771573604
23
172.1269035533
14
19.7771573604
24
172.1269035533
50
180.000000
100
AcDbRotatedDimension
0
DIMENSION
5
243
100
AcDbEntity
8
0
100
AcDbDimension
62
2
6
CONTINUOUS
2
*D4
10
8.6224179386
20
172.6269035533
11
5.9974179386
21
209.9596815898
70
160
42
74.000000
3
DIMSTYLE_3
100
AcDbAlignedDimension
13
19.9875269482
23
246.6269035533
14
20.1358728359
24
172.6269035533
50
270.000000
100
AcDbRotatedDimension
0
LINE
5
244
100
AcDbEntity
8
0
100
AcDbLine
62
7
6
CONTINUOUS
10
0.0000000000
20
0.0000000000
11
210.0000000000
21
0.0000000000
0
LINE
5
245
100
AcDbEntity
8
0
100
AcDbLine
62
7
6
CONTINUOUS
10
0.0000000000
20
0.0000000000
11
0.0000000000
21
297.0000000000
0
LINE
5
246
100
AcDbEntity
8
0
100
AcDbLine
62
7
6
CONTINUOUS
10
210.0000000000
20
0.0000000000
11
210.0000000000
21
297.0000000000
0
LINE
5
247
100
AcDbEntity
8
0
100
AcDbLine
62
7
6
CONTINUOUS
10
0.0000000000
20
297.0000000000
11
210.0000000000
21
297.0000000000
0
LINE
5
248
100
AcDbEntity
8
0
100
AcDbLine
62
7
6
CONTINUOUS
10
75.4861940754
20
232.1603819661
11
75.4861940754
21
225.9977047640
0
LINE
5
249
100
AcDbEntity
8
0
100
AcDbLine
62
7
6
CONTINUOUS
10
75.4861940754
20
193.2561023426
11
75.4861940754
21
187.0934251405
0
LINE
5
24A
100
AcDbEntity
8
0
100
AcDbLine
62
7
6
CONTINUOUS
10
75.9684690277
20
246.6269035533
11
75.9684690277
21
242.1269035533
0
LINE
5
24B
100
AcDbEntity
8
0
100
AcDbLine
62
7
6
CONTINUOUS
10
75.9684690277
20
177.1269035533
11
75.9684690277
21
172.6269035533
0
LINE
5
24C
100
AcDbEntity
8
0
100
AcDbLine
62
7
6
CONTINUOUS
10
75.9861940754
20
216.6227959012
11
75.9861940754
21
202.6310112054
0
LINE
5
24D
100
AcDbEntity
8
0
100
AcDbLine
62
7
6
CONTINUOUS
10
83.9861940754
20
216.6227959012
11
83.9861940754
21
202.6310112054
0
LINE
5
24E
100
AcDbEntity
8
0
100
AcDbLine
62
7
6
CONTINUOUS
10
85.9861940754
20
214.8769035533
11
85.9861940754
21
204.3769035533
0
LINE
5
24F
100
AcDbEntity
8
0
100
AcDbLine
62
7
6
CONTINUOUS
10
86.4233530671
20
239.1269035533
11
86.4233530671
21
233.7206390825
0
LINE
5
250
100
AcDbEntity
8
0
100
AcDbLine
62
7
6
CONTINUOUS
10
86.4233530671
20
185.3886781651
11
86.4233530671
21
180.1269035533
0
LINE
5
251
100
AcDbEntity
8
0
100
AcDbLine
62
7
6
CONTINUOUS
10
90.4861940754
20
202.4269035533
11
90.4861940754
21
216.8269035533
0
LINE
5
252
100
AcDbEntity
8
0
100
AcDbLine
62
7
6
CONTINUOUS
10
90.9084690277
20
178.6269035533
11
90.9084690277
21
185.3886781651
0
LINE
5
253
100
AcDbEntity
8
0
100
AcDbLine
62
7
6
CONTINUOUS
10
90.9084690277
20
233.7206390825
11
90.9084690277
21
240.6269035533
0
LINE
5
254
100
AcDbEntity
8
0
100
AcDbLine
62
7
6
CONTINUOUS
10
92.4861940754
20
218.5546586238
11
92.4861940754
21
200.5546586238
0
LINE
5
255
100
AcDbEntity
8
0
100
AcDbLine
62
7
6
CONTINUOUS
10
96.9999971867
20
200.3888430110
11
96.9999971867
21
218.8120776205
0
LINE
5
256
100
AcDbEntity
8
0
100
AcDbLine
62
7
6
CONTINUOUS
10
75.9684690277
20
172.6269035533
11
84.9084690277
21
172.6269035533
0
LINE
5
257
100
AcDbEntity
8
0
100
AcDbLine
62
7
6
CONTINUOUS
10
85.0352506475
20
202.1857013343
11
75.4861940754
21
193.2561023426
0
LINE
5
258
100
AcDbEntity
8
0
100
AcDbLine
62
7
6
CONTINUOUS
10
83.4233530671
20
177.1269035533
11
75.9684690277
21
177.1269035533
0
LINE
5
259
100
AcDbEntity
8
0
100
AcDbLine
62
7
6
CONTINUOUS
10
75.4861940754
20
225.9977047640
11
85.0352506475
21
217.0681057723
0
LINE
5
25A
100
AcDbEntity
8
0
100
AcDbLine
62
7
6
CONTINUOUS
10
75.4861940754
20
187.0934251405
11
89.5356330532
21
200.2360589955
0
LINE
5
25B
100
AcDbEntity
8
0
100
AcDbLine
62
7
6
CONTINUOUS
10
89.5356330532
20
219.0177481111
11
75.4861940754
21
232.1603819661
0
LINE
5
25C
100
AcDbEntity
8
0
100
AcDbLine
62
7
6
CONTINUOUS
10
76.8566797998
20
199.8119489771
11
82.4968280858
21
199.8119489771
0
LINE
5
25D
100
AcDbEntity
8
0
100
AcDbLine
62
7
6
CONTINUOUS
10
96.9999971867
20
202.6269035533
11
195.9999971867
21
202.6269035533
0
LINE
5
25E
100
AcDbEntity
8
0
100
AcDbLine
62
7
6
CONTINUOUS
10
83.9861940754
20
204.6269035533
11
85.9861940754
21
204.6269035533
0
LINE
5
25F
100
AcDbEntity
8
0
100
AcDbLine
62
7
6
CONTINUOUS
10
90.4861940754
20
204.6269035533
11
92.4861940754
21
204.6269035533
0
LINE
5
260
100
AcDbEntity
8
0
100
AcDbLine
62
7
6
CONTINUOUS
10
76.8566797998
20
204.7194262652
11
83.1157083511
21
204.7194262652
0
LINE
5
261
100
AcDbEntity
8
0
100
AcDbLine
62
2
6
CONTINUOUS
10
83.9861940754
20
205.1269035533
11
85.9861940754
21
205.1269035533
0
LINE
5
262
100
AcDbEntity
8
0
100
AcDbLine
62
2
6
CONTINUOUS
10
90.4861940754
20
205.1269035533
11
92.4861940754
21
205.1269035533
0
LINE
5
263
100
AcDbEntity
8
DEFAULT_1
100
AcDbLine
62
2
6
CENTER
10
199.9999971867
20
209.6269035533
11
72.9999971867
21
209.6269035533
0
LINE
5
264
100
AcDbEntity
8
0
100
AcDbLine
62
2
6
CONTINUOUS
10
83.9861940754
20
214.1269035533
11
85.9861940754
21
214.1269035533
0
LINE
5
265
100
AcDbEntity
8
0
100
AcDbLine
62
2
6
CONTINUOUS
10
90.4861940754
20
214.1269035533
11
92.4861940754
21
214.1269035533
0
LINE
5
266
100
AcDbEntity
8
0
100
AcDbLine
62
7
6
CONTINUOUS
10
76.8566797998
20
214.5343808414
11
83.1157083511
21
214.5343808414
0
LINE
5
267
100
AcDbEntity
8
0
100
AcDbLine
62
7
6
CONTINUOUS
10
83.9861940754
20
214.6269035533
11
85.9861940754
21
214.6269035533
0
LINE
5
268
100
AcDbEntity
8
0
100
AcDbLine
62
7
6
CONTINUOUS
10
90.4861940754
20
214.6269035533
11
92.4861940754
21
214.6269035533
0
LINE
5
269
100
AcDbEntity
8
0
100
AcDbLine
62
7
6
CONTINUOUS
10
96.9999971867
20
216.6269035533
11
195.9999971867
21
216.6269035533
0
LINE
5
26A
100
AcDbEntity
8
0
100
AcDbLine
62
7
6
CONTINUOUS
10
76.8566797998
20
219.4418581295
11
82.4968280858
21
219.4418581295
0
LINE
5
26B
100
AcDbEntity
8
0
100
AcDbLine
62
7
6
CONTINUOUS
10
75.9684690277
20
242.1269035533
11
83.4233530671
21
242.1269035533
0
LINE
5
26C
100
AcDbEntity
8
0
100
AcDbLine
62
7
6
CONTINUOUS
10
84.9084690277
20
246.6269035533
11
75.9684690277
21
246.6269035533
0
LINE
5
26D
100
AcDbEntity
8
0
100
AcDbLine
62
7
6
CONTINUOUS
10
195.9999971867
20
202.6269035533
11
196.9999971867
21
203.6269035533
0
LINE
5
26E
100
AcDbEntity
8
0
100
AcDbLine
62
7
6
CONTINUOUS
10
195.9999971867
20
216.6269035533
11
196.9999971867
21
215.6269035533
0
LINE
5
26F
100
AcDbEntity
8
0
100
AcDbLine
62
7
6
CONTINUOUS
10
195.9999971867
20
216.6269035533
11
195.9999971867
21
202.6269035533
0
LINE
5
270
100
AcDbEntity
8
0
100
AcDbLine
62
7
6
CONTINUOUS
10
196.9999971867
20
215.6269035533
11
196.9999971867
21
203.6269035533
0
LINE
5
271
100
AcDbEntity
8
0
100
AcDbLine
62
7
6
CONTINUOUS
10
44.7771573604
20
172.6269035533
11
19.7771573604
21
172.6269035533
0
LINE
5
272
100
AcDbEntity
8
0
100
AcDbLine
62
7
6
CONTINUOUS
10
44.7771573604
20
178.6269035533
11
19.7771573604
21
178.6269035533
0
LINE
5
273
100
AcDbEntity
8
0
100
AcDbLine
62
7
6
CONTINUOUS
10
44.7771573604
20
185.3886781651
11
19.7771573604
21
185.3886781651
0
LINE
5
274
100
AcDbEntity
8
0
100
AcDbLine
62
7
6
CONTINUOUS
10
19.7771573604
20
172.6269035533
11
19.7771573604
21
246.6269035533
0
LINE
5
275
100
AcDbEntity
8
0
100
AcDbLine
62
7
6
CONTINUOUS
10
44.7771573604
20
197.6205624722
11
19.7771573604
21
197.6205624722
0
LINE
5
276
100
AcDbEntity
8
0
100
AcDbLine
62
7
6
CONTINUOUS
10
44.7771573604
20
200.3888430110
11
19.7771573604
21
200.3888430110
0
LINE
5
277
100
AcDbEntity
8
DEFAULT_1
100
AcDbLine
62
2
6
CENTER
10
32.2771573604
20
209.6269035533
11
32.2771573604
21
195.4768571513
0
LINE
5
278
100
AcDbEntity
8
DEFAULT_1
100
AcDbLine
62
2
6
CENTER
10
32.2771573604
20
209.6269035533
11
32.2771573604
21
223.7769499553
0
LINE
5
279
100
AcDbEntity
8
DEFAULT_1
100
AcDbLine
62
2
6
CENTER
10
32.2771573604
20
209.6269035533
11
18.1271109584
21
209.6269035533
0
LINE
5
27A
100
AcDbEntity
8
DEFAULT_1
100
AcDbLine
62
2
6
CENTER
10
32.2771573604
20
209.6269035533
11
46.4272037624
21
209.6269035533
0
LINE
5
27B
100
AcDbEntity
8
0
100
AcDbLine
62
7
6
CONTINUOUS
10
44.7771573604
20
218.8120776205
11
19.7771573604
21
218.8120776205
0
LINE
5
27C
100
AcDbEntity
8
0
100
AcDbLine
62
7
6
CONTINUOUS
10
44.7771573604
20
172.6269035533
11
44.7771573604
21
246.6269035533
0
LINE
5
27D
100
AcDbEntity
8
0
100
AcDbLine
62
7
6
CONTINUOUS
10
44.7771573604
20
221.0933572563
11
19.7771573604
21
221.0933572563
0
LINE
5
27E
100
AcDbEntity
8
0
100
AcDbLine
62
7
6
CONTINUOUS
10
44.7771573604
20
233.7206390825
11
19.7771573604
21
233.7206390825
0
LINE
5
27F
100
AcDbEntity
8
0
100
AcDbLine
62
7
6
CONTINUOUS
10
44.7771573604
20
240.6269035533
11
19.7771573604
21
240.6269035533
0
LINE
5
280
100
AcDbEntity
8
0
100
AcDbLine
62
7
6
CONTINUOUS
10
44.7771573604
20
246.6269035533
11
19.7771573604
21
246.6269035533
0
ARC
5
281
100
AcDbEntity
8
0
100
AcDbCircle
62
7
6
CONTINUOUS
10
80.9861940754
20
216.6227959012
40
5.0000000000
100
AcDbArc
50
145.6801340041
51
180.0000000000
0
ARC
5
282
100
AcDbEntity
8
0
100
AcDbCircle
62
7
6
CONTINUOUS
10
80.9861940754
20
202.6310112054
40
5.0000000000
100
AcDbArc
50
180.0000000000
51
214.3198659959
0
ARC
5
283
100
AcDbEntity
8
0
100
AcDbCircle
62
7
6
CONTINUOUS
10
78.9861940754
20
202.6310112054
40
5.0000000000
100
AcDbArc
50
339.9638771857
51
360.0000000000
0
ARC
5
284
100
AcDbEntity
8
0
100
AcDbCircle
62
7
6
CONTINUOUS
10
78.9861940754
20
216.6227959012
40
5.0000000000
100
AcDbArc
50
0.0000000000
51
20.0361228143
0
CIRCLE
5
285
100
AcDbEntity
8
CURVE
100
AcDbCircle
62
4
6
CONTINUOUS
10
80.4233530671
20
236.1269035533
40
6.0000000000
0
CIRCLE
5
286
100
AcDbEntity
8
CURVE
100
AcDbCircle
62
4
6
CONTINUOUS
10
80.4233530671
20
183.1269035533
40
6.0000000000
0
ARC
5
287
100
AcDbEntity
8
0
100
AcDbCircle
62
7
6
CONTINUOUS
10
82.9861940754
20
214.8769035533
40
3.0000000000
100
AcDbArc
50
0.0000000000
51
46.9200000000
0
ARC
5
288
100
AcDbEntity
8
0
100
AcDbCircle
62
7
6
CONTINUOUS
10
82.9861940754
20
204.3769035533
40
3.0000000000
100
AcDbArc
50
313.0800000000
51
360.0000000000
0
ARC
5
289
100
AcDbEntity
8
0
100
AcDbCircle
62
7
6
CONTINUOUS
10
87.4861940754
20
202.4269035533
40
3.0000000000
100
AcDbArc
50
313.0900000000
51
360.0000000000
0
ARC
5
28A
100
AcDbEntity
8
0
100
AcDbCircle
62
7
6
CONTINUOUS
10
87.4861940754
20
216.8269035533
40
3.0000000000
100
AcDbArc
50
0.0000000000
51
46.9100000000
0
CIRCLE
5
28B
100
AcDbEntity
8
0
100
AcDbCircle
62
7
6
CONTINUOUS
10
189.9999971867
20
209.6269035533
40
3.0000000000
0
ARC
5
28C
100
AcDbEntity
8
0
100
AcDbCircle
62
7
6
CONTINUOUS
10
84.9084690277
20
178.6269035533
40
6.0000000000
100
AcDbArc
50
270.0000000000
51
360.0000000000
0
ARC
5
28D
100
AcDbEntity
8
0
100
AcDbCircle
62
7
6
CONTINUOUS
10
108.4233530671
20
185.3886781651
40
17.5148840395
100
AcDbArc
50
135.7035579055
51
180.0000000000
0
ARC
5
28E
100
AcDbEntity
8
0
100
AcDbCircle
62
7
6
CONTINUOUS
10
92.9999971867
20
200.3888430110
40
4.0000000000
100
AcDbArc
50
316.2057978160
51
360.0000000000
0
ARC
5
28F
100
AcDbEntity
8
0
100
AcDbCircle
62
7
6
CONTINUOUS
10
92.9999971867
20
218.8120776205
40
4.0000000000
100
AcDbArc
50
0.0000000000
51
34.7725369908
0
ARC
5
290
100
AcDbEntity
8
0
100
AcDbCircle
62
7
6
CONTINUOUS
10
108.4233530671
20
233.7206390825
40
17.5148840395
100
AcDbArc
50
180.0000000000
51
226.1326215158
0
ARC
5
291
100
AcDbEntity
8
0
100
AcDbCircle
62
7
6
CONTINUOUS
10
84.9084690277
20
240.6269035533
40
6.0000000000
100
AcDbArc
50
0.0000000000
51
90.0000000000
0
ARC
5
292
100
AcDbEntity
8
0
100
AcDbCircle
62
7
6
CONTINUOUS
10
83.4233530671
20
239.1269035533
40
3.0000000000
100
AcDbArc
50
0.0000000000
51
90.0000000000
0
ARC
5
293
100
AcDbEntity
8
0
100
AcDbCircle
62
7
6
CONTINUOUS
10
108.4233530671
20
233.7206390825
40
22.0000000000
100
AcDbArc
50
180.0000000000
51
223.5796860076
0
ARC
5
294
100
AcDbEntity
8
0
100
AcDbCircle
62
7
6
CONTINUOUS
10
83.4233530671
20
180.1269035533
40
3.0000000000
100
AcDbArc
50
270.0000000000
51
360.0000000000
0
ARC
5
295
100
AcDbEntity
8
0
100
AcDbCircle
62
7
6
CONTINUOUS
10
108.4233530671
20
185.3886781651
40
22.0000000000
100
AcDbArc
50
136.4203139924
51
180.0000000000
0
CIRCLE
5
296
100
AcDbEntity
8
0
100
AcDbCircle
62
7
6
CONTINUOUS
10
32.2771573604
20
209.6269035533
40
7.0000000000
0
CIRCLE
5
297
100
AcDbEntity
8
0
100
AcDbCircle
62
7
6
CONTINUOUS
10
32.2771573604
20
209.6269035533
40
6.0000000000
0
SPLINE
5
298
100
AcDbEntity
8
0
100
AcDbSpline
62
7
6
CONTINUOUS
70
0
71
3
72
19
73
15
74
13
42
0.0000001000
43
0.0000001000
44
0.0000000001
12
1.0790456815
22
3.8854935999
32
0.0000000000
13
-2.2734071576
23
3.3302093217
33
0.0000000000
40
0.0000000000
40
0.0000000000
40
0.0000000000
40
0.0000000000
40
0.0364850527
40
0.0866166204
40
0.1417734150
40
0.2032862002
40
0.2724096076
40
0.3503883904
40
0.4382421758
40
0.5355499848
40
0.6415532364
40
0.7548300957
40
0.8731549798
40
1.0000000000
40
1.0000000000
40
1.0000000000
40
1.0000000000
10
83.5768525781
20
200.8216167702
30
0.0000000000
10
83.5899755909
20
200.8688709164
30
0.0000000000
10
83.6190672914
20
200.9816264661
30
0.0000000000
10
83.6590948677
20
201.1679947123
30
0.0000000000
10
83.6962203218
20
201.3891683938
30
0.0000000000
10
83.7264339203
20
201.6371370626
30
0.0000000000
10
83.7477665842
20
201.9168133032
30
0.0000000000
10
83.7572666397
20
202.2325839891
30
0.0000000000
10
83.7504638118
20
202.5863576875
30
0.0000000000
10
83.7206375076
20
202.9768244860
30
0.0000000000
10
83.6578295725
20
203.3981511024
30
0.0000000000
10
83.5484698584
20
203.8394856502
30
0.0000000000
10
83.3755550972
20
204.2906584835
30
0.0000000000
10
83.2118318100
20
204.5786194423
30
0.0000000000
10
83.1157083511
20
204.7194262652
30
0.0000000000
11
83.5768525781
21
200.8216167702
31
0.0000000000
11
83.6136611617
21
200.9640580391
31
0.0000000000
11
83.6562495923
21
201.1616614406
31
0.0000000000
11
83.6932423052
21
201.3809668179
31
0.0000000000
11
83.7234479478
21
201.6271528460
31
0.0000000000
11
83.7448528939
21
201.9050494322
31
0.0000000000
11
83.7544368155
21
202.2193297460
31
0.0000000000
11
83.7475158312
21
202.5735065715
31
0.0000000000
11
83.7170594609
21
202.9646877338
31
0.0000000000
11
83.6528395820
21
203.3872625538
31
0.0000000000
11
83.5413250773
21
203.8301960491
31
0.0000000000
11
83.3690779600
21
204.2751286533
31
0.0000000000
11
83.1157083511
21
204.7194262652
31
0.0000000000
0
SPLINE
5
299
100
AcDbEntity
8
0
100
AcDbSpline
62
7
6
CONTINUOUS
70
0
71
3
72
19
73
15
74
13
42
0.0000001000
43
0.0000001000
44
0.0000000001
12
2.2734104413
22
3.3302141320
32
0.0000000000
13
-1.0790443114
23
3.8855008305
33
0.0000000000
40
0.0000000000
40
0.0000000000
40
0.0000000000
40
0.0000000000
40
0.1263208791
40
0.2441476710
40
0.3572023843
40
0.4632071252
40
0.5606554924
40
0.6486662131
40
0.7267526653
40
0.7959512287
40
0.8575264864
40
0.9127531688
40
0.9629649352
40
1.0000000000
40
1.0000000000
40
1.0000000000
40
1.0000000000
10
83.1157083511
20
214.5343808414
30
0.0000000000
10
83.2114347529
20
214.6746060336
30
0.0000000000
10
83.3745678674
20
214.9612982700
30
0.0000000000
10
83.5472936099
20
215.4107377984
30
0.0000000000
10
83.6569086684
20
215.8510129315
30
0.0000000000
10
83.7201093419
20
216.2721750084
30
0.0000000000
10
83.7502636847
20
216.6630221433
30
0.0000000000
10
83.7572929802
20
217.0173375405
30
0.0000000000
10
83.7479495692
20
217.3335705575
30
0.0000000000
10
83.7267386028
20
217.6135872022
30
0.0000000000
10
83.6966238795
20
217.8618492602
30
0.0000000000
10
83.6595714697
20
218.0833252795
30
0.0000000000
10
83.6194462741
20
218.2706356456
30
0.0000000000
10
83.5901743267
20
218.3842204337
30
0.0000000000
10
83.5768535013
20
218.4321870254
30
0.0000000000
11
83.1157083511
21
214.5343808414
31
0.0000000000
11
83.3681768692
21
214.9767601856
31
0.0000000000
11
83.5400899580
21
215.4196689823
31
0.0000000000
11
83.6518686470
21
215.8616126743
31
0.0000000000
11
83.7165033574
21
216.2841309428
31
0.0000000000
11
83.7473083509
21
216.6758538867
31
0.0000000000
11
83.7544620125
21
217.0306595260
31
0.0000000000
11
83.7450362353
21
217.3453794170
31
0.0000000000
11
83.7237545910
21
217.6235898080
31
0.0000000000
11
83.6936500987
21
217.8700423635
31
0.0000000000
11
83.6567296553
21
218.0896460068
31
0.0000000000
11
83.6141784389
21
218.2875885014
31
0.0000000000
11
83.5768535013
21
218.4321870254
31
0.0000000000
0
SPLINE
5
29A
100
AcDbEntity
8
0
100
AcDbSpline
62
7
6
CONTINUOUS
70
0
71
3
72
17
73
13
74
11
42
0.0000001000
43
0.0000001000
44
0.0000000001
12
-3.2104848505
22
-9.4057824539
32
0.0000000000
13
3.2104848505
23
-9.4057824539
33
0.0000000000
40
0.0000000000
40
0.0000000000
40
0.0000000000
40
0.0000000000
40
0.0961349732
40
0.1949955846
40
0.2977832460
40
0.3997128795
40
0.5004787246
40
0.6012573061
40
0.7031239097
40
0.8056752598
40
0.9041748165
40
1.0000000000
40
1.0000000000
40
1.0000000000
40
1.0000000000
10
76.8566797998
20
214.5343808414
30
0.0000000000
10
76.7537998415
20
214.2329726268
30
0.0000000000
10
76.5798858058
20
213.6094328888
30
0.0000000000
10
76.4013042269
20
212.6382733150
30
0.0000000000
10
76.2892925205
20
211.6381534891
30
0.0000000000
10
76.2298745071
20
210.6275377556
30
0.0000000000
10
76.2116967214
20
209.6220996143
30
0.0000000000
10
76.2302282024
20
208.6168762852
30
0.0000000000
10
76.2900161220
20
207.6072324414
30
0.0000000000
10
76.4022653968
20
206.6093419341
30
0.0000000000
10
76.5807042052
20
205.6412187781
30
0.0000000000
10
76.7541313665
20
205.0198632084
30
0.0000000000
10
76.8566797998
20
204.7194262652
30
0.0000000000
11
76.8566797998
21
214.5343808414
31
0.0000000000
11
76.5961649943
21
213.6151350553
31
0.0000000000
11
76.4148423022
21
212.6494741213
31
0.0000000000
11
76.2979800316
21
211.6346139574
31
0.0000000000
11
76.2365477063
21
210.6234395387
31
0.0000000000
11
76.2177922299
21
209.6221428055
31
0.0000000000
11
76.2369188878
21
208.6207264885
31
0.0000000000
11
76.2987482323
21
207.6102038691
31
0.0000000000
11
76.4158237662
21
206.5977325044
31
0.0000000000
11
76.5968608296
21
205.6356691070
31
0.0000000000
11
76.8566797998
21
204.7194262652
31
0.0000000000
0
SPLINE
5
29B
100
AcDbEntity
8
0
100
AcDbSpline
62
7
6
CONTINUOUS
70
0
71
3
72
9
73
5
74
3
42
0.0000001000
43
0.0000001000
44
0.0000000001
12
-0.1280622057
22
-0.1875924204
32
0.0000000000
13
-0.1142565244
23
-0.1963441446
33
0.0000000000
40
0.0000000000
40
0.0000000000
40
0.0000000000
40
0.0000000000
40
0.8047403855
40
1.0000000000
40
1.0000000000
40
1.0000000000
40
1.0000000000
10
76.8566797998
20
219.4418581295
30
0.0000000000
10
76.8223275235
20
219.3915370639
30
0.0000000000
10
76.7814474435
20
219.3277500026
30
0.0000000000
10
76.7429042900
20
219.2625672384
30
0.0000000000
10
76.7354677284
20
219.2497878777
30
0.0000000000
11
76.8566797998
21
219.4418581295
31
0.0000000000
11
76.7580452310
21
219.2879691482
31
0.0000000000
11
76.7354677284
21
219.2497878777
31
0.0000000000
0
SPLINE
5
29C
100
AcDbEntity
8
0
100
AcDbSpline
62
7
6
CONTINUOUS
70
0
71
3
72
24
73
20
74
18
42
0.0000001000
43
0.0000001000
44
0.0000000001
12
-2.4748826451
22
-4.2529625204
32
0.0000000000
13
2.7739241335
23
-4.0633935617
33
0.0000000000
40
0.0000000000
40
0.0000000000
40
0.0000000000
40
0.0000000000
40
0.0273391938
40
0.0629402302
40
0.0978602294
40
0.1325706561
40
0.1681805157
40
0.2057921132
40
0.2464731034
40
0.2912731743
40
0.3412548845
40
0.3974279424
40
0.4607877135
40
0.5322532510
40
0.6118573049
40
0.6993063672
40
0.7937815798
40
0.8933592708
40
1.0000000000
40
1.0000000000
40
1.0000000000
40
1.0000000000
10
76.7354677284
20
219.2497878777
30
0.0000000000
10
76.7129139630
20
219.2110303555
30
0.0000000000
10
76.6628829823
20
219.1207059937
30
0.0000000000
10
76.5919275369
20
218.9766673115
30
0.0000000000
10
76.5238300484
20
218.8180129901
30
0.0000000000
10
76.4636591469
20
218.6561785075
30
0.0000000000
10
76.4098757234
20
218.4874744315
30
0.0000000000
10
76.3613943856
20
218.3070104800
30
0.0000000000
10
76.3179477118
20
218.1098008602
30
0.0000000000
10
76.2800252493
20
217.8908284729
30
0.0000000000
10
76.2488422693
20
217.6451525033
30
0.0000000000
10
76.2263472294
20
217.3679677276
30
0.0000000000
10
76.2154089644
20
217.0548099411
30
0.0000000000
10
76.2203643139
20
216.7030286000
30
0.0000000000
10
76.2478908870
20
216.3125804157
30
0.0000000000
10
76.3082995297
20
215.8874911769
30
0.0000000000
10
76.4163025790
20
215.4376794836
30
0.0000000000
10
76.5906394910
20
214.9748003077
30
0.0000000000
10
76.7580753690
20
214.6788219255
30
0.0000000000
10
76.8566797998
20
214.5343808414
30
0.0000000000
11
76.7354677284
21
219.2497878777
31
0.0000000000
11
76.6702795122
21
219.1321253996
31
0.0000000000
11
76.5928346571
21
218.9750217028
31
0.0000000000
11
76.5250144064
21
218.8171700414
31
0.0000000000
11
76.4654316405
21
218.6571281695
31
0.0000000000
11
76.4121317162
21
218.4902341792
31
0.0000000000
11
76.3640140607
21
218.3115528185
31
0.0000000000
11
76.3208151089
21
218.1161222529
31
0.0000000000
11
76.2830296036
21
217.8989714689
31
0.0000000000
11
76.2518596035
21
217.6550478680
31
0.0000000000
11
76.2292922183
21
217.3796026540
31
0.0000000000
11
76.2182664606
21
217.0680713514
31
0.0000000000
11
76.2232965877
21
216.7165010852
31
0.0000000000
11
76.2513696835
21
216.3258612420
31
0.0000000000
11
76.3130948043
21
215.9000677168
31
0.0000000000
11
76.4233653571
21
215.4485247339
31
0.0000000000
11
76.5977071660
21
214.9906786826
31
0.0000000000
11
76.8566797998
21
214.5343808414
31
0.0000000000
0
SPLINE
5
29D
100
AcDbEntity
8
0
100
AcDbSpline
62
7
6
CONTINUOUS
70
0
71
3
72
17
73
13
74
11
42
0.0000001000
43
0.0000001000
44
0.0000000001
12
3.2104849992
22
9.4057828893
32
0.0000000000
13
-3.2104849992
23
9.4057828893
33
0.0000000000
40
0.0000000000
40
0.0000000000
40
0.0000000000
40
0.0000000000
40
0.0959822521
40
0.1940801251
40
0.2966678500
40
0.3986624747
40
0.4994978030
40
0.6003198065
40
0.7023813225
40
0.8052170814
40
0.9036933487
40
1.0000000000
40
1.0000000000
40
1.0000000000
40
1.0000000000
10
83.1157083511
20
204.7194262652
30
0.0000000000
10
83.2184248779
20
205.0203556733
30
0.0000000000
10
83.3915778979
20
205.6409496271
30
0.0000000000
10
83.5699454601
20
206.6083730658
30
0.0000000000
10
83.6822403112
20
207.6054701205
30
0.0000000000
10
83.7421331134
20
208.6158426562
30
0.0000000000
10
83.7606981444
20
209.6218641952
30
0.0000000000
10
83.7425043944
20
210.6281136409
30
0.0000000000
10
83.6829996838
20
211.6395088748
30
0.0000000000
10
83.5709529960
20
212.6389463268
30
0.0000000000
10
83.3924351006
20
213.6095522071
30
0.0000000000
10
83.2187720375
20
214.2324343571
30
0.0000000000
10
83.1157083511
20
214.5343808414
30
0.0000000000
11
83.1157083511
21
204.7194262652
31
0.0000000000
11
83.3758802389
21
205.6371916660
31
0.0000000000
11
83.5562058654
21
206.5953267395
31
0.0000000000
11
83.6734630309
21
207.6081410630
31
0.0000000000
11
83.7354384088
21
208.6199295239
31
0.0000000000
11
83.7545958787
21
209.6219093857
31
0.0000000000
11
83.7358280085
21
210.6237641674
31
0.0000000000
11
83.6742691308
21
211.6362440889
31
0.0000000000
11
83.5572351831
21
212.6515657064
31
0.0000000000
11
83.3766084121
21
213.6134707568
31
0.0000000000
11
83.1157083511
21
214.5343808414
31
0.0000000000
0
SPLINE
5
29E
100
AcDbEntity
8
0
100
AcDbSpline
62
7
6
CONTINUOUS
70
0
71
3
72
24
73
20
74
18
42
0.0000001000
43
0.0000001000
44
0.0000000001
12
-2.7739030436
22
-4.0633626681
32
0.0000000000
13
2.4748248020
23
-4.2529489923
33
0.0000000000
40
0.0000000000
40
0.0000000000
40
0.0000000000
40
0.0000000000
40
0.1070821776
40
0.2070562012
40
0.3016941648
40
0.3891305899
40
0.4686210895
40
0.5399671441
40
0.6032454371
40
0.6593618716
40
0.7092956185
40
0.7540405207
40
0.7946576859
40
0.8322007218
40
0.8677415164
40
0.9023865066
40
0.9372470638
40
0.9727910799
40
1.0000000000
40
1.0000000000
40
1.0000000000
40
1.0000000000
10
76.8566797998
20
204.7194262652
30
0.0000000000
10
76.7576679404
20
204.5743883576
30
0.0000000000
10
76.5896512775
20
204.2771367585
30
0.0000000000
10
76.4151614575
20
203.8125511624
30
0.0000000000
10
76.3074350032
20
203.3617547386
30
0.0000000000
10
76.2474116298
20
202.9365561283
30
0.0000000000
10
76.2201962881
20
202.5464947383
30
0.0000000000
10
76.2154547448
20
202.1952297903
30
0.0000000000
10
76.2265431616
20
201.8825026509
30
0.0000000000
10
76.2491570096
20
201.6056358915
30
0.0000000000
10
76.2804373492
20
201.3602383309
30
0.0000000000
10
76.3184314630
20
201.1415580665
30
0.0000000000
10
76.3619166595
20
200.9446736709
30
0.0000000000
10
76.4104020990
20
200.7645546541
30
0.0000000000
10
76.4641593483
20
200.5961934984
30
0.0000000000
10
76.5242805303
20
200.4346816179
30
0.0000000000
10
76.5923086812
20
200.2763239697
30
0.0000000000
10
76.6631179473
20
200.1326661924
30
0.0000000000
10
76.7130078853
20
200.0426161322
30
0.0000000000
10
76.7354536554
20
200.0040434158
30
0.0000000000
11
76.8566797998
21
204.7194262652
31
0.0000000000
11
76.5967915357
21
204.2611554099
31
0.0000000000
11
76.4221630960
21
203.8013361924
31
0.0000000000
11
76.3121842755
21
203.3489016248
31
0.0000000000
11
76.2508669810
21
202.9231152979
31
0.0000000000
11
76.2231231490
21
202.5330150027
31
0.0000000000
11
76.2183114750
21
202.1820322517
31
0.0000000000
11
76.2294887573
21
201.8709098429
31
0.0000000000
11
76.2521766764
21
201.5957561653
31
0.0000000000
11
76.2834463484
21
201.3520851148
31
0.0000000000
11
76.3213025205
21
201.1352238637
31
0.0000000000
11
76.3645370975
21
200.9401243533
31
0.0000000000
11
76.4126555979
21
200.7617940348
31
0.0000000000
11
76.4659260013
21
200.5952487339
31
0.0000000000
11
76.5254566537
21
200.4355323872
31
0.0000000000
11
76.5932093945
21
200.2779714503
31
0.0000000000
11
76.6705658334
21
200.1211384256
31
0.0000000000
11
76.7354536554
21
200.0040434158
31
0.0000000000
0
SPLINE
5
29F
100
AcDbEntity
8
0
100
AcDbSpline
62
7
6
CONTINUOUS
70
0
71
3
72
9
73
5
74
3
42
0.0000001000
43
0.0000001000
44
0.0000000001
12
0.1142688533
22
-0.1963692962
32
0.0000000000
13
0.1280780441
23
-0.1876156212
33
0.0000000000
40
0.0000000000
40
0.0000000000
40
0.0000000000
40
0.0000000000
40
0.1967651609
40
1.0000000000
40
1.0000000000
40
1.0000000000
40
1.0000000000
10
76.7354536554
20
200.0040434158
30
0.0000000000
10
76.7429483652
20
199.9911638704
30
0.0000000000
10
76.7814992641
20
199.9259748318
30
0.0000000000
10
76.8223875508
20
199.8621821115
30
0.0000000000
10
76.8566797998
20
199.8119489771
30
0.0000000000
11
76.7354536554
21
200.0040434158
31
0.0000000000
11
76.7582098084
21
199.9655640677
31
0.0000000000
11
76.8566797998
21
199.8119489771
31
0.0000000000
0
ENDSEC
0
SECTION
2
OBJECTS
0
DICTIONARY
5
C
100
AcDbDictionary
280
0
281
1
3
ACAD_GROUP
350
D
3
ACAD_MLINESTYLE
350
17
3
ACAD_LAYOUT
350
1A
3
ACAD_PLOTSETTINGS
350
19
3
ACAD_PLOTSTYLENAME
350
E
0
DICTIONARY
5
D
102
{ACAD_REACTORS
330
C
102
}
100
AcDbDictionary
280
0
281
1
0
ACDBDICTIONARYWDFLT
5
E
102
{ACAD_REACTORS
330
C
102
}
100
AcDbDictionary
281
1
3
Normal
350
F
100
AcDbDictionaryWithDefault
340
F
0
DICTIONARY
5
17
102
{ACAD_REACTORS
330
C
102
}
100
AcDbDictionary
280
0
281
1
3
Standard
350
18
0
DICTIONARY
5
19
102
{ACAD_REACTORS
330
C
102
}
100
AcDbDictionary
281
1
0
DICTIONARY
5
1A
102
{ACAD_REACTORS
330
C
102
}
100
AcDbDictionary
281
1
3
Layout1
350
1E
3
Model
350
22
0
ACDBPLACEHOLDER
5
F
102
{ACAD_REACTORS
330
E
102
}
0
MLINESTYLE
5
18
102
{ACAD_REACTORS
330
17
102
}
100
AcDbMlineStyle
2
STANDARD
70
0
3

62
256
51
90.0
52
90.0
71
2
49
0.5
62
256
6
BYLAYER
49
-0.5
62
256
6
BYLAYER
0
LAYOUT
5
1E
102
{ACAD_REACTORS
330
1A
102
}
100
AcDbPlotSettings
1

2

4

6

40
0.0
41
0.0
42
0.0
43
0.0
44
0.0
45
0.0
46
0.0
47
0.0
48
0.0
49
0.0
140
0.0
141
0.0
142
1.0
143
1.0
70
0
72
0
73
0
74
0
7

75
0
147
1.0
148
0.0
149
0.0
100
AcDbLayout
1
Layout1
70
0
71
0
10
0.0
20
0.0
11
0.0
21
0.0
12
0.0
22
0.0
32
0.0
14
0.0
24
0.0
34
0.0
15
0.0
25
0.0
35
0.0
146
0.0
13
0.0
23
0.0
33
0.0
16
0.0
26
0.0
36
0.0
17
0.0
27
0.0
37
0.0
76
0
330
1B
331
0
345
0
346
0
0
LAYOUT
5
22
102
{ACAD_REACTORS
330
1A
102
}
100
AcDbPlotSettings
1

2

4

6

40
0.0
41
0.0
42
0.0
43
0.0
44
0.0
45
0.0
46
0.0
47
0.0
48
0.0
49
0.0
140
0.0
141
0.0
142
1.0
143
1.0
70
0
72
0
73
0
74
0
7

75
0
147
1.0
148
0.0
149
0.0
100
AcDbLayout
1
Model
70
0
71
0
10
0.0
20
0.0
11
0.0
21
0.0
12
0.0
22
0.0
32
0.0
14
0.0
24
0.0
34
0.0
15
0.0
25
0.0
35
0.0
146
0.0
13
0.0
23
0.0
33
0.0
16
0.0
26
0.0
36
0.0
17
0.0
27
0.0
37
0.0
76
0
330
1F
331
0
345
0
346
0
0
ENDSEC
0
EOF
