  0
SECTION
  2
HEADER
  9
$ACADVER
  1
AC1014
  9
$ACADMAINTVER
 70
           0
  9
$DWGCODEPAGE
  3
ANSI_1252
  9
$INSBASE
 10
0.0
 20
0.0
 30
0.0
  9
$EXTMIN
 10
1.000000000000E+20
 20
1.000000000000E+20
 30
1.000000000000E+20
  9
$EXTMAX
 10
-1.000000000000E+20
 20
-1.000000000000E+20
 30
-1.000000000000E+20
  9
$LIMMIN
 10
0.0
 20
0.0
  9
$LIMMAX
 10
0.0
 20
0.0
  9
$ORTHOMODE
 70
           0
  9
$REGENMODE
 70
           1
  9
$FILLMODE
 70
           1
  9
$QTEXTMODE
 70
           0
  9
$MIRRTEXT
 70
           1
  9
$DRAGMODE
 70
           2
  9
$LTSCALE
 40
1.0
  9
$OSMODE
 70
           0
  9
$ATTMODE
 70
           1
  9
$TEXTSIZE
 40
0.2
  9
$TRACEWID
 40
0.05
  9
$TEXTSTYLE
  7
STANDARD
  9
$CLAYER
  8
0
  9
$CELTYPE
  6
CONTINUOUS
  9
$CECOLOR
 62
         256
  9
$CELTSCALE
 40
1.0
  9
$DELOBJ
 70
           1
  9
$DISPSILH
 70
           0
  9
$DIMSCALE
 40
1.0
  9
$DIMASZ
 40
0.18
  9
$DIMEXO
 40
0.0625
  9
$DIMDLI
 40
0.38
  9
$DIMRND
 40
0.0
  9
$DIMDLE
 40
0.0
  9
$DIMEXE
 40
0.18
  9
$DIMTP
 40
0.0
  9
$DIMTM
 40
0.0
  9
$DIMTXT
 40
0.18
  9
$DIMCEN
 40
0.09
  9
$DIMTSZ
 40
0.0
  9
$DIMTOL
 70
           0
  9
$DIMLIM
 70
           0
  9
$DIMTIH
 70
           1
  9
$DIMTOH
 70
           1
  9
$DIMSE1
 70
           0
  9
$DIMSE2
 70
           0
  9
$DIMTAD
 70
           0
  9
$DIMZIN
 70
           0
  9
$DIMBLK
  1

  9
$DIMASO
 70
           1
  9
$DIMSHO
 70
           1
  9
$DIMPOST
  1

  9
$DIMAPOST
  1

  9
$DIMALT
 70
           0
  9
$DIMALTD
 70
           2
  9
$DIMALTF
 40
25.4
  9
$DIMLFAC
 40
1.0
  9
$DIMTOFL
 70
           0
  9
$DIMTVP
 40
0.0
  9
$DIMTIX
 70
           0
  9
$DIMSOXD
 70
           0
  9
$DIMSAH
 70
           0
  9
$DIMBLK1
  1

  9
$DIMBLK2
  1

  9
$DIMSTYLE
  2
STANDARD
  9
$DIMCLRD
 70
           0
  9
$DIMCLRE
 70
           0
  9
$DIMCLRT
 70
           0
  9
$DIMTFAC
 40
1.0
  9
$DIMGAP
 40
0.09
  9
$DIMJUST
 70
           0
  9
$DIMSD1
 70
           0
  9
$DIMSD2
 70
           0
  9
$DIMTOLJ
 70
           1
  9
$DIMTZIN
 70
           0
  9
$DIMALTZ
 70
           0
  9
$DIMALTTZ
 70
           0
  9
$DIMFIT
 70
           3
  9
$DIMUPT
 70
           0
  9
$DIMUNIT
 70
           2
  9
$DIMDEC
 70
           4
  9
$DIMTDEC
 70
           4
  9
$DIMALTU
 70
           2
  9
$DIMALTTD
 70
           2
  9
$DIMTXSTY
  7
STANDARD
  9
$DIMAUNIT
 70
           0
  9
$LUNITS
 70
           2
  9
$LUPREC
 70
           4
  9
$SKETCHINC
 40
0.1
  9
$FILLETRAD
 40
0.0
  9
$AUNITS
 70
           0
  9
$AUPREC
 70
           0
  9
$MENU
  1
acad
  9
$ELEVATION
 40
0.0
  9
$PELEVATION
 40
0.0
  9
$THICKNESS
 40
0.0
  9
$LIMCHECK
 70
           0
  9
$BLIPMODE
 70
           1
  9
$CHAMFERA
 40
0.0
  9
$CHAMFERB
 40
0.0
  9
$CHAMFERC
 40
0.0
  9
$CHAMFERD
 40
0.0
  9
$SKPOLY
 70
           0
  9
$TDCREATE
 40
0.000000000
  9
$TDUPDATE
 40
0.000000000
  9
$TDINDWG
 40
0.0000000000
  9
$TDUSRTIMER
 40
0.0000000000
  9
$USRTIMER
 70
           1
  9
$ANGBASE
 50
0.0
  9
$ANGDIR
 70
           0
  9
$PDMODE
 70
           0
  9
$PDSIZE
 40
0.0
  9
$PLINEWID
 40
0.0
  9
$COORDS
 70
           0
  9
$SPLFRAME
 70
           0
  9
$SPLINETYPE
 70
           6
  9
$SPLINESEGS
 70
           8
  9
$ATTDIA
 70
           0
  9
$ATTREQ
 70
           1
  9
$HANDLING
 70
           1
  9
$HANDSEED
  5
2D0
  9
$SURFTAB1
 70
           6
  9
$SURFTAB2
 70
           6
  9
$SURFTYPE
 70
           6
  9
$SURFU
 70
           6
  9
$SURFV
 70
           6
  9
$UCSNAME
  2

  9
$UCSORG
 10
0.0
 20
0.0
 30
0.0
  9
$UCSXDIR
 10
1.0
 20
0.0
 30
0.0
  9
$UCSYDIR
 10
0.0
 20
1.0
 30
0.0
  9
$PUCSNAME
  2

  9
$PUCSORG
 10
0.0
 20
0.0
 30
0.0
  9
$PUCSXDIR
 10
1.0
 20
0.0
 30
0.0
  9
$PUCSYDIR
 10
0.0
 20
1.0
 30
0.0
  9
$USERI1
 70
           0
  9
$USERI2
 70
           0
  9
$USERI3
 70
           0
  9
$USERI4
 70
           0
  9
$USERI5
 70
           0
  9
$USERR1
 40
0.0
  9
$USERR2
 40
0.0
  9
$USERR3
 40
0.0
  9
$USERR4
 40
0.0
  9
$USERR5
 40
0.0
  9
$WORLDVIEW
 70
           1
  9
$SHADEDGE
 70
           3
  9
$SHADEDIF
 70
          70
  9
$TILEMODE
 70
           1
  9
$MAXACTVP
 70
          16
  9
$PINSBASE
 10
0.0
 20
0.0
 30
0.0
  9
$PLIMCHECK
 70
           0
  9
$PEXTMIN
 10
1.000000000000E+20
 20
1.000000000000E+20
 30
1.000000000000E+20
  9
$PEXTMAX
 10
-1.000000000000E+20
 20
-1.000000000000E+20
 30
-1.000000000000E+20
  9
$PLIMMIN
 10
0.0
 20
0.0
  9
$PLIMMAX
 10
12.0
 20
9.0
  9
$UNITMODE
 70
           0
  9
$VISRETAIN
 70
           0
  9
$PLINEGEN
 70
           1
  9
$PSLTSCALE
 70
           0
  9
$TREEDEPTH
 70
        3020
  9
$PICKSTYLE
 70
           1
  9
$CMLSTYLE
  2
STANDARD
  9
$CMLJUST
 70
           0
  9
$CMLSCALE
 40
1.0
  9
$PROXYGRAPHICS
 70
           0
  9
$MEASUREMENT
 70
           1
  0
ENDSEC
  0
SECTION
  2
CLASSES
  0
CLASS
  1
LWPOLYLINE
  2
AcDbPolyline
  3
"AutoCAD"
 90
        0
280
           0
281
           1
  0
CLASS
  1
IMAGE
  2
AcDbRasterImage
  3
ISM
 90
      127
280
           0
281
           1
  0
CLASS
  1
OLE2FRAME
  2
AcDbOle2Frame
  3
""
 90
        0
280
           0
281
           1
  0
CLASS
  1
HATCH
  2
AcDbHatch
  3
"ACAD_SEDONA"
 90
        0
280
           0
281
           1
  0
CLASS
  1
DICTIONARYVAR
  2
AcDbDictionaryVar
  3
"AutoCAD"
 90
        0
280
           0
281
           0
  0
CLASS
  1
RASTERVARIABLES
  2
AcDbRasterVariables
  3
ISM
 90
        0
280
           0
281
           0
  0
CLASS
  1
IMAGEDEF
  2
AcDbRasterImageDef
  3
ISM
 90
        0
280
           0
281
           0
  0
CLASS
  1
IMAGEDEF_REACTOR
  2
AcDbRasterImageDefReactor
  3
ISM
 90
        1
280
           0
281
           0
  0
CLASS
  1
IDBUFFER
  2
AcDbIdBuffer
  3
"Acad"
 90
        0
280
           0
281
           0
  0
CLASS
  1
SPATIAL_FILTER
  2
AcDbSpatialFilter
  3
"Acad"
 90
        0
280
           0
281
           0
  0
CLASS
  1
XRECORD
  2
AcDbXrecord
  3
"<Built In>"
 90
        0
280
           0
281
           0
  0
CLASS
  1
SORTENTSTABLE
  2
AcDbSortentsTable
  3
"AutoCAD"
 90
        0
280
           0
281
           0
  0
CLASS
  1
LAYER_INDEX
  2
AcDbLayerIndex
  3
"Acad"
 90
        0
280
           0
281
           0
  0
CLASS
  1
SPATIAL_INDEX
  2
AcDbSpatialIndex
  3
"Acad"
 90
        0
280
           0
281
           0
  0
CLASS
  1
OBJECT_PTR
  2
CAseDLPNTableRecord
  3
"ASE-LPNTableRecord"
 90
        1
280
           0
281
           0
  0
CLASS
  1
LAYOUT
  2
AcDbLayout
  3
"AutoCAD 2000"
 90
        1
280
           0
281
           0
  0
CLASS
  1
PLOTSETTINGS
  2
AcDbPlotSettings
  3
"AutoCAD 2000"
 90
        1
280
           0
281
           0
  0
CLASS
  1
ACDBDICTIONARYWDFLT
  2
AcDbDictionaryWithDefault
  3
"AutoCAD 2000"
 90
        1
280
           0
281
           0
  0
CLASS
  1
ACDBPLACEHOLDER
  2
AcDbPlaceHolder
  3
"AutoCAD 2000"
 90
        1
280
           0
281
           0
  0
CLASS
  1
VBA_PROJECT
  2
AcDbVbaProject
  3
"acadvba"
 90
        1
280
           0
281
           0
  0
CLASS
  1
WIPEOUT
  2
AcDbWipeout
  3
WipeOut|AutoCAD Express Tool|expresstools@autodesk.com
 90
      127
280
           0
281
           1
  0
CLASS
  1
WIPEOUTVARIABLES
  2
AcDbWipeoutVariables
  3
WipeOut|AutoCAD Express Tool|expresstools@autodesk.com
 90
        0
280
           0
281
           0
  0
CLASS
  1
RTEXT
  2
RText
  3
RText|AutoCAD Express Tool|expresstools@autodesk.com
 90
        0
280
           0
281
           1
  0
CLASS
  1
ARCALIGNEDTEXT
  2
AcDbArcAlignedText
  3
ATEXT|AutoCAD Express Tool|expresstools@autodesk.com
 90
        0
280
           0
281
           1
  0
ENDSEC
  0
SECTION
  2
TABLES
  0
TABLE
  2
VPORT
  5
7
100
AcDbSymbolTable
 70
           1
  0
VPORT
  5
15
100
AcDbSymbolTableRecord
100
AcDbViewportTableRecord
  2
*ACTIVE
 70
           0
 10
0.0
 20
0.0
 11
1.0
 21
1.0
 12
6.591288
 22
4.579184
 13
0.0
 23
0.0
 14
1.0
 24
1.0
 15
0.0
 25
0.0
 16
0.0
 26
0.0
 36
1.0
 17
0.0
 27
0.0
 37
0.0
 40
9.158369
 41
0.688564
 42
50.0
 43
0.0
 44
0.0
 50
0.0
 51
0.0
 71
           0
 72
         100
 73
           1
 74
           1
 75
           0
 76
           0
 77
           0
 78
           0
  0
ENDTAB
  0
TABLE
  2
LTYPE
  5
4
100
AcDbSymbolTable
 70
          10
  0
LTYPE
  5
11
100
AcDbSymbolTableRecord
100
AcDbLinetypeTableRecord
  2
BYBLOCK
 70
          64
  3

 72
          65
 73
           0
 40
0.0
  0
LTYPE
  5
12
100
AcDbSymbolTableRecord
100
AcDbLinetypeTableRecord
  2
BYLAYER
 70
          64
  3

 72
          65
 73
           0
 40
0.0
  0
LTYPE
  5
13
100
AcDbSymbolTableRecord
100
AcDbLinetypeTableRecord
  2
CONTINUOUS
 70
          64
  3
Solid line
 72
          65
 73
           0
 40
0.0
  0
LTYPE
  5
1D
100
AcDbSymbolTableRecord
100
AcDbLinetypeTableRecord
  2
DASHED
 70
          64
  3
Dashed
 72
          65
 73
           2
 40
15.0
 49
12.0
 74
           0
 49
-3.0
 74
           0
  0
LTYPE
  5
1E
100
AcDbSymbolTableRecord
100
AcDbLinetypeTableRecord
  2
DOTTED
 70
          64
  3
Dotted
 72
          65
 73
           2
 40
3.5
 49
0.5
 74
           0
 49
-3.0
 74
           0
  0
LTYPE
  5
1F
100
AcDbSymbolTableRecord
100
AcDbLinetypeTableRecord
  2
DOT_CENTER
 70
          64
  3
Dot_Center
 72
          65
 73
           4
 40
2.0
 49
1.25
 74
           0
 49
-0.25
 74
           0
 49
0.25
 74
           0
 49
-0.25
 74
           0
  0
LTYPE
  5
20
100
AcDbSymbolTableRecord
100
AcDbLinetypeTableRecord
  2
LONG_DASHED
 70
          64
  3
Long_Dashed
 72
          65
 73
           2
 40
2.0
 49
1.5
 74
           0
 49
-0.5
 74
           0
  0
LTYPE
  5
21
100
AcDbSymbolTableRecord
100
AcDbLinetypeTableRecord
  2
DASH_CENTER
 70
          64
  3
Dash_Center
 72
          65
 73
           4
 40
36.0
 49
24.0
 74
           0
 49
-3.0
 74
           0
 49
6.0
 74
           0
 49
-3.0
 74
           0
  0
LTYPE
  5
22
100
AcDbSymbolTableRecord
100
AcDbLinetypeTableRecord
  2
PHANTOM
 70
          64
  3
Phantom
 72
          65
 73
           6
 40
2.5
 49
1.25
 74
           0
 49
-0.25
 74
           0
 49
0.25
 74
           0
 49
-0.25
 74
           0
 49
0.25
 74
           0
 49
-0.25
 74
           0
  0
LTYPE
  5
23
100
AcDbSymbolTableRecord
100
AcDbLinetypeTableRecord
  2
CENTER_DASH_DASH
 70
          64
  3
Center_Dash_Dash
 72
          65
 73
           6
 40
22.0
 49
12.0
 74
           0
 49
-3.0
 74
           0
 49
0.5
 74
           0
 49
-3.0
 74
           0
 49
0.5
 74
           0
 49
-3.0
 74
           0
  0
ENDTAB
  0
TABLE
  2
LAYER
  5
2
100
AcDbSymbolTable
 70
           2
  0
LAYER
  5
14
100
AcDbSymbolTableRecord
100
AcDbLayerTableRecord
  2
0
 70
           0
 62
           7
  6
CONTINUOUS
  0
LAYER
  5
24
100
AcDbSymbolTableRecord
100
AcDbLayerTableRecord
  2
1
 70
           0
 62
           7
  6
CONTINUOUS
  0
ENDTAB
  0
TABLE
  2
STYLE
  5
3
100
AcDbSymbolTable
 70
           7
  0
STYLE
  5
17
100
AcDbSymbolTableRecord
100
AcDbTextStyleTableRecord
  2
STANDARD
 70
           0
 40
0.0
 41
1.0
 50
0.0
 71
           0
 42
0.0
  3
txt
  4

  0
STYLE
  5
69
100
AcDbSymbolTableRecord
100
AcDbTextStyleTableRecord
  2
CONVERTER_1
 70
           0
 40
0.0
 41
0.9
 50
0.0
 71
           0
 42
0.0
  3
txt.shx
  4

  0
STYLE
  5
6B
100
AcDbSymbolTableRecord
100
AcDbTextStyleTableRecord
  2
CONVERTER_2
 70
           0
 40
0.0
 41
1.14
 50
0.0
 71
           0
 42
0.0
  3
simplex.shx
  4

  0
STYLE
  5
6D
100
AcDbSymbolTableRecord
100
AcDbTextStyleTableRecord
  2
CONVERTER_3
 70
           0
 40
0.0
 41
1.08
 50
0.0
 71
           0
 42
0.0
  3
txt.shx
  4

  0
STYLE
  5
74
100
AcDbSymbolTableRecord
100
AcDbTextStyleTableRecord
  2
CONVERTER_4
 70
           0
 40
0.0
 41
1.35
 50
0.0
 71
           0
 42
0.0
  3
txt.shx
  4

  0
STYLE
  5
76
100
AcDbSymbolTableRecord
100
AcDbTextStyleTableRecord
  2
CONVERTER_5
 70
           0
 40
0.0
 41
0.99
 50
0.0
 71
           0
 42
0.0
  3
txt.shx
  4

  0
STYLE
  5
99
100
AcDbSymbolTableRecord
100
AcDbTextStyleTableRecord
  2
CONVERTER_6
 70
           0
 40
0.0
 41
0.82175
 50
10.0
 71
           0
 42
0.0
  3
complex.shx
  4

  0
ENDTAB
  0
TABLE
  2
VIEW
  5
5
100
AcDbSymbolTable
 70
           0
  0
ENDTAB
  0
TABLE
  2
UCS
  5
6
100
AcDbSymbolTable
 70
           0
  0
ENDTAB
  0
TABLE
  2
APPID
  5
8
100
AcDbSymbolTable
 70
           1
  0
APPID
  5
16
100
AcDbSymbolTableRecord
100
AcDbRegAppTableRecord
  2
ACAD
 70
           0
  0
ENDTAB
  0
TABLE
  2
DIMSTYLE
  5
9
100
AcDbSymbolTable
 70
          22
  0
DIMSTYLE
105
18
100
AcDbSymbolTableRecord
100
AcDbDimStyleTableRecord
  2
STANDARD
 70
           0
  3

  4

  5

  6

  7

 40
1.0
 41
0.18
 42
0.0625
 43
0.38
 44
0.18
 45
0.0
 46
0.0
 47
0.0
 48
0.0
 71
           0
 72
           0
 73
           1
 74
           1
 75
           0
 76
           0
 77
           0
 78
           0
140
0.18
141
0.09
142
0.0
143
25.4
144
1.0
145
0.0
146
1.0
147
0.09
170
           0
171
           2
172
           0
173
           0
174
           0
175
           0
176
           0
177
           0
178
           0
270
           2
271
           4
272
           4
273
           2
274
           2
275
           0
280
           0
281
           0
282
           0
283
           1
284
           0
285
           0
286
           0
287
           0
288
           0
340
17
  0
DIMSTYLE
105
155
100
AcDbSymbolTableRecord
100
AcDbDimStyleTableRecord
  2
ME10_DIM_0
 70
           0
  3

  4

  5

  6
_CLOSED
  7
_CLOSED
 40
1.0
 41
3.2
 42
1.0
 43
0.38
 44
1.0
 45
0.0
 46
0.0
 47
0.0
 48
0.0
 71
           0
 72
           0
 73
           0
 74
           0
 75
           0
 76
           0
 77
           1
 78
           8
140
3.2
141
0.09
142
0.0
143
25.4
144
1.0
145
0.0
146
1.0
147
0.625
170
           0
171
           2
172
           0
173
           1
174
           0
175
           0
176
           2
177
           2
178
           7
270
           2
271
           2
272
           4
273
           2
274
           2
275
           0
280
           0
281
           0
282
           0
283
           1
284
           0
285
           0
286
           0
287
           3
288
           0
340
17
  0
DIMSTYLE
105
168
100
AcDbSymbolTableRecord
100
AcDbDimStyleTableRecord
  2
ME10_DIM_1
 70
           0
  3

  4

  5

  6
_CLOSED
  7
_CLOSED
 40
1.0
 41
3.2
 42
1.0
 43
0.38
 44
1.0
 45
0.0
 46
0.0
 47
0.0
 48
0.0
 71
           0
 72
           0
 73
           0
 74
           0
 75
           0
 76
           0
 77
           1
 78
           8
140
3.2
141
0.09
142
0.0
143
25.4
144
1.0
145
0.0
146
1.0
147
0.625
170
           0
171
           2
172
           0
173
           1
174
           0
175
           0
176
           2
177
           2
178
           7
270
           2
271
           2
272
           4
273
           2
274
           2
275
           0
280
           0
281
           0
282
           0
283
           1
284
           0
285
           0
286
           0
287
           3
288
           0
340
17
  0
DIMSTYLE
105
179
100
AcDbSymbolTableRecord
100
AcDbDimStyleTableRecord
  2
ME10_DIM_2
 70
           0
  3

  4

  5

  6
_CLOSED
  7
_CLOSED
 40
1.0
 41
3.2
 42
1.0
 43
0.38
 44
1.0
 45
0.0
 46
0.0
 47
0.0
 48
0.0
 71
           0
 72
           0
 73
           0
 74
           0
 75
           0
 76
           0
 77
           1
 78
           8
140
3.2
141
0.09
142
0.0
143
25.4
144
1.0
145
0.0
146
1.0
147
0.625
170
           0
171
           2
172
           0
173
           1
174
           0
175
           0
176
           2
177
           2
178
           7
270
           2
271
           2
272
           4
273
           2
274
           2
275
           0
280
           0
281
           0
282
           0
283
           1
284
           0
285
           0
286
           0
287
           3
288
           0
340
17
  0
DIMSTYLE
105
18C
100
AcDbSymbolTableRecord
100
AcDbDimStyleTableRecord
  2
ME10_DIM_3
 70
           0
  3

  4

  5

  6
_CLOSED
  7
_CLOSED
 40
1.0
 41
3.2
 42
1.0
 43
0.38
 44
1.0
 45
0.0
 46
0.0
 47
0.0
 48
0.0
 71
           0
 72
           0
 73
           0
 74
           0
 75
           0
 76
           0
 77
           1
 78
           8
140
3.2
141
0.09
142
0.0
143
25.4
144
1.0
145
0.0
146
1.0
147
0.625
170
           0
171
           2
172
           0
173
           1
174
           0
175
           0
176
           2
177
           2
178
           7
270
           2
271
           2
272
           4
273
           2
274
           2
275
           0
280
           0
281
           0
282
           0
283
           1
284
           0
285
           0
286
           0
287
           3
288
           0
340
17
  0
DIMSTYLE
105
19D
100
AcDbSymbolTableRecord
100
AcDbDimStyleTableRecord
  2
ME10_DIM_4
 70
           0
  3

  4

  5

  6
_CLOSED
  7
_CLOSED
 40
1.0
 41
3.2
 42
1.0
 43
0.38
 44
1.0
 45
0.0
 46
0.0
 47
0.0
 48
0.0
 71
           0
 72
           0
 73
           0
 74
           0
 75
           0
 76
           0
 77
           1
 78
           8
140
3.2
141
0.09
142
0.0
143
25.4
144
1.0
145
0.0
146
1.0
147
0.625
170
           0
171
           2
172
           0
173
           1
174
           0
175
           0
176
           2
177
           2
178
           7
270
           2
271
           2
272
           4
273
           2
274
           2
275
           0
280
           0
281
           0
282
           0
283
           1
284
           0
285
           0
286
           0
287
           3
288
           0
340
17
  0
DIMSTYLE
105
1B0
100
AcDbSymbolTableRecord
100
AcDbDimStyleTableRecord
  2
ME10_DIM_5
 70
           0
  3

  4

  5

  6
_CLOSED
  7
_CLOSED
 40
1.0
 41
3.2
 42
1.0
 43
0.38
 44
1.0
 45
0.0
 46
0.0
 47
0.0
 48
0.0
 71
           0
 72
           0
 73
           0
 74
           0
 75
           0
 76
           0
 77
           1
 78
           8
140
3.2
141
0.09
142
0.0
143
25.4
144
1.0
145
0.0
146
1.0
147
0.625
170
           0
171
           2
172
           0
173
           1
174
           0
175
           0
176
           2
177
           2
178
           7
270
           2
271
           2
272
           4
273
           2
274
           2
275
           0
280
           0
281
           0
282
           0
283
           1
284
           0
285
           0
286
           0
287
           3
288
           0
340
17
  0
DIMSTYLE
105
1C3
100
AcDbSymbolTableRecord
100
AcDbDimStyleTableRecord
  2
ME10_DIM_6
 70
           0
  3

  4

  5

  6
_CLOSED
  7
_CLOSED
 40
1.0
 41
3.2
 42
1.0
 43
0.38
 44
1.0
 45
0.0
 46
0.0
 47
0.0
 48
0.0
 71
           0
 72
           0
 73
           0
 74
           0
 75
           0
 76
           0
 77
           1
 78
           8
140
3.2
141
0.09
142
0.0
143
25.4
144
1.0
145
0.0
146
1.0
147
0.625
170
           0
171
           2
172
           0
173
           1
174
           0
175
           0
176
           2
177
           2
178
           7
270
           2
271
           2
272
           4
273
           2
274
           2
275
           0
280
           0
281
           0
282
           0
283
           1
284
           0
285
           0
286
           0
287
           3
288
           0
340
17
  0
DIMSTYLE
105
1D4
100
AcDbSymbolTableRecord
100
AcDbDimStyleTableRecord
  2
ME10_DIM_7
 70
           0
  3

  4

  5

  6
_CLOSED
  7
_CLOSED
 40
1.0
 41
3.2
 42
1.0
 43
0.38
 44
1.0
 45
0.0
 46
0.0
 47
0.0
 48
0.0
 71
           0
 72
           0
 73
           0
 74
           0
 75
           0
 76
           0
 77
           1
 78
           8
140
3.2
141
0.09
142
0.0
143
25.4
144
1.0
145
0.0
146
1.0
147
0.625
170
           0
171
           2
172
           0
173
           1
174
           0
175
           0
176
           2
177
           2
178
           7
270
           2
271
           2
272
           4
273
           2
274
           2
275
           0
280
           0
281
           0
282
           0
283
           1
284
           0
285
           0
286
           0
287
           3
288
           0
340
17
  0
DIMSTYLE
105
1E5
100
AcDbSymbolTableRecord
100
AcDbDimStyleTableRecord
  2
ME10_DIM_8
 70
           0
  3

  4

  5

  6
_CLOSED
  7
_CLOSED
 40
1.0
 41
3.2
 42
1.0
 43
0.38
 44
1.0
 45
0.0
 46
0.0
 47
0.0
 48
0.0
 71
           0
 72
           0
 73
           0
 74
           0
 75
           0
 76
           0
 77
           1
 78
           8
140
3.2
141
0.09
142
0.0
143
25.4
144
1.0
145
0.0
146
1.0
147
0.625
170
           0
171
           2
172
           0
173
           1
174
           0
175
           0
176
           2
177
           2
178
           7
270
           2
271
           2
272
           4
273
           2
274
           2
275
           0
280
           0
281
           0
282
           0
283
           1
284
           0
285
           0
286
           0
287
           3
288
           0
340
17
  0
DIMSTYLE
105
1F6
100
AcDbSymbolTableRecord
100
AcDbDimStyleTableRecord
  2
ME10_DIM_9
 70
           0
  3

  4

  5

  6
_CLOSED
  7
_CLOSED
 40
1.0
 41
3.2
 42
1.0
 43
0.38
 44
1.0
 45
0.0
 46
0.0
 47
0.0
 48
0.0
 71
           0
 72
           0
 73
           0
 74
           0
 75
           0
 76
           0
 77
           1
 78
           8
140
3.2
141
0.09
142
0.0
143
25.4
144
1.0
145
0.0
146
1.0
147
0.625
170
           0
171
           2
172
           0
173
           1
174
           0
175
           0
176
           2
177
           2
178
           7
270
           2
271
           2
272
           4
273
           2
274
           2
275
           0
280
           0
281
           0
282
           0
283
           1
284
           0
285
           0
286
           0
287
           3
288
           0
340
17
  0
DIMSTYLE
105
207
100
AcDbSymbolTableRecord
100
AcDbDimStyleTableRecord
  2
ME10_DIM_10
 70
           0
  3

  4

  5

  6
_CLOSED
  7
_CLOSED
 40
1.0
 41
3.2
 42
1.0
 43
0.38
 44
1.0
 45
0.0
 46
0.0
 47
0.0
 48
0.0
 71
           0
 72
           0
 73
           0
 74
           0
 75
           0
 76
           0
 77
           1
 78
           8
140
3.2
141
0.09
142
0.0
143
25.4
144
1.0
145
0.0
146
1.0
147
0.625
170
           0
171
           2
172
           0
173
           1
174
           0
175
           0
176
           2
177
           2
178
           7
270
           2
271
           2
272
           4
273
           2
274
           2
275
           0
280
           0
281
           0
282
           0
283
           1
284
           0
285
           0
286
           0
287
           3
288
           0
340
17
  0
DIMSTYLE
105
218
100
AcDbSymbolTableRecord
100
AcDbDimStyleTableRecord
  2
ME10_DIM_11
 70
           0
  3

  4

  5

  6
_CLOSED
  7
_CLOSED
 40
1.0
 41
3.2
 42
1.0
 43
0.38
 44
1.0
 45
0.0
 46
0.0
 47
0.0
 48
0.0
 71
           0
 72
           0
 73
           0
 74
           0
 75
           0
 76
           0
 77
           1
 78
           8
140
3.2
141
0.09
142
0.0
143
25.4
144
1.0
145
0.0
146
1.0
147
0.625
170
           0
171
           2
172
           0
173
           1
174
           0
175
           0
176
           2
177
           2
178
           7
270
           2
271
           2
272
           4
273
           2
274
           2
275
           0
280
           0
281
           0
282
           0
283
           1
284
           0
285
           0
286
           0
287
           3
288
           0
340
17
  0
DIMSTYLE
105
229
100
AcDbSymbolTableRecord
100
AcDbDimStyleTableRecord
  2
ME10_DIM_12
 70
           0
  3

  4

  5

  6
_CLOSED
  7
_CLOSED
 40
1.0
 41
3.2
 42
1.0
 43
0.38
 44
1.0
 45
0.0
 46
0.0
 47
0.0
 48
0.0
 71
           0
 72
           0
 73
           0
 74
           0
 75
           0
 76
           0
 77
           1
 78
           8
140
3.2
141
0.09
142
0.0
143
25.4
144
1.0
145
0.0
146
1.0
147
0.625
170
           0
171
           2
172
           0
173
           1
174
           0
175
           0
176
           2
177
           2
178
           7
270
           2
271
           2
272
           4
273
           2
274
           2
275
           0
280
           0
281
           0
282
           0
283
           1
284
           0
285
           0
286
           0
287
           3
288
           0
340
17
  0
DIMSTYLE
105
23C
100
AcDbSymbolTableRecord
100
AcDbDimStyleTableRecord
  2
ME10_DIM_13
 70
           0
  3

  4

  5

  6
_CLOSED
  7
_CLOSED
 40
1.0
 41
3.2
 42
1.0
 43
0.38
 44
1.0
 45
0.0
 46
0.0
 47
0.0
 48
0.0
 71
           0
 72
           0
 73
           0
 74
           0
 75
           0
 76
           0
 77
           1
 78
           8
140
3.2
141
0.09
142
0.0
143
25.4
144
1.0
145
0.0
146
1.0
147
0.625
170
           0
171
           2
172
           0
173
           1
174
           0
175
           0
176
           2
177
           2
178
           7
270
           2
271
           2
272
           4
273
           2
274
           2
275
           0
280
           0
281
           0
282
           0
283
           1
284
           0
285
           0
286
           0
287
           3
288
           0
340
17
  0
DIMSTYLE
105
24D
100
AcDbSymbolTableRecord
100
AcDbDimStyleTableRecord
  2
ME10_DIM_14
 70
           0
  3

  4

  5

  6
_CLOSED
  7
_CLOSED
 40
1.0
 41
3.2
 42
1.0
 43
0.38
 44
1.0
 45
0.0
 46
0.0
 47
0.0
 48
0.0
 71
           0
 72
           0
 73
           0
 74
           0
 75
           0
 76
           0
 77
           1
 78
           8
140
3.2
141
0.09
142
0.0
143
25.4
144
1.0
145
0.0
146
1.0
147
0.625
170
           0
171
           2
172
           0
173
           1
174
           0
175
           0
176
           2
177
           2
178
           7
270
           2
271
           2
272
           4
273
           2
274
           2
275
           0
280
           0
281
           0
282
           0
283
           1
284
           0
285
           0
286
           0
287
           3
288
           0
340
17
  0
DIMSTYLE
105
25E
100
AcDbSymbolTableRecord
100
AcDbDimStyleTableRecord
  2
ME10_DIM_15
 70
           0
  3

  4

  5

  6
_CLOSED
  7
_CLOSED
 40
1.0
 41
3.2
 42
1.0
 43
0.38
 44
1.0
 45
0.0
 46
0.0
 47
0.0
 48
0.0
 71
           0
 72
           0
 73
           0
 74
           0
 75
           0
 76
           0
 77
           1
 78
           8
140
3.2
141
0.09
142
0.0
143
25.4
144
1.0
145
0.0
146
1.0
147
0.625
170
           0
171
           2
172
           0
173
           1
174
           0
175
           0
176
           2
177
           2
178
           7
270
           2
271
           2
272
           4
273
           2
274
           2
275
           0
280
           0
281
           0
282
           0
283
           1
284
           0
285
           0
286
           0
287
           3
288
           0
340
17
  0
DIMSTYLE
105
26F
100
AcDbSymbolTableRecord
100
AcDbDimStyleTableRecord
  2
ME10_DIM_16
 70
           0
  3

  4

  5

  6
_CLOSED
  7
_CLOSED
 40
1.0
 41
3.2
 42
1.0
 43
0.38
 44
1.0
 45
0.0
 46
0.0
 47
0.0
 48
0.0
 71
           0
 72
           0
 73
           0
 74
           0
 75
           0
 76
           0
 77
           1
 78
           8
140
3.2
141
0.09
142
0.0
143
25.4
144
1.0
145
0.0
146
1.0
147
0.625
170
           0
171
           2
172
           0
173
           1
174
           0
175
           0
176
           2
177
           2
178
           7
270
           2
271
           2
272
           4
273
           2
274
           2
275
           0
280
           0
281
           0
282
           0
283
           1
284
           0
285
           0
286
           0
287
           3
288
           0
340
17
  0
DIMSTYLE
105
280
100
AcDbSymbolTableRecord
100
AcDbDimStyleTableRecord
  2
ME10_DIM_17
 70
           0
  3

  4

  5

  6
_CLOSED
  7
_CLOSED
 40
1.0
 41
3.2
 42
1.0
 43
0.38
 44
1.0
 45
0.0
 46
0.0
 47
0.0
 48
0.0
 71
           0
 72
           0
 73
           0
 74
           0
 75
           0
 76
           0
 77
           1
 78
           8
140
3.2
141
0.09
142
0.0
143
25.4
144
1.0
145
0.0
146
1.0
147
0.625
170
           0
171
           2
172
           0
173
           1
174
           0
175
           0
176
           2
177
           2
178
           7
270
           2
271
           2
272
           4
273
           2
274
           2
275
           0
280
           0
281
           0
282
           0
283
           1
284
           0
285
           0
286
           0
287
           3
288
           0
340
17
  0
DIMSTYLE
105
291
100
AcDbSymbolTableRecord
100
AcDbDimStyleTableRecord
  2
ME10_DIM_18
 70
           0
  3

  4

  5

  6
_CLOSED
  7
_CLOSED
 40
1.0
 41
3.2
 42
1.0
 43
0.38
 44
1.0
 45
0.0
 46
0.0
 47
0.0
 48
0.0
 71
           0
 72
           0
 73
           0
 74
           0
 75
           0
 76
           0
 77
           1
 78
           8
140
3.2
141
0.09
142
0.0
143
25.4
144
1.0
145
0.0
146
1.0
147
0.625
170
           0
171
           2
172
           0
173
           1
174
           0
175
           0
176
           2
177
           2
178
           7
270
           2
271
           2
272
           4
273
           2
274
           2
275
           0
280
           0
281
           0
282
           0
283
           1
284
           0
285
           0
286
           0
287
           3
288
           0
340
17
  0
DIMSTYLE
105
2A2
100
AcDbSymbolTableRecord
100
AcDbDimStyleTableRecord
  2
ME10_DIM_19
 70
           0
  3

  4

  5

  6
_CLOSED
  7
_CLOSED
 40
1.0
 41
3.2
 42
1.0
 43
0.38
 44
1.0
 45
0.0
 46
0.0
 47
0.0
 48
0.0
 71
           0
 72
           0
 73
           0
 74
           0
 75
           0
 76
           0
 77
           1
 78
           8
140
3.2
141
0.09
142
0.0
143
25.4
144
1.0
145
0.0
146
1.0
147
0.625
170
           0
171
           2
172
           0
173
           1
174
           0
175
           0
176
           2
177
           2
178
           7
270
           2
271
           2
272
           4
273
           2
274
           2
275
           0
280
           0
281
           0
282
           0
283
           1
284
           0
285
           0
286
           0
287
           3
288
           0
340
17
  0
DIMSTYLE
105
2B3
100
AcDbSymbolTableRecord
100
AcDbDimStyleTableRecord
  2
ME10_DIM_20
 70
           0
  3

  4

  5

  6
_CLOSED
  7
_CLOSED
 40
1.0
 41
3.2
 42
1.0
 43
0.38
 44
1.0
 45
0.0
 46
0.0
 47
0.0
 48
0.0
 71
           0
 72
           0
 73
           0
 74
           0
 75
           0
 76
           0
 77
           1
 78
           8
140
3.2
141
0.09
142
0.0
143
25.4
144
1.0
145
0.0
146
1.0
147
0.625
170
           0
171
           2
172
           0
173
           1
174
           0
175
           0
176
           2
177
           2
178
           7
270
           2
271
           2
272
           4
273
           2
274
           2
275
           0
280
           0
281
           0
282
           0
283
           1
284
           0
285
           0
286
           0
287
           3
288
           0
340
17
  0
ENDTAB
  0
TABLE
  2
BLOCK_RECORD
  5
1
100
AcDbSymbolTable
 70
          66
  0
BLOCK_RECORD
  5
A
100
AcDbSymbolTableRecord
100
AcDbBlockTableRecord
  2
*MODEL_SPACE
  0
BLOCK_RECORD
  5
B
100
AcDbSymbolTableRecord
100
AcDbBlockTableRecord
  2
*PAPER_SPACE
  0
BLOCK_RECORD
  5
25
100
AcDbSymbolTableRecord
100
AcDbBlockTableRecord
  2
TOP__1
  0
BLOCK_RECORD
  5
146
100
AcDbSymbolTableRecord
100
AcDbBlockTableRecord
  2
*D1
  0
BLOCK_RECORD
  5
157
100
AcDbSymbolTableRecord
100
AcDbBlockTableRecord
  2
*D4
  0
BLOCK_RECORD
  5
16A
100
AcDbSymbolTableRecord
100
AcDbBlockTableRecord
  2
*D7
  0
BLOCK_RECORD
  5
17B
100
AcDbSymbolTableRecord
100
AcDbBlockTableRecord
  2
*D10
  0
BLOCK_RECORD
  5
18E
100
AcDbSymbolTableRecord
100
AcDbBlockTableRecord
  2
*D13
  0
BLOCK_RECORD
  5
19F
100
AcDbSymbolTableRecord
100
AcDbBlockTableRecord
  2
*D16
  0
BLOCK_RECORD
  5
1B2
100
AcDbSymbolTableRecord
100
AcDbBlockTableRecord
  2
*D19
  0
BLOCK_RECORD
  5
1C5
100
AcDbSymbolTableRecord
100
AcDbBlockTableRecord
  2
*D22
  0
BLOCK_RECORD
  5
1D6
100
AcDbSymbolTableRecord
100
AcDbBlockTableRecord
  2
*D25
  0
BLOCK_RECORD
  5
1E7
100
AcDbSymbolTableRecord
100
AcDbBlockTableRecord
  2
*D28
  0
BLOCK_RECORD
  5
1F8
100
AcDbSymbolTableRecord
100
AcDbBlockTableRecord
  2
*D31
  0
BLOCK_RECORD
  5
209
100
AcDbSymbolTableRecord
100
AcDbBlockTableRecord
  2
*D34
  0
BLOCK_RECORD
  5
21A
100
AcDbSymbolTableRecord
100
AcDbBlockTableRecord
  2
*D37
  0
BLOCK_RECORD
  5
22B
100
AcDbSymbolTableRecord
100
AcDbBlockTableRecord
  2
*D40
  0
BLOCK_RECORD
  5
23E
100
AcDbSymbolTableRecord
100
AcDbBlockTableRecord
  2
*D43
  0
BLOCK_RECORD
  5
24F
100
AcDbSymbolTableRecord
100
AcDbBlockTableRecord
  2
*D46
  0
BLOCK_RECORD
  5
260
100
AcDbSymbolTableRecord
100
AcDbBlockTableRecord
  2
*D49
  0
BLOCK_RECORD
  5
271
100
AcDbSymbolTableRecord
100
AcDbBlockTableRecord
  2
*D52
  0
BLOCK_RECORD
  5
282
100
AcDbSymbolTableRecord
100
AcDbBlockTableRecord
  2
*D55
  0
BLOCK_RECORD
  5
293
100
AcDbSymbolTableRecord
100
AcDbBlockTableRecord
  2
*D58
  0
BLOCK_RECORD
  5
2A4
100
AcDbSymbolTableRecord
100
AcDbBlockTableRecord
  2
*D61
  0
BLOCK_RECORD
  5
2B5
100
AcDbSymbolTableRecord
100
AcDbBlockTableRecord
  2
*D64
  0
BLOCK_RECORD
  5
2C2
100
AcDbSymbolTableRecord
100
AcDbBlockTableRecord
  2
*D65
  0
ENDTAB
  0
ENDSEC
  0
SECTION
  2
BLOCKS
  0
BLOCK
  5
D
100
AcDbEntity
  8
0
100
AcDbBlockBegin
  2
*MODEL_SPACE
 70
           0
 10
0.0
 20
0.0
 30
0.0
  3
*MODEL_SPACE
  1

  0
ENDBLK
  5
E
100
AcDbEntity
  8
0
100
AcDbBlockEnd
  0
BLOCK
  5
F
100
AcDbEntity
 67
           1
  8
0
100
AcDbBlockBegin
  2
*PAPER_SPACE
 70
           0
 10
0.0
 20
0.0
 30
0.0
  3
*PAPER_SPACE
  1

  0
ENDBLK
  5
10
100
AcDbEntity
 67
           1
  8
0
100
AcDbBlockEnd
  0
BLOCK
  5
26
100
AcDbEntity
  8
0
100
AcDbBlockBegin
  2
TOP__1
 70
           0
 10
785.005776604997
 20
1662.97309162076
 30
0.0
  3
TOP__1
  1

  0
TEXT
  5
9A
100
AcDbEntity
  8
1
 62
           2
100
AcDbText
 10
583.057332759102
 20
1710.283318434766
 40
4.0
  1
Rexnord Marbett
 41
0.82175
  7
CONVERTER_6
100
AcDbText
  0
MTEXT
  5
98
100
AcDbEntity
  8
1
 62
           2
100
AcDbMText
 10
733.528670678424
 20
1692.749703795594
 30
0.0
 40
1.2
 41
0.0
 71
           7
 72
           1
  1
Data\P(Date)
  7
CONVERTER_3
 11
1.0
 21
0.0
 31
0.0
  0
TEXT
  5
97
100
AcDbEntity
  8
1
 62
           2
100
AcDbText
 10
618.255741347912
 20
1678.369876034752
 40
1.2
  1
(Modific.)
 41
1.35
  7
CONVERTER_4
100
AcDbText
  0
MTEXT
  5
96
100
AcDbEntity
  8
1
 62
           2
100
AcDbMText
 10
752.730670520966
 20
1856.09701895432
 30
0.0
 40
1.2
 41
0.0
 71
           7
 72
           1
  1
Data
  7
CONVERTER_3
 11
0.0
 21
1.0
 31
0.0
  0
MTEXT
  5
95
100
AcDbEntity
  8
1
 62
           2
100
AcDbMText
 10
754.435415283086
 20
1855.502905975773
 30
0.0
 40
1.2
 41
0.0
 71
           7
 72
           1
  1
(Date)
  7
CONVERTER_2
 11
0.0
 21
1.0
 31
0.0
  0
MTEXT
  5
94
100
AcDbEntity
  8
1
 62
           2
100
AcDbMText
 10
752.856947910753
 20
1873.499082536317
 30
0.0
 40
1.2
 41
0.0
 71
           7
 72
           1
  1
Dis.
  7
CONVERTER_3
 11
0.0
 21
1.0
 31
0.0
  0
MTEXT
  5
93
100
AcDbEntity
  8
1
 62
           2
100
AcDbMText
 10
754.561692672873
 20
1870.512039933378
 30
0.0
 40
1.2
 41
0.0
 71
           7
 72
           1
  1
(Draftsm.)
  7
CONVERTER_2
 11
0.0
 21
1.0
 31
0.0
  0
MTEXT
  5
92
100
AcDbEntity
  8
1
 62
           2
100
AcDbMText
 10
752.856947910753
 20
1844.814591111797
 30
0.0
 40
1.2
 41
0.0
 71
           7
 72
           1
  1
Indic.
  7
CONVERTER_3
 11
0.0
 21
1.0
 31
0.0
  0
MTEXT
  5
91
100
AcDbEntity
  8
1
 62
           2
100
AcDbMText
 10
754.561692672873
 20
1845.044357909341
 30
0.0
 40
1.2
 41
0.0
 71
           7
 72
           1
  1
(Ind.)
  7
CONVERTER_2
 11
0.0
 21
1.0
 31
0.0
  0
MTEXT
  5
90
100
AcDbEntity
  8
1
 62
           2
100
AcDbMText
 10
690.596176509133
 20
1706.136883809447
 30
0.0
 40
1.2
 41
0.0
 71
           7
 72
           1
  1
Colore\P(Colour)
  7
CONVERTER_3
  0
TEXT
  5
8F
100
AcDbEntity
  8
1
 62
           2
100
AcDbText
 10
581.205776604998
 20
1675.552024879164
 40
1.2
  1
N°
 41
0.9
  7
CONVERTER_1
100
AcDbText
  0
TEXT
  5
8E
100
AcDbEntity
  8
1
 62
           2
100
AcDbText
 10
581.205776604998
 20
1695.14905704339
 40
1.2
  1
N°
 41
0.9
  7
CONVERTER_1
100
AcDbText
  0
TEXT
  5
8D
100
AcDbEntity
  8
1
 62
           2
100
AcDbText
 10
581.205776604998
 20
1685.025471707368
 40
1.2
  1
N°
 41
0.9
  7
CONVERTER_1
100
AcDbText
  0
TEXT
  5
8C
100
AcDbEntity
  8
1
 62
           2
100
AcDbText
 10
664.714809724642
 20
1715.989249531525
 40
1.2
  1
(Line)
 41
1.08
  7
CONVERTER_3
100
AcDbText
  0
TEXT
  5
8B
100
AcDbEntity
  8
1
 62
           2
100
AcDbText
 10
710.667925382479
 20
1715.833879807099
 40
1.2
  1
(Gen. Tol.)
 41
1.08
  7
CONVERTER_3
100
AcDbText
  0
TEXT
  5
8A
100
AcDbEntity
  8
1
 62
           2
100
AcDbText
 10
710.617094660598
 20
1718.525694261994
 40
1.2
  1
Toll. Gen.
 41
1.08
  7
CONVERTER_3
100
AcDbText
  0
MTEXT
  5
89
100
AcDbEntity
  8
1
 62
           2
100
AcDbMText
 10
754.210580592733
 20
1905.197558074263
 30
0.0
 40
1.3
 41
0.0
 71
           7
 72
           1
  1
Modifiche (Modifications)
  7
CONVERTER_3
 11
0.0
 21
1.0
 31
0.0
  0
TEXT
  5
88
100
AcDbEntity
  8
1
 62
           2
100
AcDbText
 10
665.027129588141
 20
1718.75207403167
 40
1.3
  1
Linea
 41
1.08
  7
CONVERTER_3
100
AcDbText
  0
TEXT
  5
87
100
AcDbEntity
  8
1
 62
           2
100
AcDbText
 10
633.422989817035
 20
1714.871365066266
 40
2.5
  1
UFFICI TECNICI
 41
0.9
  7
CONVERTER_1
100
AcDbText
  0
TEXT
  5
86
100
AcDbEntity
  8
1
 62
           2
100
AcDbText
 10
619.134946019753
 20
1680.553840908917
 40
1.3
  1
Modifica
 41
1.08
  7
CONVERTER_3
100
AcDbText
  0
MTEXT
  5
85
100
AcDbEntity
  8
1
 62
           2
100
AcDbMText
 10
754.210580592733
 20
1793.576407795965
 30
0.0
 40
1.3
 41
0.0
 71
           7
 72
           1
  1
Modifiche (Modifications)
  7
CONVERTER_3
 11
0.0
 21
1.0
 31
0.0
  0
MTEXT
  5
84
100
AcDbEntity
  8
1
 62
           2
100
AcDbMText
 10
690.343682377606
 20
1715.817241262911
 30
0.0
 40
1.3
 41
0.0
 71
           7
 72
           1
  1
Peso\P(Weight)
  7
CONVERTER_3
  0
TEXT
  5
83
100
AcDbEntity
  8
1
 62
           2
100
AcDbText
 10
767.508485056942
 20
1664.505944268137
 40
2.0
  1
 UNI A/4
 41
0.9
  7
CONVERTER_1
100
AcDbText
  0
TEXT
  5
82
100
AcDbEntity
  8
1
 62
           2
100
AcDbText
 10
632.999608063373
 20
1693.97309162076
 40
1.5
  1
Descrizione (Description)
 41
0.9
  7
CONVERTER_1
100
AcDbText
  0
MTEXT
  5
81
100
AcDbEntity
  8
1
 62
           2
100
AcDbMText
 10
778.293391760244
 20
1680.107879201487
 30
0.0
 40
1.180511166171
 41
0.0
 71
           7
 72
           1
  3
Proprieta' della Marbett S.p.A..\PSenza autorizzazione scritta della\Pstessa il presente disegno non puo'\Pessere comunque utilizzato per la\Pcostruzione dell'oggetto rappresentato,\Pne' venire comunicato a terzi o\Priprodotto. La Societa' proprietar
  1
ia\Ptutela i propri diritti a rigore di legge.
  7
CONVERTER_4
 11
0.0
 21
1.0
 31
0.0
  0
TEXT
  5
80
100
AcDbEntity
  8
1
 62
           2
100
AcDbText
 10
583.005776604998
 20
1728.97309162076
 40
1.2
  1
Tratt. termici (Heat treatments)
 41
1.35
  7
CONVERTER_4
100
AcDbText
  0
MTEXT
  5
7F
100
AcDbEntity
  8
1
 62
           2
100
AcDbMText
 10
581.185997314886
 20
1697.361573699975
 30
0.0
 40
1.2
 41
0.0
 71
           7
 72
           1
  1
Dis. Cliente\P(Customer Drawing)
  7
CONVERTER_4
 11
1.0
 21
0.0
 31
0.0
  0
MTEXT
  5
7E
100
AcDbEntity
  8
1
 62
           2
100
AcDbMText
 10
733.641241637941
 20
1715.604256730212
 30
0.0
 40
1.2
 41
0.0
 71
           7
 72
           1
  1
Scala\P(Scale)
  7
CONVERTER_3
 11
1.0
 21
0.0
 31
0.0
  0
MTEXT
  5
7D
100
AcDbEntity
  8
1
 62
           2
100
AcDbMText
 10
733.641241637941
 20
1702.945772090352
 30
0.0
 40
1.2
 41
0.0
 71
           7
 72
           1
  1
Dis.\P(Draftsm.)
  7
CONVERTER_3
 11
1.0
 21
0.0
 31
0.0
  0
MTEXT
  5
7C
100
AcDbEntity
  8
1
 62
           2
100
AcDbMText
 10
733.641241637941
 20
1682.911720648957
 30
0.0
 40
1.2
 41
0.0
 71
           7
 72
           1
  1
Contr.\P(Check)
  7
CONVERTER_3
 11
1.0
 21
0.0
 31
0.0
  0
MTEXT
  5
7B
100
AcDbEntity
  8
1
 62
           2
100
AcDbMText
 10
758.52252191262
 20
1672.992567229078
 30
0.0
 40
1.2
 41
0.0
 71
           7
 72
           1
  1
Foglio\P(Sheet)
  7
CONVERTER_3
 11
1.0
 21
0.0
 31
0.0
  0
MTEXT
  5
7A
100
AcDbEntity
  8
1
 62
           2
100
AcDbMText
 10
581.122579046001
 20
1678.107084575508
 30
0.0
 40
1.2
 41
0.0
 71
           7
 72
           1
  1
Disegno o stp.\P(Drawing or mould)
  7
CONVERTER_4
 11
1.0
 21
0.0
 31
0.0
  0
TEXT
  5
79
100
AcDbEntity
  8
1
 62
           2
100
AcDbText
 10
633.005776604997
 20
1707.767120325115
 40
1.2
  1
Materiale (Mat.)
 41
1.08
  7
CONVERTER_3
100
AcDbText
  0
MTEXT
  5
78
100
AcDbEntity
  8
1
 62
           2
100
AcDbMText
 10
710.538405129032
 20
1705.992072126452
 30
0.0
 40
1.2
 41
0.0
 71
           7
 72
           1
  1
Ritiro %%%\P(Contraction %%%)
  7
CONVERTER_3
 11
1.0
 21
0.0
 31
0.0
  0
TEXT
  5
77
100
AcDbEntity
  8
1
 62
           2
100
AcDbText
 10
670.505776604997
 20
1728.97309162076
 40
1.3
  1
Tratt. superfic. (Surface treatments)
 41
0.99
  7
CONVERTER_5
100
AcDbText
  0
MTEXT
  5
75
100
AcDbEntity
  8
1
 62
           2
100
AcDbMText
 10
581.122579046001
 20
1688.177988173827
 30
0.0
 40
1.2
 41
0.0
 71
           7
 72
           1
  1
Dis. Complessivo\P(Assembly drawing)
  7
CONVERTER_4
 11
1.0
 21
0.0
 31
0.0
  0
MTEXT
  5
73
100
AcDbEntity
  8
1
 62
           2
100
AcDbMText
 10
733.528670678424
 20
1672.749703795594
 30
0.0
 40
1.2
 41
0.0
 71
           7
 72
           1
  1
Data\P(Date)
  7
CONVERTER_3
 11
1.0
 21
0.0
 31
0.0
  0
MTEXT
  5
72
100
AcDbEntity
  8
1
 62
           2
100
AcDbMText
 10
752.730670520966
 20
1744.902778872284
 30
0.0
 40
1.2
 41
0.0
 71
           7
 72
           1
  1
Data
  7
CONVERTER_3
 11
0.0
 21
1.0
 31
0.0
  0
MTEXT
  5
71
100
AcDbEntity
  8
1
 62
           2
100
AcDbMText
 10
754.435415283086
 20
1744.539898422382
 30
0.0
 40
1.2
 41
0.0
 71
           7
 72
           1
  1
(Date)
  7
CONVERTER_2
 11
0.0
 21
1.0
 31
0.0
  0
MTEXT
  5
70
100
AcDbEntity
  8
1
 62
           2
100
AcDbMText
 10
752.856947910753
 20
1761.749849233636
 30
0.0
 40
1.2
 41
0.0
 71
           7
 72
           1
  1
 Dis.
  7
CONVERTER_3
 11
0.0
 21
1.0
 31
0.0
  0
MTEXT
  5
6F
100
AcDbEntity
  8
1
 62
           2
100
AcDbMText
 10
754.561692672873
 20
1759.633150803767
 30
0.0
 40
1.2
 41
0.0
 71
           7
 72
           1
  1
(Draftsm.)
  7
CONVERTER_2
 11
0.0
 21
1.0
 31
0.0
  0
MTEXT
  5
6E
100
AcDbEntity
  8
1
 62
           2
100
AcDbMText
 10
752.856947910753
 20
1734.091173965392
 30
0.0
 40
1.2
 41
0.0
 71
           7
 72
           1
  1
Indic.
  7
CONVERTER_3
 11
0.0
 21
1.0
 31
0.0
  0
MTEXT
  5
6C
100
AcDbEntity
  8
1
 62
           2
100
AcDbMText
 10
754.561692672873
 20
1734.305253238206
 30
0.0
 40
1.2
 41
0.0
 71
           7
 72
           1
  1
(Ind.)
  7
CONVERTER_2
 11
0.0
 21
1.0
 31
0.0
  0
TEXT
  5
6A
100
AcDbEntity
  8
1
 62
           2
100
AcDbText
 10
632.518631133818
 20
1674.814132007637
 40
1.5
  1
Progetto (Project)
 41
0.9
  7
CONVERTER_1
100
AcDbText
  0
LINE
  5
68
100
AcDbEntity
  8
1
  6
CONTINUOUS
 62
           7
100
AcDbLine
 10
732.341686454878
 20
1707.97309162076
 11
757.341686454878
 21
1707.97309162076
  0
LINE
  5
67
100
AcDbEntity
  8
1
  6
CONTINUOUS
 62
           7
100
AcDbLine
 10
757.341686454878
 20
1677.97309162076
 11
780.005776604997
 21
1677.97309162076
  0
LINE
  5
66
100
AcDbEntity
  8
1
  6
CONTINUOUS
 62
           2
100
AcDbLine
 10
752.805843804056
 20
1952.920605669882
 11
780.005776604997
 21
1952.920605669882
  0
LINE
  5
65
100
AcDbEntity
  8
1
  6
CONTINUOUS
 62
           2
100
AcDbLine
 10
755.107751864375
 20
1952.920605669882
 11
755.107751864375
 21
1843.539391577786
  0
LINE
  5
64
100
AcDbEntity
  8
1
  6
CONTINUOUS
 62
           2
100
AcDbLine
 10
759.257422654479
 20
1952.920605669882
 11
759.257422654479
 21
1843.539391577786
  0
LINE
  5
63
100
AcDbEntity
  8
1
  6
CONTINUOUS
 62
           2
100
AcDbLine
 10
767.556764234686
 20
1952.920605669882
 11
767.556764234686
 21
1843.539391577786
  0
LINE
  5
62
100
AcDbEntity
  8
1
  6
CONTINUOUS
 62
           2
100
AcDbLine
 10
775.856105814894
 20
1952.920605669882
 11
775.856105814894
 21
1843.539391577786
  0
LINE
  5
61
100
AcDbEntity
  8
1
  6
CONTINUOUS
 62
           7
100
AcDbLine
 10
689.041027919003
 20
1710.97309162076
 11
689.041027919003
 21
1698.97309162076
  0
LINE
  5
60
100
AcDbEntity
  8
1
  6
CONTINUOUS
 62
           2
100
AcDbLine
 10
771.70643502479
 20
1843.539391577786
 11
771.70643502479
 21
1952.920605669882
  0
LINE
  5
5F
100
AcDbEntity
  8
1
  6
CONTINUOUS
 62
           2
100
AcDbLine
 10
763.407093444583
 20
1843.539391577786
 11
763.407093444583
 21
1952.920605669882
  0
LINE
  5
5E
100
AcDbEntity
  8
1
  6
CONTINUOUS
 62
           2
100
AcDbLine
 10
780.005776604997
 20
1840.558150131222
 11
752.706003291719
 21
1840.558150131222
  0
LINE
  5
5D
100
AcDbEntity
  8
1
  6
CONTINUOUS
 62
           2
100
AcDbLine
 10
755.107751864375
 20
1840.558150131222
 11
755.107751864375
 21
1732.97309162076
  0
LINE
  5
5C
100
AcDbEntity
  8
1
  6
CONTINUOUS
 62
           2
100
AcDbLine
 10
759.257422654479
 20
1840.558150131222
 11
759.257422654479
 21
1732.97309162076
  0
LINE
  5
5B
100
AcDbEntity
  8
1
  6
CONTINUOUS
 62
           2
100
AcDbLine
 10
767.556764234686
 20
1840.558150131222
 11
767.556764234686
 21
1732.97309162076
  0
LINE
  5
5A
100
AcDbEntity
  8
1
  6
CONTINUOUS
 62
           2
100
AcDbLine
 10
775.856105814894
 20
1840.558150131222
 11
775.856105814894
 21
1732.97309162076
  0
LINE
  5
59
100
AcDbEntity
  8
1
  6
CONTINUOUS
 62
           2
100
AcDbLine
 10
755.107751864375
 20
1952.920605669882
 11
755.107751864375
 21
1850.594197391491
  0
LINE
  5
58
100
AcDbEntity
  8
1
  6
CONTINUOUS
 62
           2
100
AcDbLine
 10
752.706003291719
 20
1843.539391577786
 11
780.005776604997
 21
1843.539391577786
  0
LINE
  5
57
100
AcDbEntity
  8
1
  6
CONTINUOUS
 62
           2
100
AcDbLine
 10
755.107751864375
 20
1883.52182640875
 11
780.005776604997
 21
1883.52182640875
  0
LINE
  5
56
100
AcDbEntity
  8
1
  6
CONTINUOUS
 62
           2
100
AcDbLine
 10
755.107751864375
 20
1866.190983614885
 11
780.005776604997
 21
1866.190983614885
  0
LINE
  5
55
100
AcDbEntity
  8
1
  6
CONTINUOUS
 62
           2
100
AcDbLine
 10
755.107751864375
 20
1850.594197391491
 11
780.005776604997
 21
1850.594197391491
  0
LINE
  5
54
100
AcDbEntity
  8
1
  6
CONTINUOUS
 62
           2
100
AcDbLine
 10
755.107751864375
 20
1772.52182640875
 11
780.005776604997
 21
1772.52182640875
  0
LINE
  5
53
100
AcDbEntity
  8
1
  6
CONTINUOUS
 62
           2
100
AcDbLine
 10
755.107751864375
 20
1755.190983614885
 11
780.005776604997
 21
1755.190983614885
  0
LINE
  5
52
100
AcDbEntity
  8
1
  6
CONTINUOUS
 62
           2
100
AcDbLine
 10
755.107751864375
 20
1739.594197391491
 11
780.005776604997
 21
1739.594197391491
  0
LINE
  5
51
100
AcDbEntity
  8
1
  6
CONTINUOUS
 62
           7
100
AcDbLine
 10
780.005776604997
 20
1667.97309162076
 11
780.005776604997
 21
1954.97309162076
  0
LINE
  5
50
100
AcDbEntity
  8
1
  6
CONTINUOUS
 62
           7
100
AcDbLine
 10
663.744603458455
 20
1720.97309162076
 11
663.744603458455
 21
1710.97309162076
  0
LINE
  5
4F
100
AcDbEntity
  8
1
  6
CONTINUOUS
 62
           7
100
AcDbLine
 10
630.005776604998
 20
1710.97309162076
 11
732.341686454878
 21
1710.97309162076
  0
LINE
  5
4E
100
AcDbEntity
  8
1
  6
CONTINUOUS
 62
           7
100
AcDbLine
 10
617.059247481993
 20
1683.383796256961
 11
617.059247481993
 21
1667.97309162076
  0
LINE
  5
4D
100
AcDbEntity
  8
1
  6
DOTTED
 62
           2
100
AcDbLine
 10
687.114950162425
 20
1702.97309162076
 11
632.812686707144
 21
1702.97309162076
  0
LINE
  5
4C
100
AcDbEntity
  8
1
  6
DOTTED
 62
           2
100
AcDbLine
 10
655.146348404277
 20
1706.97309162076
 11
687.114950162425
 21
1706.97309162076
  0
LINE
  5
4B
100
AcDbEntity
  8
1
  6
CONTINUOUS
 62
           7
100
AcDbLine
 10
780.005776604997
 20
1954.97309162076
 11
580.005776604998
 21
1954.97309162076
  0
LINE
  5
4A
100
AcDbEntity
  8
1
  6
CONTINUOUS
 62
           2
100
AcDbLine
 10
763.407093444583
 20
1732.97309162076
 11
763.407093444583
 21
1840.558150131222
  0
LINE
  5
49
100
AcDbEntity
  8
1
  6
CONTINUOUS
 62
           7
100
AcDbLine
 10
580.005776604998
 20
1732.97309162076
 11
780.005776604997
 21
1732.97309162076
  0
LINE
  5
48
100
AcDbEntity
  8
1
  6
CONTINUOUS
 62
           2
100
AcDbLine
 10
771.70643502479
 20
1732.97309162076
 11
771.70643502479
 21
1840.558150131222
  0
LINE
  5
47
100
AcDbEntity
  8
1
  6
CONTINUOUS
 62
           7
100
AcDbLine
 10
580.005776604998
 20
1667.97309162076
 11
780.005776604997
 21
1667.97309162076
  0
LINE
  5
46
100
AcDbEntity
  8
1
  6
CONTINUOUS
 62
           7
100
AcDbLine
 10
580.005776604998
 20
1683.383796256961
 11
630.005776604998
 21
1683.383796256961
  0
LINE
  5
45
100
AcDbEntity
  8
1
  6
CONTINUOUS
 62
           7
100
AcDbLine
 10
630.005776604998
 20
1692.988670752868
 11
580.005776604998
 21
1692.988670752868
  0
LINE
  5
44
100
AcDbEntity
  8
1
  6
CONTINUOUS
 62
           7
100
AcDbLine
 10
580.005776604998
 20
1667.97309162076
 11
580.005776604998
 21
1954.97309162076
  0
LINE
  5
43
100
AcDbEntity
  8
1
  6
CONTINUOUS
 62
           2
100
AcDbLine
 10
575.005776604998
 20
1959.97309162076
 11
575.005776604998
 21
1662.97309162076
  0
LINE
  5
42
100
AcDbEntity
  8
1
  6
CONTINUOUS
 62
           2
100
AcDbLine
 10
575.005776604998
 20
1662.97309162076
 11
785.005776604997
 21
1662.97309162076
  0
LINE
  5
41
100
AcDbEntity
  8
1
  6
CONTINUOUS
 62
           2
100
AcDbLine
 10
785.005776604997
 20
1662.97309162076
 11
785.005776604997
 21
1959.97309162076
  0
LINE
  5
40
100
AcDbEntity
  8
1
  6
CONTINUOUS
 62
           2
100
AcDbLine
 10
785.005776604997
 20
1959.97309162076
 11
575.005776604998
 21
1959.97309162076
  0
LINE
  5
3F
100
AcDbEntity
  8
1
  6
DOTTED
 62
           2
100
AcDbLine
 10
627.544238143459
 20
1728.97309162076
 11
665.505776604997
 21
1728.97309162076
  0
LINE
  5
3E
100
AcDbEntity
  8
1
  6
DOTTED
 62
           2
100
AcDbLine
 10
582.005776604998
 20
1724.97309162076
 11
665.505776604997
 21
1724.97309162076
  0
LINE
  5
3D
100
AcDbEntity
  8
1
  6
CONTINUOUS
 62
           7
100
AcDbLine
 10
757.341686454878
 20
1732.97309162076
 11
755.107751864375
 21
1732.97309162076
  0
LINE
  5
3C
100
AcDbEntity
  8
1
  6
CONTINUOUS
 62
           7
100
AcDbLine
 10
757.341686454878
 20
1732.97309162076
 11
757.341686454878
 21
1667.97309162076
  0
LINE
  5
3B
100
AcDbEntity
  8
1
  6
CONTINUOUS
 62
           7
100
AcDbLine
 10
630.005776604998
 20
1720.97309162076
 11
630.005776604998
 21
1667.97309162076
  0
LINE
  5
3A
100
AcDbEntity
  8
1
  6
CONTINUOUS
 62
           7
100
AcDbLine
 10
757.341686454878
 20
1720.97309162076
 11
580.005776604998
 21
1720.97309162076
  0
LINE
  5
39
100
AcDbEntity
  8
1
  6
CONTINUOUS
 62
           7
100
AcDbLine
 10
689.041027919004
 20
1720.97309162076
 11
689.041027919003
 21
1710.97309162076
  0
LINE
  5
38
100
AcDbEntity
  8
1
  6
CONTINUOUS
 62
           7
100
AcDbLine
 10
709.242322268187
 20
1710.97309162076
 11
709.242322268187
 21
1698.97309162076
  0
LINE
  5
37
100
AcDbEntity
  8
1
  6
CONTINUOUS
 62
           7
100
AcDbLine
 10
630.005776604998
 20
1698.97309162076
 11
732.341686454878
 21
1698.97309162076
  0
LINE
  5
36
100
AcDbEntity
  8
1
  6
CONTINUOUS
 62
           7
100
AcDbLine
 10
667.505776604997
 20
1732.97309162076
 11
667.505776604997
 21
1720.97309162076
  0
LINE
  5
35
100
AcDbEntity
  8
1
  6
CONTINUOUS
 62
           7
100
AcDbLine
 10
732.341686454878
 20
1667.97309162076
 11
732.341686454878
 21
1720.97309162076
  0
LINE
  5
34
100
AcDbEntity
  8
1
  6
CONTINUOUS
 62
           7
100
AcDbLine
 10
732.341686454878
 20
1687.97309162076
 11
757.341686454878
 21
1687.97309162076
  0
LINE
  5
33
100
AcDbEntity
  8
1
  6
CONTINUOUS
 62
           2
100
AcDbLine
 10
732.341686454878
 20
1677.97309162076
 11
757.341686454878
 21
1677.97309162076
  0
LINE
  5
32
100
AcDbEntity
  8
1
  6
CONTINUOUS
 62
           2
100
AcDbLine
 10
732.341686454878
 20
1697.97309162076
 11
757.341686454878
 21
1697.97309162076
  0
LINE
  5
31
100
AcDbEntity
  8
1
  6
DOTTED
 62
           2
100
AcDbLine
 10
669.505776604997
 20
1724.97309162076
 11
755.341686454878
 21
1724.97309162076
  0
LINE
  5
30
100
AcDbEntity
  8
1
  6
DOTTED
 62
           2
100
AcDbLine
 10
714.124933303308
 20
1728.97309162076
 11
755.341686454878
 21
1728.97309162076
  0
LINE
  5
2F
100
AcDbEntity
  8
1
  6
CONTINUOUS
 62
           7
100
AcDbLine
 10
580.005776604998
 20
1702.593545248774
 11
630.005776604998
 21
1702.593545248774
  0
LINE
  5
2E
100
AcDbEntity
  8
1
  6
CONTINUOUS
 62
           7
100
AcDbLine
 10
709.242322268187
 20
1720.97309162076
 11
709.242322268187
 21
1710.97309162076
  0
LINE
  5
2D
100
AcDbEntity
  8
1
  6
CONTINUOUS
 62
           7
100
AcDbLine
 10
732.341686454878
 20
1677.97309162076
 11
630.005776604998
 21
1677.97309162076
  0
LINE
  5
2C
100
AcDbEntity
  8
1
  6
DOTTED
 62
           2
100
AcDbLine
 10
730.143163874638
 20
1680.073091620759
 11
632.197849536638
 21
1680.073091620759
  0
LINE
  5
2B
100
AcDbEntity
  8
1
  6
DOTTED
 62
           2
100
AcDbLine
 10
632.304776735698
 20
1686.37309162076
 11
729.929309476519
 21
1686.37309162076
  0
LINE
  5
2A
100
AcDbEntity
  8
1
  6
DOTTED
 62
           2
100
AcDbLine
 10
632.304776735698
 20
1692.67309162076
 11
730.036236675579
 21
1692.67309162076
  0
ENDBLK
  5
9B
100
AcDbEntity
  8
0
100
AcDbBlockEnd
  0
BLOCK
  5
147
100
AcDbEntity
  8
0
100
AcDbBlockBegin
  2
*D1
 70
           1
 10
0.0
 20
0.0
 30
0.0
  3
*D1
  1

  0
LINE
  5
148
100
AcDbEntity
  8
0
  6
CONTINUOUS
 62
           2
100
AcDbLine
 10
651.30667838251
 20
1871.954334294797
 11
651.30667838251
 21
1880.954334294797
  0
LINE
  5
149
100
AcDbEntity
  8
0
  6
CONTINUOUS
 62
           2
100
AcDbLine
 10
646.212204731698
 20
1880.954334294797
 11
652.30667838251
 21
1880.954334294797
  0
LINE
  5
14A
100
AcDbEntity
  8
0
  6
CONTINUOUS
 62
           2
100
AcDbLine
 10
646.212204731698
 20
1871.954334294797
 11
652.30667838251
 21
1871.954334294797
  0
LINE
  5
14B
100
AcDbEntity
  8
0
 62
           2
100
AcDbLine
 10
651.30667838251
 20
1880.954334294797
 11
651.72796637479
 21
1877.754334294797
  0
LINE
  5
14C
100
AcDbEntity
  8
0
 62
           2
100
AcDbLine
 10
651.30667838251
 20
1880.954334294797
 11
650.88539039023
 21
1877.754334294797
  0
LINE
  5
14D
100
AcDbEntity
  8
0
 62
           2
100
AcDbLine
 10
651.72796637479
 20
1877.754334294797
 11
650.88539039023
 21
1877.754334294797
  0
LINE
  5
14E
100
AcDbEntity
  8
0
 62
           2
100
AcDbLine
 10
651.30667838251
 20
1871.954334294797
 11
650.88539039023
 21
1875.154334294797
  0
LINE
  5
14F
100
AcDbEntity
  8
0
 62
           2
100
AcDbLine
 10
651.30667838251
 20
1871.954334294797
 11
651.72796637479
 21
1875.154334294797
  0
LINE
  5
150
100
AcDbEntity
  8
0
 62
           2
100
AcDbLine
 10
650.88539039023
 20
1875.154334294797
 11
651.72796637479
 21
1875.154334294797
  0
MTEXT
  5
151
100
AcDbEntity
  8
0
 62
           7
100
AcDbMText
 10
650.10667838251
 20
1875.494334294797
 30
0.0
 40
3.2
 41
0.0
 71
           7
 72
           1
  1
9
  7
CONVERTER_1
 11
0.0
 21
1.0
 31
0.0
  0
ENDBLK
  5
152
100
AcDbEntity
  8
0
100
AcDbBlockEnd
  0
BLOCK
  5
158
100
AcDbEntity
  8
0
100
AcDbBlockBegin
  2
*D4
 70
           1
 10
0.0
 20
0.0
 30
0.0
  3
*D4
  1

  0
LINE
  5
159
100
AcDbEntity
  8
0
  6
CONTINUOUS
 62
           2
100
AcDbLine
 10
603.383334299945
 20
1876.454334294797
 11
603.383334299945
 21
1882.854334294797
  0
LINE
  5
15A
100
AcDbEntity
  8
0
  6
CONTINUOUS
 62
           2
100
AcDbLine
 10
603.383334299945
 20
1868.454334294797
 11
603.383334299945
 21
1862.054334294797
  0
LINE
  5
15B
100
AcDbEntity
  8
0
  6
CONTINUOUS
 62
           2
100
AcDbLine
 10
603.383334299945
 20
1868.454334294797
 11
603.383334299945
 21
1876.454334294797
  0
LINE
  5
15C
100
AcDbEntity
  8
0
  6
CONTINUOUS
 62
           2
100
AcDbLine
 10
622.281593803264
 20
1876.454334294797
 11
602.383334299945
 21
1876.454334294797
  0
LINE
  5
15D
100
AcDbEntity
  8
0
  6
CONTINUOUS
 62
           2
100
AcDbLine
 10
607.648079182263
 20
1868.454334294797
 11
602.383334299945
 21
1868.454334294797
  0
LINE
  5
15E
100
AcDbEntity
  8
0
 62
           2
100
AcDbLine
 10
603.383334299945
 20
1868.454334294797
 11
603.804622292225
 21
1865.254334294797
  0
LINE
  5
15F
100
AcDbEntity
  8
0
 62
           2
100
AcDbLine
 10
603.383334299945
 20
1868.454334294797
 11
602.962046307665
 21
1865.254334294797
  0
LINE
  5
160
100
AcDbEntity
  8
0
 62
           2
100
AcDbLine
 10
603.804622292225
 20
1865.254334294797
 11
602.962046307665
 21
1865.254334294797
  0
LINE
  5
161
100
AcDbEntity
  8
0
 62
           2
100
AcDbLine
 10
603.383334299945
 20
1876.454334294797
 11
602.962046307665
 21
1879.654334294797
  0
LINE
  5
162
100
AcDbEntity
  8
0
 62
           2
100
AcDbLine
 10
603.383334299945
 20
1876.454334294797
 11
603.804622292225
 21
1879.654334294797
  0
LINE
  5
163
100
AcDbEntity
  8
0
 62
           2
100
AcDbLine
 10
602.962046307665
 20
1879.654334294797
 11
603.804622292225
 21
1879.654334294797
  0
MTEXT
  5
164
100
AcDbEntity
  8
0
 62
           7
100
AcDbMText
 10
602.183334299945
 20
1871.494334294797
 30
0.0
 40
3.2
 41
0.0
 71
           7
 72
           1
  1
8
  7
CONVERTER_1
 11
0.0
 21
1.0
 31
0.0
  0
ENDBLK
  5
165
100
AcDbEntity
  8
0
100
AcDbBlockEnd
  0
BLOCK
  5
16B
100
AcDbEntity
  8
0
100
AcDbBlockBegin
  2
*D7
 70
           1
 10
0.0
 20
0.0
 30
0.0
  3
*D7
  1

  0
LINE
  5
16C
100
AcDbEntity
  8
0
  6
CONTINUOUS
 62
           2
100
AcDbLine
 10
645.212204731698
 20
1893.227463218318
 11
663.212204731698
 21
1893.227463218318
  0
LINE
  5
16D
100
AcDbEntity
  8
0
  6
CONTINUOUS
 62
           2
100
AcDbLine
 10
663.212204731698
 20
1881.954334294797
 11
663.212204731698
 21
1894.227463218318
  0
LINE
  5
16E
100
AcDbEntity
  8
0
  6
CONTINUOUS
 62
           2
100
AcDbLine
 10
645.212204731698
 20
1881.954334294797
 11
645.212204731698
 21
1894.227463218318
  0
LINE
  5
16F
100
AcDbEntity
  8
0
 62
           2
100
AcDbLine
 10
663.212204731698
 20
1893.227463218318
 11
660.012204731698
 21
1892.806175226038
  0
LINE
  5
170
100
AcDbEntity
  8
0
 62
           2
100
AcDbLine
 10
663.212204731698
 20
1893.227463218318
 11
660.012204731698
 21
1893.648751210598
  0
LINE
  5
171
100
AcDbEntity
  8
0
 62
           2
100
AcDbLine
 10
660.012204731698
 20
1892.806175226038
 11
660.012204731698
 21
1893.648751210598
  0
LINE
  5
172
100
AcDbEntity
  8
0
 62
           2
100
AcDbLine
 10
645.212204731698
 20
1893.227463218318
 11
648.412204731698
 21
1893.648751210598
  0
LINE
  5
173
100
AcDbEntity
  8
0
 62
           2
100
AcDbLine
 10
645.212204731698
 20
1893.227463218318
 11
648.412204731698
 21
1892.806175226038
  0
LINE
  5
174
100
AcDbEntity
  8
0
 62
           2
100
AcDbLine
 10
648.412204731698
 20
1893.648751210598
 11
648.412204731698
 21
1892.806175226038
  0
TEXT
  5
175
100
AcDbEntity
  8
0
 62
           7
100
AcDbText
 10
655.450105302041
 20
1894.427463218318
 40
3.2
  1
18
 41
0.9
  7
CONVERTER_1
100
AcDbText
  0
ENDBLK
  5
176
100
AcDbEntity
  8
0
100
AcDbBlockEnd
  0
BLOCK
  5
17C
100
AcDbEntity
  8
0
100
AcDbBlockBegin
  2
*D10
 70
           1
 10
0.0
 20
0.0
 30
0.0
  3
*D10
  1

  0
LINE
  5
17D
100
AcDbEntity
  8
0
  6
CONTINUOUS
 62
           2
100
AcDbLine
 10
604.364489433828
 20
1808.273280328096
 11
654.212204731698
 21
1808.273280328096
  0
LINE
  5
17E
100
AcDbEntity
  8
0
  6
CONTINUOUS
 62
           2
100
AcDbLine
 10
654.212204731698
 20
1803.37646909286
 11
654.212204731698
 21
1809.273280328096
  0
LINE
  5
17F
100
AcDbEntity
  8
0
  6
CONTINUOUS
 62
           2
100
AcDbLine
 10
604.364489433828
 20
1785.128852326838
 11
604.364489433828
 21
1790.419220631031
  0
LINE
  5
180
100
AcDbEntity
  8
0
  6
CONTINUOUS
 62
           2
100
AcDbLine
 10
604.364489433828
 20
1795.78299050749
 11
604.364489433828
 21
1795.861869476262
  0
LINE
  5
181
100
AcDbEntity
  8
0
  6
CONTINUOUS
 62
           2
100
AcDbLine
 10
604.364489433828
 20
1796.098506382576
 11
604.364489433828
 21
1809.273280328096
  0
LINE
  5
182
100
AcDbEntity
  8
0
 62
           2
100
AcDbLine
 10
654.212204731698
 20
1808.273280328096
 11
651.012204731698
 21
1807.851992335816
  0
LINE
  5
183
100
AcDbEntity
  8
0
 62
           2
100
AcDbLine
 10
654.212204731698
 20
1808.273280328096
 11
651.012204731698
 21
1808.694568320376
  0
LINE
  5
184
100
AcDbEntity
  8
0
 62
           2
100
AcDbLine
 10
651.012204731698
 20
1807.851992335816
 11
651.012204731698
 21
1808.694568320376
  0
LINE
  5
185
100
AcDbEntity
  8
0
 62
           2
100
AcDbLine
 10
604.364489433828
 20
1808.273280328096
 11
607.564489433828
 21
1808.694568320376
  0
LINE
  5
186
100
AcDbEntity
  8
0
 62
           2
100
AcDbLine
 10
604.364489433828
 20
1808.273280328096
 11
607.564489433828
 21
1807.851992335816
  0
LINE
  5
187
100
AcDbEntity
  8
0
 62
           2
100
AcDbLine
 10
607.564489433828
 20
1808.694568320376
 11
607.564489433828
 21
1807.851992335816
  0
TEXT
  5
188
100
AcDbEntity
  8
0
 62
           7
100
AcDbText
 10
623.448347082763
 20
1809.793280328096
 40
3.2
  1
49,85
 41
0.9
  7
CONVERTER_1
100
AcDbText
  0
ENDBLK
  5
189
100
AcDbEntity
  8
0
100
AcDbBlockEnd
  0
BLOCK
  5
18F
100
AcDbEntity
  8
0
100
AcDbBlockBegin
  2
*D13
 70
           1
 10
0.0
 20
0.0
 30
0.0
  3
*D13
  1

  0
LINE
  5
190
100
AcDbEntity
  8
0
  6
CONTINUOUS
 62
           2
100
AcDbLine
 10
654.212204731698
 20
1808.712722280968
 11
704.059920029568
 21
1808.712722280968
  0
LINE
  5
191
100
AcDbEntity
  8
0
  6
CONTINUOUS
 62
           2
100
AcDbLine
 10
704.059920029568
 20
1785.128852326838
 11
704.059920029568
 21
1809.712722280968
  0
LINE
  5
192
100
AcDbEntity
  8
0
  6
CONTINUOUS
 62
           2
100
AcDbLine
 10
654.212204731698
 20
1803.376469092859
 11
654.212204731698
 21
1809.712722280968
  0
LINE
  5
193
100
AcDbEntity
  8
0
 62
           2
100
AcDbLine
 10
704.059920029568
 20
1808.712722280968
 11
700.859920029568
 21
1808.291434288688
  0
LINE
  5
194
100
AcDbEntity
  8
0
 62
           2
100
AcDbLine
 10
704.059920029568
 20
1808.712722280968
 11
700.859920029568
 21
1809.134010273248
  0
LINE
  5
195
100
AcDbEntity
  8
0
 62
           2
100
AcDbLine
 10
700.859920029568
 20
1808.291434288688
 11
700.859920029568
 21
1809.134010273248
  0
LINE
  5
196
100
AcDbEntity
  8
0
 62
           2
100
AcDbLine
 10
654.212204731698
 20
1808.712722280968
 11
657.412204731698
 21
1809.134010273248
  0
LINE
  5
197
100
AcDbEntity
  8
0
 62
           2
100
AcDbLine
 10
654.212204731698
 20
1808.712722280968
 11
657.412204731698
 21
1808.291434288688
  0
LINE
  5
198
100
AcDbEntity
  8
0
 62
           2
100
AcDbLine
 10
657.412204731698
 20
1809.134010273248
 11
657.412204731698
 21
1808.291434288688
  0
TEXT
  5
199
100
AcDbEntity
  8
0
 62
           7
100
AcDbText
 10
676.578476537793
 20
1810.232722280968
 40
3.2
  1
49,85
 41
0.9
  7
CONVERTER_1
100
AcDbText
  0
ENDBLK
  5
19A
100
AcDbEntity
  8
0
100
AcDbBlockEnd
  0
BLOCK
  5
1A0
100
AcDbEntity
  8
0
100
AcDbBlockBegin
  2
*D16
 70
           1
 10
0.0
 20
0.0
 30
0.0
  3
*D16
  1

  0
LINE
  5
1A1
100
AcDbEntity
  8
0
  6
CONTINUOUS
 62
           2
100
AcDbLine
 10
717.421811516114
 20
1845.404334294797
 11
717.421811516114
 21
1851.804334294797
  0
LINE
  5
1A2
100
AcDbEntity
  8
0
  6
CONTINUOUS
 62
           2
100
AcDbLine
 10
717.421811516114
 20
1851.804334294797
 11
717.421811516114
 21
1854.304334294797
  0
LINE
  5
1A3
100
AcDbEntity
  8
0
  6
CONTINUOUS
 62
           2
100
AcDbLine
 10
717.421811516114
 20
1854.304334294797
 11
717.421811516114
 21
1863.107509035045
  0
LINE
  5
1A4
100
AcDbEntity
  8
0
  6
CONTINUOUS
 62
           2
100
AcDbLine
 10
692.212204731698
 20
1851.804334294797
 11
718.421811516114
 21
1851.804334294797
  0
LINE
  5
1A5
100
AcDbEntity
  8
0
  6
CONTINUOUS
 62
           2
100
AcDbLine
 10
687.712204731698
 20
1854.304334294797
 11
718.421811516114
 21
1854.304334294797
  0
LINE
  5
1A6
100
AcDbEntity
  8
0
 62
           2
100
AcDbLine
 10
717.421811516114
 20
1854.304334294797
 11
717.000523523834
 21
1857.504334294797
  0
LINE
  5
1A7
100
AcDbEntity
  8
0
 62
           2
100
AcDbLine
 10
717.421811516114
 20
1854.304334294797
 11
717.843099508394
 21
1857.504334294797
  0
LINE
  5
1A8
100
AcDbEntity
  8
0
 62
           2
100
AcDbLine
 10
717.000523523834
 20
1857.504334294797
 11
717.843099508394
 21
1857.504334294797
  0
LINE
  5
1A9
100
AcDbEntity
  8
0
 62
           2
100
AcDbLine
 10
717.421811516114
 20
1851.804334294797
 11
717.843099508394
 21
1848.604334294797
  0
LINE
  5
1AA
100
AcDbEntity
  8
0
 62
           2
100
AcDbLine
 10
717.421811516114
 20
1851.804334294797
 11
717.000523523834
 21
1848.604334294797
  0
LINE
  5
1AB
100
AcDbEntity
  8
0
 62
           2
100
AcDbLine
 10
717.843099508394
 20
1848.604334294797
 11
717.000523523834
 21
1848.604334294797
  0
MTEXT
  5
1AC
100
AcDbEntity
  8
0
 62
           7
100
AcDbMText
 10
715.901811516114
 20
1857.187509035045
 30
0.0
 40
3.2
 41
0.0
 71
           7
 72
           1
  1
2,5
  7
CONVERTER_1
 11
0.0
 21
1.0
 31
0.0
  0
ENDBLK
  5
1AD
100
AcDbEntity
  8
0
100
AcDbBlockEnd
  0
BLOCK
  5
1B3
100
AcDbEntity
  8
0
100
AcDbBlockBegin
  2
*D19
 70
           1
 10
0.0
 20
0.0
 30
0.0
  3
*D19
  1

  0
LINE
  5
1B4
100
AcDbEntity
  8
0
  6
CONTINUOUS
 62
           2
100
AcDbLine
 10
717.167593192687
 20
1891.504334294797
 11
717.167593192687
 21
1885.104334294797
  0
LINE
  5
1B5
100
AcDbEntity
  8
0
  6
CONTINUOUS
 62
           2
100
AcDbLine
 10
717.167593192687
 20
1882.604334294797
 11
717.167593192687
 21
1885.104334294797
  0
LINE
  5
1B6
100
AcDbEntity
  8
0
  6
CONTINUOUS
 62
           2
100
AcDbLine
 10
717.167593192687
 20
1882.604334294797
 11
717.167593192687
 21
1874.551645456528
  0
LINE
  5
1B7
100
AcDbEntity
  8
0
  6
CONTINUOUS
 62
           2
100
AcDbLine
 10
687.712204731698
 20
1882.604334294797
 11
718.167593192687
 21
1882.604334294797
  0
LINE
  5
1B8
100
AcDbEntity
  8
0
  6
CONTINUOUS
 62
           2
100
AcDbLine
 10
692.212204731698
 20
1885.104334294797
 11
718.167593192687
 21
1885.104334294797
  0
LINE
  5
1B9
100
AcDbEntity
  8
0
 62
           2
100
AcDbLine
 10
717.167593192687
 20
1885.104334294797
 11
716.746305200407
 21
1888.304334294797
  0
LINE
  5
1BA
100
AcDbEntity
  8
0
 62
           2
100
AcDbLine
 10
717.167593192687
 20
1885.104334294797
 11
717.588881184967
 21
1888.304334294797
  0
LINE
  5
1BB
100
AcDbEntity
  8
0
 62
           2
100
AcDbLine
 10
716.746305200407
 20
1888.304334294797
 11
717.588881184967
 21
1888.304334294797
  0
LINE
  5
1BC
100
AcDbEntity
  8
0
 62
           2
100
AcDbLine
 10
717.167593192687
 20
1882.604334294797
 11
717.588881184967
 21
1879.404334294797
  0
LINE
  5
1BD
100
AcDbEntity
  8
0
 62
           2
100
AcDbLine
 10
717.167593192687
 20
1882.604334294797
 11
716.746305200407
 21
1879.404334294797
  0
LINE
  5
1BE
100
AcDbEntity
  8
0
 62
           2
100
AcDbLine
 10
717.588881184967
 20
1879.404334294797
 11
716.746305200407
 21
1879.404334294797
  0
MTEXT
  5
1BF
100
AcDbEntity
  8
0
 62
           7
100
AcDbMText
 10
715.647593192687
 20
1874.551645456528
 30
0.0
 40
3.2
 41
0.0
 71
           7
 72
           1
  1
2,5
  7
CONVERTER_1
 11
0.0
 21
1.0
 31
0.0
  0
ENDBLK
  5
1C0
100
AcDbEntity
  8
0
100
AcDbBlockEnd
  0
BLOCK
  5
1C6
100
AcDbEntity
  8
0
100
AcDbBlockBegin
  2
*D22
 70
           1
 10
0.0
 20
0.0
 30
0.0
  3
*D22
  1

  0
LINE
  5
1C7
100
AcDbEntity
  8
0
  6
CONTINUOUS
 62
           2
100
AcDbLine
 10
654.212204731698
 20
1921.157942905758
 11
709.059920029568
 21
1921.157942905758
  0
LINE
  5
1C8
100
AcDbEntity
  8
0
  6
CONTINUOUS
 62
           2
100
AcDbLine
 10
654.212204731698
 20
1892.43278571115
 11
654.212204731698
 21
1922.157942905758
  0
LINE
  5
1C9
100
AcDbEntity
  8
0
  6
CONTINUOUS
 62
           2
100
AcDbLine
 10
709.059920029568
 20
1890.354334294797
 11
709.059920029568
 21
1922.157942905758
  0
LINE
  5
1CA
100
AcDbEntity
  8
0
 62
           2
100
AcDbLine
 10
654.212204731698
 20
1921.157942905758
 11
657.412204731698
 21
1921.579230898038
  0
LINE
  5
1CB
100
AcDbEntity
  8
0
 62
           2
100
AcDbLine
 10
654.212204731698
 20
1921.157942905758
 11
657.412204731698
 21
1920.736654913478
  0
LINE
  5
1CC
100
AcDbEntity
  8
0
 62
           2
100
AcDbLine
 10
657.412204731698
 20
1921.579230898038
 11
657.412204731698
 21
1920.736654913478
  0
LINE
  5
1CD
100
AcDbEntity
  8
0
 62
           2
100
AcDbLine
 10
709.059920029568
 20
1921.157942905758
 11
705.859920029568
 21
1920.736654913478
  0
LINE
  5
1CE
100
AcDbEntity
  8
0
 62
           2
100
AcDbLine
 10
709.059920029568
 20
1921.157942905758
 11
705.859920029568
 21
1921.579230898038
  0
LINE
  5
1CF
100
AcDbEntity
  8
0
 62
           2
100
AcDbLine
 10
705.859920029568
 20
1920.736654913478
 11
705.859920029568
 21
1921.579230898038
  0
TEXT
  5
1D0
100
AcDbEntity
  8
0
 62
           7
100
AcDbText
 10
675.796062380633
 20
1922.677942905758
 40
3.2
  1
54,85
 41
0.9
  7
CONVERTER_1
100
AcDbText
  0
ENDBLK
  5
1D1
100
AcDbEntity
  8
0
100
AcDbBlockEnd
  0
BLOCK
  5
1D7
100
AcDbEntity
  8
0
100
AcDbBlockBegin
  2
*D25
 70
           1
 10
0.0
 20
0.0
 30
0.0
  3
*D25
  1

  0
LINE
  5
1D8
100
AcDbEntity
  8
0
  6
CONTINUOUS
 62
           2
100
AcDbLine
 10
606.064489433829
 20
1921.013014017338
 11
654.212204731698
 21
1921.013014017338
  0
LINE
  5
1D9
100
AcDbEntity
  8
0
  6
CONTINUOUS
 62
           2
100
AcDbLine
 10
606.064489433829
 20
1890.354334294797
 11
606.064489433829
 21
1922.013014017338
  0
LINE
  5
1DA
100
AcDbEntity
  8
0
  6
CONTINUOUS
 62
           2
100
AcDbLine
 10
654.212204731698
 20
1892.43278571115
 11
654.212204731698
 21
1922.013014017338
  0
LINE
  5
1DB
100
AcDbEntity
  8
0
 62
           2
100
AcDbLine
 10
606.064489433829
 20
1921.013014017338
 11
609.264489433829
 21
1921.434302009618
  0
LINE
  5
1DC
100
AcDbEntity
  8
0
 62
           2
100
AcDbLine
 10
606.064489433829
 20
1921.013014017338
 11
609.264489433829
 21
1920.591726025058
  0
LINE
  5
1DD
100
AcDbEntity
  8
0
 62
           2
100
AcDbLine
 10
609.264489433829
 20
1921.434302009618
 11
609.264489433829
 21
1920.591726025058
  0
LINE
  5
1DE
100
AcDbEntity
  8
0
 62
           2
100
AcDbLine
 10
654.212204731698
 20
1921.013014017338
 11
651.012204731698
 21
1920.591726025058
  0
LINE
  5
1DF
100
AcDbEntity
  8
0
 62
           2
100
AcDbLine
 10
654.212204731698
 20
1921.013014017338
 11
651.012204731698
 21
1921.434302009618
  0
LINE
  5
1E0
100
AcDbEntity
  8
0
 62
           2
100
AcDbLine
 10
651.012204731698
 20
1920.591726025058
 11
651.012204731698
 21
1921.434302009618
  0
TEXT
  5
1E1
100
AcDbEntity
  8
0
 62
           7
100
AcDbText
 10
624.778347082764
 20
1922.533014017338
 40
3.2
  1
48,15
 41
0.9
  7
CONVERTER_1
100
AcDbText
  0
ENDBLK
  5
1E2
100
AcDbEntity
  8
0
100
AcDbBlockEnd
  0
BLOCK
  5
1E8
100
AcDbEntity
  8
0
100
AcDbBlockBegin
  2
*D28
 70
           1
 10
0.0
 20
0.0
 30
0.0
  3
*D28
  1

  0
LINE
  5
1E9
100
AcDbEntity
  8
0
  6
CONTINUOUS
 62
           2
100
AcDbLine
 10
617.212204731698
 20
1910.883062939298
 11
654.212204731698
 21
1910.883062939298
  0
LINE
  5
1EA
100
AcDbEntity
  8
0
  6
CONTINUOUS
 62
           2
100
AcDbLine
 10
617.212204731698
 20
1886.104334294797
 11
617.212204731698
 21
1911.883062939298
  0
LINE
  5
1EB
100
AcDbEntity
  8
0
  6
CONTINUOUS
 62
           2
100
AcDbLine
 10
654.212204731698
 20
1892.43278571115
 11
654.212204731698
 21
1911.883062939298
  0
LINE
  5
1EC
100
AcDbEntity
  8
0
 62
           2
100
AcDbLine
 10
654.212204731698
 20
1910.883062939298
 11
651.012204731698
 21
1910.461774947018
  0
LINE
  5
1ED
100
AcDbEntity
  8
0
 62
           2
100
AcDbLine
 10
654.212204731698
 20
1910.883062939298
 11
651.012204731698
 21
1911.304350931578
  0
LINE
  5
1EE
100
AcDbEntity
  8
0
 62
           2
100
AcDbLine
 10
651.012204731698
 20
1910.461774947018
 11
651.012204731698
 21
1911.304350931578
  0
LINE
  5
1EF
100
AcDbEntity
  8
0
 62
           2
100
AcDbLine
 10
617.212204731698
 20
1910.883062939298
 11
620.412204731698
 21
1911.304350931578
  0
LINE
  5
1F0
100
AcDbEntity
  8
0
 62
           2
100
AcDbLine
 10
617.212204731698
 20
1910.883062939298
 11
620.412204731698
 21
1910.461774947018
  0
LINE
  5
1F1
100
AcDbEntity
  8
0
 62
           2
100
AcDbLine
 10
620.412204731698
 20
1911.304350931578
 11
620.412204731698
 21
1910.461774947018
  0
TEXT
  5
1F2
100
AcDbEntity
  8
0
 62
           7
100
AcDbText
 10
633.312204731698
 20
1912.083062939298
 40
3.2
  1
37
 41
0.9
  7
CONVERTER_1
100
AcDbText
  0
ENDBLK
  5
1F3
100
AcDbEntity
  8
0
100
AcDbBlockEnd
  0
BLOCK
  5
1F9
100
AcDbEntity
  8
0
100
AcDbBlockBegin
  2
*D31
 70
           1
 10
0.0
 20
0.0
 30
0.0
  3
*D31
  1

  0
LINE
  5
1FA
100
AcDbEntity
  8
0
  6
CONTINUOUS
 62
           2
100
AcDbLine
 10
654.212204731698
 20
1910.883062939298
 11
691.212204731698
 21
1910.883062939298
  0
LINE
  5
1FB
100
AcDbEntity
  8
0
  6
CONTINUOUS
 62
           2
100
AcDbLine
 10
691.212204731698
 20
1886.104334294797
 11
691.212204731698
 21
1911.883062939298
  0
LINE
  5
1FC
100
AcDbEntity
  8
0
  6
CONTINUOUS
 62
           2
100
AcDbLine
 10
654.212204731698
 20
1892.43278571115
 11
654.212204731698
 21
1911.883062939298
  0
LINE
  5
1FD
100
AcDbEntity
  8
0
 62
           2
100
AcDbLine
 10
691.212204731698
 20
1910.883062939298
 11
688.012204731698
 21
1910.461774947018
  0
LINE
  5
1FE
100
AcDbEntity
  8
0
 62
           2
100
AcDbLine
 10
691.212204731698
 20
1910.883062939298
 11
688.012204731698
 21
1911.304350931578
  0
LINE
  5
1FF
100
AcDbEntity
  8
0
 62
           2
100
AcDbLine
 10
688.012204731698
 20
1910.461774947018
 11
688.012204731698
 21
1911.304350931578
  0
LINE
  5
200
100
AcDbEntity
  8
0
 62
           2
100
AcDbLine
 10
654.212204731698
 20
1910.883062939298
 11
657.412204731698
 21
1911.304350931578
  0
LINE
  5
201
100
AcDbEntity
  8
0
 62
           2
100
AcDbLine
 10
654.212204731698
 20
1910.883062939298
 11
657.412204731698
 21
1910.461774947018
  0
LINE
  5
202
100
AcDbEntity
  8
0
 62
           2
100
AcDbLine
 10
657.412204731698
 20
1911.304350931578
 11
657.412204731698
 21
1910.461774947018
  0
TEXT
  5
203
100
AcDbEntity
  8
0
 62
           7
100
AcDbText
 10
670.312204731698
 20
1912.083062939298
 40
3.2
  1
37
 41
0.9
  7
CONVERTER_1
100
AcDbText
  0
ENDBLK
  5
204
100
AcDbEntity
  8
0
100
AcDbBlockEnd
  0
BLOCK
  5
20A
100
AcDbEntity
  8
0
100
AcDbBlockBegin
  2
*D34
 70
           1
 10
0.0
 20
0.0
 30
0.0
  3
*D34
  1

  0
LINE
  5
20B
100
AcDbEntity
  8
0
  6
CONTINUOUS
 62
           2
100
AcDbLine
 10
623.962204731611
 20
1900.722969638098
 11
654.212204731698
 21
1900.722969638098
  0
LINE
  5
20C
100
AcDbEntity
  8
0
  6
CONTINUOUS
 62
           2
100
AcDbLine
 10
623.962204731611
 20
1892.127503228392
 11
623.962204731611
 21
1901.722969638098
  0
LINE
  5
20D
100
AcDbEntity
  8
0
  6
CONTINUOUS
 62
           2
100
AcDbLine
 10
654.212204731698
 20
1892.43278571115
 11
654.212204731698
 21
1901.722969638098
  0
LINE
  5
20E
100
AcDbEntity
  8
0
 62
           2
100
AcDbLine
 10
654.212204731698
 20
1900.722969638098
 11
651.012204731698
 21
1900.301681645818
  0
LINE
  5
20F
100
AcDbEntity
  8
0
 62
           2
100
AcDbLine
 10
654.212204731698
 20
1900.722969638098
 11
651.012204731698
 21
1901.144257630378
  0
LINE
  5
210
100
AcDbEntity
  8
0
 62
           2
100
AcDbLine
 10
651.012204731698
 20
1900.301681645818
 11
651.012204731698
 21
1901.144257630378
  0
LINE
  5
211
100
AcDbEntity
  8
0
 62
           2
100
AcDbLine
 10
623.962204731611
 20
1900.722969638098
 11
627.162204731611
 21
1901.144257630378
  0
LINE
  5
212
100
AcDbEntity
  8
0
 62
           2
100
AcDbLine
 10
623.962204731611
 20
1900.722969638098
 11
627.162204731611
 21
1900.301681645818
  0
LINE
  5
213
100
AcDbEntity
  8
0
 62
           2
100
AcDbLine
 10
627.162204731611
 20
1901.144257630378
 11
627.162204731611
 21
1900.301681645818
  0
TEXT
  5
214
100
AcDbEntity
  8
0
 62
           7
100
AcDbText
 10
633.247204731654
 20
1902.242969638098
 40
3.2
  1
30,25
 41
0.9
  7
CONVERTER_1
100
AcDbText
  0
ENDBLK
  5
215
100
AcDbEntity
  8
0
100
AcDbBlockEnd
  0
BLOCK
  5
21B
100
AcDbEntity
  8
0
100
AcDbBlockBegin
  2
*D37
 70
           1
 10
0.0
 20
0.0
 30
0.0
  3
*D37
  1

  0
LINE
  5
21C
100
AcDbEntity
  8
0
  6
CONTINUOUS
 62
           2
100
AcDbLine
 10
654.212204731698
 20
1900.722969638098
 11
684.462204731785
 21
1900.722969638098
  0
LINE
  5
21D
100
AcDbEntity
  8
0
  6
CONTINUOUS
 62
           2
100
AcDbLine
 10
654.212204731698
 20
1892.43278571115
 11
654.212204731698
 21
1901.722969638098
  0
LINE
  5
21E
100
AcDbEntity
  8
0
  6
CONTINUOUS
 62
           2
100
AcDbLine
 10
684.462204731785
 20
1892.127503228392
 11
684.462204731785
 21
1901.722969638098
  0
LINE
  5
21F
100
AcDbEntity
  8
0
 62
           2
100
AcDbLine
 10
684.462204731785
 20
1900.722969638098
 11
681.262204731785
 21
1900.301681645818
  0
LINE
  5
220
100
AcDbEntity
  8
0
 62
           2
100
AcDbLine
 10
684.462204731785
 20
1900.722969638098
 11
681.262204731785
 21
1901.144257630378
  0
LINE
  5
221
100
AcDbEntity
  8
0
 62
           2
100
AcDbLine
 10
681.262204731785
 20
1900.301681645818
 11
681.262204731785
 21
1901.144257630378
  0
LINE
  5
222
100
AcDbEntity
  8
0
 62
           2
100
AcDbLine
 10
654.212204731698
 20
1900.722969638098
 11
657.412204731698
 21
1901.144257630378
  0
LINE
  5
223
100
AcDbEntity
  8
0
 62
           2
100
AcDbLine
 10
654.212204731698
 20
1900.722969638098
 11
657.412204731698
 21
1900.301681645818
  0
LINE
  5
224
100
AcDbEntity
  8
0
 62
           2
100
AcDbLine
 10
657.412204731698
 20
1901.144257630378
 11
657.412204731698
 21
1900.301681645818
  0
TEXT
  5
225
100
AcDbEntity
  8
0
 62
           7
100
AcDbText
 10
663.497204731741
 20
1902.242969638098
 40
3.2
  1
30,25
 41
0.9
  7
CONVERTER_1
100
AcDbText
  0
ENDBLK
  5
226
100
AcDbEntity
  8
0
100
AcDbBlockEnd
  0
BLOCK
  5
22C
100
AcDbEntity
  8
0
100
AcDbBlockBegin
  2
*D40
 70
           1
 10
0.0
 20
0.0
 30
0.0
  3
*D40
  1

  0
LINE
  5
22D
100
AcDbEntity
  8
0
  6
CONTINUOUS
 62
           2
100
AcDbLine
 10
597.620943583023
 20
1878.704334294797
 11
597.620943583023
 21
1885.104334294797
  0
LINE
  5
22E
100
AcDbEntity
  8
0
  6
CONTINUOUS
 62
           2
100
AcDbLine
 10
597.620943583023
 20
1885.104334294797
 11
597.620943583023
 21
1889.354334294797
  0
LINE
  5
22F
100
AcDbEntity
  8
0
  6
CONTINUOUS
 62
           2
100
AcDbLine
 10
597.620943583023
 20
1889.354334294797
 11
597.620943583023
 21
1899.873107351918
  0
LINE
  5
230
100
AcDbEntity
  8
0
  6
CONTINUOUS
 62
           2
100
AcDbLine
 10
616.212204731698
 20
1885.104334294797
 11
596.620943583023
 21
1885.104334294797
  0
LINE
  5
231
100
AcDbEntity
  8
0
  6
CONTINUOUS
 62
           2
100
AcDbLine
 10
605.064489433829
 20
1889.354334294797
 11
596.620943583023
 21
1889.354334294797
  0
LINE
  5
232
100
AcDbEntity
  8
0
 62
           2
100
AcDbLine
 10
597.620943583023
 20
1885.104334294797
 11
598.042231575303
 21
1881.904334294797
  0
LINE
  5
233
100
AcDbEntity
  8
0
 62
           2
100
AcDbLine
 10
597.620943583023
 20
1885.104334294797
 11
597.199655590743
 21
1881.904334294797
  0
LINE
  5
234
100
AcDbEntity
  8
0
 62
           2
100
AcDbLine
 10
598.042231575303
 20
1881.904334294797
 11
597.199655590743
 21
1881.904334294797
  0
LINE
  5
235
100
AcDbEntity
  8
0
 62
           2
100
AcDbLine
 10
597.620943583023
 20
1889.354334294797
 11
597.199655590743
 21
1892.554334294797
  0
LINE
  5
236
100
AcDbEntity
  8
0
 62
           2
100
AcDbLine
 10
597.620943583023
 20
1889.354334294797
 11
598.042231575303
 21
1892.554334294797
  0
LINE
  5
237
100
AcDbEntity
  8
0
 62
           2
100
AcDbLine
 10
597.199655590743
 20
1892.554334294797
 11
598.042231575303
 21
1892.554334294797
  0
MTEXT
  5
238
100
AcDbEntity
  8
0
 62
           7
100
AcDbMText
 10
596.100943583023
 20
1891.073107351918
 30
0.0
 40
3.2
 41
0.0
 71
           7
 72
           1
  1
4,25
  7
CONVERTER_1
 11
0.0
 21
1.0
 31
0.0
  0
ENDBLK
  5
239
100
AcDbEntity
  8
0
100
AcDbBlockEnd
  0
BLOCK
  5
23F
100
AcDbEntity
  8
0
100
AcDbBlockBegin
  2
*D43
 70
           1
 10
0.0
 20
0.0
 30
0.0
  3
*D43
  1

  0
LINE
  5
240
100
AcDbEntity
  8
0
  6
CONTINUOUS
 62
           2
100
AcDbLine
 10
597.617429831812
 20
1851.804334294797
 11
597.617429831812
 21
1885.104334294797
  0
LINE
  5
241
100
AcDbEntity
  8
0
  6
CONTINUOUS
 62
           2
100
AcDbLine
 10
616.212204731698
 20
1851.804334294797
 11
596.617429831812
 21
1851.804334294797
  0
LINE
  5
242
100
AcDbEntity
  8
0
  6
CONTINUOUS
 62
           2
100
AcDbLine
 10
616.212204731698
 20
1885.104334294797
 11
596.617429831812
 21
1885.104334294797
  0
LINE
  5
243
100
AcDbEntity
  8
0
 62
           2
100
AcDbLine
 10
597.617429831812
 20
1885.104334294797
 11
598.038717824092
 21
1881.904334294797
  0
LINE
  5
244
100
AcDbEntity
  8
0
 62
           2
100
AcDbLine
 10
597.617429831812
 20
1885.104334294797
 11
597.196141839532
 21
1881.904334294797
  0
LINE
  5
245
100
AcDbEntity
  8
0
 62
           2
100
AcDbLine
 10
598.038717824092
 20
1881.904334294797
 11
597.196141839532
 21
1881.904334294797
  0
LINE
  5
246
100
AcDbEntity
  8
0
 62
           2
100
AcDbLine
 10
597.617429831812
 20
1851.804334294797
 11
597.196141839532
 21
1855.004334294797
  0
LINE
  5
247
100
AcDbEntity
  8
0
 62
           2
100
AcDbLine
 10
597.617429831812
 20
1851.804334294797
 11
598.038717824092
 21
1855.004334294797
  0
LINE
  5
248
100
AcDbEntity
  8
0
 62
           2
100
AcDbLine
 10
597.196141839532
 20
1855.004334294797
 11
598.038717824092
 21
1855.004334294797
  0
MTEXT
  5
249
100
AcDbEntity
  8
0
 62
           7
100
AcDbMText
 10
596.097429831812
 20
1864.054334294797
 30
0.0
 40
3.2
 41
0.0
 71
           7
 72
           1
  1
33,3
  7
CONVERTER_1
 11
0.0
 21
1.0
 31
0.0
  0
ENDBLK
  5
24A
100
AcDbEntity
  8
0
100
AcDbBlockEnd
  0
BLOCK
  5
250
100
AcDbEntity
  8
0
100
AcDbBlockBegin
  2
*D46
 70
           1
 10
0.0
 20
0.0
 30
0.0
  3
*D46
  1

  0
LINE
  5
251
100
AcDbEntity
  8
0
  6
CONTINUOUS
 62
           2
100
AcDbLine
 10
606.064489433829
 20
1931.202257321588
 11
709.059920029568
 21
1931.202257321588
  0
LINE
  5
252
100
AcDbEntity
  8
0
  6
CONTINUOUS
 62
           2
100
AcDbLine
 10
606.064489433829
 20
1890.354334294797
 11
606.064489433829
 21
1932.202257321588
  0
LINE
  5
253
100
AcDbEntity
  8
0
  6
CONTINUOUS
 62
           2
100
AcDbLine
 10
709.059920029568
 20
1890.354334294797
 11
709.059920029568
 21
1932.202257321588
  0
LINE
  5
254
100
AcDbEntity
  8
0
 62
           2
100
AcDbLine
 10
606.064489433829
 20
1931.202257321588
 11
609.264489433829
 21
1931.623545313868
  0
LINE
  5
255
100
AcDbEntity
  8
0
 62
           2
100
AcDbLine
 10
606.064489433829
 20
1931.202257321588
 11
609.264489433829
 21
1930.780969329308
  0
LINE
  5
256
100
AcDbEntity
  8
0
 62
           2
100
AcDbLine
 10
609.264489433829
 20
1931.623545313868
 11
609.264489433829
 21
1930.780969329308
  0
LINE
  5
257
100
AcDbEntity
  8
0
 62
           2
100
AcDbLine
 10
709.059920029568
 20
1931.202257321588
 11
705.859920029568
 21
1930.780969329308
  0
LINE
  5
258
100
AcDbEntity
  8
0
 62
           2
100
AcDbLine
 10
709.059920029568
 20
1931.202257321588
 11
705.859920029568
 21
1931.623545313868
  0
LINE
  5
259
100
AcDbEntity
  8
0
 62
           2
100
AcDbLine
 10
705.859920029568
 20
1930.780969329308
 11
705.859920029568
 21
1931.623545313868
  0
TEXT
  5
25A
100
AcDbEntity
  8
0
 62
           7
100
AcDbText
 10
654.202204731698
 20
1932.402257321588
 40
3.2
  1
103
 41
0.9
  7
CONVERTER_1
100
AcDbText
  0
ENDBLK
  5
25B
100
AcDbEntity
  8
0
100
AcDbBlockEnd
  0
BLOCK
  5
261
100
AcDbEntity
  8
0
100
AcDbBlockBegin
  2
*D49
 70
           1
 10
0.0
 20
0.0
 30
0.0
  3
*D49
  1

  0
LINE
  5
262
100
AcDbEntity
  8
0
  6
CONTINUOUS
 62
           2
100
AcDbLine
 10
587.605823660531
 20
1847.554334294797
 11
587.605823660531
 21
1889.354334294797
  0
LINE
  5
263
100
AcDbEntity
  8
0
  6
CONTINUOUS
 62
           2
100
AcDbLine
 10
605.064489433828
 20
1847.554334294797
 11
586.605823660531
 21
1847.554334294797
  0
LINE
  5
264
100
AcDbEntity
  8
0
  6
CONTINUOUS
 62
           2
100
AcDbLine
 10
605.064489433829
 20
1889.354334294797
 11
586.605823660531
 21
1889.354334294797
  0
LINE
  5
265
100
AcDbEntity
  8
0
 62
           2
100
AcDbLine
 10
587.605823660531
 20
1889.354334294797
 11
588.027111652811
 21
1886.154334294797
  0
LINE
  5
266
100
AcDbEntity
  8
0
 62
           2
100
AcDbLine
 10
587.605823660531
 20
1889.354334294797
 11
587.184535668251
 21
1886.154334294797
  0
LINE
  5
267
100
AcDbEntity
  8
0
 62
           2
100
AcDbLine
 10
588.027111652811
 20
1886.154334294797
 11
587.184535668251
 21
1886.154334294797
  0
LINE
  5
268
100
AcDbEntity
  8
0
 62
           2
100
AcDbLine
 10
587.605823660531
 20
1847.554334294797
 11
587.184535668251
 21
1850.754334294797
  0
LINE
  5
269
100
AcDbEntity
  8
0
 62
           2
100
AcDbLine
 10
587.605823660531
 20
1847.554334294797
 11
588.027111652811
 21
1850.754334294797
  0
LINE
  5
26A
100
AcDbEntity
  8
0
 62
           2
100
AcDbLine
 10
587.184535668251
 20
1850.754334294797
 11
588.027111652811
 21
1850.754334294797
  0
MTEXT
  5
26B
100
AcDbEntity
  8
0
 62
           7
100
AcDbMText
 10
586.085823660531
 20
1864.534334294797
 30
0.0
 40
3.2
 41
0.0
 71
           7
 72
           1
  1
41,8
  7
CONVERTER_1
 11
0.0
 21
1.0
 31
0.0
  0
ENDBLK
  5
26C
100
AcDbEntity
  8
0
100
AcDbBlockEnd
  0
BLOCK
  5
272
100
AcDbEntity
  8
0
100
AcDbBlockBegin
  2
*D52
 70
           1
 10
0.0
 20
0.0
 30
0.0
  3
*D52
  1

  0
LINE
  5
273
100
AcDbEntity
  8
0
  6
CONTINUOUS
 62
           2
100
AcDbLine
 10
654.212204731698
 20
1834.599165996815
 11
668.212204731698
 21
1834.599165996815
  0
LINE
  5
274
100
AcDbEntity
  8
0
  6
CONTINUOUS
 62
           2
100
AcDbLine
 10
654.212204731698
 20
1844.63278571115
 11
654.212204731698
 21
1833.599165996815
  0
LINE
  5
275
100
AcDbEntity
  8
0
  6
CONTINUOUS
 62
           2
100
AcDbLine
 10
668.212204731698
 20
1848.830115887638
 11
668.212204731698
 21
1833.599165996815
  0
LINE
  5
276
100
AcDbEntity
  8
0
 62
           2
100
AcDbLine
 10
654.212204731698
 20
1834.599165996815
 11
657.412204731698
 21
1835.020453989095
  0
LINE
  5
277
100
AcDbEntity
  8
0
 62
           2
100
AcDbLine
 10
654.212204731698
 20
1834.599165996815
 11
657.412204731698
 21
1834.177878004535
  0
LINE
  5
278
100
AcDbEntity
  8
0
 62
           2
100
AcDbLine
 10
657.412204731698
 20
1835.020453989095
 11
657.412204731698
 21
1834.177878004535
  0
LINE
  5
279
100
AcDbEntity
  8
0
 62
           2
100
AcDbLine
 10
668.212204731698
 20
1834.599165996815
 11
665.012204731698
 21
1834.177878004535
  0
LINE
  5
27A
100
AcDbEntity
  8
0
 62
           2
100
AcDbLine
 10
668.212204731698
 20
1834.599165996815
 11
665.012204731698
 21
1835.020453989095
  0
LINE
  5
27B
100
AcDbEntity
  8
0
 62
           2
100
AcDbLine
 10
665.012204731698
 20
1834.177878004535
 11
665.012204731698
 21
1835.020453989095
  0
TEXT
  5
27C
100
AcDbEntity
  8
0
 62
           7
100
AcDbText
 10
659.292204731698
 20
1835.799165996815
 40
3.2
  1
14
 41
0.9
  7
CONVERTER_1
100
AcDbText
  0
ENDBLK
  5
27D
100
AcDbEntity
  8
0
100
AcDbBlockEnd
  0
BLOCK
  5
283
100
AcDbEntity
  8
0
100
AcDbBlockBegin
  2
*D55
 70
           1
 10
0.0
 20
0.0
 30
0.0
  3
*D55
  1

  0
LINE
  5
284
100
AcDbEntity
  8
0
  6
CONTINUOUS
 62
           2
100
AcDbLine
 10
640.212204731698
 20
1834.450297318966
 11
654.212204731698
 21
1834.450297318966
  0
LINE
  5
285
100
AcDbEntity
  8
0
  6
CONTINUOUS
 62
           2
100
AcDbLine
 10
640.212204731698
 20
1848.830115887638
 11
640.212204731698
 21
1833.450297318966
  0
LINE
  5
286
100
AcDbEntity
  8
0
  6
CONTINUOUS
 62
           2
100
AcDbLine
 10
654.212204731698
 20
1844.63278571115
 11
654.212204731698
 21
1833.450297318966
  0
LINE
  5
287
100
AcDbEntity
  8
0
 62
           2
100
AcDbLine
 10
640.212204731698
 20
1834.450297318966
 11
643.412204731698
 21
1834.871585311246
  0
LINE
  5
288
100
AcDbEntity
  8
0
 62
           2
100
AcDbLine
 10
640.212204731698
 20
1834.450297318966
 11
643.412204731698
 21
1834.029009326686
  0
LINE
  5
289
100
AcDbEntity
  8
0
 62
           2
100
AcDbLine
 10
643.412204731698
 20
1834.871585311246
 11
643.412204731698
 21
1834.029009326686
  0
LINE
  5
28A
100
AcDbEntity
  8
0
 62
           2
100
AcDbLine
 10
654.212204731698
 20
1834.450297318966
 11
651.012204731698
 21
1834.029009326686
  0
LINE
  5
28B
100
AcDbEntity
  8
0
 62
           2
100
AcDbLine
 10
654.212204731698
 20
1834.450297318966
 11
651.012204731698
 21
1834.871585311246
  0
LINE
  5
28C
100
AcDbEntity
  8
0
 62
           2
100
AcDbLine
 10
651.012204731698
 20
1834.029009326686
 11
651.012204731698
 21
1834.871585311246
  0
TEXT
  5
28D
100
AcDbEntity
  8
0
 62
           7
100
AcDbText
 10
645.292204731698
 20
1835.650297318966
 40
3.2
  1
14
 41
0.9
  7
CONVERTER_1
100
AcDbText
  0
ENDBLK
  5
28E
100
AcDbEntity
  8
0
100
AcDbBlockEnd
  0
BLOCK
  5
294
100
AcDbEntity
  8
0
100
AcDbBlockBegin
  2
*D58
 70
           1
 10
0.0
 20
0.0
 30
0.0
  3
*D58
  1

  0
LINE
  5
295
100
AcDbEntity
  8
0
  6
CONTINUOUS
 62
           2
100
AcDbLine
 10
654.212204731698
 20
1826.791866707265
 11
679.212204731698
 21
1826.791866707265
  0
LINE
  5
296
100
AcDbEntity
  8
0
  6
CONTINUOUS
 62
           2
100
AcDbLine
 10
654.212204731698
 20
1844.63278571115
 11
654.212204731698
 21
1825.791866707265
  0
LINE
  5
297
100
AcDbEntity
  8
0
  6
CONTINUOUS
 62
           2
100
AcDbLine
 10
679.212204731698
 20
1869.488465979441
 11
679.212204731698
 21
1825.791866707265
  0
LINE
  5
298
100
AcDbEntity
  8
0
 62
           2
100
AcDbLine
 10
679.212204731698
 20
1826.791866707265
 11
676.012204731698
 21
1826.370578714985
  0
LINE
  5
299
100
AcDbEntity
  8
0
 62
           2
100
AcDbLine
 10
679.212204731698
 20
1826.791866707265
 11
676.012204731698
 21
1827.213154699545
  0
LINE
  5
29A
100
AcDbEntity
  8
0
 62
           2
100
AcDbLine
 10
676.012204731698
 20
1826.370578714985
 11
676.012204731698
 21
1827.213154699545
  0
LINE
  5
29B
100
AcDbEntity
  8
0
 62
           2
100
AcDbLine
 10
654.212204731698
 20
1826.791866707265
 11
657.412204731698
 21
1827.213154699545
  0
LINE
  5
29C
100
AcDbEntity
  8
0
 62
           2
100
AcDbLine
 10
654.212204731698
 20
1826.791866707265
 11
657.412204731698
 21
1826.370578714985
  0
LINE
  5
29D
100
AcDbEntity
  8
0
 62
           2
100
AcDbLine
 10
657.412204731698
 20
1827.213154699545
 11
657.412204731698
 21
1826.370578714985
  0
TEXT
  5
29E
100
AcDbEntity
  8
0
 62
           7
100
AcDbText
 10
664.312204731698
 20
1827.991866707265
 40
3.2
  1
25
 41
0.9
  7
CONVERTER_1
100
AcDbText
  0
ENDBLK
  5
29F
100
AcDbEntity
  8
0
100
AcDbBlockEnd
  0
BLOCK
  5
2A5
100
AcDbEntity
  8
0
100
AcDbBlockBegin
  2
*D61
 70
           1
 10
0.0
 20
0.0
 30
0.0
  3
*D61
  1

  0
LINE
  5
2A6
100
AcDbEntity
  8
0
  6
CONTINUOUS
 62
           2
100
AcDbLine
 10
629.212204731698
 20
1826.791866707265
 11
654.212204731698
 21
1826.791866707265
  0
LINE
  5
2A7
100
AcDbEntity
  8
0
  6
CONTINUOUS
 62
           2
100
AcDbLine
 10
629.212204731698
 20
1869.488465979441
 11
629.212204731698
 21
1825.791866707265
  0
LINE
  5
2A8
100
AcDbEntity
  8
0
  6
CONTINUOUS
 62
           2
100
AcDbLine
 10
654.212204731698
 20
1844.63278571115
 11
654.212204731698
 21
1825.791866707265
  0
LINE
  5
2A9
100
AcDbEntity
  8
0
 62
           2
100
AcDbLine
 10
629.212204731698
 20
1826.791866707265
 11
632.412204731698
 21
1827.213154699545
  0
LINE
  5
2AA
100
AcDbEntity
  8
0
 62
           2
100
AcDbLine
 10
629.212204731698
 20
1826.791866707265
 11
632.412204731698
 21
1826.370578714985
  0
LINE
  5
2AB
100
AcDbEntity
  8
0
 62
           2
100
AcDbLine
 10
632.412204731698
 20
1827.213154699545
 11
632.412204731698
 21
1826.370578714985
  0
LINE
  5
2AC
100
AcDbEntity
  8
0
 62
           2
100
AcDbLine
 10
654.212204731698
 20
1826.791866707265
 11
651.012204731698
 21
1826.370578714985
  0
LINE
  5
2AD
100
AcDbEntity
  8
0
 62
           2
100
AcDbLine
 10
654.212204731698
 20
1826.791866707265
 11
651.012204731698
 21
1827.213154699545
  0
LINE
  5
2AE
100
AcDbEntity
  8
0
 62
           2
100
AcDbLine
 10
651.012204731698
 20
1826.370578714985
 11
651.012204731698
 21
1827.213154699545
  0
TEXT
  5
2AF
100
AcDbEntity
  8
0
 62
           7
100
AcDbText
 10
639.312204731698
 20
1827.991866707265
 40
3.2
  1
25
 41
0.9
  7
CONVERTER_1
100
AcDbText
  0
ENDBLK
  5
2B0
100
AcDbEntity
  8
0
100
AcDbBlockEnd
  0
BLOCK
  5
2B6
100
AcDbEntity
  8
0
100
AcDbBlockBegin
  2
*D64
 70
           1
 10
0.0
 20
0.0
 30
0.0
  3
*D64
  1

  0
LINE
  5
2B7
100
AcDbEntity
  8
0
  6
CONTINUOUS
 62
           2
100
AcDbLine
 10
624.708667762834
 20
1867.75041823534
 11
626.9144817884
 21
1872.013560795074
  0
LINE
  5
2B8
100
AcDbEntity
  8
0
  6
CONTINUOUS
 62
           2
100
AcDbLine
 10
639.751524522148
 20
1896.823514211397
 11
631.509927674996
 21
1880.89510779452
  0
LINE
  5
2B9
100
AcDbEntity
  8
0
 62
           2
100
AcDbLine
 10
631.509927674996
 20
1880.89510779452
 11
632.606301448333
 21
1883.930803451462
  0
LINE
  5
2BA
100
AcDbEntity
  8
0
 62
           2
100
AcDbLine
 10
631.509927674996
 20
1880.89510779452
 11
633.35463926908
 21
1883.543602217223
  0
LINE
  5
2BB
100
AcDbEntity
  8
0
 62
           2
100
AcDbLine
 10
632.606301448333
 20
1883.930803451462
 11
633.35463926908
 21
1883.543602217223
  0
LINE
  5
2BC
100
AcDbEntity
  8
0
 62
           2
100
AcDbLine
 10
626.9144817884
 20
1872.013560795074
 11
625.818108015063
 21
1868.977865138132
  0
LINE
  5
2BD
100
AcDbEntity
  8
0
 62
           2
100
AcDbLine
 10
626.9144817884
 20
1872.013560795074
 11
625.069770194316
 21
1869.36506637237
  0
LINE
  5
2BE
100
AcDbEntity
  8
0
 62
           2
100
AcDbLine
 10
625.818108015063
 20
1868.977865138132
 11
625.069770194316
 21
1869.36506637237
  0
MTEXT
  5
2BF
100
AcDbEntity
  8
0
 62
           7
100
AcDbMText
 10
635.715242661119
 20
1891.633935737347
 30
0.0
 40
3.2
 41
0.0
 71
           7
 72
           1
  1
\C7;ø\C7;10
  7
CONVERTER_1
 11
0.45954458866
 21
0.888154699945
 31
0.0
  0
ENDBLK
  5
2C0
100
AcDbEntity
  8
0
100
AcDbBlockEnd
  0
BLOCK
  5
2C3
100
AcDbEntity
  8
0
100
AcDbBlockBegin
  2
*D65
 70
           1
 10
0.0
 20
0.0
 30
0.0
  3
*D65
  1

  0
LINE
  5
2C4
100
AcDbEntity
  8
0
  6
CONTINUOUS
 62
           2
100
AcDbLine
 10
722.116854098965
 20
1864.567327922469
 11
705.330807910412
 21
1868.180757990405
  0
LINE
  5
2C5
100
AcDbEntity
  8
0
  6
CONTINUOUS
 62
           2
100
AcDbLine
 10
698.096523050225
 20
1869.738038492328
 11
702.789032148724
 21
1868.727910599189
  0
LINE
  5
2C6
100
AcDbEntity
  8
0
 62
           2
100
AcDbLine
 10
705.330807910412
 20
1868.180757990405
 11
708.547804549421
 21
1867.919193090158
  0
LINE
  5
2C7
100
AcDbEntity
  8
0
 62
           2
100
AcDbLine
 10
705.330807910412
 20
1868.180757990405
 11
708.370490069402
 21
1867.095485699799
  0
LINE
  5
2C8
100
AcDbEntity
  8
0
 62
           2
100
AcDbLine
 10
708.547804549421
 20
1867.919193090158
 11
708.370490069402
 21
1867.095485699799
  0
LINE
  5
2C9
100
AcDbEntity
  8
0
 62
           2
100
AcDbLine
 10
702.789032148724
 20
1868.727910599189
 11
699.572035509715
 21
1868.989475499436
  0
LINE
  5
2CA
100
AcDbEntity
  8
0
 62
           2
100
AcDbLine
 10
702.789032148724
 20
1868.727910599189
 11
699.749349989734
 21
1869.813182889795
  0
LINE
  5
2CB
100
AcDbEntity
  8
0
 62
           2
100
AcDbLine
 10
699.572035509715
 20
1868.989475499436
 11
699.749349989734
 21
1869.813182889795
  0
MTEXT
  5
2CC
100
AcDbEntity
  8
0
 62
           7
100
AcDbMText
 10
714.084061736463
 20
1867.851316786782
 30
0.0
 40
3.2
 41
0.0
 71
           7
 72
           1
  1
\C7;ø\C7;2,6
  7
CONVERTER_1
 11
0.977606062187
 21
-0.210443311071
 31
0.0
  0
ENDBLK
  5
2CD
100
AcDbEntity
  8
0
100
AcDbBlockEnd
  0
ENDSEC
  0
SECTION
  2
ENTITIES
  0
DIMENSION
  5
2B4
100
AcDbEntity
  8
0
100
AcDbDimension
  2
*D61
 10
629.212204731698
 20
1826.791866707265
 11
641.712204731698
 21
1829.591866707265
 31
0.0
  1
<>
  3
ME10_DIM_20
100
AcDbAlignedDimension
 13
654.212204731698
 23
1845.63278571115
 14
629.212204731698
 24
1870.488465979441
100
AcDbRotatedDimension
  0
DIMENSION
  5
2A3
100
AcDbEntity
  8
0
100
AcDbDimension
  2
*D58
 10
679.212204731698
 20
1826.791866707265
 11
666.712204731698
 21
1829.591866707265
 31
0.0
  1
<>
  3
ME10_DIM_19
100
AcDbAlignedDimension
 13
654.212204731698
 23
1845.63278571115
 14
679.212204731698
 24
1870.488465979441
100
AcDbRotatedDimension
  0
DIMENSION
  5
292
100
AcDbEntity
  8
0
100
AcDbDimension
  2
*D55
 10
640.212204731698
 20
1834.450297318966
 11
647.212204731698
 21
1837.250297318966
 31
0.0
  1
<>
  3
ME10_DIM_18
100
AcDbAlignedDimension
 13
654.212204731698
 23
1845.63278571115
 14
640.212204731698
 24
1849.830115887638
100
AcDbRotatedDimension
  0
DIMENSION
  5
281
100
AcDbEntity
  8
0
100
AcDbDimension
  2
*D52
 10
654.212204731698
 20
1834.599165996815
 11
661.212204731698
 21
1837.399165996815
 31
0.0
  1
<>
  3
ME10_DIM_17
100
AcDbAlignedDimension
 13
668.212204731698
 23
1849.830115887638
 14
654.212204731698
 24
1845.63278571115
100
AcDbRotatedDimension
  0
DIMENSION
  5
270
100
AcDbEntity
  8
0
100
AcDbDimension
  2
*D49
 10
587.605823660531
 20
1889.354334294797
 11
584.645823660531
 21
1868.454334294797
 31
0.0
 53
90.0
  1
<>
  3
ME10_DIM_16
100
AcDbAlignedDimension
 13
606.064489433828
 23
1847.554334294797
 14
606.064489433829
 24
1889.354334294797
 50
90.0
100
AcDbRotatedDimension
  0
DIMENSION
  5
25F
100
AcDbEntity
  8
0
100
AcDbDimension
  2
*D46
 10
606.064489433829
 20
1931.202257321588
 11
657.562204731698
 21
1934.002257321588
 31
0.0
  1
<>
  3
ME10_DIM_15
100
AcDbAlignedDimension
 13
709.059920029568
 23
1889.354334294797
 14
606.064489433829
 24
1889.354334294797
100
AcDbRotatedDimension
  0
DIMENSION
  5
24E
100
AcDbEntity
  8
0
100
AcDbDimension
  2
*D43
 10
597.617429831812
 20
1885.104334294797
 11
594.657429831812
 21
1868.454334294797
 31
0.0
 53
90.0
  1
<>
  3
ME10_DIM_14
100
AcDbAlignedDimension
 13
617.212204731698
 23
1851.804334294797
 14
617.212204731698
 24
1885.104334294797
 50
90.0
100
AcDbRotatedDimension
  0
DIMENSION
  5
23D
100
AcDbEntity
  8
0
100
AcDbDimension
  2
*D40
 10
597.620943583023
 20
1885.104334294797
 11
594.660943583023
 21
1895.473107351918
 31
0.0
 53
90.0
  1
<>
  3
ME10_DIM_13
100
AcDbAlignedDimension
 13
606.064489433829
 23
1889.354334294797
 14
617.212204731698
 24
1885.104334294797
 50
90.0
100
AcDbRotatedDimension
  0
DIMENSION
  5
22A
100
AcDbEntity
  8
0
100
AcDbDimension
  2
*D37
 10
684.462204731785
 20
1900.722969638098
 11
669.337204731741
 21
1903.682969638098
 31
0.0
  1
<>
  3
ME10_DIM_12
100
AcDbAlignedDimension
 13
654.212204731698
 23
1891.43278571115
 14
684.462204731785
 24
1891.127503228392
100
AcDbRotatedDimension
  0
DIMENSION
  5
219
100
AcDbEntity
  8
0
100
AcDbDimension
  2
*D34
 10
654.212204731698
 20
1900.722969638098
 11
639.087204731654
 21
1903.682969638098
 31
0.0
  1
<>
  3
ME10_DIM_11
100
AcDbAlignedDimension
 13
623.962204731611
 23
1891.127503228392
 14
654.212204731698
 24
1891.43278571115
100
AcDbRotatedDimension
  0
DIMENSION
  5
208
100
AcDbEntity
  8
0
100
AcDbDimension
  2
*D31
 10
691.212204731698
 20
1910.883062939298
 11
672.712204731698
 21
1913.683062939298
 31
0.0
  1
<>
  3
ME10_DIM_10
100
AcDbAlignedDimension
 13
654.212204731698
 23
1891.43278571115
 14
691.212204731698
 24
1885.104334294797
100
AcDbRotatedDimension
  0
DIMENSION
  5
1F7
100
AcDbEntity
  8
0
100
AcDbDimension
  2
*D28
 10
654.212204731698
 20
1910.883062939298
 11
635.712204731698
 21
1913.683062939298
 31
0.0
  1
<>
  3
ME10_DIM_9
100
AcDbAlignedDimension
 13
617.212204731698
 23
1885.104334294797
 14
654.212204731698
 24
1891.43278571115
100
AcDbRotatedDimension
  0
DIMENSION
  5
1E6
100
AcDbEntity
  8
0
100
AcDbDimension
  2
*D25
 10
606.064489433829
 20
1921.013014017338
 11
630.138347082764
 21
1923.973014017338
 31
0.0
  1
<>
  3
ME10_DIM_8
100
AcDbAlignedDimension
 13
654.212204731698
 23
1891.43278571115
 14
606.064489433829
 24
1889.354334294797
100
AcDbRotatedDimension
  0
DIMENSION
  5
1D5
100
AcDbEntity
  8
0
100
AcDbDimension
  2
*D22
 10
654.212204731698
 20
1921.157942905758
 11
681.636062380633
 21
1924.117942905758
 31
0.0
  1
<>
  3
ME10_DIM_7
100
AcDbAlignedDimension
 13
709.059920029568
 23
1889.354334294797
 14
654.212204731698
 24
1891.43278571115
100
AcDbRotatedDimension
  0
DIMENSION
  5
1C4
100
AcDbEntity
  8
0
100
AcDbDimension
  2
*D19
 10
717.167593192687
 20
1885.104334294797
 11
714.207593192687
 21
1877.511645456528
 31
0.0
 53
90.0
  1
<>
  3
ME10_DIM_6
100
AcDbAlignedDimension
 13
686.712204731698
 23
1882.604334294797
 14
691.212204731698
 24
1885.104334294797
 50
90.0
100
AcDbRotatedDimension
  0
DIMENSION
  5
1B1
100
AcDbEntity
  8
0
100
AcDbDimension
  2
*D16
 10
717.421811516114
 20
1854.304334294797
 11
714.461811516114
 21
1860.147509035045
 31
0.0
 53
90.0
  1
<>
  3
ME10_DIM_5
100
AcDbAlignedDimension
 13
691.212204731698
 23
1851.804334294797
 14
686.712204731698
 24
1854.304334294797
 50
90.0
100
AcDbRotatedDimension
  0
DIMENSION
  5
19E
100
AcDbEntity
  8
0
100
AcDbDimension
  2
*D13
 10
704.059920029568
 20
1808.712722280968
 11
682.418476537793
 21
1811.672722280968
 31
0.0
  1
<>
  3
ME10_DIM_4
100
AcDbAlignedDimension
 13
654.212204731698
 23
1802.376469092859
 14
704.059920029568
 24
1784.128852326838
100
AcDbRotatedDimension
  0
DIMENSION
  5
18D
100
AcDbEntity
  8
0
100
AcDbDimension
  2
*D10
 10
654.212204731698
 20
1808.273280328096
 11
629.288347082763
 21
1811.233280328096
 31
0.0
  1
<>
  3
ME10_DIM_3
100
AcDbAlignedDimension
 13
604.364489433828
 23
1784.128852326838
 14
654.212204731698
 24
1802.376469092859
100
AcDbRotatedDimension
  0
DIMENSION
  5
17A
100
AcDbEntity
  8
0
100
AcDbDimension
  2
*D7
 10
663.212204731698
 20
1893.227463218318
 11
657.370105302041
 21
1896.027463218318
 31
0.0
  1
<>
  3
ME10_DIM_2
100
AcDbAlignedDimension
 13
645.212204731698
 23
1880.954334294797
 14
663.212204731698
 24
1880.954334294797
100
AcDbRotatedDimension
  0
DIMENSION
  5
169
100
AcDbEntity
  8
0
100
AcDbDimension
  2
*D4
 10
603.383334299945
 20
1868.454334294797
 11
600.583334299945
 21
1872.454334294797
 31
0.0
 53
90.0
  1
<>
  3
ME10_DIM_1
100
AcDbAlignedDimension
 13
623.281593803264
 23
1876.454334294797
 14
608.648079182263
 24
1868.454334294797
 50
90.0
100
AcDbRotatedDimension
  0
DIMENSION
  5
156
100
AcDbEntity
  8
0
100
AcDbDimension
  2
*D1
 10
651.30667838251
 20
1880.954334294797
 11
648.50667838251
 21
1876.454334294797
 31
0.0
 53
90.0
  1
<>
  3
ME10_DIM_0
100
AcDbAlignedDimension
 13
645.212204731698
 23
1871.954334294797
 14
645.212204731698
 24
1880.954334294797
 50
90.0
100
AcDbRotatedDimension
  0
TEXT
  5
145
100
AcDbEntity
  8
1
 62
           2
100
AcDbText
 10
610.552532333006
 20
1737.693364992263
 40
2.5
  1
SCALA 2:1
 41
0.9
  7
CONVERTER_1
100
AcDbText
  0
TEXT
  5
144
100
AcDbEntity
  8
1
 62
           2
100
AcDbText
 10
633.178340837302
 20
1681.173091620759
 40
3.0
  1
H. 41.8
 41
0.9
  7
CONVERTER_1
100
AcDbText
  0
TEXT
  5
143
100
AcDbEntity
  8
1
 62
           2
100
AcDbText
 10
633.178340837302
 20
1687.47309162076
 40
3.0
  1
GUIDA PIATTA PER RULLIERA CENTRALE
 41
0.9
  7
CONVERTER_1
100
AcDbText
  0
TEXT
  5
142
100
AcDbEntity
  8
1
 62
           2
100
AcDbText
 10
724.105776604997
 20
1712.97309162076
 40
2.5
  1
IT12
 41
0.9
  7
CONVERTER_1
100
AcDbText
  0
TEXT
  5
141
100
AcDbEntity
  8
1
 62
           2
100
AcDbText
 10
770.905776604997
 20
1669.97309162076
 40
2.5
  1
1/1
 41
0.9
  7
CONVERTER_1
100
AcDbText
  0
TEXT
  5
140
100
AcDbEntity
  8
1
 62
           2
100
AcDbText
 10
738.505776604997
 20
1688.97309162076
 40
2.5
  1
09/07/99
 41
0.9
  7
CONVERTER_1
100
AcDbText
  0
TEXT
  5
13F
100
AcDbEntity
  8
1
 62
           2
100
AcDbText
 10
747.305776604997
 20
1712.97309162076
 40
2.5
  1
1:1
 41
0.9
  7
CONVERTER_1
100
AcDbText
  0
TEXT
  5
13E
100
AcDbEntity
  8
1
 62
           2
100
AcDbText
 10
743.905776604997
 20
1698.97309162076
 40
2.5
  1
Bononi
 41
0.9
  7
CONVERTER_1
100
AcDbText
  0
MTEXT
  5
13D
100
AcDbEntity
  8
1
 62
           2
100
AcDbMText
 10
671.005776604997
 20
1712.47309162076
 30
0.0
 40
2.0
 41
0.0
 71
           7
 72
           1
  1
Conveyor\PComponents
  7
CONVERTER_1
  0
TEXT
  5
13C
100
AcDbEntity
  8
1
 62
           2
100
AcDbText
 10
696.463520892795
 20
1701.347747268143
 40
2.5
  1
Bianco
 41
0.9
  7
CONVERTER_1
100
AcDbText
  0
TEXT
  5
13B
100
AcDbEntity
  8
1
 62
           2
100
AcDbText
 10
650.76866430553
 20
1703.37309162076
 40
2.5
  1
Acetalica WLF
 41
0.9
  7
CONVERTER_1
100
AcDbText
  0
TEXT
  5
13A
100
AcDbEntity
  8
1
 62
           2
100
AcDbText
 10
594.105776604998
 20
1670.97309162076
 40
2.5
  1
611762-1
 41
0.9
  7
CONVERTER_1
100
AcDbText
  0
TEXT
  5
139
100
AcDbEntity
  8
1
 62
           2
100
AcDbText
 10
658.178340837302
 20
1670.97309162076
 40
3.0
  1
N99S002
 41
0.9
  7
CONVERTER_1
100
AcDbText
  0
TEXT
  5
138
100
AcDbEntity
  8
1
 62
           2
100
AcDbText
 10
728.552532333006
 20
1737.693364992263
 40
2.5
  1
SCALA 2:1
 41
0.9
  7
CONVERTER_1
100
AcDbText
  0
TEXT
  5
137
100
AcDbEntity
  8
1
 62
           2
100
AcDbText
 10
716.463520892795
 20
1701.347747268143
 40
2.5
  1
2 %%%
 41
0.9
  7
CONVERTER_1
100
AcDbText
  0
ARC
  5
136
100
AcDbEntity
  8
1
  6
CONTINUOUS
 62
           7
100
AcDbCircle
 10
621.712204731698
 20
1880.604334294797
 40
2.0
100
AcDbArc
 50
90.000000000006
 51
180.0
  0
ARC
  5
135
100
AcDbEntity
  8
1
  6
CONTINUOUS
 62
           7
100
AcDbCircle
 10
686.712204731698
 20
1880.604334294796
 40
2.0
100
AcDbArc
 50
0.0
 51
90.0
  0
ARC
  5
134
100
AcDbEntity
  8
1
  6
CONTINUOUS
 62
           7
100
AcDbCircle
 10
686.712204731698
 20
1856.304334294797
 40
2.0
100
AcDbArc
 50
-90.0
 51
0.0
  0
ARC
  5
133
100
AcDbEntity
  8
1
  6
CONTINUOUS
 62
           7
100
AcDbCircle
 10
621.712204731698
 20
1856.304334294797
 40
2.0
100
AcDbArc
 50
180.0
 51
-90.0
  0
ARC
  5
132
100
AcDbEntity
  8
1
  6
CONTINUOUS
 62
           7
100
AcDbCircle
 10
641.462204731698
 20
1854.804334294797
 40
0.5
100
AcDbArc
 50
180.0
 51
-90.0
  0
ARC
  5
131
100
AcDbEntity
  8
1
  6
CONTINUOUS
 62
           7
100
AcDbCircle
 10
638.962204731698
 20
1854.804334294797
 40
0.5
100
AcDbArc
 50
-90.0
 51
0.0
  0
ARC
  5
130
100
AcDbEntity
  8
1
  6
CONTINUOUS
 62
           7
100
AcDbCircle
 10
638.962204731698
 20
1882.104334294797
 40
0.5
100
AcDbArc
 50
0.0
 51
90.0
  0
ARC
  5
12F
100
AcDbEntity
  8
1
  6
CONTINUOUS
 62
           7
100
AcDbCircle
 10
641.462204731698
 20
1882.104334294797
 40
0.5
100
AcDbArc
 50
90.0
 51
179.999999999869
  0
ARC
  5
12E
100
AcDbEntity
  8
1
  6
CONTINUOUS
 62
           7
100
AcDbCircle
 10
666.962204731698
 20
1854.804334294797
 40
0.5
100
AcDbArc
 50
-90.0
 51
0.0
  0
ARC
  5
12D
100
AcDbEntity
  8
1
  6
CONTINUOUS
 62
           7
100
AcDbCircle
 10
669.462204731698
 20
1854.804334294797
 40
0.5
100
AcDbArc
 50
180.0
 51
-90.0
  0
ARC
  5
12C
100
AcDbEntity
  8
1
  6
CONTINUOUS
 62
           7
100
AcDbCircle
 10
669.462204731698
 20
1882.104334294797
 40
0.5
100
AcDbArc
 50
90.0
 51
179.999999999869
  0
ARC
  5
12B
100
AcDbEntity
  8
1
  6
CONTINUOUS
 62
           7
100
AcDbCircle
 10
666.962204731698
 20
1882.104334294797
 40
0.5
100
AcDbArc
 50
0.0
 51
90.0
  0
ARC
  5
12A
100
AcDbEntity
  8
1
  6
CONTINUOUS
 62
           7
100
AcDbCircle
 10
620.212204731698
 20
1869.704334294797
 40
0.5
100
AcDbArc
 50
180.0
 51
-90.000000000039
  0
ARC
  5
129
100
AcDbEntity
  8
1
  6
CONTINUOUS
 62
           7
100
AcDbCircle
 10
620.212204731698
 20
1867.204334294797
 40
0.5
100
AcDbArc
 50
90.0
 51
180.0
  0
ARC
  5
128
100
AcDbEntity
  8
1
  6
CONTINUOUS
 62
           7
100
AcDbCircle
 10
638.962204731698
 20
1869.704334294797
 40
0.5
100
AcDbArc
 50
-90.0
 51
-0.00000000013
  0
ARC
  5
127
100
AcDbEntity
  8
1
  6
CONTINUOUS
 62
           7
100
AcDbCircle
 10
641.462204731698
 20
1869.704334294797
 40
0.5
100
AcDbArc
 50
180.0
 51
-90.0
  0
ARC
  5
126
100
AcDbEntity
  8
1
  6
CONTINUOUS
 62
           7
100
AcDbCircle
 10
641.462204731698
 20
1867.204334294797
 40
0.5
100
AcDbArc
 50
90.0
 51
180.0
  0
ARC
  5
125
100
AcDbEntity
  8
1
  6
CONTINUOUS
 62
           7
100
AcDbCircle
 10
638.962204731698
 20
1867.204334294797
 40
0.5
100
AcDbArc
 50
0.0
 51
90.0
  0
ARC
  5
124
100
AcDbEntity
  8
1
  6
CONTINUOUS
 62
           7
100
AcDbCircle
 10
688.212204731698
 20
1869.704334294797
 40
0.500000000001
100
AcDbArc
 50
-89.999999999948
 51
0.0
  0
ARC
  5
123
100
AcDbEntity
  8
1
  6
CONTINUOUS
 62
           7
100
AcDbCircle
 10
688.212204731698
 20
1867.204334294797
 40
0.5
100
AcDbArc
 50
0.0
 51
90.0
  0
ARC
  5
122
100
AcDbEntity
  8
1
  6
CONTINUOUS
 62
           7
100
AcDbCircle
 10
669.462204731698
 20
1867.204334294797
 40
0.5
100
AcDbArc
 50
90.0
 51
180.0
  0
ARC
  5
121
100
AcDbEntity
  8
1
  6
CONTINUOUS
 62
           7
100
AcDbCircle
 10
669.462204731698
 20
1869.704334294797
 40
0.5
100
AcDbArc
 50
-179.999999999869
 51
-90.0
  0
ARC
  5
120
100
AcDbEntity
  8
1
  6
CONTINUOUS
 62
           7
100
AcDbCircle
 10
666.962204731698
 20
1869.704334294797
 40
0.5
100
AcDbArc
 50
-90.0
 51
-0.00000000013
  0
ARC
  5
11F
100
AcDbEntity
  8
1
  6
CONTINUOUS
 62
           7
100
AcDbCircle
 10
666.962204731698
 20
1867.204334294797
 40
0.5
100
AcDbArc
 50
0.0
 51
90.0
  0
ARC
  5
11E
100
AcDbEntity
  8
1
  6
CONTINUOUS
 62
           7
100
AcDbCircle
 10
606.564489433828
 20
1795.144452096408
 40
0.5
100
AcDbArc
 50
180.0
 51
-97.662255660769
  0
ARC
  5
11D
100
AcDbEntity
  8
1
  6
CONTINUOUS
 62
           7
100
AcDbCircle
 10
701.859920029568
 20
1795.291776474358
 40
1.0
100
AcDbArc
 50
-150.000000000009
 51
-90.0
  0
ARC
  5
11C
100
AcDbEntity
  8
1
  6
CONTINUOUS
 62
           7
100
AcDbCircle
 10
700.127869221999
 20
1794.291776474358
 40
1.0
100
AcDbArc
 50
29.999999999997
 51
90.0
  0
ARC
  5
11B
100
AcDbEntity
  8
1
  6
CONTINUOUS
 62
           7
100
AcDbCircle
 10
708.559920029568
 20
1793.100864495612
 40
0.5
100
AcDbArc
 50
0.0
 51
72.542396876299
  0
ARC
  5
11A
100
AcDbEntity
  8
1
  6
CONTINUOUS
 62
           7
100
AcDbCircle
 10
625.962204731611
 20
1791.791776474358
 40
1.0
100
AcDbArc
 50
90.0
 51
180.0
  0
ARC
  5
119
100
AcDbEntity
  8
1
  6
CONTINUOUS
 62
           7
100
AcDbCircle
 10
621.937204731611
 20
1791.766776474358
 40
1.025304832721
100
AcDbArc
 50
1.397181027289
 51
91.397181027289
  0
ARC
  5
118
100
AcDbEntity
  8
1
  6
CONTINUOUS
 62
           7
100
AcDbCircle
 10
621.962204731611
 20
1790.006873644166
 40
0.999999999999
100
AcDbArc
 50
-35.28126182726
 51
0.0
  0
ARC
  5
117
100
AcDbEntity
  8
1
  6
CONTINUOUS
 62
           7
100
AcDbCircle
 10
625.962204731611
 20
1790.006873644166
 40
1.0
100
AcDbArc
 50
180.0
 51
-144.718738172748
  0
ARC
  5
116
100
AcDbEntity
  8
1
  6
CONTINUOUS
 62
           7
100
AcDbCircle
 10
682.462204731785
 20
1791.791776474358
 40
1.0
100
AcDbArc
 50
0.0
 51
90.0
  0
ARC
  5
115
100
AcDbEntity
  8
1
  6
CONTINUOUS
 62
           7
100
AcDbCircle
 10
686.487204731785
 20
1791.766776474358
 40
1.02530483272
100
AcDbArc
 50
88.602818972711
 51
178.602818972711
  0
ARC
  5
114
100
AcDbEntity
  8
1
  6
CONTINUOUS
 62
           7
100
AcDbCircle
 10
686.462204731785
 20
1790.006873644166
 40
1.0
100
AcDbArc
 50
180.0
 51
-144.71873817274
  0
ARC
  5
113
100
AcDbEntity
  8
1
  6
CONTINUOUS
 62
           7
100
AcDbCircle
 10
682.462204731785
 20
1790.006873644166
 40
1.0
100
AcDbArc
 50
-35.281261827252
 51
0.0
  0
CIRCLE
  5
112
100
AcDbEntity
  8
1
  6
CONTINUOUS
 62
           7
100
AcDbCircle
 10
629.212204731698
 20
1876.454334294797
 40
5.0
  0
CIRCLE
  5
111
100
AcDbEntity
  8
1
  6
CONTINUOUS
 62
           7
100
AcDbCircle
 10
679.212204731698
 20
1876.454334294797
 40
5.0
  0
CIRCLE
  5
110
100
AcDbEntity
  8
1
  6
CONTINUOUS
 62
           7
100
AcDbCircle
 10
704.059920029568
 20
1868.454334294797
 40
1.3
  0
ARC
  5
10F
100
AcDbEntity
  8
1
  6
CONTINUOUS
 62
           7
100
AcDbCircle
 10
604.364489433828
 20
1778.791776474358
 40
16.0
100
AcDbArc
 50
61.044975628138
 51
82.337744339234
  0
ARC
  5
10E
100
AcDbEntity
  8
1
  6
CONTINUOUS
 62
           7
100
AcDbCircle
 10
704.059920029568
 20
1778.791776474358
 40
15.500000000001
100
AcDbArc
 50
72.542396876278
 51
90.0
  0
ARC
  5
10D
100
AcDbEntity
  8
1
  6
CONTINUOUS
 62
           7
100
AcDbCircle
 10
623.962204731611
 20
1788.591776474358
 40
1.45
100
AcDbArc
 50
144.718738172747
 51
35.281261827258
  0
ARC
  5
10C
100
AcDbEntity
  8
1
  6
CONTINUOUS
 62
           7
100
AcDbCircle
 10
684.462204731785
 20
1788.591776474358
 40
1.45
100
AcDbArc
 50
144.718738172741
 51
35.281261827253
  0
LINE
  5
10B
100
AcDbEntity
  8
1
  6
DOT_CENTER
 62
           2
100
AcDbLine
 10
629.212204731698
 20
1870.488465979441
 11
629.212204731698
 21
1883.488465979441
  0
LINE
  5
10A
100
AcDbEntity
  8
1
  6
DOT_CENTER
 62
           2
100
AcDbLine
 10
623.281593803264
 20
1876.454334294797
 11
635.281593803264
 21
1876.454334294797
  0
LINE
  5
109
100
AcDbEntity
  8
1
  6
DOT_CENTER
 62
           2
100
AcDbLine
 10
679.212204731698
 20
1883.488465979441
 11
679.212204731698
 21
1870.488465979441
  0
LINE
  5
108
100
AcDbEntity
  8
1
  6
DOT_CENTER
 62
           2
100
AcDbLine
 10
673.142815660132
 20
1876.454334294797
 11
685.142815660132
 21
1876.454334294797
  0
LINE
  5
107
100
AcDbEntity
  8
1
  6
CONTINUOUS
 62
           7
100
AcDbLine
 10
645.212204731698
 20
1880.954334294797
 11
645.212204731698
 21
1871.954334294797
  0
LINE
  5
106
100
AcDbEntity
  8
1
  6
CONTINUOUS
 62
           7
100
AcDbLine
 10
663.212204731698
 20
1880.954334294797
 11
645.212204731698
 21
1880.954334294797
  0
LINE
  5
105
100
AcDbEntity
  8
1
  6
CONTINUOUS
 62
           7
100
AcDbLine
 10
663.212204731698
 20
1871.954334294797
 11
663.212204731698
 21
1880.954334294797
  0
LINE
  5
104
100
AcDbEntity
  8
1
  6
CONTINUOUS
 62
           7
100
AcDbLine
 10
645.212204731698
 20
1871.954334294797
 11
663.212204731698
 21
1871.954334294797
  0
LINE
  5
103
100
AcDbEntity
  8
1
  6
DOT_CENTER
 62
           2
100
AcDbLine
 10
636.464073496529
 20
1876.454334294797
 11
665.464073496529
 21
1876.454334294797
  0
LINE
  5
102
100
AcDbEntity
  8
1
  6
CONTINUOUS
 62
           7
100
AcDbLine
 10
702.759920029568
 20
1784.791776474358
 11
705.359920029568
 21
1784.791776474358
  0
LINE
  5
101
100
AcDbEntity
  8
1
  6
CONTINUOUS
 62
           7
100
AcDbLine
 10
705.359920029568
 20
1784.791776474358
 11
705.359920029568
 21
1792.791776474358
  0
LINE
  5
100
100
AcDbEntity
  8
1
  6
CONTINUOUS
 62
           7
100
AcDbLine
 10
702.759920029568
 20
1792.791776474358
 11
702.759920029568
 21
1784.791776474358
  0
LINE
  5
FF
100
AcDbEntity
  8
1
  6
DOT_CENTER
 62
           2
100
AcDbLine
 10
704.059920029568
 20
1795.613680150687
 11
704.059920029568
 21
1784.128852326838
  0
LINE
  5
FE
100
AcDbEntity
  8
1
  6
DOT_CENTER
 62
           2
100
AcDbLine
 10
704.059920029568
 20
1871.977223852165
 11
704.059920029568
 21
1863.977223852165
  0
LINE
  5
FD
100
AcDbEntity
  8
1
  6
CONTINUOUS
 62
           7
100
AcDbLine
 10
619.712204731698
 20
1880.604334294797
 11
619.712204731698
 21
1869.704334294797
  0
LINE
  5
FC
100
AcDbEntity
  8
1
  6
CONTINUOUS
 62
           7
100
AcDbLine
 10
688.712204731698
 20
1869.704334294797
 11
688.712204731698
 21
1880.604334294796
  0
LINE
  5
FB
100
AcDbEntity
  8
1
  6
CONTINUOUS
 62
           7
100
AcDbLine
 10
639.462204731698
 20
1867.204334294797
 11
639.462204731698
 21
1854.804334294797
  0
LINE
  5
FA
100
AcDbEntity
  8
1
  6
CONTINUOUS
 62
           7
100
AcDbLine
 10
640.962204731698
 20
1854.804334294797
 11
640.962204731698
 21
1867.204334294797
  0
LINE
  5
F9
100
AcDbEntity
  8
1
  6
CONTINUOUS
 62
           7
100
AcDbLine
 10
641.462204731698
 20
1854.304334294797
 11
654.212204731698
 21
1854.304334294797
  0
LINE
  5
F8
100
AcDbEntity
  8
1
  6
CONTINUOUS
 62
           7
100
AcDbLine
 10
638.962204731698
 20
1882.604334294797
 11
621.712204731698
 21
1882.604334294797
  0
LINE
  5
F7
100
AcDbEntity
  8
1
  6
DOT_CENTER
 62
           2
100
AcDbLine
 10
640.212204731698
 20
1849.830115887638
 11
640.212204731698
 21
1887.130115887638
  0
LINE
  5
F6
100
AcDbEntity
  8
1
  6
CONTINUOUS
 62
           7
100
AcDbLine
 10
639.462204731698
 20
1882.104334294797
 11
639.462204731698
 21
1869.704334294796
  0
LINE
  5
F5
100
AcDbEntity
  8
1
  6
CONTINUOUS
 62
           7
100
AcDbLine
 10
654.212204731698
 20
1854.304334294797
 11
666.962204731698
 21
1854.304334294797
  0
LINE
  5
F4
100
AcDbEntity
  8
1
  6
CONTINUOUS
 62
           7
100
AcDbLine
 10
686.712204731698
 20
1882.604334294797
 11
669.462204731698
 21
1882.604334294797
  0
LINE
  5
F3
100
AcDbEntity
  8
1
  6
CONTINUOUS
 62
           7
100
AcDbLine
 10
667.462204731698
 20
1882.104334294797
 11
667.462204731698
 21
1869.704334294796
  0
LINE
  5
F2
100
AcDbEntity
  8
1
  6
DOT_CENTER
 62
           2
100
AcDbLine
 10
668.212204731698
 20
1887.130115887638
 11
668.212204731698
 21
1849.830115887638
  0
LINE
  5
F1
100
AcDbEntity
  8
1
  6
DOT_CENTER
 62
           2
100
AcDbLine
 10
623.962204731611
 20
1845.781165361202
 11
623.962204731611
 21
1857.001688789263
  0
LINE
  5
F0
100
AcDbEntity
  8
1
  6
CONTINUOUS
 62
           7
100
AcDbLine
 10
606.064489433828
 20
1847.554334294797
 11
654.212204731698
 21
1847.554334294797
  0
LINE
  5
EF
100
AcDbEntity
  8
1
  6
CONTINUOUS
 62
           7
100
AcDbLine
 10
622.512204731611
 20
1851.804334294797
 11
622.512204731611
 21
1847.554334294797
  0
LINE
  5
EE
100
AcDbEntity
  8
1
  6
CONTINUOUS
 62
           7
100
AcDbLine
 10
625.412204731611
 20
1851.804334294797
 11
625.412204731611
 21
1847.554334294797
  0
LINE
  5
ED
100
AcDbEntity
  8
1
  6
CONTINUOUS
 62
           7
100
AcDbLine
 10
606.064489433828
 20
1847.554334294797
 11
606.064489433828
 21
1868.454334294797
  0
LINE
  5
EC
100
AcDbEntity
  8
1
  6
CONTINUOUS
 62
           7
100
AcDbLine
 10
622.512204731611
 20
1889.354334294797
 11
622.512204731611
 21
1885.104334294797
  0
LINE
  5
EB
100
AcDbEntity
  8
1
  6
CONTINUOUS
 62
           7
100
AcDbLine
 10
625.412204731611
 20
1889.354334294797
 11
625.412204731611
 21
1885.104334294797
  0
LINE
  5
EA
100
AcDbEntity
  8
1
  6
CONTINUOUS
 62
           7
100
AcDbLine
 10
654.212204731698
 20
1889.354334294797
 11
606.064489433829
 21
1889.354334294797
  0
LINE
  5
E9
100
AcDbEntity
  8
1
  6
CONTINUOUS
 62
           7
100
AcDbLine
 10
606.064489433828
 20
1868.454334294797
 11
606.064489433829
 21
1889.354334294797
  0
LINE
  5
E8
100
AcDbEntity
  8
1
  6
DOT_CENTER
 62
           2
100
AcDbLine
 10
654.212204731698
 20
1891.43278571115
 11
654.212204731698
 21
1845.63278571115
  0
LINE
  5
E7
100
AcDbEntity
  8
1
  6
DOT_CENTER
 62
           2
100
AcDbLine
 10
710.167131495622
 20
1868.454334294797
 11
608.648079182263
 21
1868.454334294797
  0
LINE
  5
E6
100
AcDbEntity
  8
1
  6
CONTINUOUS
 62
           7
100
AcDbLine
 10
654.212204731698
 20
1851.804334294797
 11
617.212204731698
 21
1851.804334294797
  0
LINE
  5
E5
100
AcDbEntity
  8
1
  6
CONTINUOUS
 62
           2
100
AcDbLine
 10
625.962204731611
 20
1851.804334294797
 11
625.962204731611
 21
1847.554334294797
  0
LINE
  5
E4
100
AcDbEntity
  8
1
  6
CONTINUOUS
 62
           2
100
AcDbLine
 10
625.962204731611
 20
1885.104334294797
 11
625.962204731611
 21
1889.354334294797
  0
LINE
  5
E3
100
AcDbEntity
  8
1
  6
CONTINUOUS
 62
           2
100
AcDbLine
 10
621.912204731611
 20
1889.354334294797
 11
621.912204731611
 21
1885.104334294797
  0
LINE
  5
E2
100
AcDbEntity
  8
1
  6
CONTINUOUS
 62
           2
100
AcDbLine
 10
621.912204731611
 20
1847.554334294797
 11
621.912204731611
 21
1851.804334294797
  0
LINE
  5
E1
100
AcDbEntity
  8
1
  6
CONTINUOUS
 62
           7
100
AcDbLine
 10
654.212204731698
 20
1882.604334294797
 11
641.462204731698
 21
1882.604334294797
  0
LINE
  5
E0
100
AcDbEntity
  8
1
  6
CONTINUOUS
 62
           7
100
AcDbLine
 10
621.712204731698
 20
1854.304334294797
 11
638.962204731698
 21
1854.304334294797
  0
LINE
  5
DF
100
AcDbEntity
  8
1
  6
DOT_CENTER
 62
           2
100
AcDbLine
 10
623.962204731611
 20
1868.225602700038
 11
623.962204731611
 21
1891.127503228392
  0
LINE
  5
DE
100
AcDbEntity
  8
1
  6
DOT_CENTER
 62
           2
100
AcDbLine
 10
684.462204731785
 20
1857.001688789263
 11
684.462204731785
 21
1845.781165361202
  0
LINE
  5
DD
100
AcDbEntity
  8
1
  6
CONTINUOUS
 62
           7
100
AcDbLine
 10
654.212204731698
 20
1847.554334294797
 11
709.059920029569
 21
1847.554334294797
  0
LINE
  5
DC
100
AcDbEntity
  8
1
  6
CONTINUOUS
 62
           7
100
AcDbLine
 10
685.912204731785
 20
1847.554334294797
 11
685.912204731785
 21
1851.804334294797
  0
LINE
  5
DB
100
AcDbEntity
  8
1
  6
CONTINUOUS
 62
           7
100
AcDbLine
 10
683.012204731784
 20
1847.554334294797
 11
683.012204731784
 21
1851.804334294797
  0
LINE
  5
DA
100
AcDbEntity
  8
1
  6
CONTINUOUS
 62
           7
100
AcDbLine
 10
709.059920029569
 20
1868.454334294797
 11
709.059920029569
 21
1847.554334294797
  0
LINE
  5
D9
100
AcDbEntity
  8
1
  6
CONTINUOUS
 62
           7
100
AcDbLine
 10
685.912204731785
 20
1885.104334294797
 11
685.912204731785
 21
1889.354334294797
  0
LINE
  5
D8
100
AcDbEntity
  8
1
  6
CONTINUOUS
 62
           7
100
AcDbLine
 10
683.012204731784
 20
1885.104334294797
 11
683.012204731784
 21
1889.354334294797
  0
LINE
  5
D7
100
AcDbEntity
  8
1
  6
CONTINUOUS
 62
           7
100
AcDbLine
 10
709.059920029568
 20
1889.354334294797
 11
654.212204731698
 21
1889.354334294797
  0
LINE
  5
D6
100
AcDbEntity
  8
1
  6
CONTINUOUS
 62
           7
100
AcDbLine
 10
709.059920029568
 20
1889.354334294797
 11
709.059920029569
 21
1868.454334294797
  0
LINE
  5
D5
100
AcDbEntity
  8
1
  6
CONTINUOUS
 62
           7
100
AcDbLine
 10
654.212204731698
 20
1885.104334294797
 11
691.212204731698
 21
1885.104334294797
  0
LINE
  5
D4
100
AcDbEntity
  8
1
  6
CONTINUOUS
 62
           2
100
AcDbLine
 10
682.462204731785
 20
1847.554334294797
 11
682.462204731785
 21
1851.804334294797
  0
LINE
  5
D3
100
AcDbEntity
  8
1
  6
CONTINUOUS
 62
           2
100
AcDbLine
 10
682.462204731785
 20
1889.354334294797
 11
682.462204731785
 21
1885.104334294797
  0
LINE
  5
D2
100
AcDbEntity
  8
1
  6
CONTINUOUS
 62
           2
100
AcDbLine
 10
686.512204731784
 20
1885.104334294797
 11
686.512204731784
 21
1889.354334294797
  0
LINE
  5
D1
100
AcDbEntity
  8
1
  6
CONTINUOUS
 62
           2
100
AcDbLine
 10
686.512204731785
 20
1851.804334294797
 11
686.512204731785
 21
1847.554334294797
  0
LINE
  5
D0
100
AcDbEntity
  8
1
  6
CONTINUOUS
 62
           7
100
AcDbLine
 10
666.962204731698
 20
1882.604334294797
 11
654.212204731698
 21
1882.604334294797
  0
LINE
  5
CF
100
AcDbEntity
  8
1
  6
CONTINUOUS
 62
           7
100
AcDbLine
 10
669.462204731698
 20
1854.304334294797
 11
686.712204731698
 21
1854.304334294797
  0
LINE
  5
CE
100
AcDbEntity
  8
1
  6
DOT_CENTER
 62
           2
100
AcDbLine
 10
684.462204731785
 20
1891.127503228392
 11
684.462204731785
 21
1878.525602700038
  0
LINE
  5
CD
100
AcDbEntity
  8
1
  6
CONTINUOUS
 62
           7
100
AcDbLine
 10
620.212204731698
 20
1869.204334294797
 11
638.962204731698
 21
1869.204334294797
  0
LINE
  5
CC
100
AcDbEntity
  8
1
  6
CONTINUOUS
 62
           7
100
AcDbLine
 10
688.212204731698
 20
1867.704334294797
 11
669.462204731698
 21
1867.704334294797
  0
LINE
  5
CB
100
AcDbEntity
  8
1
  6
CONTINUOUS
 62
           7
100
AcDbLine
 10
667.462204731698
 20
1867.204334294797
 11
667.462204731698
 21
1854.804334294797
  0
LINE
  5
CA
100
AcDbEntity
  8
1
  6
CONTINUOUS
 62
           7
100
AcDbLine
 10
666.962204731698
 20
1867.704334294797
 11
641.462204731698
 21
1867.704334294797
  0
LINE
  5
C9
100
AcDbEntity
  8
1
  6
CONTINUOUS
 62
           7
100
AcDbLine
 10
669.462204731698
 20
1869.204334294797
 11
688.212204731698
 21
1869.204334294796
  0
LINE
  5
C8
100
AcDbEntity
  8
1
  6
CONTINUOUS
 62
           7
100
AcDbLine
 10
668.962204731698
 20
1869.704334294796
 11
668.962204731698
 21
1882.104334294798
  0
LINE
  5
C7
100
AcDbEntity
  8
1
  6
CONTINUOUS
 62
           7
100
AcDbLine
 10
640.962204731698
 20
1869.704334294797
 11
640.962204731698
 21
1882.104334294798
  0
LINE
  5
C6
100
AcDbEntity
  8
1
  6
CONTINUOUS
 62
           7
100
AcDbLine
 10
641.462204731698
 20
1869.204334294797
 11
666.962204731698
 21
1869.204334294797
  0
LINE
  5
C5
100
AcDbEntity
  8
1
  6
CONTINUOUS
 62
           7
100
AcDbLine
 10
638.962204731698
 20
1867.704334294797
 11
620.212204731698
 21
1867.704334294797
  0
LINE
  5
C4
100
AcDbEntity
  8
1
  6
CONTINUOUS
 62
           7
100
AcDbLine
 10
619.712204731698
 20
1867.204334294797
 11
619.712204731698
 21
1856.304334294797
  0
LINE
  5
C3
100
AcDbEntity
  8
1
  6
CONTINUOUS
 62
           7
100
AcDbLine
 10
668.962204731698
 20
1854.804334294797
 11
668.962204731698
 21
1867.204334294797
  0
LINE
  5
C2
100
AcDbEntity
  8
1
  6
CONTINUOUS
 62
           7
100
AcDbLine
 10
688.712204731698
 20
1856.304334294797
 11
688.712204731698
 21
1867.204334294797
  0
LINE
  5
C1
100
AcDbEntity
  8
1
  6
CONTINUOUS
 62
           7
100
AcDbLine
 10
606.064489433828
 20
1795.291776474358
 11
654.212204731698
 21
1795.291776474358
  0
LINE
  5
C0
100
AcDbEntity
  8
1
  6
DOT_CENTER
 62
           2
100
AcDbLine
 10
597.995869577354
 20
1778.791776474358
 11
610.287109799159
 21
1778.791776474358
  0
LINE
  5
BF
100
AcDbEntity
  8
1
  6
DOT_CENTER
 62
           2
100
AcDbLine
 10
604.364489433828
 20
1784.128852326838
 11
604.364489433828
 21
1772.128852326838
  0
LINE
  5
BE
100
AcDbEntity
  8
1
  6
CONTINUOUS
 62
           7
100
AcDbLine
 10
612.110456126244
 20
1792.791776474358
 11
621.912204731611
 21
1792.791776474358
  0
LINE
  5
BD
100
AcDbEntity
  8
1
  6
CONTINUOUS
 62
           7
100
AcDbLine
 10
606.064489433828
 20
1795.291776474358
 11
606.064489433828
 21
1795.144452096408
  0
LINE
  5
BC
100
AcDbEntity
  8
1
  6
DOT_CENTER
 62
           2
100
AcDbLine
 10
654.212204731698
 20
1787.376469092859
 11
654.212204731698
 21
1802.376469092859
  0
LINE
  5
BB
100
AcDbEntity
  8
1
  6
DOT_CENTER
 62
           2
100
AcDbLine
 10
620.403303736342
 20
1788.591776474358
 11
627.403303736342
 21
1788.591776474358
  0
LINE
  5
BA
100
AcDbEntity
  8
1
  6
DOT_CENTER
 62
           2
100
AcDbLine
 10
623.962204731611
 20
1796.276903443757
 11
623.962204731611
 21
1784.276903443757
  0
LINE
  5
B9
100
AcDbEntity
  8
1
  6
CONTINUOUS
 62
           7
100
AcDbLine
 10
654.212204731698
 20
1795.291776474358
 11
700.127869221999
 21
1795.291776474358
  0
LINE
  5
B8
100
AcDbEntity
  8
1
  6
CONTINUOUS
 62
           7
100
AcDbLine
 10
709.059920029568
 20
1792.791776474358
 11
686.512204731785
 21
1792.791776474358
  0
LINE
  5
B7
100
AcDbEntity
  8
1
  6
CONTINUOUS
 62
           7
100
AcDbLine
 10
709.059920029568
 20
1792.791776474358
 11
709.059920029568
 21
1793.100864495612
  0
LINE
  5
B6
100
AcDbEntity
  8
1
  6
CONTINUOUS
 62
           7
100
AcDbLine
 10
704.059920029568
 20
1794.291776474358
 11
701.859920029568
 21
1794.291776474358
  0
LINE
  5
B5
100
AcDbEntity
  8
1
  6
DOT_CENTER
 62
           2
100
AcDbLine
 10
681.021105727054
 20
1788.591776474358
 11
688.021105727054
 21
1788.591776474358
  0
LINE
  5
B4
100
AcDbEntity
  8
1
  6
DOT_CENTER
 62
           2
100
AcDbLine
 10
684.462204731785
 20
1784.276903443757
 11
684.462204731785
 21
1796.276903443757
  0
LINE
  5
B3
100
AcDbEntity
  8
1
  6
CONTINUOUS
 62
           7
100
AcDbLine
 10
691.212204731698
 20
1792.791776474358
 11
691.212204731698
 21
1791.291776474358
  0
LINE
  5
B2
100
AcDbEntity
  8
1
  6
CONTINUOUS
 62
           7
100
AcDbLine
 10
691.212204731698
 20
1791.291776474358
 11
685.462204731785
 21
1791.291776474358
  0
LINE
  5
B1
100
AcDbEntity
  8
1
  6
CONTINUOUS
 62
           7
100
AcDbLine
 10
617.212204731698
 20
1791.291776474358
 11
617.212204731698
 21
1792.791776474358
  0
LINE
  5
B0
100
AcDbEntity
  8
1
  6
DOT_CENTER
 62
           2
100
AcDbLine
 10
698.137299664237
 20
1778.791776474358
 11
710.428539886042
 21
1778.791776474358
  0
LINE
  5
AF
100
AcDbEntity
  8
1
  6
DOT_CENTER
 62
           2
100
AcDbLine
 10
704.059920029568
 20
1772.128852326838
 11
704.059920029568
 21
1784.128852326838
  0
LINE
  5
AE
100
AcDbEntity
  8
1
  6
CONTINUOUS
 62
           7
100
AcDbLine
 10
624.962204731611
 20
1790.006873644166
 11
624.962204731611
 21
1791.791776474358
  0
LINE
  5
AD
100
AcDbEntity
  8
1
  6
CONTINUOUS
 62
           7
100
AcDbLine
 10
622.962204731611
 20
1791.791776474358
 11
622.962204731611
 21
1790.006873644166
  0
LINE
  5
AC
100
AcDbEntity
  8
1
  6
CONTINUOUS
 62
           7
100
AcDbLine
 10
622.962204731611
 20
1791.291776474358
 11
617.212204731698
 21
1791.291776474358
  0
LINE
  5
AB
100
AcDbEntity
  8
1
  6
CONTINUOUS
 62
           7
100
AcDbLine
 10
625.962204731611
 20
1792.791776474358
 11
654.212204731698
 21
1792.791776474358
  0
LINE
  5
AA
100
AcDbEntity
  8
1
  6
CONTINUOUS
 62
           7
100
AcDbLine
 10
683.462204731785
 20
1791.791776474358
 11
683.462204731785
 21
1790.006873644166
  0
LINE
  5
A9
100
AcDbEntity
  8
1
  6
CONTINUOUS
 62
           7
100
AcDbLine
 10
685.462204731785
 20
1790.006873644166
 11
685.462204731785
 21
1791.791776474358
  0
LINE
  5
A8
100
AcDbEntity
  8
1
  6
CONTINUOUS
 62
           7
100
AcDbLine
 10
682.462204731785
 20
1792.791776474358
 11
654.212204731698
 21
1792.791776474358
  0
LINE
  5
A7
100
AcDbEntity
  8
1
  6
CONTINUOUS
 62
           7
100
AcDbLine
 10
683.462204731785
 20
1791.291776474358
 11
624.962204731611
 21
1791.291776474358
  0
LINE
  5
A6
100
AcDbEntity
  8
1
  6
CONTINUOUS
 62
           7
100
AcDbLine
 10
691.212204731698
 20
1885.104334294797
 11
691.212204731698
 21
1851.804334294797
  0
LINE
  5
A5
100
AcDbEntity
  8
1
  6
CONTINUOUS
 62
           7
100
AcDbLine
 10
691.212204731698
 20
1851.804334294797
 11
654.212204731698
 21
1851.804334294797
  0
LINE
  5
A4
100
AcDbEntity
  8
1
  6
CONTINUOUS
 62
           7
100
AcDbLine
 10
686.512204731785
 20
1851.804334294797
 11
682.462204731785
 21
1851.804334294797
  0
LINE
  5
A3
100
AcDbEntity
  8
1
  6
CONTINUOUS
 62
           7
100
AcDbLine
 10
682.462204731785
 20
1885.104334294797
 11
686.512204731784
 21
1885.104334294797
  0
LINE
  5
A2
100
AcDbEntity
  8
1
  6
CONTINUOUS
 62
           7
100
AcDbLine
 10
617.212204731698
 20
1885.104334294797
 11
617.212204731698
 21
1851.804334294797
  0
LINE
  5
A1
100
AcDbEntity
  8
1
  6
CONTINUOUS
 62
           7
100
AcDbLine
 10
625.962204731611
 20
1851.804334294797
 11
621.912204731611
 21
1851.804334294797
  0
LINE
  5
A0
100
AcDbEntity
  8
1
  6
CONTINUOUS
 62
           7
100
AcDbLine
 10
621.912204731611
 20
1885.104334294797
 11
625.962204731611
 21
1885.104334294797
  0
LINE
  5
9F
100
AcDbEntity
  8
1
  6
CONTINUOUS
 62
           7
100
AcDbLine
 10
617.212204731698
 20
1885.104334294797
 11
654.212204731698
 21
1885.104334294797
  0
LINE
  5
9E
100
AcDbEntity
  8
1
  6
CONTINUOUS
 62
           7
100
AcDbLine
 10
612.110456126244
 20
1889.354334294797
 11
612.110456126244
 21
1847.554334294797
  0
LINE
  5
9D
100
AcDbEntity
  8
1
  6
DOT_CENTER
 62
           2
100
AcDbLine
 10
608.648079182263
 20
1868.454334294797
 11
603.07170089997
 21
1868.454334294797
  0
INSERT
  5
29
100
AcDbEntity
  8
0
100
AcDbBlockReference
  2
TOP__1
 10
785.005776604997
 20
1662.97309162076
  0
INSERT
  5
2C1
100
AcDbEntity
  8
0
100
AcDbBlockReference
  2
*D64
 10
0.0
 20
0.0
  0
INSERT
  5
2CE
100
AcDbEntity
  8
0
100
AcDbBlockReference
  2
*D65
 10
0.0
 20
0.0
  0
ENDSEC
  0
SECTION
  2
OBJECTS
  0
DICTIONARY
  5
19
100
AcDbDictionary
  3
ACAD_GROUP
350
1A
  3
ACAD_MLINESTYLE
350
1B
  0
DICTIONARY
  5
1A
102
{ACAD_REACTORS
330
19
102
}
100
AcDbDictionary
  0
DICTIONARY
  5
1B
102
{ACAD_REACTORS
330
19
102
}
100
AcDbDictionary
  3
STANDARD
350
1C
  0
MLINESTYLE
  5
1C
102
{ACAD_REACTORS
330
1B
102
}
100
AcDbMlineStyle
  2
STANDARD
 70
           0
  3

 62
           0
 51
90.0
 52
90.0
 71
           2
 49
0.5
 62
         256
  6
BYLAYER
 49
-0.5
 62
         256
  6
BYLAYER
  0
ENDSEC
  0
EOF
