0
SECTION
2
HEADER
9
$ACADVER
1
AC1015
9
$DWGCODEPAGE
3
ANSI_1252
9
$EXTMAX
10
210.0000000000
20
297.0000000000
30
0.0000000000
9
$EXTMIN
10
0.0000000000
20
0.0000000000
30
0.0000000000
9
$LIMMIN
10
0.0000000000
20
0.0000000000
9
$LIMMAX
10
210.0000000000
20
297.0000000000
9
$VIEWCTR
10
105.0000000000
20
148.5000000000
9
$VIEWSIZE
40
297.0000000000
9
$CLAYER
8
0
9
$LTSCALE
40
19.3600000000
9
$CELTYPE
6
BYLAYER
9
$DIMSCALE
40
1
9
$DIMASZ
40
3.5000000000
9
$DIMEXO
40
2.2000000000
9
$DIMDLI
40
13.3760000000
9
$DIMEXE
40
6.3360000000
9
$DIMCEN
40
3.1680000000
9
$DIMLFAC
40
1.0000000000
9
$DIMBLK
1
_FILLED
9
$DIMTXT
40
3.5000000000
9
$DIMTOL
70
1
9
$DIMLIM
70
0
9
$DIMTFAC
40
1.0000000000
9
$DIMTP
40
0.0010000000
9
$DIMTM
40
0.0010000000
9
$PDMODE
70
3
9
$PDSIZE
40
0.3125000000
9
$HANDSEED
5
26C
9
$MEASUREMENT
70
1
9
$INSUNITS
70
4
0
ENDSEC
0
SECTION
2
CLASSES
0
CLASS
1
ACDBDICTIONARYWDFLT
2
AcDbDictionaryWithDefault
3
AutoCAD 2000
90
0
280
0
281
0
0
CLASS
1
ACDBPLACEHOLDER
2
AcDbPlaceHolder
3
AutoCAD 2000
90
0
280
0
281
0
0
CLASS
1
LAYOUT
2
AcDbLayout
3
AutoCAD 2000
90
0
280
0
281
0
0
ENDSEC
0
SECTION
2
TABLES
0
TABLE
2
VPORT
5
8
100
AcDbSymbolTable
70
2
0
VPORT
5
1F4
100
AcDbSymbolTableRecord
100
AcDbViewportTableRecord
2
*ACTIVE
70
0
10
0.0
20
0.0
11
1.0
21
1.0
12
105.0000000000
22
148.5000000000
13
0.0
23
0.0
14
1.0
24
1.0
15
0.0
25
0.0
16
0.0
26
0.0
36
1.0
17
0.0
27
0.0
37
0.0
40
297.0000000000
41
0.7070707071
42
50.0
43
0.0
44
0.0
50
0.0
51
0.0
71
0
72
100
73
1
74
1
75
0
76
0
77
0
78
0
0
ENDTAB
0
TABLE
2
LTYPE
5
5
100
AcDbSymbolTable
70
6
0
LTYPE
5
14
100
AcDbSymbolTableRecord
100
AcDbLinetypeTableRecord
2
BYBLOCK
70
0
3

72
65
73
0
40
0.0
0
LTYPE
5
15
100
AcDbSymbolTableRecord
100
AcDbLinetypeTableRecord
2
BYLAYER
70
0
3

72
65
73
0
40
0.0
0
LTYPE
5
16
100
AcDbSymbolTableRecord
100
AcDbLinetypeTableRecord
2
CONTINUOUS
70
64
3
Solid line
72
65
73
0
40
0
0
LTYPE
5
1F5
100
AcDbSymbolTableRecord
100
AcDbLinetypeTableRecord
2
CENTER
70
64
3
____ _ ____ _ ____ _ ____ _ ____ _ ____ _ ____
72
65
73
4
40
0.6
49
0.375
74
0
49
-0.075
74
0
49
0.075
74
0
49
-0.075
74
0
0
LTYPE
5
1F6
100
AcDbSymbolTableRecord
100
AcDbLinetypeTableRecord
2
HIDDEN
70
64
3
- - - - - - - - - - - - - - - - - - - -
72
65
73
2
40
0.2
49
0.1
74
0
49
-0.1
74
0
0
LTYPE
5
1F7
100
AcDbSymbolTableRecord
100
AcDbLinetypeTableRecord
2
PHANTOM
70
64
3
_____ _ _ _____ _ _ _____ _ _ _____
72
65
73
6
40
0.8
49
0.45
74
0
49
-0.05
74
0
49
0.1
74
0
49
-0.05
74
0
49
0.1
74
0
49
-0.05
74
0
0
LTYPE
5
1F8
100
AcDbSymbolTableRecord
100
AcDbLinetypeTableRecord
2
DOT
70
64
3
. . . . . . . . . . . . . . . . . . . .
72
65
73
2
40
0.2
49
0.1
74
0
49
-0.1
74
0
0
LTYPE
5
1F9
100
AcDbSymbolTableRecord
100
AcDbLinetypeTableRecord
2
DASHED
70
64
3
- - - - - - - - - - - - - - - - - - - -
72
65
73
2
40
0.2
49
0.1
74
0
49
-0.1
74
0
0
ENDTAB
0
TABLE
2
LAYER
5
2
100
AcDbSymbolTable
70
36
0
LAYER
5
10
100
AcDbSymbolTableRecord
100
AcDbLayerTableRecord
2
0
70
0
62
7
6
CONTINUOUS
370
-3
390
F
0
LAYER
5
1FA
100
AcDbSymbolTableRecord
100
AcDbLayerTableRecord
2
DEFAULT_1
70
0
62
7
6
CENTER
370
-3
390
F
0
LAYER
5
1FB
100
AcDbSymbolTableRecord
100
AcDbLayerTableRecord
2
DEFAULT_2
70
0
62
8
6
HIDDEN
370
-3
390
F
0
LAYER
5
1FC
100
AcDbSymbolTableRecord
100
AcDbLayerTableRecord
2
DEFAULT_3
70
0
62
7
6
PHANTOM
370
-3
390
F
0
LAYER
5
1FD
100
AcDbSymbolTableRecord
100
AcDbLayerTableRecord
2
ASSI
70
0
62
7
6
CONTINUOUS
370
-3
390
F
0
LAYER
5
1FE
100
AcDbSymbolTableRecord
100
AcDbLayerTableRecord
2
PIANI
70
0
62
7
6
CONTINUOUS
370
-3
390
F
0
ENDTAB
0
TABLE
2
STYLE
5
3
100
AcDbSymbolTable
70
1
0
STYLE
5
11
100
AcDbSymbolTableRecord
100
AcDbTextStyleTableRecord
2
STANDARD
70
0
40
0.0
41
0.7143000000
50
0.0
71
0
42
0.2
3
txt
4

0
ENDTAB
0
TABLE
2
VIEW
5
6
100
AcDbSymbolTable
70
0
0
ENDTAB
0
TABLE
2
UCS
5
7
100
AcDbSymbolTable
70
0
0
ENDTAB
0
TABLE
2
APPID
5
9
100
AcDbSymbolTable
70
1
0
APPID
5
1FF
100
AcDbSymbolTableRecord
100
AcDbRegAppTableRecord
2
ACAD
70
0
0
ENDTAB
0
TABLE
2
BLOCK_RECORD
5
1
100
AcDbSymbolTable
70
0
0
BLOCK_RECORD
5
1F
100
AcDbSymbolTableRecord
100
AcDbBlockTableRecord
2
*MODEL_SPACE
0
BLOCK_RECORD
5
1B
100
AcDbSymbolTableRecord
100
AcDbBlockTableRecord
2
*PAPER_SPACE
0
BLOCK_RECORD
5
200
100
AcDbSymbolTableRecord
100
AcDbBlockTableRecord
2
_FILLED
0
BLOCK_RECORD
5
201
100
AcDbSymbolTableRecord
100
AcDbBlockTableRecord
2
*D0
0
BLOCK_RECORD
5
202
100
AcDbSymbolTableRecord
100
AcDbBlockTableRecord
2
*D1
0
BLOCK_RECORD
5
203
100
AcDbSymbolTableRecord
100
AcDbBlockTableRecord
2
*D2
0
BLOCK_RECORD
5
204
100
AcDbSymbolTableRecord
100
AcDbBlockTableRecord
2
*D3
0
BLOCK_RECORD
5
205
100
AcDbSymbolTableRecord
100
AcDbBlockTableRecord
2
*D4
0
BLOCK_RECORD
5
206
100
AcDbSymbolTableRecord
100
AcDbBlockTableRecord
2
*D5
0
ENDTAB
0
TABLE
2
DIMSTYLE
5
A
100
AcDbSymbolTable
70
1
100
AcDbDimStyleTable
71
0
0
DIMSTYLE
105
207
100
AcDbSymbolTableRecord
100
AcDbDimStyleTableRecord
2
STANDARD
70
0
3

4

40
1.0
41
3.5000000000
42
0.0625
43
0.38
44
0.18
45
0.0
46
0.0
47
0.0010000000
48
0.0010000000
140
3.5000000000
141
0.09
142
0.0
143
25.4
144
1.0000000000
145
0.0
146
1.0000000000
147
0.09
71
1
72
0
73
0
74
0
75
0
76
0
77
1
78
8
170
0
171
2
172
0
173
0
174
0
175
0
176
0
177
0
178
0
270
2
271
3
272
3
273
2
274
2
275
0
280
0
281
0
282
0
283
1
284
8
285
0
286
0
287
3
288
0
340
11
341
200
342
200
343
200
344
200
0
DIMSTYLE
105
208
100
AcDbSymbolTableRecord
100
AcDbDimStyleTableRecord
2
DIMSTYLE_1
70
0
3

4

40
1.0
41
3.5000000000
42
0.0625
43
0.38
44
0.18
45
0.0
46
0.0
47
0.1500000000
48
0.1500000000
140
3.5000000000
141
0.09
142
0.0
143
25.4
144
1.0000000000
145
0.0
146
1.0000000000
147
0.09
71
0
72
0
73
0
74
0
75
0
76
0
77
1
78
8
170
0
171
2
172
0
173
0
174
0
175
0
176
0
177
0
178
0
270
2
271
2
272
2
273
2
274
2
275
0
280
0
281
0
282
0
283
1
284
8
285
0
286
0
287
3
288
0
340
11
341
200
342
200
343
200
344
200
0
DIMSTYLE
105
209
100
AcDbSymbolTableRecord
100
AcDbDimStyleTableRecord
2
DIMSTYLE_2
70
0
3

4

40
1.0
41
3.5000000000
42
0.0625
43
0.38
44
0.18
45
0.0
46
0.0
47
0.1000000000
48
0.1000000000
140
3.5000000000
141
0.09
142
0.0
143
25.4
144
1.0000000000
145
0.0
146
1.0000000000
147
0.09
71
0
72
0
73
0
74
0
75
0
76
0
77
1
78
8
170
0
171
2
172
0
173
0
174
0
175
0
176
0
177
0
178
0
270
2
271
2
272
2
273
2
274
2
275
0
280
0
281
0
282
0
283
1
284
8
285
0
286
0
287
3
288
0
340
11
341
200
342
200
343
200
344
200
0
ENDTAB
0
ENDSEC
0
SECTION
2
BLOCKS
0
BLOCK
5
20
100
AcDbEntity
8
0
100
AcDbBlockBegin
2
*MODEL_SPACE
70
0
10
0.0
20
0.0
30
0.0
3
*MODEL_SPACE
1

0
ENDBLK
5
21
100
AcDbEntity
8
0
100
AcDbBlockEnd
0
BLOCK
5
1C
100
AcDbEntity
8
0
100
AcDbBlockBegin
2
*PAPER_SPACE
70
0
10
0.0
20
0.0
30
0.0
3
*PAPER_SPACE
1

0
ENDBLK
5
1D
100
AcDbEntity
8
0
100
AcDbBlockEnd
0
BLOCK
5
20A
100
AcDbEntity
8
0
100
AcDbBlockBegin
62
2
6
CONTINUOUS
2
*D0
70
65
10
0.0000000000
20
0.0000000000
3
*D0
1

0
TEXT
5
20B
100
AcDbEntity
8
0
100
AcDbText
62
2
6
CONTINUOUS
10
16.2924702039
20
128.4348091140
7
STANDARD
40
3.5000000000
1
60
50
90.0000000000
41
0.7143000000
72
0
100
AcDbText
0
LINE
5
20C
100
AcDbEntity
8
0
100
AcDbLine
62
2
6
CONTINUOUS
10
60.3043129388
20
100.7411233701
11
15.6674702039
21
100.7411233701
0
LINE
5
20D
100
AcDbEntity
8
0
100
AcDbLine
62
2
6
CONTINUOUS
10
60.3043129388
20
160.7411233701
11
15.6674702039
21
160.7411233701
0
LINE
5
20E
100
AcDbEntity
8
0
100
AcDbLine
62
2
6
CONTINUOUS
10
17.1674702039
20
100.7411233701
11
17.1674702039
21
130.7411233701
0
LINE
5
20F
100
AcDbEntity
8
0
100
AcDbLine
62
2
6
CONTINUOUS
10
17.1674702039
20
160.7411233701
11
17.1674702039
21
130.7411233701
0
INSERT
5
210
100
AcDbEntity
8
0
100
AcDbBlockReference
62
2
6
CONTINUOUS
2
_FILLED
10
17.1674702039
20
100.7411233701
41
  3.500000
42
  3.500000
43
  3.500000
50
270.000000
0
INSERT
5
211
100
AcDbEntity
8
0
100
AcDbBlockReference
62
2
6
CONTINUOUS
2
_FILLED
10
17.1674702039
20
160.7411233701
41
  3.500000
42
  3.500000
43
  3.500000
50
 90.000000
0
ENDBLK
5
212
100
AcDbEntity
8
0
6
BYBLOCK
62
0
100
AcDbBlockEnd
0
BLOCK
5
213
100
AcDbEntity
8
0
100
AcDbBlockBegin
62
2
6
CONTINUOUS
2
*D1
70
65
10
0.0000000000
20
0.0000000000
3
*D1
1

0
TEXT
5
214
100
AcDbEntity
8
0
100
AcDbText
62
2
6
CONTINUOUS
10
94.7394725671
20
78.8878029716
7
STANDARD
40
3.5000000000
1
%%c
41
1.3333333333
72
0
100
AcDbText
0
TEXT
5
215
100
AcDbEntity
8
0
100
AcDbText
62
2
6
CONTINUOUS
10
99.4061392338
20
78.8878029716
7
STANDARD
40
3.5000000000
1
79
41
0.7143000000
72
0
100
AcDbText
0
LINE
5
216
100
AcDbEntity
8
0
100
AcDbLine
62
2
6
CONTINUOUS
10
139.8043129388
20
100.2411233701
11
139.8043129388
21
76.5128029716
0
LINE
5
217
100
AcDbEntity
8
0
100
AcDbLine
62
2
6
CONTINUOUS
10
60.8043129388
20
100.2411233701
11
60.8043129388
21
76.5128029716
0
LINE
5
218
100
AcDbEntity
8
0
100
AcDbLine
62
2
6
CONTINUOUS
10
139.8043129388
20
78.0128029716
11
100.3043129388
21
78.0128029716
0
LINE
5
219
100
AcDbEntity
8
0
100
AcDbLine
62
2
6
CONTINUOUS
10
60.8043129388
20
78.0128029716
11
100.3043129388
21
78.0128029716
0
INSERT
5
21A
100
AcDbEntity
8
0
100
AcDbBlockReference
62
2
6
CONTINUOUS
2
_FILLED
10
139.8043129388
20
78.0128029716
41
  3.500000
42
  3.500000
43
  3.500000
50
  0.000000
0
INSERT
5
21B
100
AcDbEntity
8
0
100
AcDbBlockReference
62
2
6
CONTINUOUS
2
_FILLED
10
60.8043129388
20
78.0128029716
41
  3.500000
42
  3.500000
43
  3.500000
50
180.000000
0
ENDBLK
5
21C
100
AcDbEntity
8
0
6
BYBLOCK
62
0
100
AcDbBlockEnd
0
BLOCK
5
21D
100
AcDbEntity
8
0
100
AcDbBlockBegin
62
2
6
CONTINUOUS
2
*D2
70
65
10
0.0000000000
20
0.0000000000
3
*D2
1

0
TEXT
5
21E
100
AcDbEntity
8
0
100
AcDbText
62
2
6
CONTINUOUS
10
27.7439139872
20
128.7709394020
7
STANDARD
40
3.5000000000
1
40
50
90.0000000000
41
0.7143000000
72
0
100
AcDbText
0
LINE
5
21F
100
AcDbEntity
8
0
100
AcDbLine
62
2
6
CONTINUOUS
10
60.3043129388
20
110.7411233701
11
27.1189139872
21
110.7411233701
0
LINE
5
220
100
AcDbEntity
8
0
100
AcDbLine
62
2
6
CONTINUOUS
10
60.3043129388
20
150.7411233701
11
27.1189139872
21
150.7411233701
0
LINE
5
221
100
AcDbEntity
8
0
100
AcDbLine
62
2
6
CONTINUOUS
10
28.6189139872
20
110.7411233701
11
28.6189139872
21
130.7411233701
0
LINE
5
222
100
AcDbEntity
8
0
100
AcDbLine
62
2
6
CONTINUOUS
10
28.6189139872
20
150.7411233701
11
28.6189139872
21
130.7411233701
0
INSERT
5
223
100
AcDbEntity
8
0
100
AcDbBlockReference
62
2
6
CONTINUOUS
2
_FILLED
10
28.6189139872
20
110.7411233701
41
  3.500000
42
  3.500000
43
  3.500000
50
270.000000
0
INSERT
5
224
100
AcDbEntity
8
0
100
AcDbBlockReference
62
2
6
CONTINUOUS
2
_FILLED
10
28.6189139872
20
150.7411233701
41
  3.500000
42
  3.500000
43
  3.500000
50
 90.000000
0
ENDBLK
5
225
100
AcDbEntity
8
0
6
BYBLOCK
62
0
100
AcDbBlockEnd
0
BLOCK
5
226
100
AcDbEntity
8
0
100
AcDbBlockBegin
62
2
6
CONTINUOUS
2
*D3
70
65
10
0.0000000000
20
0.0000000000
3
*D3
1

0
TEXT
5
227
100
AcDbEntity
8
0
100
AcDbText
62
2
6
CONTINUOUS
10
94.5742432565
20
88.3153803281
7
STANDARD
40
3.5000000000
1
%%c
41
1.3333333333
72
0
100
AcDbText
0
TEXT
5
228
100
AcDbEntity
8
0
100
AcDbText
62
2
6
CONTINUOUS
10
99.2409099231
20
88.3153803281
7
STANDARD
40
3.5000000000
1
64
41
0.7143000000
72
0
100
AcDbText
0
LINE
5
229
100
AcDbEntity
8
0
100
AcDbLine
62
2
6
CONTINUOUS
10
132.3043129388
20
110.2411233701
11
132.3043129388
21
85.9403803281
0
LINE
5
22A
100
AcDbEntity
8
0
100
AcDbLine
62
2
6
CONTINUOUS
10
68.3043129388
20
110.2411233701
11
68.3043129388
21
85.9403803281
0
LINE
5
22B
100
AcDbEntity
8
0
100
AcDbLine
62
2
6
CONTINUOUS
10
132.3043129388
20
87.4403803281
11
100.3043129388
21
87.4403803281
0
LINE
5
22C
100
AcDbEntity
8
0
100
AcDbLine
62
2
6
CONTINUOUS
10
68.3043129388
20
87.4403803281
11
100.3043129388
21
87.4403803281
0
INSERT
5
22D
100
AcDbEntity
8
0
100
AcDbBlockReference
62
2
6
CONTINUOUS
2
_FILLED
10
132.3043129388
20
87.4403803281
41
  3.500000
42
  3.500000
43
  3.500000
50
  0.000000
0
INSERT
5
22E
100
AcDbEntity
8
0
100
AcDbBlockReference
62
2
6
CONTINUOUS
2
_FILLED
10
68.3043129388
20
87.4403803281
41
  3.500000
42
  3.500000
43
  3.500000
50
180.000000
0
ENDBLK
5
22F
100
AcDbEntity
8
0
6
BYBLOCK
62
0
100
AcDbBlockEnd
0
BLOCK
5
230
100
AcDbEntity
8
0
100
AcDbBlockBegin
62
2
6
CONTINUOUS
2
*D4
70
65
10
0.0000000000
20
0.0000000000
3
*D4
1

0
TEXT
5
231
100
AcDbEntity
8
0
100
AcDbText
62
2
6
CONTINUOUS
10
38.3036465577
20
129.0582095604
7
STANDARD
40
3.5000000000
1
36
50
90.0000000000
41
0.7143000000
72
0
100
AcDbText
0
LINE
5
232
100
AcDbEntity
8
0
100
AcDbLine
62
2
6
CONTINUOUS
10
67.8043129388
20
148.7411233701
11
37.6786465577
21
148.7411233701
0
LINE
5
233
100
AcDbEntity
8
0
100
AcDbLine
62
2
6
CONTINUOUS
10
67.8043129388
20
112.7411233701
11
37.6786465577
21
112.7411233701
0
LINE
5
234
100
AcDbEntity
8
0
100
AcDbLine
62
2
6
CONTINUOUS
10
39.1786465577
20
148.7411233701
11
39.1786465577
21
130.7411233701
0
LINE
5
235
100
AcDbEntity
8
0
100
AcDbLine
62
2
6
CONTINUOUS
10
39.1786465577
20
112.7411233701
11
39.1786465577
21
130.7411233701
0
INSERT
5
236
100
AcDbEntity
8
0
100
AcDbBlockReference
62
2
6
CONTINUOUS
2
_FILLED
10
39.1786465577
20
148.7411233701
41
  3.500000
42
  3.500000
43
  3.500000
50
 90.000000
0
INSERT
5
237
100
AcDbEntity
8
0
100
AcDbBlockReference
62
2
6
CONTINUOUS
2
_FILLED
10
39.1786465577
20
112.7411233701
41
  3.500000
42
  3.500000
43
  3.500000
50
270.000000
0
ENDBLK
5
238
100
AcDbEntity
8
0
6
BYBLOCK
62
0
100
AcDbBlockEnd
0
BLOCK
5
239
100
AcDbEntity
8
0
100
AcDbBlockBegin
62
2
6
CONTINUOUS
2
*D5
70
65
10
0.0000000000
20
0.0000000000
3
*D5
1

0
TEXT
5
23A
100
AcDbEntity
8
0
100
AcDbText
62
2
6
CONTINUOUS
10
49.3815217218
20
125.3648342402
7
STANDARD
40
3.5000000000
1
18.5
50
90.0000000000
41
0.7143000000
72
0
100
AcDbText
0
LINE
5
23B
100
AcDbEntity
8
0
100
AcDbLine
62
2
6
CONTINUOUS
10
67.8043129388
20
121.4911233701
11
48.7565217218
21
121.4911233701
0
LINE
5
23C
100
AcDbEntity
8
0
100
AcDbLine
62
2
6
CONTINUOUS
10
67.8043129388
20
139.9911233701
11
48.7565217218
21
139.9911233701
0
LINE
5
23D
100
AcDbEntity
8
0
100
AcDbLine
62
2
6
CONTINUOUS
10
50.2565217218
20
121.4911233701
11
50.2565217218
21
130.7411233701
0
LINE
5
23E
100
AcDbEntity
8
0
100
AcDbLine
62
2
6
CONTINUOUS
10
50.2565217218
20
139.9911233701
11
50.2565217218
21
130.7411233701
0
INSERT
5
23F
100
AcDbEntity
8
0
100
AcDbBlockReference
62
2
6
CONTINUOUS
2
_FILLED
10
50.2565217218
20
121.4911233701
41
  3.500000
42
  3.500000
43
  3.500000
50
270.000000
0
INSERT
5
240
100
AcDbEntity
8
0
100
AcDbBlockReference
62
2
6
CONTINUOUS
2
_FILLED
10
50.2565217218
20
139.9911233701
41
  3.500000
42
  3.500000
43
  3.500000
50
 90.000000
0
ENDBLK
5
241
100
AcDbEntity
8
0
6
BYBLOCK
62
0
100
AcDbBlockEnd
0
BLOCK
5
242
100
AcDbEntity
8
0
100
AcDbBlockBegin
2
_FILLED
70
64
10
0.0000000000
20
0.0000000000
3
_FILLED
1

0
SOLID
5
243
100
AcDbEntity
8
0
6
BYBLOCK
62
0
100
AcDbTrace
10
0.0000000000
20
0.0000000000
11
-1.0000000000
21
0.1857142857
12
-1.0000000000
22
-0.1857142857
13
-1.0000000000
23
-0.1857142857
0
ENDBLK
5
244
100
AcDbEntity
8
0
6
BYBLOCK
62
0
100
AcDbBlockEnd
0
ENDSEC
0
SECTION
2
ENTITIES
0
DIMENSION
5
245
100
AcDbEntity
8
0
100
AcDbDimension
62
2
6
CONTINUOUS
2
*D0
10
17.1674702039
20
160.7411233701
11
14.5424702039
21
130.9348591140
70
160
42
60.000000
3
DIMSTYLE_1
100
AcDbAlignedDimension
13
60.3043129388
23
100.7411233701
14
60.3043129388
24
160.7411233701
50
90.000000
100
AcDbRotatedDimension
0
DIMENSION
5
246
100
AcDbEntity
8
0
100
AcDbDimension
62
2
6
CONTINUOUS
2
*D1
10
60.8043129388
20
78.0128029716
11
99.5728559004
21
80.6378029716
70
160
42
79.000000
1
%%c<>
3
DIMSTYLE_1
100
AcDbAlignedDimension
13
139.8043129388
23
100.2411233701
14
60.8043129388
24
100.2411233701
50
180.000000
100
AcDbRotatedDimension
0
DIMENSION
5
247
100
AcDbEntity
8
0
100
AcDbDimension
62
2
6
CONTINUOUS
2
*D2
10
28.6189139872
20
150.7411233701
11
25.9939139872
21
131.2709894020
70
160
42
40.000000
3
DIMSTYLE_1
100
AcDbAlignedDimension
13
60.3043129388
23
110.7411233701
14
60.3043129388
24
150.7411233701
50
90.000000
100
AcDbRotatedDimension
0
DIMENSION
5
248
100
AcDbEntity
8
0
100
AcDbDimension
62
2
6
CONTINUOUS
2
*D3
10
68.3043129388
20
87.4403803281
11
99.4076265898
21
90.0653803281
70
160
42
64.000000
1
%%c<>
3
DIMSTYLE_1
100
AcDbAlignedDimension
13
132.3043129388
23
110.2411233701
14
68.3043129388
24
110.2411233701
50
180.000000
100
AcDbRotatedDimension
0
DIMENSION
5
249
100
AcDbEntity
8
0
100
AcDbDimension
62
2
6
CONTINUOUS
2
*D4
10
39.1786465577
20
112.7411233701
11
36.5536465577
21
131.5582595604
70
160
42
36.000000
3
DIMSTYLE_1
100
AcDbAlignedDimension
13
67.8043129388
23
148.7411233701
14
67.8043129388
24
112.7411233701
50
270.000000
100
AcDbRotatedDimension
0
DIMENSION
5
24A
100
AcDbEntity
8
0
100
AcDbDimension
62
2
6
CONTINUOUS
2
*D5
10
50.2565217218
20
139.9911233701
11
47.6315217218
21
130.3649342402
70
160
42
18.500000
3
DIMSTYLE_2
100
AcDbAlignedDimension
13
67.8043129388
23
121.4911233701
14
67.8043129388
24
139.9911233701
50
90.000000
100
AcDbRotatedDimension
0
LINE
5
24B
100
AcDbEntity
8
0
100
AcDbLine
62
7
6
CONTINUOUS
10
0.0000000000
20
0.0000000000
11
210.0000000000
21
0.0000000000
0
LINE
5
24C
100
AcDbEntity
8
0
100
AcDbLine
62
7
6
CONTINUOUS
10
0.0000000000
20
0.0000000000
11
0.0000000000
21
297.0000000000
0
LINE
5
24D
100
AcDbEntity
8
0
100
AcDbLine
62
7
6
CONTINUOUS
10
210.0000000000
20
0.0000000000
11
210.0000000000
21
297.0000000000
0
LINE
5
24E
100
AcDbEntity
8
0
100
AcDbLine
62
7
6
CONTINUOUS
10
0.0000000000
20
297.0000000000
11
210.0000000000
21
297.0000000000
0
LINE
5
24F
100
AcDbEntity
8
0
100
AcDbLine
62
7
6
CONTINUOUS
10
60.8043129388
20
100.7411233701
11
60.8043129388
21
110.7411233701
0
LINE
5
250
100
AcDbEntity
8
0
100
AcDbLine
62
7
6
CONTINUOUS
10
60.8043129388
20
112.7411233701
11
60.8043129388
21
121.4911233701
0
LINE
5
251
100
AcDbEntity
8
0
100
AcDbLine
62
7
6
CONTINUOUS
10
60.8043129388
20
139.9911233701
11
60.8043129388
21
148.7411233701
0
LINE
5
252
100
AcDbEntity
8
0
100
AcDbLine
62
7
6
CONTINUOUS
10
60.8043129388
20
150.7411233701
11
60.8043129388
21
160.7411233701
0
LINE
5
253
100
AcDbEntity
8
0
100
AcDbLine
62
7
6
CONTINUOUS
10
68.3043129388
20
110.7411233701
11
68.3043129388
21
112.7411233701
0
LINE
5
254
100
AcDbEntity
8
0
100
AcDbLine
62
7
6
CONTINUOUS
10
68.3043129388
20
121.4911233701
11
68.3043129388
21
139.9911233701
0
LINE
5
255
100
AcDbEntity
8
0
100
AcDbLine
62
7
6
CONTINUOUS
10
68.3043129388
20
148.7411233701
11
68.3043129388
21
150.7411233701
0
LINE
5
256
100
AcDbEntity
8
0
100
AcDbLine
62
7
6
CONTINUOUS
10
60.8043129388
20
100.7411233701
11
139.8043129388
21
100.7411233701
0
LINE
5
257
100
AcDbEntity
8
0
100
AcDbLine
62
7
6
CONTINUOUS
10
60.8043129388
20
110.7411233701
11
139.8043129388
21
110.7411233701
0
LINE
5
258
100
AcDbEntity
8
0
100
AcDbLine
62
7
6
CONTINUOUS
10
60.8043129388
20
112.7411233701
11
139.8043129388
21
112.7411233701
0
LINE
5
259
100
AcDbEntity
8
0
100
AcDbLine
62
7
6
CONTINUOUS
10
60.8043129388
20
121.4911233701
11
139.8043129388
21
121.4911233701
0
LINE
5
25A
100
AcDbEntity
8
DEFAULT_1
100
AcDbLine
62
2
6
CENTER
10
100.3043129388
20
163.7411233701
11
100.3043129388
21
97.7411233701
0
LINE
5
25B
100
AcDbEntity
8
0
100
AcDbLine
62
7
6
CONTINUOUS
10
60.8043129388
20
139.9911233701
11
139.8043129388
21
139.9911233701
0
LINE
5
25C
100
AcDbEntity
8
0
100
AcDbLine
62
7
6
CONTINUOUS
10
60.8043129388
20
148.7411233701
11
139.8043129388
21
148.7411233701
0
LINE
5
25D
100
AcDbEntity
8
0
100
AcDbLine
62
7
6
CONTINUOUS
10
60.8043129388
20
150.7411233701
11
139.8043129388
21
150.7411233701
0
LINE
5
25E
100
AcDbEntity
8
0
100
AcDbLine
62
7
6
CONTINUOUS
10
60.8043129388
20
160.7411233701
11
139.8043129388
21
160.7411233701
0
LINE
5
25F
100
AcDbEntity
8
0
100
AcDbLine
62
7
6
CONTINUOUS
10
132.3043129388
20
110.7411233701
11
132.3043129388
21
112.7411233701
0
LINE
5
260
100
AcDbEntity
8
0
100
AcDbLine
62
7
6
CONTINUOUS
10
132.3043129388
20
121.4911233701
11
132.3043129388
21
139.9911233701
0
LINE
5
261
100
AcDbEntity
8
0
100
AcDbLine
62
7
6
CONTINUOUS
10
132.3043129388
20
148.7411233701
11
132.3043129388
21
150.7411233701
0
LINE
5
262
100
AcDbEntity
8
0
100
AcDbLine
62
7
6
CONTINUOUS
10
139.8043129388
20
100.7411233701
11
139.8043129388
21
110.7411233701
0
LINE
5
263
100
AcDbEntity
8
0
100
AcDbLine
62
7
6
CONTINUOUS
10
139.8043129388
20
112.7411233701
11
139.8043129388
21
121.4911233701
0
LINE
5
264
100
AcDbEntity
8
0
100
AcDbLine
62
7
6
CONTINUOUS
10
139.8043129388
20
139.9911233701
11
139.8043129388
21
148.7411233701
0
LINE
5
265
100
AcDbEntity
8
0
100
AcDbLine
62
7
6
CONTINUOUS
10
139.8043129388
20
150.7411233701
11
139.8043129388
21
160.7411233701
0
LINE
5
266
100
AcDbEntity
8
DEFAULT_1
100
AcDbLine
62
2
6
CENTER
10
100.3043129388
20
227.4793380140
11
100.3043129388
21
180.2400200602
0
LINE
5
267
100
AcDbEntity
8
DEFAULT_1
100
AcDbLine
62
2
6
CENTER
10
100.3043129388
20
227.4793380140
11
100.3043129388
21
278.2492477432
0
LINE
5
268
100
AcDbEntity
8
DEFAULT_1
100
AcDbLine
62
2
6
CENTER
10
100.3043129388
20
227.4793380140
11
50.9466399198
21
227.4793380140
0
LINE
5
269
100
AcDbEntity
8
DEFAULT_1
100
AcDbLine
62
2
6
CENTER
10
100.3043129388
20
227.4793380140
11
148.6734202608
21
227.4793380140
0
CIRCLE
5
26A
100
AcDbEntity
8
0
100
AcDbCircle
62
7
6
CONTINUOUS
10
100.3043129388
20
227.4793380140
40
39.5000000000
0
CIRCLE
5
26B
100
AcDbEntity
8
0
100
AcDbCircle
62
7
6
CONTINUOUS
10
100.3043129388
20
227.4793380140
40
32.0000000000
0
ENDSEC
0
SECTION
2
OBJECTS
0
DICTIONARY
5
C
100
AcDbDictionary
280
0
281
1
3
ACAD_GROUP
350
D
3
ACAD_MLINESTYLE
350
17
3
ACAD_LAYOUT
350
1A
3
ACAD_PLOTSETTINGS
350
19
3
ACAD_PLOTSTYLENAME
350
E
0
DICTIONARY
5
D
102
{ACAD_REACTORS
330
C
102
}
100
AcDbDictionary
280
0
281
1
0
ACDBDICTIONARYWDFLT
5
E
102
{ACAD_REACTORS
330
C
102
}
100
AcDbDictionary
281
1
3
Normal
350
F
100
AcDbDictionaryWithDefault
340
F
0
DICTIONARY
5
17
102
{ACAD_REACTORS
330
C
102
}
100
AcDbDictionary
280
0
281
1
3
Standard
350
18
0
DICTIONARY
5
19
102
{ACAD_REACTORS
330
C
102
}
100
AcDbDictionary
281
1
0
DICTIONARY
5
1A
102
{ACAD_REACTORS
330
C
102
}
100
AcDbDictionary
281
1
3
Layout1
350
1E
3
Model
350
22
0
ACDBPLACEHOLDER
5
F
102
{ACAD_REACTORS
330
E
102
}
0
MLINESTYLE
5
18
102
{ACAD_REACTORS
330
17
102
}
100
AcDbMlineStyle
2
STANDARD
70
0
3

62
256
51
90.0
52
90.0
71
2
49
0.5
62
256
6
BYLAYER
49
-0.5
62
256
6
BYLAYER
0
LAYOUT
5
1E
102
{ACAD_REACTORS
330
1A
102
}
100
AcDbPlotSettings
1

2

4

6

40
0.0
41
0.0
42
0.0
43
0.0
44
0.0
45
0.0
46
0.0
47
0.0
48
0.0
49
0.0
140
0.0
141
0.0
142
1.0
143
1.0
70
0
72
0
73
0
74
0
7

75
0
147
1.0
148
0.0
149
0.0
100
AcDbLayout
1
Layout1
70
0
71
0
10
0.0
20
0.0
11
0.0
21
0.0
12
0.0
22
0.0
32
0.0
14
0.0
24
0.0
34
0.0
15
0.0
25
0.0
35
0.0
146
0.0
13
0.0
23
0.0
33
0.0
16
0.0
26
0.0
36
0.0
17
0.0
27
0.0
37
0.0
76
0
330
1B
331
0
345
0
346
0
0
LAYOUT
5
22
102
{ACAD_REACTORS
330
1A
102
}
100
AcDbPlotSettings
1

2

4

6

40
0.0
41
0.0
42
0.0
43
0.0
44
0.0
45
0.0
46
0.0
47
0.0
48
0.0
49
0.0
140
0.0
141
0.0
142
1.0
143
1.0
70
0
72
0
73
0
74
0
7

75
0
147
1.0
148
0.0
149
0.0
100
AcDbLayout
1
Model
70
0
71
0
10
0.0
20
0.0
11
0.0
21
0.0
12
0.0
22
0.0
32
0.0
14
0.0
24
0.0
34
0.0
15
0.0
25
0.0
35
0.0
146
0.0
13
0.0
23
0.0
33
0.0
16
0.0
26
0.0
36
0.0
17
0.0
27
0.0
37
0.0
76
0
330
1F
331
0
345
0
346
0
0
ENDSEC
0
EOF
