999
DXF file: 880k325.dxf
999
Pro/ENGINEER 2005310 by Parametric Technology Corporation
0
SECTION
2
HEADER
9
$ACADVER
1
AC1015
9
$DWGCODEPAGE
3
ANSI_1252
9
$EXTMAX
10
210.0000000000
20
297.0000000000
30
0.0000000000
9
$EXTMIN
10
0.0000000000
20
0.0000000000
30
0.0000000000
9
$LIMMIN
10
0.0000000000
20
0.0000000000
9
$LIMMAX
10
210.0000000000
20
297.0000000000
9
$VIEWCTR
10
105.0000000000
20
148.5000000000
9
$VIEWSIZE
40
297.0000000000
9
$CLAYER
8
0
9
$LTSCALE
40
19.3600000000
9
$CELTYPE
6
BYLAYER
9
$DIMSCALE
40
1
9
$DIMASZ
40
3.5000000000
9
$DIMEXO
40
2.2000000000
9
$DIMDLI
40
13.3760000000
9
$DIMEXE
40
6.3360000000
9
$DIMCEN
40
3.1680000000
9
$DIMLFAC
40
1.0000000000
9
$DIMBLK
1
_FILLED
9
$DIMTXT
40
3.5000000000
9
$DIMTOL
70
1
9
$DIMLIM
70
0
9
$DIMTFAC
40
1.0000000000
9
$DIMTP
40
0.0010000000
9
$DIMTM
40
0.0010000000
9
$PDMODE
70
3
9
$PDSIZE
40
0.3125000000
9
$HANDSEED
5
317
9
$MEASUREMENT
70
1
9
$INSUNITS
70
4
0
ENDSEC
0
SECTION
2
CLASSES
0
CLASS
1
ACDBDICTIONARYWDFLT
2
AcDbDictionaryWithDefault
3
AutoCAD 2000
90
0
280
0
281
0
0
CLASS
1
ACDBPLACEHOLDER
2
AcDbPlaceHolder
3
AutoCAD 2000
90
0
280
0
281
0
0
CLASS
1
LAYOUT
2
AcDbLayout
3
AutoCAD 2000
90
0
280
0
281
0
0
ENDSEC
0
SECTION
2
TABLES
0
TABLE
2
VPORT
5
8
100
AcDbSymbolTable
70
2
0
VPORT
5
1F4
100
AcDbSymbolTableRecord
100
AcDbViewportTableRecord
2
*ACTIVE
70
0
10
0.0
20
0.0
11
1.0
21
1.0
12
105.0000000000
22
148.5000000000
13
0.0
23
0.0
14
1.0
24
1.0
15
0.0
25
0.0
16
0.0
26
0.0
36
1.0
17
0.0
27
0.0
37
0.0
40
297.0000000000
41
0.7070707071
42
50.0
43
0.0
44
0.0
50
0.0
51
0.0
71
0
72
100
73
1
74
1
75
0
76
0
77
0
78
0
0
ENDTAB
0
TABLE
2
LTYPE
5
5
100
AcDbSymbolTable
70
6
0
LTYPE
5
14
100
AcDbSymbolTableRecord
100
AcDbLinetypeTableRecord
2
BYBLOCK
70
0
3

72
65
73
0
40
0.0
0
LTYPE
5
15
100
AcDbSymbolTableRecord
100
AcDbLinetypeTableRecord
2
BYLAYER
70
0
3

72
65
73
0
40
0.0
0
LTYPE
5
16
100
AcDbSymbolTableRecord
100
AcDbLinetypeTableRecord
2
CONTINUOUS
70
64
3
Solid line
72
65
73
0
40
0
0
LTYPE
5
1F5
100
AcDbSymbolTableRecord
100
AcDbLinetypeTableRecord
2
CENTER
70
64
3
____ _ ____ _ ____ _ ____ _ ____ _ ____ _ ____
72
65
73
4
40
0.6
49
0.375
74
0
49
-0.075
74
0
49
0.075
74
0
49
-0.075
74
0
0
LTYPE
5
1F6
100
AcDbSymbolTableRecord
100
AcDbLinetypeTableRecord
2
HIDDEN
70
64
3
- - - - - - - - - - - - - - - - - - - -
72
65
73
2
40
0.2
49
0.1
74
0
49
-0.1
74
0
0
LTYPE
5
1F7
100
AcDbSymbolTableRecord
100
AcDbLinetypeTableRecord
2
PHANTOM
70
64
3
_____ _ _ _____ _ _ _____ _ _ _____
72
65
73
6
40
0.8
49
0.45
74
0
49
-0.05
74
0
49
0.1
74
0
49
-0.05
74
0
49
0.1
74
0
49
-0.05
74
0
0
LTYPE
5
1F8
100
AcDbSymbolTableRecord
100
AcDbLinetypeTableRecord
2
DOT
70
64
3
. . . . . . . . . . . . . . . . . . . .
72
65
73
2
40
0.2
49
0.1
74
0
49
-0.1
74
0
0
LTYPE
5
1F9
100
AcDbSymbolTableRecord
100
AcDbLinetypeTableRecord
2
DASHED
70
64
3
- - - - - - - - - - - - - - - - - - - -
72
65
73
2
40
0.2
49
0.1
74
0
49
-0.1
74
0
0
ENDTAB
0
TABLE
2
LAYER
5
2
100
AcDbSymbolTable
70
36
0
LAYER
5
10
100
AcDbSymbolTableRecord
100
AcDbLayerTableRecord
2
0
70
0
62
7
6
CONTINUOUS
370
-3
390
F
0
LAYER
5
1FA
100
AcDbSymbolTableRecord
100
AcDbLayerTableRecord
2
DEFAULT_1
70
0
62
7
6
CENTER
370
-3
390
F
0
LAYER
5
1FB
100
AcDbSymbolTableRecord
100
AcDbLayerTableRecord
2
DEFAULT_2
70
0
62
8
6
HIDDEN
370
-3
390
F
0
LAYER
5
1FC
100
AcDbSymbolTableRecord
100
AcDbLayerTableRecord
2
DEFAULT_3
70
0
62
7
6
PHANTOM
370
-3
390
F
0
LAYER
5
1FD
100
AcDbSymbolTableRecord
100
AcDbLayerTableRecord
2
_2D_DELETED_OBJS
70
0
62
7
6
CONTINUOUS
370
-3
390
F
0
LAYER
5
1FE
100
AcDbSymbolTableRecord
100
AcDbLayerTableRecord
2
ASSI
70
0
62
7
6
CONTINUOUS
370
-3
390
F
0
LAYER
5
1FF
100
AcDbSymbolTableRecord
100
AcDbLayerTableRecord
2
AXES
70
0
62
7
6
CONTINUOUS
370
-3
390
F
0
LAYER
5
200
100
AcDbSymbolTableRecord
100
AcDbLayerTableRecord
2
DIMS
70
0
62
7
6
CONTINUOUS
370
-3
390
F
0
LAYER
5
201
100
AcDbSymbolTableRecord
100
AcDbLayerTableRecord
2
GEOM
70
0
62
7
6
CONTINUOUS
370
-3
390
F
0
LAYER
5
202
100
AcDbSymbolTableRecord
100
AcDbLayerTableRecord
2
NOGEOM
70
0
62
7
6
CONTINUOUS
370
-3
390
F
0
LAYER
5
203
100
AcDbSymbolTableRecord
100
AcDbLayerTableRecord
2
PIANI
70
0
62
7
6
CONTINUOUS
370
-3
390
F
0
LAYER
5
204
100
AcDbSymbolTableRecord
100
AcDbLayerTableRecord
2
PLANES
70
0
62
7
6
CONTINUOUS
370
-3
390
F
0
LAYER
5
205
100
AcDbSymbolTableRecord
100
AcDbLayerTableRecord
2
SURF_FILETTI
70
0
62
7
6
CONTINUOUS
370
-3
390
F
0
LAYER
5
206
100
AcDbSymbolTableRecord
100
AcDbLayerTableRecord
2
XSEC_DATUMS
70
0
62
7
6
CONTINUOUS
370
-3
390
F
0
ENDTAB
0
TABLE
2
STYLE
5
3
100
AcDbSymbolTable
70
1
0
STYLE
5
11
100
AcDbSymbolTableRecord
100
AcDbTextStyleTableRecord
2
STANDARD
70
0
40
0.0
41
0.7143000000
50
0.0
71
0
42
0.2
3
txt
4

0
ENDTAB
0
TABLE
2
VIEW
5
6
100
AcDbSymbolTable
70
0
0
ENDTAB
0
TABLE
2
UCS
5
7
100
AcDbSymbolTable
70
0
0
ENDTAB
0
TABLE
2
APPID
5
9
100
AcDbSymbolTable
70
1
0
APPID
5
207
100
AcDbSymbolTableRecord
100
AcDbRegAppTableRecord
2
ACAD
70
0
0
ENDTAB
0
TABLE
2
BLOCK_RECORD
5
1
100
AcDbSymbolTable
70
0
0
BLOCK_RECORD
5
1F
100
AcDbSymbolTableRecord
100
AcDbBlockTableRecord
2
*MODEL_SPACE
0
BLOCK_RECORD
5
1B
100
AcDbSymbolTableRecord
100
AcDbBlockTableRecord
2
*PAPER_SPACE
0
BLOCK_RECORD
5
208
100
AcDbSymbolTableRecord
100
AcDbBlockTableRecord
2
_FILLED
0
BLOCK_RECORD
5
209
100
AcDbSymbolTableRecord
100
AcDbBlockTableRecord
2
*D0
0
BLOCK_RECORD
5
20A
100
AcDbSymbolTableRecord
100
AcDbBlockTableRecord
2
*D1
0
BLOCK_RECORD
5
20B
100
AcDbSymbolTableRecord
100
AcDbBlockTableRecord
2
*D2
0
BLOCK_RECORD
5
20C
100
AcDbSymbolTableRecord
100
AcDbBlockTableRecord
2
*D3
0
BLOCK_RECORD
5
20D
100
AcDbSymbolTableRecord
100
AcDbBlockTableRecord
2
*D4
0
BLOCK_RECORD
5
20E
100
AcDbSymbolTableRecord
100
AcDbBlockTableRecord
2
*D5
0
BLOCK_RECORD
5
20F
100
AcDbSymbolTableRecord
100
AcDbBlockTableRecord
2
*D6
0
BLOCK_RECORD
5
210
100
AcDbSymbolTableRecord
100
AcDbBlockTableRecord
2
*D7
0
BLOCK_RECORD
5
211
100
AcDbSymbolTableRecord
100
AcDbBlockTableRecord
2
*D8
0
ENDTAB
0
TABLE
2
DIMSTYLE
5
A
100
AcDbSymbolTable
70
1
100
AcDbDimStyleTable
71
0
0
DIMSTYLE
105
212
100
AcDbSymbolTableRecord
100
AcDbDimStyleTableRecord
2
STANDARD
70
0
3

4

40
1.0
41
3.5000000000
42
0.0625
43
0.38
44
0.18
45
0.0
46
0.0
47
0.0010000000
48
0.0010000000
140
3.5000000000
141
0.09
142
0.0
143
25.4
144
1.0000000000
145
0.0
146
1.0000000000
147
0.09
71
1
72
0
73
0
74
0
75
0
76
0
77
1
78
8
170
0
171
2
172
0
173
0
174
0
175
0
176
0
177
0
178
0
270
2
271
3
272
3
273
2
274
2
275
0
280
0
281
0
282
0
283
1
284
8
285
0
286
0
287
3
288
0
340
11
341
208
342
208
343
208
344
208
0
DIMSTYLE
105
213
100
AcDbSymbolTableRecord
100
AcDbDimStyleTableRecord
2
DIMSTYLE_1
70
0
3

4

40
1.0
41
3.5000000000
42
0.0625
43
0.38
44
0.18
45
0.0
46
0.0
47
0.3000000000
48
0.3000000000
140
3.5000000000
141
0.09
142
0.0
143
25.4
144
1.0000000000
145
0.0
146
1.0000000000
147
0.09
71
0
72
0
73
0
74
0
75
0
76
0
77
1
78
8
170
0
171
2
172
0
173
0
174
0
175
0
176
0
177
0
178
0
270
2
271
2
272
2
273
2
274
2
275
0
280
0
281
0
282
0
283
1
284
8
285
0
286
0
287
3
288
0
340
11
341
208
342
208
343
208
344
208
0
DIMSTYLE
105
214
100
AcDbSymbolTableRecord
100
AcDbDimStyleTableRecord
2
DIMSTYLE_2
70
0
3

4

40
1.0
41
3.5000000000
42
0.0625
43
0.38
44
0.18
45
0.0
46
0.0
47
0.2000000000
48
0.2000000000
140
3.5000000000
141
0.09
142
0.0
143
25.4
144
1.0000000000
145
0.0
146
1.0000000000
147
0.09
71
0
72
0
73
0
74
0
75
0
76
0
77
1
78
8
170
0
171
2
172
0
173
0
174
0
175
0
176
0
177
0
178
0
270
2
271
3
272
3
273
2
274
2
275
0
280
0
281
0
282
0
283
1
284
8
285
0
286
0
287
3
288
0
340
11
341
208
342
208
343
208
344
208
0
DIMSTYLE
105
215
100
AcDbSymbolTableRecord
100
AcDbDimStyleTableRecord
2
DIMSTYLE_3
70
0
3

4

40
1.0
41
3.5000000000
42
0.0625
43
0.38
44
0.18
45
0.0
46
0.0
47
0.1000000000
48
0.1000000000
140
3.5000000000
141
0.09
142
0.0
143
25.4
144
1.0000000000
145
0.0
146
1.0000000000
147
0.09
71
0
72
0
73
0
74
0
75
0
76
0
77
1
78
8
170
0
171
2
172
0
173
0
174
0
175
0
176
0
177
0
178
0
270
2
271
3
272
3
273
2
274
2
275
0
280
0
281
0
282
0
283
1
284
8
285
0
286
0
287
3
288
0
340
11
341
208
342
208
343
208
344
208
0
DIMSTYLE
105
216
100
AcDbSymbolTableRecord
100
AcDbDimStyleTableRecord
2
DIMSTYLE_4
70
0
3

4

40
1.0
41
3.5000000000
42
0.0625
43
0.38
44
0.18
45
0.0
46
0.0
47
0.3000000000
48
0.3000000000
140
3.5000000000
141
0.09
142
0.0
143
25.4
144
1.0000000000
145
0.0
146
1.0000000000
147
0.09
71
0
72
0
73
0
74
0
75
0
76
0
77
1
78
8
170
0
171
2
172
0
173
0
174
0
175
0
176
0
177
0
178
0
270
2
271
3
272
3
273
2
274
2
275
0
280
0
281
0
282
0
283
1
284
8
285
0
286
0
287
3
288
0
340
11
341
208
342
208
343
208
344
208
0
DIMSTYLE
105
217
100
AcDbSymbolTableRecord
100
AcDbDimStyleTableRecord
2
DIMSTYLE_5
70
0
3

4

40
1.0
41
3.5000000000
42
0.0625
43
0.38
44
0.18
45
0.0
46
0.0
47
0.2000000000
48
0.2000000000
140
3.5000000000
141
0.09
142
0.0
143
25.4
144
1.0000000000
145
0.0
146
1.0000000000
147
0.09
71
0
72
0
73
0
74
0
75
0
76
0
77
1
78
8
170
0
171
2
172
0
173
0
174
0
175
0
176
0
177
0
178
0
270
2
271
2
272
2
273
2
274
2
275
0
280
0
281
0
282
0
283
1
284
8
285
0
286
0
287
3
288
0
340
11
341
208
342
208
343
208
344
208
0
ENDTAB
0
ENDSEC
0
SECTION
2
BLOCKS
0
BLOCK
5
20
100
AcDbEntity
8
0
100
AcDbBlockBegin
2
*MODEL_SPACE
70
0
10
0.0
20
0.0
30
0.0
3
*MODEL_SPACE
1

0
ENDBLK
5
21
100
AcDbEntity
8
0
100
AcDbBlockEnd
0
BLOCK
5
1C
100
AcDbEntity
8
0
100
AcDbBlockBegin
2
*PAPER_SPACE
70
0
10
0.0
20
0.0
30
0.0
3
*PAPER_SPACE
1

0
ENDBLK
5
1D
100
AcDbEntity
8
0
100
AcDbBlockEnd
0
BLOCK
5
218
100
AcDbEntity
8
0
100
AcDbBlockBegin
62
2
6
CONTINUOUS
2
*D0
70
65
10
0.0000000000
20
0.0000000000
3
*D0
1

0
TEXT
5
219
100
AcDbEntity
8
0
100
AcDbText
62
2
6
CONTINUOUS
10
98.1757591729
20
63.9374536997
7
STANDARD
40
3.5000000000
1
82.5
41
0.7143000000
72
0
100
AcDbText
0
LINE
5
21A
100
AcDbEntity
8
0
100
AcDbLine
62
2
6
CONTINUOUS
10
62.1253728612
20
97.2010309278
11
62.1253728612
21
61.5624536997
0
LINE
5
21B
100
AcDbEntity
8
0
100
AcDbLine
62
2
6
CONTINUOUS
10
144.6253728612
20
98.8505154639
11
144.6253728612
21
61.5624536997
0
LINE
5
21C
100
AcDbEntity
8
0
100
AcDbLine
62
2
6
CONTINUOUS
10
62.1253728612
20
63.0624536997
11
103.3753728612
21
63.0624536997
0
LINE
5
21D
100
AcDbEntity
8
0
100
AcDbLine
62
2
6
CONTINUOUS
10
144.6253728612
20
63.0624536997
11
103.3753728612
21
63.0624536997
0
INSERT
5
21E
100
AcDbEntity
8
0
100
AcDbBlockReference
62
2
6
CONTINUOUS
2
_FILLED
10
62.1253728612
20
63.0624536997
41
  3.500000
42
  3.500000
43
  3.500000
50
180.000000
0
INSERT
5
21F
100
AcDbEntity
8
0
100
AcDbBlockReference
62
2
6
CONTINUOUS
2
_FILLED
10
144.6253728612
20
63.0624536997
41
  3.500000
42
  3.500000
43
  3.500000
50
  0.000000
0
ENDBLK
5
220
100
AcDbEntity
8
0
6
BYBLOCK
62
0
100
AcDbBlockEnd
0
BLOCK
5
221
100
AcDbEntity
8
0
100
AcDbBlockBegin
62
2
6
CONTINUOUS
2
*D1
70
65
10
0.0000000000
20
0.0000000000
3
*D1
1

0
TEXT
5
222
100
AcDbEntity
8
0
100
AcDbText
62
2
6
CONTINUOUS
10
98.4280504470
20
181.4460395863
7
STANDARD
40
3.5000000000
1
42.9
41
0.7143000000
72
0
100
AcDbText
0
LINE
5
223
100
AcDbEntity
8
0
100
AcDbLine
62
2
6
CONTINUOUS
10
124.8253728612
20
194.1385786802
11
124.8253728612
21
179.0710395863
0
LINE
5
224
100
AcDbEntity
8
0
100
AcDbLine
62
2
6
CONTINUOUS
10
81.9253728612
20
194.1385786802
11
81.9253728612
21
179.0710395863
0
LINE
5
225
100
AcDbEntity
8
0
100
AcDbLine
62
2
6
CONTINUOUS
10
124.8253728612
20
180.5710395863
11
103.3753728612
21
180.5710395863
0
LINE
5
226
100
AcDbEntity
8
0
100
AcDbLine
62
2
6
CONTINUOUS
10
81.9253728612
20
180.5710395863
11
103.3753728612
21
180.5710395863
0
INSERT
5
227
100
AcDbEntity
8
0
100
AcDbBlockReference
62
2
6
CONTINUOUS
2
_FILLED
10
124.8253728612
20
180.5710395863
41
  3.500000
42
  3.500000
43
  3.500000
0
INSERT
5
228
100
AcDbEntity
8
0
100
AcDbBlockReference
62
2
6
CONTINUOUS
2
_FILLED
10
81.9253728612
20
180.5710395863
41
  3.500000
42
  3.500000
43
  3.500000
50
180.000000
0
ENDBLK
5
229
100
AcDbEntity
8
0
6
BYBLOCK
62
0
100
AcDbBlockEnd
0
BLOCK
5
22A
100
AcDbEntity
8
0
100
AcDbBlockBegin
62
2
6
CONTINUOUS
2
*D2
70
65
10
0.0000000000
20
0.0000000000
3
*D2
1

0
TEXT
5
22B
100
AcDbEntity
8
0
100
AcDbText
62
2
6
CONTINUOUS
10
40.8136751149
20
195.5177166439
7
STANDARD
40
3.5000000000
1
11.5
50
90.0000000000
41
0.7143000000
72
0
100
AcDbText
0
LINE
5
22C
100
AcDbEntity
8
0
100
AcDbLine
62
2
6
CONTINUOUS
10
82.5679402702
20
194.6385786802
11
40.1886751149
21
194.6385786802
0
LINE
5
22D
100
AcDbEntity
8
0
100
AcDbLine
62
2
6
CONTINUOUS
10
71.9704272507
20
206.1385786802
11
40.1886751149
21
206.1385786802
0
LINE
5
22E
100
AcDbEntity
8
0
100
AcDbLine
62
2
6
CONTINUOUS
10
41.6886751149
20
194.6385786802
11
41.6886751149
21
186.6385786802
0
LINE
5
22F
100
AcDbEntity
8
0
100
AcDbLine
62
2
6
CONTINUOUS
10
41.6886751149
20
186.6385786802
11
41.6886751149
21
200.3885786802
0
LINE
5
230
100
AcDbEntity
8
0
100
AcDbLine
62
2
6
CONTINUOUS
10
41.6886751149
20
206.1385786802
11
41.6886751149
21
214.1385786802
0
LINE
5
231
100
AcDbEntity
8
0
100
AcDbLine
62
2
6
CONTINUOUS
10
41.6886751149
20
214.1385786802
11
41.6886751149
21
200.3885786802
0
INSERT
5
232
100
AcDbEntity
8
0
100
AcDbBlockReference
62
2
6
CONTINUOUS
2
_FILLED
10
41.6886751149
20
194.6385786802
41
  3.500000
42
  3.500000
43
  3.500000
50
 90.000000
0
INSERT
5
233
100
AcDbEntity
8
0
100
AcDbBlockReference
62
2
6
CONTINUOUS
2
_FILLED
10
41.6886751149
20
206.1385786802
41
  3.500000
42
  3.500000
43
  3.500000
50
270.000000
0
ENDBLK
5
234
100
AcDbEntity
8
0
6
BYBLOCK
62
0
100
AcDbBlockEnd
0
BLOCK
5
235
100
AcDbEntity
8
0
100
AcDbBlockBegin
62
2
6
CONTINUOUS
2
*D3
70
65
10
0.0000000000
20
0.0000000000
3
*D3
1

0
TEXT
5
236
100
AcDbEntity
8
0
100
AcDbText
62
2
6
CONTINUOUS
10
98.8808527764
20
169.5664859674
7
STANDARD
40
3.5000000000
1
61.1
41
0.7143000000
72
0
100
AcDbText
0
LINE
5
237
100
AcDbEntity
8
0
100
AcDbLine
62
2
6
CONTINUOUS
10
72.8253728612
20
190.6405481632
11
72.8253728612
21
167.1914859674
0
LINE
5
238
100
AcDbEntity
8
0
100
AcDbLine
62
2
6
CONTINUOUS
10
133.9253728612
20
190.8990240905
11
133.9253728612
21
167.1914859674
0
LINE
5
239
100
AcDbEntity
8
0
100
AcDbLine
62
2
6
CONTINUOUS
10
72.8253728612
20
168.6914859674
11
103.3753728612
21
168.6914859674
0
LINE
5
23A
100
AcDbEntity
8
0
100
AcDbLine
62
2
6
CONTINUOUS
10
133.9253728612
20
168.6914859674
11
103.3753728612
21
168.6914859674
0
INSERT
5
23B
100
AcDbEntity
8
0
100
AcDbBlockReference
62
2
6
CONTINUOUS
2
_FILLED
10
72.8253728612
20
168.6914859674
41
  3.500000
42
  3.500000
43
  3.500000
50
180.000000
0
INSERT
5
23C
100
AcDbEntity
8
0
100
AcDbBlockReference
62
2
6
CONTINUOUS
2
_FILLED
10
133.9253728612
20
168.6914859674
41
  3.500000
42
  3.500000
43
  3.500000
0
ENDBLK
5
23D
100
AcDbEntity
8
0
6
BYBLOCK
62
0
100
AcDbBlockEnd
0
BLOCK
5
23E
100
AcDbEntity
8
0
100
AcDbBlockBegin
62
2
6
CONTINUOUS
2
*D4
70
65
10
0.0000000000
20
0.0000000000
3
*D4
1

0
TEXT
5
23F
100
AcDbEntity
8
0
100
AcDbText
62
2
6
CONTINUOUS
10
28.3756304407
20
198.5747632286
7
STANDARD
40
3.5000000000
1
20
50
90.0000000000
41
0.7143000000
72
0
100
AcDbText
0
LINE
5
240
100
AcDbEntity
8
0
100
AcDbLine
62
2
6
CONTINUOUS
10
90.1753728612
20
210.1385786802
11
27.7506304407
21
210.1385786802
0
LINE
5
241
100
AcDbEntity
8
0
100
AcDbLine
62
2
6
CONTINUOUS
10
72.3253728612
20
190.1385786802
11
27.7506304407
21
190.1385786802
0
LINE
5
242
100
AcDbEntity
8
0
100
AcDbLine
62
2
6
CONTINUOUS
10
29.2506304407
20
210.1385786802
11
29.2506304407
21
200.1385786802
0
LINE
5
243
100
AcDbEntity
8
0
100
AcDbLine
62
2
6
CONTINUOUS
10
29.2506304407
20
190.1385786802
11
29.2506304407
21
200.1385786802
0
INSERT
5
244
100
AcDbEntity
8
0
100
AcDbBlockReference
62
2
6
CONTINUOUS
2
_FILLED
10
29.2506304407
20
210.1385786802
41
  3.500000
42
  3.500000
43
  3.500000
50
 90.000000
0
INSERT
5
245
100
AcDbEntity
8
0
100
AcDbBlockReference
62
2
6
CONTINUOUS
2
_FILLED
10
29.2506304407
20
190.1385786802
41
  3.500000
42
  3.500000
43
  3.500000
50
270.000000
0
ENDBLK
5
246
100
AcDbEntity
8
0
6
BYBLOCK
62
0
100
AcDbBlockEnd
0
BLOCK
5
247
100
AcDbEntity
8
0
100
AcDbBlockBegin
62
2
6
CONTINUOUS
2
*D5
70
65
10
0.0000000000
20
0.0000000000
3
*D5
1

0
TEXT
5
248
100
AcDbEntity
8
0
100
AcDbText
62
2
6
CONTINUOUS
10
52.9416648951
20
216.0183335105
7
STANDARD
40
3.5000000000
1
4
50
90.0000000000
41
0.7143000000
72
0
100
AcDbText
0
LINE
5
249
100
AcDbEntity
8
0
100
AcDbLine
62
2
6
CONTINUOUS
10
90.1753728612
20
210.1385786802
11
52.3166648951
21
210.1385786802
0
LINE
5
24A
100
AcDbEntity
8
0
100
AcDbLine
62
2
6
CONTINUOUS
10
61.6253728612
20
206.1385786802
11
52.3166648951
21
206.1385786802
0
LINE
5
24B
100
AcDbEntity
8
0
100
AcDbLine
62
2
6
CONTINUOUS
10
53.8166648951
20
210.1385786802
11
53.8166648951
21
218.5183835105
0
LINE
5
24C
100
AcDbEntity
8
0
100
AcDbLine
62
2
6
CONTINUOUS
10
53.8166648951
20
218.5183835105
11
53.8166648951
21
208.1385786802
0
LINE
5
24D
100
AcDbEntity
8
0
100
AcDbLine
62
2
6
CONTINUOUS
10
53.8166648951
20
206.1385786802
11
53.8166648951
21
198.1385786802
0
LINE
5
24E
100
AcDbEntity
8
0
100
AcDbLine
62
2
6
CONTINUOUS
10
53.8166648951
20
198.1385786802
11
53.8166648951
21
208.1385786802
0
INSERT
5
24F
100
AcDbEntity
8
0
100
AcDbBlockReference
62
2
6
CONTINUOUS
2
_FILLED
10
53.8166648951
20
210.1385786802
41
  3.500000
42
  3.500000
43
  3.500000
50
270.000000
0
INSERT
5
250
100
AcDbEntity
8
0
100
AcDbBlockReference
62
2
6
CONTINUOUS
2
_FILLED
10
53.8166648951
20
206.1385786802
41
  3.500000
42
  3.500000
43
  3.500000
50
 90.000000
0
ENDBLK
5
251
100
AcDbEntity
8
0
6
BYBLOCK
62
0
100
AcDbBlockEnd
0
BLOCK
5
252
100
AcDbEntity
8
0
100
AcDbBlockBegin
62
2
6
CONTINUOUS
2
*D6
70
65
10
0.0000000000
20
0.0000000000
3
*D6
1

0
TEXT
5
253
100
AcDbEntity
8
0
100
AcDbText
62
2
6
CONTINUOUS
10
200.8296890882
20
103.6310228284
7
STANDARD
40
3.5000000000
1
38.1
50
90.0000000000
41
0.7143000000
72
0
100
AcDbText
0
LINE
5
254
100
AcDbEntity
8
0
100
AcDbLine
62
2
6
CONTINUOUS
10
178.3390059593
20
126.6785495346
11
203.2046890882
21
126.6785495346
0
LINE
5
255
100
AcDbEntity
8
0
100
AcDbLine
62
2
6
CONTINUOUS
10
186.4431400840
20
88.5785495346
11
203.2046890882
21
88.5785495346
0
LINE
5
256
100
AcDbEntity
8
0
100
AcDbLine
62
2
6
CONTINUOUS
10
201.7046890882
20
126.6785495346
11
201.7046890882
21
107.6285495346
0
LINE
5
257
100
AcDbEntity
8
0
100
AcDbLine
62
2
6
CONTINUOUS
10
201.7046890882
20
88.5785495346
11
201.7046890882
21
107.6285495346
0
INSERT
5
258
100
AcDbEntity
8
0
100
AcDbBlockReference
62
2
6
CONTINUOUS
2
_FILLED
10
201.7046890882
20
126.6785495346
41
  3.500000
42
  3.500000
43
  3.500000
50
 90.000000
0
INSERT
5
259
100
AcDbEntity
8
0
100
AcDbBlockReference
62
2
6
CONTINUOUS
2
_FILLED
10
201.7046890882
20
88.5785495346
41
  3.500000
42
  3.500000
43
  3.500000
50
270.000000
0
ENDBLK
5
25A
100
AcDbEntity
8
0
6
BYBLOCK
62
0
100
AcDbBlockEnd
0
BLOCK
5
25B
100
AcDbEntity
8
0
100
AcDbBlockBegin
62
2
6
CONTINUOUS
2
*D7
70
65
10
0.0000000000
20
0.0000000000
3
*D7
1

0
TEXT
5
25C
100
AcDbEntity
8
0
100
AcDbText
62
2
6
CONTINUOUS
10
188.2971683744
20
138.4302065739
7
STANDARD
40
3.5000000000
1
7.14
41
0.7143000000
72
0
100
AcDbText
0
LINE
5
25D
100
AcDbEntity
8
0
100
AcDbLine
62
2
6
CONTINUOUS
10
174.9734010152
20
128.9827391034
11
174.9734010152
21
139.0552065739
0
LINE
5
25E
100
AcDbEntity
8
0
100
AcDbLine
62
2
6
CONTINUOUS
10
182.1134010152
20
128.9827391034
11
182.1134010152
21
139.0552065739
0
LINE
5
25F
100
AcDbEntity
8
0
100
AcDbLine
62
2
6
CONTINUOUS
10
174.9734010152
20
137.5552065739
11
166.9734010152
21
137.5552065739
0
LINE
5
260
100
AcDbEntity
8
0
100
AcDbLine
62
2
6
CONTINUOUS
10
166.9734010152
20
137.5552065739
11
178.5434010152
21
137.5552065739
0
LINE
5
261
100
AcDbEntity
8
0
100
AcDbLine
62
2
6
CONTINUOUS
10
182.1134010152
20
137.5552065739
11
198.2973683744
21
137.5552065739
0
LINE
5
262
100
AcDbEntity
8
0
100
AcDbLine
62
2
6
CONTINUOUS
10
198.2973683744
20
137.5552065739
11
178.5434010152
21
137.5552065739
0
INSERT
5
263
100
AcDbEntity
8
0
100
AcDbBlockReference
62
2
6
CONTINUOUS
2
_FILLED
10
174.9734010152
20
137.5552065739
41
  3.500000
42
  3.500000
43
  3.500000
0
INSERT
5
264
100
AcDbEntity
8
0
100
AcDbBlockReference
62
2
6
CONTINUOUS
2
_FILLED
10
182.1134010152
20
137.5552065739
41
  3.500000
42
  3.500000
43
  3.500000
50
180.000000
0
ENDBLK
5
265
100
AcDbEntity
8
0
6
BYBLOCK
62
0
100
AcDbBlockEnd
0
BLOCK
5
266
100
AcDbEntity
8
0
100
AcDbBlockBegin
62
2
6
CONTINUOUS
2
*D8
70
65
10
0.0000000000
20
0.0000000000
3
*D8
1

0
TEXT
5
267
100
AcDbEntity
8
0
100
AcDbText
62
2
6
CONTINUOUS
10
190.1192421612
20
73.1709958819
7
STANDARD
40
3.5000000000
1
7.75
41
0.7143000000
72
0
100
AcDbText
0
LINE
5
268
100
AcDbEntity
8
0
100
AcDbLine
62
2
6
CONTINUOUS
10
186.2934010152
20
88.0785495346
11
186.2934010152
21
70.7959958819
0
LINE
5
269
100
AcDbEntity
8
0
100
AcDbLine
62
2
6
CONTINUOUS
10
178.5434010152
20
88.0785495346
11
178.5434010152
21
70.7959958819
0
LINE
5
26A
100
AcDbEntity
8
0
100
AcDbLine
62
2
6
CONTINUOUS
10
186.2934010152
20
72.2959958819
11
200.1194421612
21
72.2959958819
0
LINE
5
26B
100
AcDbEntity
8
0
100
AcDbLine
62
2
6
CONTINUOUS
10
200.1194421612
20
72.2959958819
11
182.4184010152
21
72.2959958819
0
LINE
5
26C
100
AcDbEntity
8
0
100
AcDbLine
62
2
6
CONTINUOUS
10
178.5434010152
20
72.2959958819
11
170.5434010152
21
72.2959958819
0
LINE
5
26D
100
AcDbEntity
8
0
100
AcDbLine
62
2
6
CONTINUOUS
10
170.5434010152
20
72.2959958819
11
182.4184010152
21
72.2959958819
0
INSERT
5
26E
100
AcDbEntity
8
0
100
AcDbBlockReference
62
2
6
CONTINUOUS
2
_FILLED
10
186.2934010152
20
72.2959958819
41
  3.500000
42
  3.500000
43
  3.500000
50
180.000000
0
INSERT
5
26F
100
AcDbEntity
8
0
100
AcDbBlockReference
62
2
6
CONTINUOUS
2
_FILLED
10
178.5434010152
20
72.2959958819
41
  3.500000
42
  3.500000
43
  3.500000
0
ENDBLK
5
270
100
AcDbEntity
8
0
6
BYBLOCK
62
0
100
AcDbBlockEnd
0
BLOCK
5
271
100
AcDbEntity
8
0
100
AcDbBlockBegin
2
_FILLED
70
64
10
0.0000000000
20
0.0000000000
3
_FILLED
1

0
SOLID
5
272
100
AcDbEntity
8
0
6
BYBLOCK
62
0
100
AcDbTrace
10
0.0000000000
20
0.0000000000
11
-1.0000000000
21
0.1857142857
12
-1.0000000000
22
-0.1857142857
13
-1.0000000000
23
-0.1857142857
0
ENDBLK
5
273
100
AcDbEntity
8
0
6
BYBLOCK
62
0
100
AcDbBlockEnd
0
ENDSEC
0
SECTION
2
ENTITIES
0
DIMENSION
5
274
100
AcDbEntity
8
0
100
AcDbDimension
62
2
6
CONTINUOUS
2
*D0
10
144.6253728612
20
63.0624536997
11
103.1758591729
21
65.6874536997
70
160
42
82.500000
3
DIMSTYLE_1
100
AcDbAlignedDimension
13
62.1253728612
23
97.2010309278
14
144.6253728612
24
98.8505154639
100
AcDbRotatedDimension
0
DIMENSION
5
275
100
AcDbEntity
8
0
100
AcDbDimension
62
2
6
CONTINUOUS
2
*D1
10
81.9253728612
20
180.5710395863
11
103.4281504470
21
183.1960395863
70
160
42
42.900000
3
DIMSTYLE_1
100
AcDbAlignedDimension
13
124.8253728612
23
194.1385786802
14
81.9253728612
24
194.1385786802
50
180.000000
100
AcDbRotatedDimension
0
DIMENSION
5
276
100
AcDbEntity
8
0
100
AcDbDimension
62
2
6
CONTINUOUS
2
*D2
10
41.6886751149
20
206.1385786802
11
39.0636751149
21
200.5178166439
70
160
42
11.500000
3
DIMSTYLE_2
100
AcDbAlignedDimension
13
82.5679402702
23
194.6385786802
14
71.9704272507
24
206.1385786802
50
90.000000
100
AcDbRotatedDimension
0
DIMENSION
5
277
100
AcDbEntity
8
0
100
AcDbDimension
62
2
6
CONTINUOUS
2
*D3
10
133.9253728612
20
168.6914859674
11
103.8809527764
21
171.3164859674
70
160
42
61.100000
3
DIMSTYLE_1
100
AcDbAlignedDimension
13
72.8253728612
23
190.6405481632
14
133.9253728612
24
190.8990240905
100
AcDbRotatedDimension
0
DIMENSION
5
278
100
AcDbEntity
8
0
100
AcDbDimension
62
2
6
CONTINUOUS
2
*D4
10
29.2506304407
20
190.1385786802
11
26.6256304407
21
201.0748132286
70
160
42
20.000000
3
DIMSTYLE_2
100
AcDbAlignedDimension
13
90.1753728612
23
210.1385786802
14
72.3253728612
24
190.1385786802
50
270.000000
100
AcDbRotatedDimension
0
DIMENSION
5
279
100
AcDbEntity
8
0
100
AcDbDimension
62
2
6
CONTINUOUS
2
*D5
10
53.8166648951
20
206.1385786802
11
51.1916648951
21
217.2683585105
70
160
42
4.000000
3
DIMSTYLE_3
100
AcDbAlignedDimension
13
90.1753728612
23
210.1385786802
14
61.6253728612
24
206.1385786802
50
270.000000
100
AcDbRotatedDimension
0
DIMENSION
5
27A
100
AcDbEntity
8
0
100
AcDbDimension
62
2
6
CONTINUOUS
2
*D6
10
201.7046890882
20
88.5785495346
11
199.0796890882
21
108.6311228284
70
160
42
38.100000
3
DIMSTYLE_4
100
AcDbAlignedDimension
13
178.3390059593
23
126.6785495346
14
186.4431400840
24
88.5785495346
50
270.000000
100
AcDbRotatedDimension
0
DIMENSION
5
27B
100
AcDbEntity
8
0
100
AcDbDimension
62
2
6
CONTINUOUS
2
*D7
10
182.1134010152
20
137.5552065739
11
193.2972683744
21
140.1802065739
70
160
42
7.140000
3
DIMSTYLE_5
100
AcDbAlignedDimension
13
174.9734010152
23
128.9827391034
14
182.1134010152
24
128.9827391034
100
AcDbRotatedDimension
0
DIMENSION
5
27C
100
AcDbEntity
8
0
100
AcDbDimension
62
2
6
CONTINUOUS
2
*D8
10
178.5434010152
20
72.2959958819
11
195.1193421612
21
74.9209958819
70
160
42
7.750000
3
DIMSTYLE_2
100
AcDbAlignedDimension
13
186.2934010152
23
88.0785495346
14
178.5434010152
24
88.0785495346
50
180.000000
100
AcDbRotatedDimension
0
LINE
5
27D
100
AcDbEntity
8
0
100
AcDbLine
62
7
6
CONTINUOUS
10
0.0000000000
20
0.0000000000
11
210.0000000000
21
0.0000000000
0
LINE
5
27E
100
AcDbEntity
8
0
100
AcDbLine
62
7
6
CONTINUOUS
10
0.0000000000
20
0.0000000000
11
0.0000000000
21
297.0000000000
0
LINE
5
27F
100
AcDbEntity
8
0
100
AcDbLine
62
7
6
CONTINUOUS
10
210.0000000000
20
0.0000000000
11
210.0000000000
21
297.0000000000
0
LINE
5
280
100
AcDbEntity
8
0
100
AcDbLine
62
7
6
CONTINUOUS
10
0.0000000000
20
297.0000000000
11
210.0000000000
21
297.0000000000
0
LINE
5
281
100
AcDbEntity
8
0
100
AcDbLine
62
7
6
CONTINUOUS
10
62.1253728612
20
97.5775751458
11
62.1253728612
21
128.5970438329
0
LINE
5
282
100
AcDbEntity
8
0
100
AcDbLine
62
7
6
CONTINUOUS
10
90.6753728612
20
80.8285495346
11
116.0753728612
21
80.8285495346
0
LINE
5
283
100
AcDbEntity
8
0
100
AcDbLine
62
7
6
CONTINUOUS
10
81.9253728612
20
132.6845898084
11
81.9253728612
21
131.4402647270
0
LINE
5
284
100
AcDbEntity
8
DEFAULT_1
100
AcDbLine
62
2
6
CENTER
10
58.8670895744
20
88.5785495346
11
90.6753728612
21
88.5785495346
0
LINE
5
285
100
AcDbEntity
8
DEFAULT_1
100
AcDbLine
62
2
6
CENTER
10
116.0753728612
20
88.5785495346
11
147.8836561479
21
88.5785495346
0
LINE
5
286
100
AcDbEntity
8
0
100
AcDbLine
62
7
6
CONTINUOUS
10
90.6753728612
20
88.5785495346
11
116.0753728612
21
88.5785495346
0
LINE
5
287
100
AcDbEntity
8
0
100
AcDbLine
62
7
6
CONTINUOUS
10
90.2753728612
20
121.8347017618
11
90.2753728612
21
132.6845706290
0
LINE
5
288
100
AcDbEntity
8
0
100
AcDbLine
62
7
6
CONTINUOUS
10
90.6753728612
20
93.5356564957
11
90.6753728612
21
80.8285495346
0
LINE
5
289
100
AcDbEntity
8
0
100
AcDbLine
62
7
6
CONTINUOUS
10
116.0755740174
20
92.7745592293
11
141.8350167102
21
94.5790736035
0
LINE
5
28A
100
AcDbEntity
8
0
100
AcDbLine
62
7
6
CONTINUOUS
10
116.0753728612
20
92.7803807353
11
142.0209528681
21
94.5979345012
0
LINE
5
28B
100
AcDbEntity
8
0
100
AcDbLine
62
7
6
CONTINUOUS
10
116.0753728612
20
93.5356564957
11
143.7718364946
21
95.4758641057
0
LINE
5
28C
100
AcDbEntity
8
0
100
AcDbLine
62
7
6
CONTINUOUS
10
90.6753728612
20
92.7803807353
11
73.5018875449
21
93.9775913946
0
LINE
5
28D
100
AcDbEntity
8
0
100
AcDbLine
62
7
6
CONTINUOUS
10
90.6753728612
20
93.5356564957
11
62.9850448936
21
95.4754342867
0
LINE
5
28E
100
AcDbEntity
8
0
100
AcDbLine
62
7
6
CONTINUOUS
10
90.6751717049
20
92.7745592293
11
64.9154514558
21
94.5805627195
0
LINE
5
28F
100
AcDbEntity
8
0
100
AcDbLine
62
7
6
CONTINUOUS
10
116.0753728612
20
80.8285495346
11
116.0753728612
21
93.5356564957
0
LINE
5
290
100
AcDbEntity
8
0
100
AcDbLine
62
7
6
CONTINUOUS
10
116.4753728612
20
121.8347017618
11
116.4753728612
21
132.6845706290
0
LINE
5
291
100
AcDbEntity
8
0
100
AcDbLine
62
7
6
CONTINUOUS
10
116.4753728612
20
121.8347017618
11
90.2753728612
21
121.8347017618
0
LINE
5
292
100
AcDbEntity
8
0
100
AcDbLine
62
7
6
CONTINUOUS
10
116.4753728612
20
122.5501183882
11
90.2753728612
21
122.5501183882
0
LINE
5
293
100
AcDbEntity
8
0
100
AcDbLine
62
7
6
CONTINUOUS
10
124.8253728612
20
131.4402647270
11
124.8253728612
21
132.6845898110
0
LINE
5
294
100
AcDbEntity
8
0
100
AcDbLine
62
7
6
CONTINUOUS
10
144.6253728612
20
127.1300004478
11
116.4753728612
21
127.1300004478
0
LINE
5
295
100
AcDbEntity
8
0
100
AcDbLine
62
7
6
CONTINUOUS
10
90.2753728612
20
127.1300004478
11
62.1253728612
21
127.1300004478
0
LINE
5
296
100
AcDbEntity
8
0
100
AcDbLine
62
7
6
CONTINUOUS
10
142.5825024301
20
131.4402647270
11
124.8253728612
21
131.4402647270
0
LINE
5
297
100
AcDbEntity
8
0
100
AcDbLine
62
7
6
CONTINUOUS
10
64.1682432922
20
131.4402647270
11
81.9253728612
21
131.4402647270
0
LINE
5
298
100
AcDbEntity
8
0
100
AcDbLine
62
7
6
CONTINUOUS
10
65.1253728612
20
131.5970441960
11
81.9253728612
21
131.5970441960
0
LINE
5
299
100
AcDbEntity
8
0
100
AcDbLine
62
7
6
CONTINUOUS
10
124.8253728612
20
131.5970441960
11
141.6253728612
21
131.5970441960
0
LINE
5
29A
100
AcDbEntity
8
0
100
AcDbLine
62
7
6
CONTINUOUS
10
124.8253728612
20
132.6847017618
11
116.4753728612
21
132.6847017618
0
LINE
5
29B
100
AcDbEntity
8
0
100
AcDbLine
62
7
6
CONTINUOUS
10
90.2753728612
20
132.6847017618
11
81.9253728612
21
132.6847017618
0
LINE
5
29C
100
AcDbEntity
8
0
100
AcDbLine
62
7
6
CONTINUOUS
10
144.6253728612
20
128.5970441960
11
144.6253728612
21
97.5717395482
0
LINE
5
29D
100
AcDbEntity
8
0
100
AcDbLine
62
7
6
CONTINUOUS
10
62.1253728612
20
206.1385786802
11
62.1253728612
21
210.1385786802
0
LINE
5
29E
100
AcDbEntity
8
0
100
AcDbLine
62
7
6
CONTINUOUS
10
72.8253728612
20
194.6385786802
11
72.8253728612
21
190.1385786802
0
LINE
5
29F
100
AcDbEntity
8
0
100
AcDbLine
62
7
6
CONTINUOUS
10
81.9253728612
20
194.6385786802
11
81.9253728612
21
206.1385786802
0
LINE
5
2A0
100
AcDbEntity
8
0
100
AcDbLine
62
7
6
CONTINUOUS
10
87.5253728612
20
194.6385786802
11
87.5253728612
21
190.1385786802
0
LINE
5
2A1
100
AcDbEntity
8
0
100
AcDbLine
62
7
6
CONTINUOUS
10
89.4253728612
20
194.6385786802
11
89.4253728612
21
206.1385786802
0
LINE
5
2A2
100
AcDbEntity
8
0
100
AcDbLine
62
7
6
CONTINUOUS
10
90.6753728612
20
210.1385786802
11
90.6753728612
21
194.6385786802
0
LINE
5
2A3
100
AcDbEntity
8
0
100
AcDbLine
62
7
6
CONTINUOUS
10
133.9253728612
20
190.1385786802
11
119.2253728612
21
190.1385786802
0
LINE
5
2A4
100
AcDbEntity
8
0
100
AcDbLine
62
7
6
CONTINUOUS
10
87.5253728612
20
190.1385786802
11
72.8253728612
21
190.1385786802
0
LINE
5
2A5
100
AcDbEntity
8
0
100
AcDbLine
62
7
6
CONTINUOUS
10
133.9253728612
20
194.6385786802
11
124.8253728612
21
194.6385786802
0
LINE
5
2A6
100
AcDbEntity
8
0
100
AcDbLine
62
7
6
CONTINUOUS
10
81.9253728612
20
194.6385786802
11
72.8253728612
21
194.6385786802
0
LINE
5
2A7
100
AcDbEntity
8
0
100
AcDbLine
62
7
6
CONTINUOUS
10
87.5253728612
20
194.6385786802
11
119.2253728612
21
194.6385786802
0
LINE
5
2A8
100
AcDbEntity
8
0
100
AcDbLine
62
7
6
CONTINUOUS
10
90.6411829185
20
206.1385786802
11
62.1253728612
21
206.1385786802
0
LINE
5
2A9
100
AcDbEntity
8
0
100
AcDbLine
62
7
6
CONTINUOUS
10
116.1095628038
20
206.1385786802
11
144.6253728612
21
206.1385786802
0
LINE
5
2AA
100
AcDbEntity
8
0
100
AcDbLine
62
7
6
CONTINUOUS
10
90.6753728612
20
209.6075474817
11
64.9154514558
21
209.5568657097
0
LINE
5
2AB
100
AcDbEntity
8
0
100
AcDbLine
62
7
6
CONTINUOUS
10
90.6753728612
20
209.4809354412
11
64.3371268218
21
209.4809354412
0
LINE
5
2AC
100
AcDbEntity
8
0
100
AcDbLine
62
7
6
CONTINUOUS
10
116.0753728612
20
209.4809354412
11
142.4417427500
21
209.4809354412
0
LINE
5
2AD
100
AcDbEntity
8
0
100
AcDbLine
62
7
6
CONTINUOUS
10
116.0753728612
20
209.6075474817
11
142.0209528681
21
209.6075474817
0
LINE
5
2AE
100
AcDbEntity
8
0
100
AcDbLine
62
7
6
CONTINUOUS
10
62.1253728612
20
210.1385786802
11
144.6253728612
21
210.1385786802
0
LINE
5
2AF
100
AcDbEntity
8
0
100
AcDbLine
62
7
6
CONTINUOUS
10
116.0753728612
20
210.1385786802
11
116.0753728612
21
194.6385786802
0
LINE
5
2B0
100
AcDbEntity
8
0
100
AcDbLine
62
7
6
CONTINUOUS
10
117.3253728612
20
194.6385786802
11
117.3253728612
21
206.1385786802
0
LINE
5
2B1
100
AcDbEntity
8
0
100
AcDbLine
62
7
6
CONTINUOUS
10
119.2253728612
20
194.6385786802
11
119.2253728612
21
190.1385786802
0
LINE
5
2B2
100
AcDbEntity
8
0
100
AcDbLine
62
7
6
CONTINUOUS
10
124.8253728612
20
194.6385786802
11
124.8253728612
21
206.1385786802
0
LINE
5
2B3
100
AcDbEntity
8
0
100
AcDbLine
62
7
6
CONTINUOUS
10
133.9253728612
20
194.6385786802
11
133.9253728612
21
190.1385786802
0
LINE
5
2B4
100
AcDbEntity
8
0
100
AcDbLine
62
7
6
CONTINUOUS
10
144.6253728612
20
206.1385786802
11
144.6253728612
21
210.1385786802
0
LINE
5
2B5
100
AcDbEntity
8
0
100
AcDbLine
62
7
6
CONTINUOUS
10
62.1253728612
20
237.2593690124
11
62.1253728612
21
268.2788380626
0
LINE
5
2B6
100
AcDbEntity
8
0
100
AcDbLine
62
7
6
CONTINUOUS
10
72.8253728612
20
257.9739762242
11
72.8253728612
21
243.0044622505
0
LINE
5
2B7
100
AcDbEntity
8
0
100
AcDbLine
62
7
6
CONTINUOUS
10
72.8253728612
20
243.0044622505
11
81.9253728612
21
237.7505748009
0
LINE
5
2B8
100
AcDbEntity
8
0
100
AcDbLine
62
7
6
CONTINUOUS
10
124.8253728612
20
233.1717114466
11
116.4753728612
21
233.1717114466
0
LINE
5
2B9
100
AcDbEntity
8
0
100
AcDbLine
62
7
6
CONTINUOUS
10
90.2753728612
20
233.1717114466
11
81.9253728612
21
233.1717114466
0
LINE
5
2BA
100
AcDbEntity
8
0
100
AcDbLine
62
7
6
CONTINUOUS
10
90.2753728612
20
233.5546633046
11
81.9253728612
21
233.5546633046
0
LINE
5
2BB
100
AcDbEntity
8
0
100
AcDbLine
62
7
6
CONTINUOUS
10
116.4753728612
20
233.5546633046
11
124.8253728612
21
233.5546633046
0
LINE
5
2BC
100
AcDbEntity
8
0
100
AcDbLine
62
7
6
CONTINUOUS
10
65.1253728612
20
234.2593690124
11
81.9253728612
21
234.2593690124
0
LINE
5
2BD
100
AcDbEntity
8
0
100
AcDbLine
62
7
6
CONTINUOUS
10
124.8253728612
20
234.2593690124
11
141.6253728612
21
234.2593690124
0
LINE
5
2BE
100
AcDbEntity
8
0
100
AcDbLine
62
7
6
CONTINUOUS
10
144.1816249422
20
235.6891539641
11
124.8253728612
21
235.6891539641
0
LINE
5
2BF
100
AcDbEntity
8
0
100
AcDbLine
62
7
6
CONTINUOUS
10
62.5691207801
20
235.6891539641
11
81.9253728612
21
235.6891539641
0
LINE
5
2C0
100
AcDbEntity
8
0
100
AcDbLine
62
7
6
CONTINUOUS
10
119.2253728612
20
236.1127087467
11
116.4753728612
21
236.1127087467
0
LINE
5
2C1
100
AcDbEntity
8
0
100
AcDbLine
62
7
6
CONTINUOUS
10
90.2753728612
20
236.1127087467
11
87.5253728612
21
236.1127087467
0
LINE
5
2C2
100
AcDbEntity
8
0
100
AcDbLine
62
7
6
CONTINUOUS
10
81.9253728612
20
237.7505748009
11
81.9253728612
21
233.1718234000
0
LINE
5
2C3
100
AcDbEntity
8
0
100
AcDbLine
62
7
6
CONTINUOUS
10
124.8253728612
20
237.7505748009
11
119.2253728612
21
237.7505748009
0
LINE
5
2C4
100
AcDbEntity
8
0
100
AcDbLine
62
7
6
CONTINUOUS
10
81.9253728612
20
237.7505748009
11
87.5253728612
21
237.7505748009
0
LINE
5
2C5
100
AcDbEntity
8
0
100
AcDbLine
62
7
6
CONTINUOUS
10
87.5253728612
20
236.1127087467
11
87.5253728612
21
266.4610251813
0
LINE
5
2C6
100
AcDbEntity
8
0
100
AcDbLine
62
7
6
CONTINUOUS
10
90.2753728612
20
233.1718425794
11
90.2753728612
21
247.2278636738
0
LINE
5
2C7
100
AcDbEntity
8
0
100
AcDbLine
62
7
6
CONTINUOUS
10
90.6753728612
20
285.0278636738
11
90.6753728612
21
269.7230542022
0
LINE
5
2C8
100
AcDbEntity
8
0
100
AcDbLine
62
7
6
CONTINUOUS
10
89.4253728612
20
267.5579906928
11
72.8253728612
21
257.9739762242
0
LINE
5
2C9
100
AcDbEntity
8
0
100
AcDbLine
62
7
6
CONTINUOUS
10
116.4753728612
20
243.3062948203
11
90.2753728612
21
243.3062948203
0
LINE
5
2CA
100
AcDbEntity
8
0
100
AcDbLine
62
7
6
CONTINUOUS
10
62.1253728612
20
243.5935629435
11
72.8253728612
21
243.5935629435
0
LINE
5
2CB
100
AcDbEntity
8
0
100
AcDbLine
62
7
6
CONTINUOUS
10
133.9253728612
20
243.5935629435
11
144.6253728612
21
243.5935629435
0
LINE
5
2CC
100
AcDbEntity
8
0
100
AcDbLine
62
7
6
CONTINUOUS
10
88.7753728612
20
261.9865605951
11
91.6753728612
21
263.6608763757
0
LINE
5
2CD
100
AcDbEntity
8
0
100
AcDbLine
62
7
6
CONTINUOUS
10
87.5253728612
20
247.2278636738
11
119.2253728612
21
247.2278636738
0
LINE
5
2CE
100
AcDbEntity
8
0
100
AcDbLine
62
7
6
CONTINUOUS
10
95.1753728612
20
269.7230542022
11
95.1753728612
21
270.9278636738
0
LINE
5
2CF
100
AcDbEntity
8
0
100
AcDbLine
62
7
6
CONTINUOUS
10
111.5753728612
20
270.9278636738
11
111.5753728612
21
269.7230542022
0
LINE
5
2D0
100
AcDbEntity
8
0
100
AcDbLine
62
7
6
CONTINUOUS
10
115.0753728612
20
263.6608763757
11
117.9753728612
21
261.9865605951
0
LINE
5
2D1
100
AcDbEntity
8
0
100
AcDbLine
62
7
6
CONTINUOUS
10
116.0753728612
20
269.7230542022
11
116.0753728612
21
285.0278636738
0
LINE
5
2D2
100
AcDbEntity
8
0
100
AcDbLine
62
7
6
CONTINUOUS
10
116.4753728612
20
233.1718425794
11
116.4753728612
21
247.2278636738
0
LINE
5
2D3
100
AcDbEntity
8
0
100
AcDbLine
62
7
6
CONTINUOUS
10
90.6411829185
20
269.3110095918
11
62.1253728612
21
267.3134046841
0
LINE
5
2D4
100
AcDbEntity
8
0
100
AcDbLine
62
7
6
CONTINUOUS
10
111.5753728612
20
270.9278636738
11
95.1753728612
21
270.9278636738
0
LINE
5
2D5
100
AcDbEntity
8
0
100
AcDbLine
62
7
6
CONTINUOUS
10
116.1095628038
20
269.3110095918
11
144.6253728612
21
267.3134046841
0
LINE
5
2D6
100
AcDbEntity
8
0
100
AcDbLine
62
7
6
CONTINUOUS
10
119.2253728612
20
266.4610251813
11
119.2253728612
21
236.1127087467
0
LINE
5
2D7
100
AcDbEntity
8
0
100
AcDbLine
62
7
6
CONTINUOUS
10
90.6753728612
20
273.0184920027
11
64.3371268218
21
271.1734309842
0
LINE
5
2D8
100
AcDbEntity
8
0
100
AcDbLine
62
7
6
CONTINUOUS
10
90.6751717049
20
273.0818539792
11
64.9154514558
21
271.2758504889
0
LINE
5
2D9
100
AcDbEntity
8
0
100
AcDbLine
62
7
6
CONTINUOUS
10
116.0753728612
20
273.0184920027
11
142.4417427500
21
271.1714608371
0
LINE
5
2DA
100
AcDbEntity
8
0
100
AcDbLine
62
7
6
CONTINUOUS
10
116.0755740174
20
273.0818539792
11
141.8350167102
21
271.2773396049
0
LINE
5
2DB
100
AcDbEntity
8
0
100
AcDbLine
62
7
6
CONTINUOUS
10
133.9253728612
20
257.9739762242
11
117.3253728612
21
267.5579906928
0
LINE
5
2DC
100
AcDbEntity
8
0
100
AcDbLine
62
7
6
CONTINUOUS
10
90.6753728612
20
277.2778636738
11
116.0753728612
21
277.2778636738
0
LINE
5
2DD
100
AcDbEntity
8
0
100
AcDbLine
62
7
6
CONTINUOUS
10
124.8253728612
20
233.1718233974
11
124.8253728612
21
237.7505748009
0
LINE
5
2DE
100
AcDbEntity
8
0
100
AcDbLine
62
7
6
CONTINUOUS
10
90.6753728612
20
285.0278636738
11
116.0753728612
21
285.0278636738
0
LINE
5
2DF
100
AcDbEntity
8
0
100
AcDbLine
62
7
6
CONTINUOUS
10
124.8253728612
20
237.7505748009
11
133.9253728612
21
243.0044622505
0
LINE
5
2E0
100
AcDbEntity
8
0
100
AcDbLine
62
7
6
CONTINUOUS
10
133.9253728612
20
243.0044622505
11
133.9253728612
21
257.9739762242
0
LINE
5
2E1
100
AcDbEntity
8
0
100
AcDbLine
62
7
6
CONTINUOUS
10
144.6253728612
20
237.2593690124
11
144.6253728612
21
268.2846736602
0
LINE
5
2E2
100
AcDbEntity
8
0
100
AcDbLine
62
7
6
CONTINUOUS
10
166.2934010152
20
128.1058384076
11
177.8215731051
21
132.3017499038
0
LINE
5
2E3
100
AcDbEntity
8
DEFAULT_1
100
AcDbLine
62
2
6
CENTER
10
163.2934010152
20
88.5785495346
11
189.2934010152
21
88.5785495346
0
LINE
5
2E4
100
AcDbEntity
8
0
100
AcDbLine
62
7
6
CONTINUOUS
10
166.2934010152
20
99.3953880271
11
166.2934010152
21
128.1058384076
0
LINE
5
2E5
100
AcDbEntity
8
0
100
AcDbLine
62
7
6
CONTINUOUS
10
170.7934010152
20
96.1333590062
11
182.2934010152
21
96.1333590062
0
LINE
5
2E6
100
AcDbEntity
8
0
100
AcDbLine
62
7
6
CONTINUOUS
10
183.7076848156
20
97.5775751458
11
186.2934010152
21
97.5775751458
0
LINE
5
2E7
100
AcDbEntity
8
0
100
AcDbLine
62
7
6
CONTINUOUS
10
170.7934010152
20
98.2984225157
11
182.2934010152
21
98.2984225157
0
LINE
5
2E8
100
AcDbEntity
8
0
100
AcDbLine
62
7
6
CONTINUOUS
10
170.7934010152
20
99.3953880271
11
166.2934010152
21
99.3953880271
0
LINE
5
2E9
100
AcDbEntity
8
0
100
AcDbLine
62
7
6
CONTINUOUS
10
170.7934010152
20
88.5785495346
11
170.7934010152
21
99.3953880271
0
LINE
5
2EA
100
AcDbEntity
8
0
100
AcDbLine
62
7
6
CONTINUOUS
10
170.7934010152
20
102.6285495346
11
170.7934010152
21
128.1058384076
0
LINE
5
2EB
100
AcDbEntity
8
0
100
AcDbLine
62
7
6
CONTINUOUS
10
170.7934010152
20
102.6285495346
11
182.2934010152
21
102.6285495346
0
LINE
5
2EC
100
AcDbEntity
8
0
100
AcDbLine
62
7
6
CONTINUOUS
10
170.7934010152
20
107.8824369842
11
166.2934010152
21
107.8824369842
0
LINE
5
2ED
100
AcDbEntity
8
0
100
AcDbLine
62
7
6
CONTINUOUS
10
182.2934010152
20
96.1333590062
11
182.2934010152
21
122.2628502649
0
LINE
5
2EE
100
AcDbEntity
8
0
100
AcDbLine
62
7
6
CONTINUOUS
10
185.7623698167
20
92.7803807353
11
185.7116880447
21
94.5805627195
0
LINE
5
2EF
100
AcDbEntity
8
0
100
AcDbLine
62
7
6
CONTINUOUS
10
185.6357577762
20
92.8379212058
11
185.6357577762
21
94.6829822243
0
LINE
5
2F0
100
AcDbEntity
8
0
100
AcDbLine
62
7
6
CONTINUOUS
10
186.2934010152
20
88.5785495346
11
186.2934010152
21
127.1300004478
0
LINE
5
2F1
100
AcDbEntity
8
0
100
AcDbLine
62
7
6
CONTINUOUS
10
170.7934010152
20
122.8519509579
11
166.2934010152
21
122.8519509579
0
LINE
5
2F2
100
AcDbEntity
8
0
100
AcDbLine
62
7
6
CONTINUOUS
10
170.7934010152
20
128.1058384076
11
166.2934010152
21
128.1058384076
0
LINE
5
2F3
100
AcDbEntity
8
0
100
AcDbLine
62
7
6
CONTINUOUS
10
174.9734010152
20
128.4827391034
11
182.1134010152
21
128.4827391034
0
LINE
5
2F4
100
AcDbEntity
8
0
100
AcDbLine
62
7
6
CONTINUOUS
10
184.1018708627
20
128.5970441960
11
185.9267228681
21
128.5970438329
0
ARC
5
2F5
100
AcDbEntity
8
0
100
AcDbCircle
62
7
6
CONTINUOUS
10
65.1253728612
20
97.5775751458
40
3.0000000000
100
AcDbArc
50
180.0000000000
51
265.9928314626
0
ARC
5
2F6
100
AcDbEntity
8
0
100
AcDbCircle
62
7
6
CONTINUOUS
10
141.6253728612
20
97.5717395482
40
3.0000000000
100
AcDbArc
50
274.0071685374
51
360.0000000000
0
ARC
5
2F7
100
AcDbEntity
8
0
100
AcDbCircle
62
7
6
CONTINUOUS
10
65.1253728612
20
128.5970441960
40
3.0000000000
100
AcDbArc
50
90.0000000000
51
180.0000069346
0
ARC
5
2F8
100
AcDbEntity
8
0
100
AcDbCircle
62
7
6
CONTINUOUS
10
141.6253728612
20
128.5970441960
40
3.0000000000
100
AcDbArc
50
0.0000000000
51
90.0000000000
0
ARC
5
2F9
100
AcDbEntity
8
0
100
AcDbCircle
62
7
6
CONTINUOUS
10
118.5753728612
20
269.7230542022
40
7.0000000000
100
AcDbArc
50
180.0000000000
51
240.0000000000
0
ARC
5
2FA
100
AcDbEntity
8
0
100
AcDbCircle
62
7
6
CONTINUOUS
10
88.1753728612
20
269.7230542022
40
7.0000000000
100
AcDbArc
50
300.0000000000
51
360.0000000000
0
ARC
5
2FB
100
AcDbEntity
8
0
100
AcDbCircle
62
7
6
CONTINUOUS
10
88.1753728612
20
269.7230542022
40
2.5000000000
100
AcDbArc
50
300.0000000000
51
360.0000000000
0
ARC
5
2FC
100
AcDbEntity
8
0
100
AcDbCircle
62
7
6
CONTINUOUS
10
118.5753728612
20
269.7230542022
40
2.5000000000
100
AcDbArc
50
180.0000000000
51
240.0000000000
0
ARC
5
2FD
100
AcDbEntity
8
0
100
AcDbCircle
62
7
6
CONTINUOUS
10
116.7253728612
20
259.8214970856
40
2.5000000000
100
AcDbArc
50
0.0000000000
51
60.0000000000
0
ARC
5
2FE
100
AcDbEntity
8
0
100
AcDbCircle
62
7
6
CONTINUOUS
10
90.0253728612
20
259.8214970856
40
2.5000000000
100
AcDbArc
50
120.0000000000
51
180.0000000000
0
ARC
5
2FF
100
AcDbEntity
8
0
100
AcDbCircle
62
7
6
CONTINUOUS
10
65.1253728612
20
237.2593690124
40
3.0000000000
100
AcDbArc
50
180.0000000000
51
270.0000000000
0
ARC
5
300
100
AcDbEntity
8
0
100
AcDbCircle
62
7
6
CONTINUOUS
10
141.6253728612
20
237.2593690124
40
3.0000000000
100
AcDbArc
50
270.0000000000
51
360.0000000000
0
ARC
5
301
100
AcDbEntity
8
0
100
AcDbCircle
62
7
6
CONTINUOUS
10
65.1253728612
20
268.2788380626
40
3.0000000000
100
AcDbArc
50
94.0071685374
51
180.0000000000
0
ARC
5
302
100
AcDbEntity
8
0
100
AcDbCircle
62
7
6
CONTINUOUS
10
141.6253728612
20
268.2846736602
40
3.0000000000
100
AcDbArc
50
0.0000000000
51
85.9928314626
0
CIRCLE
5
303
100
AcDbEntity
8
0
100
AcDbCircle
62
7
6
CONTINUOUS
10
178.5434010152
20
88.5785495346
40
3.3000000000
0
ARC
5
304
100
AcDbEntity
8
0
100
AcDbCircle
62
7
6
CONTINUOUS
10
178.5434010152
20
88.5785495346
40
7.7500000000
100
AcDbArc
50
180.0000000000
51
360.0000000000
0
ARC
5
305
100
AcDbEntity
8
0
100
AcDbCircle
62
7
6
CONTINUOUS
10
183.2934010152
20
130.7970441960
40
0.8000000000
100
AcDbArc
50
53.5162629386
51
231.9275095019
0
ARC
5
306
100
AcDbEntity
8
0
100
AcDbCircle
62
7
6
CONTINUOUS
10
179.8401163730
20
126.3885495346
40
4.8000000000
100
AcDbArc
50
300.7371924710
51
51.9275095019
0
ARC
5
307
100
AcDbEntity
8
0
100
AcDbCircle
62
7
6
CONTINUOUS
10
179.9934010152
20
126.3347017618
40
6.3500000000
100
AcDbArc
50
7.1948401937
51
110.0000000000
0
ARC
5
308
100
AcDbEntity
8
0
100
AcDbCircle
62
7
6
CONTINUOUS
10
178.5434010152
20
126.6785495346
40
4.0000000000
100
AcDbArc
50
153.1890965757
51
26.8109034243
0
SPLINE
5
309
100
AcDbEntity
8
0
100
AcDbSpline
62
7
6
CONTINUOUS
70
0
71
3
72
9
73
5
74
3
42
0.0000001000
43
0.0000001000
44
0.0000000001
12
-0.5833707729
22
0.0000000000
32
0.0000000000
13
-0.5815220420
23
-0.0464066096
33
0.0000000000
40
0.0000000000
40
0.0000000000
40
0.0000000000
40
0.0000000000
40
0.5271787671
40
1.0000000000
40
1.0000000000
40
1.0000000000
40
1.0000000000
10
64.9154514558
20
209.5568657097
30
0.0000000000
10
64.8129378942
20
209.5568657097
30
0.0000000000
10
64.6224393206
20
209.5050590747
30
0.0000000000
10
64.4287788114
20
209.4882494513
30
0.0000000000
10
64.3371268218
20
209.4809354412
30
0.0000000000
11
64.9154514558
21
209.5568657097
31
0.0000000000
11
64.6112055308
21
209.5119692741
31
0.0000000000
11
64.3371268218
21
209.4809354412
31
0.0000000000
0
SPLINE
5
30A
100
AcDbEntity
8
0
100
AcDbSpline
62
7
6
CONTINUOUS
70
0
71
3
72
12
73
8
74
6
42
0.0000001000
43
0.0000001000
44
0.0000000001
12
2.0132758961
22
0.0000000000
32
0.0000000000
13
2.0132758961
23
0.0000000000
33
0.0000000000
40
0.0000000000
40
0.0000000000
40
0.0000000000
40
0.0000000000
40
0.1592124263
40
0.3536410708
40
0.5726972579
40
0.7971037843
40
1.0000000000
40
1.0000000000
40
1.0000000000
40
1.0000000000
10
62.9850448936
20
210.1385786802
30
0.0000000000
10
63.0918910737
20
210.1385786802
30
0.0000000000
10
63.3284638706
20
210.0985287317
30
0.0000000000
10
63.6941856057
20
209.9807627016
30
0.0000000000
10
64.0927853983
20
209.8222622561
30
0.0000000000
10
64.4981625690
20
209.6751718866
30
0.0000000000
10
64.7792763277
20
209.5921828825
30
0.0000000000
10
64.9154383479
20
209.5921828825
30
0.0000000000
11
62.9850448936
21
210.1385786802
31
0.0000000000
11
63.3027287939
21
210.0958950157
31
0.0000000000
11
63.6772038463
21
209.9819102043
31
0.0000000000
11
64.0896909371
21
209.8258540676
31
0.0000000000
11
64.5152723290
21
209.6742073843
31
0.0000000000
11
64.9154383479
21
209.5921828825
31
0.0000000000
0
SPLINE
5
30B
100
AcDbEntity
8
0
100
AcDbSpline
62
7
6
CONTINUOUS
70
0
71
3
72
13
73
9
74
7
42
0.0000001000
43
0.0000001000
44
0.0000000001
12
-3.3168490003
22
-0.2646911133
32
0.0000000000
13
0.0000000000
23
-3.3273936762
33
0.0000000000
40
0.0000000000
40
0.0000000000
40
0.0000000000
40
0.0000000000
40
0.1909883006
40
0.3604214604
40
0.5094767983
40
0.6539727514
40
0.8101036481
40
1.0000000000
40
1.0000000000
40
1.0000000000
40
1.0000000000
10
64.3371268218
20
209.4809354412
30
0.0000000000
10
64.1259670372
20
209.4640844725
30
0.0000000000
10
63.7284065452
20
209.4136779605
30
0.0000000000
10
63.1803247849
20
209.2665585461
30
0.0000000000
10
62.7174913722
20
209.0312110087
30
0.0000000000
10
62.3600788636
20
208.6666454114
30
0.0000000000
10
62.1541659087
20
208.1502103038
30
0.0000000000
10
62.1253728607
20
207.7634826692
30
0.0000000000
10
62.1253728607
20
207.5528626957
30
0.0000000000
11
64.3371268218
21
209.4809354412
31
0.0000000000
11
63.7073901166
21
209.3955927779
31
0.0000000000
11
63.1652622815
21
209.2408835254
31
0.0000000000
11
62.7284385318
21
209.0060068016
31
0.0000000000
11
62.3953728980
21
208.6592633241
31
0.0000000000
11
62.1920508006
21
208.1811946235
31
0.0000000000
11
62.1253728607
21
207.5528626957
31
0.0000000000
0
SPLINE
5
30C
100
AcDbEntity
8
0
100
AcDbSpline
62
7
6
CONTINUOUS
70
0
71
3
72
12
73
8
74
6
42
0.0000001000
43
0.0000001000
44
0.0000000001
12
1.8081013643
22
0.3181463234
32
0.0000000000
13
1.8358778900
23
0.0000000000
33
0.0000000000
40
0.0000000000
40
0.0000000000
40
0.0000000000
40
0.0000000000
40
0.1992757609
40
0.4218845068
40
0.6395429530
40
0.8368128076
40
1.0000000000
40
1.0000000000
40
1.0000000000
40
1.0000000000
10
142.0209528681
20
209.6075474817
30
0.0000000000
10
142.1410564599
20
209.6286804319
30
0.0000000000
10
142.3883383385
20
209.7082921771
30
0.0000000000
10
142.7507790670
20
209.8546064046
30
0.0000000000
10
143.1144638941
20
209.9966920692
30
0.0000000000
10
143.4519417853
20
210.1031774793
30
0.0000000000
10
143.6719725751
20
210.1385786802
30
0.0000000000
10
143.7718364946
20
210.1385786802
30
0.0000000000
11
142.0209528681
21
209.6075474817
31
0.0000000000
11
142.3728342558
21
209.7076612074
31
0.0000000000
11
142.7540048326
21
209.8550734064
31
0.0000000000
11
143.1276134375
21
209.9968204985
31
0.0000000000
11
143.4747166657
21
210.1001725739
31
0.0000000000
11
143.7718364946
21
210.1385786802
31
0.0000000000
0
SPLINE
5
30D
100
AcDbEntity
8
0
100
AcDbSpline
62
7
6
CONTINUOUS
70
0
71
3
72
13
73
9
74
7
42
0.0000001000
43
0.0000001000
44
0.0000000001
12
0.0000000000
22
3.2960202580
32
0.0000000000
13
-3.2844705375
23
0.2756861064
33
0.0000000000
40
0.0000000000
40
0.0000000000
40
0.0000000000
40
0.0000000000
40
0.1901651226
40
0.3462189584
40
0.4903792872
40
0.6392918476
40
0.8087593275
40
1.0000000000
40
1.0000000000
40
1.0000000000
40
1.0000000000
10
144.6253728612
20
207.5595098539
30
0.0000000000
10
144.6253728612
20
207.7684392194
30
0.0000000000
10
144.5968621160
20
208.1516938883
30
0.0000000000
10
144.3945430056
20
208.6634460395
30
0.0000000000
10
144.0436915219
20
209.0265597561
30
0.0000000000
10
143.5873398599
20
209.2629046712
30
0.0000000000
10
143.0450384394
20
209.4117060628
30
0.0000000000
10
142.6511175347
20
209.4633613091
30
0.0000000000
10
142.4417427500
20
209.4809354412
30
0.0000000000
11
144.6253728612
21
207.5595098539
31
0.0000000000
11
144.5595605910
21
208.1828332556
31
0.0000000000
11
144.3597351500
21
208.6567873771
31
0.0000000000
11
144.0328362750
21
209.0016203010
31
0.0000000000
11
143.6022214261
21
209.2371494112
31
0.0000000000
11
143.0659826198
21
209.3935029506
31
0.0000000000
11
142.4417427500
21
209.4809354412
31
0.0000000000
0
SPLINE
5
30E
100
AcDbEntity
8
0
100
AcDbSpline
62
7
6
CONTINUOUS
70
0
71
3
72
10
73
6
74
4
42
0.0000001000
43
0.0000001000
44
0.0000000001
12
-0.6118651111
22
0.0513576567
32
0.0000000000
13
-0.6039842313
23
0.1105421701
33
0.0000000000
40
0.0000000000
40
0.0000000000
40
0.0000000000
40
0.0000000000
40
0.3105530720
40
0.6445029448
40
1.0000000000
40
1.0000000000
40
1.0000000000
40
1.0000000000
10
142.4417427500
20
209.4809354412
30
0.0000000000
10
142.3784038867
20
209.4862518672
30
0.0000000000
10
142.2473747157
20
209.5022425588
30
0.0000000000
10
142.0453835732
20
209.5353482580
30
0.0000000000
10
141.9065882487
20
209.5608272428
30
0.0000000000
10
141.8350167102
20
209.5739263815
30
0.0000000000
11
142.4417427500
21
209.4809354412
31
0.0000000000
11
142.2523276047
21
209.5029032959
31
0.0000000000
11
142.0498454441
21
209.5352576840
31
0.0000000000
11
141.8350167102
21
209.5739263815
31
0.0000000000
0
SPLINE
5
30F
100
AcDbEntity
8
0
100
AcDbSpline
62
7
6
CONTINUOUS
70
0
71
3
72
9
73
5
74
3
42
0.0000001000
43
0.0000001000
44
0.0000000001
12
0.1858643794
22
0.0340171991
32
0.0000000000
13
0.1860928726
23
0.0327441616
33
0.0000000000
40
0.0000000000
40
0.0000000000
40
0.0000000000
40
0.0000000000
40
0.5054599128
40
1.0000000000
40
1.0000000000
40
1.0000000000
40
1.0000000000
10
141.8350167102
20
209.5739263815
30
0.0000000000
10
141.8663323745
20
209.5796578250
30
0.0000000000
10
141.9282848875
20
209.5910091748
30
0.0000000000
10
141.9902760730
20
209.6021497148
30
0.0000000000
10
142.0209528681
20
209.6075474817
30
0.0000000000
11
141.8350167102
21
209.5739263815
31
0.0000000000
11
141.9289712785
21
209.5910792698
31
0.0000000000
11
142.0209528681
21
209.6075474817
31
0.0000000000
0
SPLINE
5
310
100
AcDbEntity
8
0
100
AcDbSpline
62
7
6
CONTINUOUS
70
0
71
3
72
10
73
6
74
4
42
0.0000001000
43
0.0000001000
44
0.0000000001
12
-0.1432370745
22
-0.0512599089
32
0.0000000000
13
-0.0558344360
23
0.1415166193
33
0.0000000000
40
0.0000000000
40
0.0000000000
40
0.0000000000
40
0.0000000000
40
0.3329075592
40
0.6660977373
40
1.0000000000
40
1.0000000000
40
1.0000000000
40
1.0000000000
10
185.7623698167
20
92.7803807353
30
0.0000000000
10
185.7464749151
20
92.7746924650
30
0.0000000000
10
185.7110563830
20
92.7715543663
30
0.0000000000
10
185.6629566397
20
92.7934077651
30
0.0000000000
10
185.6419721910
20
92.8221702993
30
0.0000000000
10
185.6357577762
20
92.8379212058
30
0.0000000000
11
185.7623698167
21
92.7803807353
31
0.0000000000
11
185.7119155444
21
92.7759755943
31
0.0000000000
11
185.6657605999
21
92.7969307114
31
0.0000000000
11
185.6357577762
21
92.8379212058
31
0.0000000000
0
SPLINE
5
311
100
AcDbEntity
8
0
100
AcDbSpline
62
7
6
CONTINUOUS
70
0
71
3
72
9
73
5
74
3
42
0.0000001000
43
0.0000001000
44
0.0000000001
12
0.0000000000
22
0.1295282568
32
0.0000000000
13
-0.0364261682
23
0.1243008591
33
0.0000000000
40
0.0000000000
40
0.0000000000
40
0.0000000000
40
0.0000000000
40
0.4714981584
40
1.0000000000
40
1.0000000000
40
1.0000000000
40
1.0000000000
10
185.7116880447
20
94.5805627195
30
0.0000000000
10
185.7116880447
20
94.6009201643
30
0.0000000000
10
185.6526102216
20
94.6163093111
30
0.0000000000
10
185.6421748752
20
94.6610844800
30
0.0000000000
10
185.6357577762
20
94.6829822243
30
0.0000000000
11
185.7116880447
21
94.5805627195
31
0.0000000000
11
185.6667916091
21
94.6219648947
31
0.0000000000
11
185.6357577762
21
94.6829822243
31
0.0000000000
0
SPLINE
5
312
100
AcDbEntity
8
0
100
AcDbSpline
62
7
6
CONTINUOUS
70
0
71
3
72
9
73
5
74
3
42
0.0000001000
43
0.0000001000
44
0.0000000001
12
-1.2899198253
22
1.1309765472
32
0.0000000000
13
-1.5232030920
23
0.7892106477
33
0.0000000000
40
0.0000000000
40
0.0000000000
40
0.0000000000
40
0.0000000000
40
0.4988625432
40
1.0000000000
40
1.0000000000
40
1.0000000000
40
1.0000000000
10
183.7076848156
20
97.5775751458
30
0.0000000000
10
183.4931872540
20
97.7656424247
30
0.0000000000
10
183.0400784288
20
98.1170356458
30
0.0000000000
10
182.5478457231
20
98.4111741854
30
0.0000000000
10
182.2934010152
20
98.5430085244
30
0.0000000000
11
183.7076848156
21
97.5775751458
31
0.0000000000
11
183.0313726932
21
98.1019876369
31
0.0000000000
11
182.2934010152
21
98.5430085244
31
0.0000000000
0
SPLINE
5
313
100
AcDbEntity
8
0
100
AcDbSpline
62
7
6
CONTINUOUS
70
0
71
3
72
12
73
8
74
6
42
0.0000001000
43
0.0000001000
44
0.0000000001
12
0.0000000000
22
-1.0946776750
32
0.0000000000
13
0.0000000000
23
-1.0946776750
33
0.0000000000
40
0.0000000000
40
0.0000000000
40
0.0000000000
40
0.0000000000
40
0.2593773709
40
0.5057855279
40
0.7291517038
40
0.9068052887
40
1.0000000000
40
1.0000000000
40
1.0000000000
40
1.0000000000
10
186.2934010152
20
95.4754342867
30
0.0000000000
10
186.2934010152
20
95.3807894143
30
0.0000000000
10
186.2637336406
20
95.1955617114
30
0.0000000000
10
186.1537823963
20
94.9499897597
30
0.0000000000
10
185.9881529295
20
94.7721480279
30
0.0000000000
10
185.8784748430
20
94.6460316600
30
0.0000000000
10
185.7470052175
20
94.6136129308
30
0.0000000000
10
185.7470052175
20
94.5796068742
30
0.0000000000
11
186.2934010152
21
95.4754342867
31
0.0000000000
11
186.2507173507
21
95.1947263037
31
0.0000000000
11
186.1367325393
21
94.9502558838
31
0.0000000000
11
185.9806764026
21
94.7620178383
31
0.0000000000
11
185.8290297193
21
94.6402673069
31
0.0000000000
11
185.7470052175
21
94.5796068742
31
0.0000000000
0
SPLINE
5
314
100
AcDbEntity
8
0
100
AcDbSpline
62
7
6
CONTINUOUS
70
0
71
3
72
13
73
9
74
7
42
0.0000001000
43
0.0000001000
44
0.0000000001
12
-0.9893304897
22
3.3759968695
32
0.0000000000
13
-2.6452086285
23
2.3192673395
33
0.0000000000
40
0.0000000000
40
0.0000000000
40
0.0000000000
40
0.0000000000
40
0.0753215808
40
0.1900065178
40
0.3386064945
40
0.5258949905
40
0.7472813951
40
1.0000000000
40
1.0000000000
40
1.0000000000
40
1.0000000000
10
185.6357577762
20
94.6829822243
30
0.0000000000
10
185.6109184641
20
94.7677440313
30
0.0000000000
10
185.5369123135
20
94.9781543862
30
0.0000000000
10
185.3842868085
20
95.3449344487
30
0.0000000000
10
185.1463054076
20
95.8173211004
30
0.0000000000
10
184.8018649196
20
96.3739004190
30
0.0000000000
10
184.3248401166
20
96.9875037002
30
0.0000000000
10
183.9305161755
20
97.3822009669
30
0.0000000000
10
183.7076850307
20
97.5775749690
30
0.0000000000
11
185.6357577762
21
94.6829822243
31
0.0000000000
11
185.5504151129
21
94.9338420019
31
0.0000000000
11
185.3957058604
21
95.3064594475
31
0.0000000000
11
185.1608291366
21
95.7734948203
31
0.0000000000
11
184.8140856591
21
96.3337503186
31
0.0000000000
11
184.3360169585
21
96.9485904966
31
0.0000000000
11
183.7076850307
21
97.5775749690
31
0.0000000000
0
SPLINE
5
315
100
AcDbEntity
8
0
100
AcDbSpline
62
7
6
CONTINUOUS
70
0
71
3
72
15
73
11
74
9
42
0.0000001000
43
0.0000001000
44
0.0000000001
12
-1.8705367564
22
4.7410174977
32
0.0000000000
13
-4.5253276666
23
2.3446885039
33
0.0000000000
40
0.0000000000
40
0.0000000000
40
0.0000000000
40
0.0000000000
40
0.1249908275
40
0.2500196007
40
0.3750344697
40
0.5000367463
40
0.6250294022
40
0.7500170586
40
0.8750054741
40
1.0000000000
40
1.0000000000
40
1.0000000000
40
1.0000000000
10
185.6357577762
20
92.8379212058
30
0.0000000000
10
185.5578244639
20
93.0354491058
30
0.0000000000
10
185.3841642897
20
93.4238172876
30
0.0000000000
10
185.0727495188
20
93.9805988978
30
0.0000000000
10
184.7127714585
20
94.5073746268
30
0.0000000000
10
184.3071622621
20
94.9997815122
30
0.0000000000
10
183.8591462039
20
95.4538818556
30
0.0000000000
10
183.3722707384
20
95.8660293140
30
0.0000000000
10
182.8504671877
20
96.2328712465
30
0.0000000000
10
182.4819480773
20
96.4453174484
30
0.0000000000
10
182.2934010152
20
96.5430085244
30
0.0000000000
11
185.6357577762
21
92.8379212058
31
0.0000000000
11
185.3757065054
21
93.4194632839
31
0.0000000000
11
185.0646443543
21
93.9756149100
31
0.0000000000
11
184.7051473153
21
94.5016718088
31
0.0000000000
11
184.3000784112
21
94.9934150185
31
0.0000000000
11
183.8526606135
21
95.4468982479
31
0.0000000000
11
183.3664509173
21
95.8584773926
31
0.0000000000
11
182.8453143086
21
96.2248362675
31
0.0000000000
11
182.2934010152
21
96.5430085244
31
0.0000000000
0
SPLINE
5
316
100
AcDbEntity
8
0
100
AcDbSpline
62
7
6
CONTINUOUS
70
0
71
3
72
15
73
11
74
9
42
0.0000001000
43
0.0000001000
44
0.0000000001
12
0.0000000000
22
-0.9828747019
32
0.0000000000
13
-0.9254016759
23
-0.3311712818
33
0.0000000000
40
0.0000000000
40
0.0000000000
40
0.0000000000
40
0.0000000000
40
0.1251488610
40
0.2502143120
40
0.3752509123
40
0.5002507049
40
0.6252242487
40
0.7501825270
40
0.8751392411
40
1.0000000000
40
1.0000000000
40
1.0000000000
40
1.0000000000
10
186.2934010152
20
93.5356564957
30
0.0000000000
10
186.2934010152
20
93.4946546125
30
0.0000000000
10
186.2871051739
20
93.4125396671
30
0.0000000000
10
186.2590032766
20
93.2923822094
30
0.0000000000
10
186.2129164870
20
93.1779329976
30
0.0000000000
10
186.1499183450
20
93.0718913235
30
0.0000000000
10
186.0714813310
20
92.9767330983
30
0.0000000000
10
185.9794215241
20
92.8946910857
30
0.0000000000
10
185.8759496453
20
92.8277321765
30
0.0000000000
10
185.8008852685
20
92.7941641679
30
0.0000000000
10
185.7623698167
20
92.7803807353
30
0.0000000000
11
186.2934010152
21
93.5356564957
31
0.0000000000
11
186.2839904311
21
93.4130113543
31
0.0000000000
11
186.2560006716
21
93.2933167367
31
0.0000000000
11
186.2100903575
21
93.1793189271
31
0.0000000000
11
186.1473378613
21
93.0736946354
31
0.0000000000
11
186.0692058366
21
92.9789137575
31
0.0000000000
11
185.9775139959
21
92.8972011595
31
0.0000000000
11
185.8743989221
21
92.8304834991
31
0.0000000000
11
185.7623698167
21
92.7803807353
31
0.0000000000
0
ENDSEC
0
SECTION
2
OBJECTS
0
DICTIONARY
5
C
100
AcDbDictionary
280
0
281
1
3
ACAD_GROUP
350
D
3
ACAD_MLINESTYLE
350
17
3
ACAD_LAYOUT
350
1A
3
ACAD_PLOTSETTINGS
350
19
3
ACAD_PLOTSTYLENAME
350
E
0
DICTIONARY
5
D
102
{ACAD_REACTORS
330
C
102
}
100
AcDbDictionary
280
0
281
1
0
ACDBDICTIONARYWDFLT
5
E
102
{ACAD_REACTORS
330
C
102
}
100
AcDbDictionary
281
1
3
Normal
350
F
100
AcDbDictionaryWithDefault
340
F
0
DICTIONARY
5
17
102
{ACAD_REACTORS
330
C
102
}
100
AcDbDictionary
280
0
281
1
3
Standard
350
18
0
DICTIONARY
5
19
102
{ACAD_REACTORS
330
C
102
}
100
AcDbDictionary
281
1
0
DICTIONARY
5
1A
102
{ACAD_REACTORS
330
C
102
}
100
AcDbDictionary
281
1
3
Layout1
350
1E
3
Model
350
22
0
ACDBPLACEHOLDER
5
F
102
{ACAD_REACTORS
330
E
102
}
0
MLINESTYLE
5
18
102
{ACAD_REACTORS
330
17
102
}
100
AcDbMlineStyle
2
STANDARD
70
0
3

62
256
51
90.0
52
90.0
71
2
49
0.5
62
256
6
BYLAYER
49
-0.5
62
256
6
BYLAYER
0
LAYOUT
5
1E
102
{ACAD_REACTORS
330
1A
102
}
100
AcDbPlotSettings
1

2

4

6

40
0.0
41
0.0
42
0.0
43
0.0
44
0.0
45
0.0
46
0.0
47
0.0
48
0.0
49
0.0
140
0.0
141
0.0
142
1.0
143
1.0
70
0
72
0
73
0
74
0
7

75
0
147
1.0
148
0.0
149
0.0
100
AcDbLayout
1
Layout1
70
0
71
0
10
0.0
20
0.0
11
0.0
21
0.0
12
0.0
22
0.0
32
0.0
14
0.0
24
0.0
34
0.0
15
0.0
25
0.0
35
0.0
146
0.0
13
0.0
23
0.0
33
0.0
16
0.0
26
0.0
36
0.0
17
0.0
27
0.0
37
0.0
76
0
330
1B
331
0
345
0
346
0
0
LAYOUT
5
22
102
{ACAD_REACTORS
330
1A
102
}
100
AcDbPlotSettings
1

2

4

6

40
0.0
41
0.0
42
0.0
43
0.0
44
0.0
45
0.0
46
0.0
47
0.0
48
0.0
49
0.0
140
0.0
141
0.0
142
1.0
143
1.0
70
0
72
0
73
0
74
0
7

75
0
147
1.0
148
0.0
149
0.0
100
AcDbLayout
1
Model
70
0
71
0
10
0.0
20
0.0
11
0.0
21
0.0
12
0.0
22
0.0
32
0.0
14
0.0
24
0.0
34
0.0
15
0.0
25
0.0
35
0.0
146
0.0
13
0.0
23
0.0
33
0.0
16
0.0
26
0.0
36
0.0
17
0.0
27
0.0
37
0.0
76
0
330
1F
331
0
345
0
346
0
0
ENDSEC
0
EOF
