999
DXF file: 820k325.dxf
999
Pro/ENGINEER 2005310 by Parametric Technology Corporation
0
SECTION
2
HEADER
9
$ACADVER
1
AC1015
9
$DWGCODEPAGE
3
ANSI_1252
9
$EXTMAX
10
210.0000000000
20
297.0000000000
30
0.0000000000
9
$EXTMIN
10
0.0000000000
20
0.0000000000
30
0.0000000000
9
$LIMMIN
10
0.0000000000
20
0.0000000000
9
$LIMMAX
10
210.0000000000
20
297.0000000000
9
$VIEWCTR
10
105.0000000000
20
148.5000000000
9
$VIEWSIZE
40
297.0000000000
9
$CLAYER
8
0
9
$LTSCALE
40
19.3600000000
9
$CELTYPE
6
BYLAYER
9
$DIMSCALE
40
1
9
$DIMASZ
40
3.5000000000
9
$DIMEXO
40
2.2000000000
9
$DIMDLI
40
13.3760000000
9
$DIMEXE
40
6.3360000000
9
$DIMCEN
40
3.1680000000
9
$DIMLFAC
40
1.0000000000
9
$DIMBLK
1
_FILLED
9
$DIMTXT
40
3.5000000000
9
$DIMTOL
70
1
9
$DIMLIM
70
0
9
$DIMTFAC
40
1.0000000000
9
$DIMTP
40
0.0010000000
9
$DIMTM
40
0.0010000000
9
$PDMODE
70
3
9
$PDSIZE
40
0.3125000000
9
$HANDSEED
5
3CE
9
$MEASUREMENT
70
1
9
$INSUNITS
70
4
0
ENDSEC
0
SECTION
2
CLASSES
0
CLASS
1
ACDBDICTIONARYWDFLT
2
AcDbDictionaryWithDefault
3
AutoCAD 2000
90
0
280
0
281
0
0
CLASS
1
ACDBPLACEHOLDER
2
AcDbPlaceHolder
3
AutoCAD 2000
90
0
280
0
281
0
0
CLASS
1
LAYOUT
2
AcDbLayout
3
AutoCAD 2000
90
0
280
0
281
0
0
ENDSEC
0
SECTION
2
TABLES
0
TABLE
2
VPORT
5
8
100
AcDbSymbolTable
70
2
0
VPORT
5
1F4
100
AcDbSymbolTableRecord
100
AcDbViewportTableRecord
2
*ACTIVE
70
0
10
0.0
20
0.0
11
1.0
21
1.0
12
105.0000000000
22
148.5000000000
13
0.0
23
0.0
14
1.0
24
1.0
15
0.0
25
0.0
16
0.0
26
0.0
36
1.0
17
0.0
27
0.0
37
0.0
40
297.0000000000
41
0.7070707071
42
50.0
43
0.0
44
0.0
50
0.0
51
0.0
71
0
72
100
73
1
74
1
75
0
76
0
77
0
78
0
0
ENDTAB
0
TABLE
2
LTYPE
5
5
100
AcDbSymbolTable
70
6
0
LTYPE
5
14
100
AcDbSymbolTableRecord
100
AcDbLinetypeTableRecord
2
BYBLOCK
70
0
3

72
65
73
0
40
0.0
0
LTYPE
5
15
100
AcDbSymbolTableRecord
100
AcDbLinetypeTableRecord
2
BYLAYER
70
0
3

72
65
73
0
40
0.0
0
LTYPE
5
16
100
AcDbSymbolTableRecord
100
AcDbLinetypeTableRecord
2
CONTINUOUS
70
64
3
Solid line
72
65
73
0
40
0
0
LTYPE
5
1F5
100
AcDbSymbolTableRecord
100
AcDbLinetypeTableRecord
2
CENTER
70
64
3
____ _ ____ _ ____ _ ____ _ ____ _ ____ _ ____
72
65
73
4
40
0.6
49
0.375
74
0
49
-0.075
74
0
49
0.075
74
0
49
-0.075
74
0
0
LTYPE
5
1F6
100
AcDbSymbolTableRecord
100
AcDbLinetypeTableRecord
2
HIDDEN
70
64
3
- - - - - - - - - - - - - - - - - - - -
72
65
73
2
40
0.2
49
0.1
74
0
49
-0.1
74
0
0
LTYPE
5
1F7
100
AcDbSymbolTableRecord
100
AcDbLinetypeTableRecord
2
PHANTOM
70
64
3
_____ _ _ _____ _ _ _____ _ _ _____
72
65
73
6
40
0.8
49
0.45
74
0
49
-0.05
74
0
49
0.1
74
0
49
-0.05
74
0
49
0.1
74
0
49
-0.05
74
0
0
LTYPE
5
1F8
100
AcDbSymbolTableRecord
100
AcDbLinetypeTableRecord
2
DOT
70
64
3
. . . . . . . . . . . . . . . . . . . .
72
65
73
2
40
0.2
49
0.1
74
0
49
-0.1
74
0
0
LTYPE
5
1F9
100
AcDbSymbolTableRecord
100
AcDbLinetypeTableRecord
2
DASHED
70
64
3
- - - - - - - - - - - - - - - - - - - -
72
65
73
2
40
0.2
49
0.1
74
0
49
-0.1
74
0
0
ENDTAB
0
TABLE
2
LAYER
5
2
100
AcDbSymbolTable
70
36
0
LAYER
5
10
100
AcDbSymbolTableRecord
100
AcDbLayerTableRecord
2
0
70
0
62
7
6
CONTINUOUS
370
-3
390
F
0
LAYER
5
1FA
100
AcDbSymbolTableRecord
100
AcDbLayerTableRecord
2
DEFAULT_1
70
0
62
7
6
CENTER
370
-3
390
F
0
LAYER
5
1FB
100
AcDbSymbolTableRecord
100
AcDbLayerTableRecord
2
DEFAULT_2
70
0
62
8
6
HIDDEN
370
-3
390
F
0
LAYER
5
1FC
100
AcDbSymbolTableRecord
100
AcDbLayerTableRecord
2
DEFAULT_3
70
0
62
7
6
PHANTOM
370
-3
390
F
0
LAYER
5
1FD
100
AcDbSymbolTableRecord
100
AcDbLayerTableRecord
2
_2D_DELETED_OBJS
70
0
62
7
6
CONTINUOUS
370
-3
390
F
0
LAYER
5
1FE
100
AcDbSymbolTableRecord
100
AcDbLayerTableRecord
2
ASSI
70
0
62
7
6
CONTINUOUS
370
-3
390
F
0
LAYER
5
1FF
100
AcDbSymbolTableRecord
100
AcDbLayerTableRecord
2
AXES
70
0
62
7
6
CONTINUOUS
370
-3
390
F
0
LAYER
5
200
100
AcDbSymbolTableRecord
100
AcDbLayerTableRecord
2
DIMS
70
0
62
7
6
CONTINUOUS
370
-3
390
F
0
LAYER
5
201
100
AcDbSymbolTableRecord
100
AcDbLayerTableRecord
2
GEOM
70
0
62
7
6
CONTINUOUS
370
-3
390
F
0
LAYER
5
202
100
AcDbSymbolTableRecord
100
AcDbLayerTableRecord
2
NOGEOM
70
0
62
7
6
CONTINUOUS
370
-3
390
F
0
LAYER
5
203
100
AcDbSymbolTableRecord
100
AcDbLayerTableRecord
2
PIANI
70
0
62
7
6
CONTINUOUS
370
-3
390
F
0
LAYER
5
204
100
AcDbSymbolTableRecord
100
AcDbLayerTableRecord
2
PLANES
70
0
62
7
6
CONTINUOUS
370
-3
390
F
0
LAYER
5
205
100
AcDbSymbolTableRecord
100
AcDbLayerTableRecord
2
SURF_FILETTI
70
0
62
7
6
CONTINUOUS
370
-3
390
F
0
LAYER
5
206
100
AcDbSymbolTableRecord
100
AcDbLayerTableRecord
2
XSEC_DATUMS
70
0
62
7
6
CONTINUOUS
370
-3
390
F
0
ENDTAB
0
TABLE
2
STYLE
5
3
100
AcDbSymbolTable
70
1
0
STYLE
5
11
100
AcDbSymbolTableRecord
100
AcDbTextStyleTableRecord
2
STANDARD
70
0
40
0.0
41
0.7143000000
50
0.0
71
0
42
0.2
3
txt
4

0
ENDTAB
0
TABLE
2
VIEW
5
6
100
AcDbSymbolTable
70
0
0
ENDTAB
0
TABLE
2
UCS
5
7
100
AcDbSymbolTable
70
0
0
ENDTAB
0
TABLE
2
APPID
5
9
100
AcDbSymbolTable
70
1
0
APPID
5
207
100
AcDbSymbolTableRecord
100
AcDbRegAppTableRecord
2
ACAD
70
0
0
ENDTAB
0
TABLE
2
BLOCK_RECORD
5
1
100
AcDbSymbolTable
70
0
0
BLOCK_RECORD
5
1F
100
AcDbSymbolTableRecord
100
AcDbBlockTableRecord
2
*MODEL_SPACE
0
BLOCK_RECORD
5
1B
100
AcDbSymbolTableRecord
100
AcDbBlockTableRecord
2
*PAPER_SPACE
0
BLOCK_RECORD
5
208
100
AcDbSymbolTableRecord
100
AcDbBlockTableRecord
2
_FILLED
0
BLOCK_RECORD
5
209
100
AcDbSymbolTableRecord
100
AcDbBlockTableRecord
2
*D0
0
BLOCK_RECORD
5
20A
100
AcDbSymbolTableRecord
100
AcDbBlockTableRecord
2
*D1
0
BLOCK_RECORD
5
20B
100
AcDbSymbolTableRecord
100
AcDbBlockTableRecord
2
*D2
0
BLOCK_RECORD
5
20C
100
AcDbSymbolTableRecord
100
AcDbBlockTableRecord
2
*D3
0
BLOCK_RECORD
5
20D
100
AcDbSymbolTableRecord
100
AcDbBlockTableRecord
2
*D4
0
ENDTAB
0
TABLE
2
DIMSTYLE
5
A
100
AcDbSymbolTable
70
1
100
AcDbDimStyleTable
71
0
0
DIMSTYLE
105
20E
100
AcDbSymbolTableRecord
100
AcDbDimStyleTableRecord
2
STANDARD
70
0
3

4

40
1.0
41
3.5000000000
42
0.0625
43
0.38
44
0.18
45
0.0
46
0.0
47
0.0010000000
48
0.0010000000
140
3.5000000000
141
0.09
142
0.0
143
25.4
144
1.0000000000
145
0.0
146
1.0000000000
147
0.09
71
1
72
0
73
0
74
0
75
0
76
0
77
1
78
8
170
0
171
2
172
0
173
0
174
0
175
0
176
0
177
0
178
0
270
2
271
3
272
3
273
2
274
2
275
0
280
0
281
0
282
0
283
1
284
8
285
0
286
0
287
3
288
0
340
11
341
208
342
208
343
208
344
208
0
DIMSTYLE
105
20F
100
AcDbSymbolTableRecord
100
AcDbDimStyleTableRecord
2
DIMSTYLE_1
70
0
3

4

40
1.0
41
3.5000000000
42
0.0625
43
0.38
44
0.18
45
0.0
46
0.0
47
0.3000000000
48
0.3000000000
140
3.5000000000
141
0.09
142
0.0
143
25.4
144
1.0000000000
145
0.0
146
1.0000000000
147
0.09
71
0
72
0
73
0
74
0
75
0
76
0
77
1
78
8
170
0
171
2
172
0
173
0
174
0
175
0
176
0
177
0
178
0
270
2
271
3
272
3
273
2
274
2
275
0
280
0
281
0
282
0
283
1
284
8
285
0
286
0
287
3
288
0
340
11
341
208
342
208
343
208
344
208
0
DIMSTYLE
105
210
100
AcDbSymbolTableRecord
100
AcDbDimStyleTableRecord
2
DIMSTYLE_2
70
0
3

4

40
1.0
41
3.5000000000
42
0.0625
43
0.38
44
0.18
45
0.0
46
0.0
47
0.1000000000
48
0.1000000000
140
3.5000000000
141
0.09
142
0.0
143
25.4
144
1.0000000000
145
0.0
146
1.0000000000
147
0.09
71
0
72
0
73
0
74
0
75
0
76
0
77
1
78
8
170
0
171
2
172
0
173
0
174
0
175
0
176
0
177
0
178
0
270
2
271
3
272
3
273
2
274
2
275
0
280
0
281
0
282
0
283
1
284
8
285
0
286
0
287
3
288
0
340
11
341
208
342
208
343
208
344
208
0
DIMSTYLE
105
211
100
AcDbSymbolTableRecord
100
AcDbDimStyleTableRecord
2
DIMSTYLE_3
70
0
3

4

40
1.0
41
3.5000000000
42
0.0625
43
0.38
44
0.18
45
0.0
46
0.0
47
0.2000000000
48
0.2000000000
140
3.5000000000
141
0.09
142
0.0
143
25.4
144
1.0000000000
145
0.0
146
1.0000000000
147
0.09
71
0
72
0
73
0
74
0
75
0
76
0
77
1
78
8
170
0
171
2
172
0
173
0
174
0
175
0
176
0
177
0
178
0
270
2
271
3
272
3
273
2
274
2
275
0
280
0
281
0
282
0
283
1
284
8
285
0
286
0
287
3
288
0
340
11
341
208
342
208
343
208
344
208
0
ENDTAB
0
ENDSEC
0
SECTION
2
BLOCKS
0
BLOCK
5
20
100
AcDbEntity
8
0
100
AcDbBlockBegin
2
*MODEL_SPACE
70
0
10
0.0
20
0.0
30
0.0
3
*MODEL_SPACE
1

0
ENDBLK
5
21
100
AcDbEntity
8
0
100
AcDbBlockEnd
0
BLOCK
5
1C
100
AcDbEntity
8
0
100
AcDbBlockBegin
2
*PAPER_SPACE
70
0
10
0.0
20
0.0
30
0.0
3
*PAPER_SPACE
1

0
ENDBLK
5
1D
100
AcDbEntity
8
0
100
AcDbBlockEnd
0
BLOCK
5
212
100
AcDbEntity
8
0
100
AcDbBlockBegin
62
2
6
CONTINUOUS
2
*D0
70
65
10
0.0000000000
20
0.0000000000
3
*D0
1

0
TEXT
5
213
100
AcDbEntity
8
0
100
AcDbText
62
2
6
CONTINUOUS
10
153.1548289057
20
136.4456914649
7
STANDARD
40
3.5000000000
1
38.1
50
90.0000000000
41
0.7143000000
72
0
100
AcDbText
0
LINE
5
214
100
AcDbEntity
8
0
100
AcDbLine
62
2
6
CONTINUOUS
10
146.3951458264
20
160.9715974960
11
155.5298289057
21
160.9715974960
0
LINE
5
215
100
AcDbEntity
8
0
100
AcDbLine
62
2
6
CONTINUOUS
10
146.4758883249
20
122.8715974960
11
155.5298289057
21
122.8715974960
0
LINE
5
216
100
AcDbEntity
8
0
100
AcDbLine
62
2
6
CONTINUOUS
10
154.0298289057
20
160.9715974960
11
154.0298289057
21
141.9215974960
0
LINE
5
217
100
AcDbEntity
8
0
100
AcDbLine
62
2
6
CONTINUOUS
10
154.0298289057
20
122.8715974960
11
154.0298289057
21
141.9215974960
0
INSERT
5
218
100
AcDbEntity
8
0
100
AcDbBlockReference
62
2
6
CONTINUOUS
2
_FILLED
10
154.0298289057
20
160.9715974960
41
  3.500000
42
  3.500000
43
  3.500000
50
 90.000000
0
INSERT
5
219
100
AcDbEntity
8
0
100
AcDbBlockReference
62
2
6
CONTINUOUS
2
_FILLED
10
154.0298289057
20
122.8715974960
41
  3.500000
42
  3.500000
43
  3.500000
50
270.000000
0
ENDBLK
5
21A
100
AcDbEntity
8
0
6
BYBLOCK
62
0
100
AcDbBlockEnd
0
BLOCK
5
21B
100
AcDbEntity
8
0
100
AcDbBlockBegin
62
2
6
CONTINUOUS
2
*D1
70
65
10
0.0000000000
20
0.0000000000
3
*D1
1

0
TEXT
5
21C
100
AcDbEntity
8
0
100
AcDbText
62
2
6
CONTINUOUS
10
95.2944079336
20
91.7827519390
7
STANDARD
40
3.5000000000
1
82.5
41
0.7143000000
72
0
100
AcDbText
0
LINE
5
21D
100
AcDbEntity
8
0
100
AcDbLine
62
2
6
CONTINUOUS
10
60.4758883249
20
129.1132573144
11
60.4758883249
21
89.4077519390
0
LINE
5
21E
100
AcDbEntity
8
0
100
AcDbLine
62
2
6
CONTINUOUS
10
142.9758883249
20
129.1132573144
11
142.9758883249
21
89.4077519390
0
LINE
5
21F
100
AcDbEntity
8
0
100
AcDbLine
62
2
6
CONTINUOUS
10
60.4758883249
20
90.9077519390
11
101.7258883249
21
90.9077519390
0
LINE
5
220
100
AcDbEntity
8
0
100
AcDbLine
62
2
6
CONTINUOUS
10
142.9758883249
20
90.9077519390
11
101.7258883249
21
90.9077519390
0
INSERT
5
221
100
AcDbEntity
8
0
100
AcDbBlockReference
62
2
6
CONTINUOUS
2
_FILLED
10
60.4758883249
20
90.9077519390
41
  3.500000
42
  3.500000
43
  3.500000
50
180.000000
0
INSERT
5
222
100
AcDbEntity
8
0
100
AcDbBlockReference
62
2
6
CONTINUOUS
2
_FILLED
10
142.9758883249
20
90.9077519390
41
  3.500000
42
  3.500000
43
  3.500000
0
ENDBLK
5
223
100
AcDbEntity
8
0
6
BYBLOCK
62
0
100
AcDbBlockEnd
0
BLOCK
5
224
100
AcDbEntity
8
0
100
AcDbBlockBegin
62
2
6
CONTINUOUS
2
*D2
70
65
10
0.0000000000
20
0.0000000000
3
*D2
1

0
TEXT
5
225
100
AcDbEntity
8
0
100
AcDbText
62
2
6
CONTINUOUS
10
47.1243598884
20
211.3704756569
7
STANDARD
40
3.5000000000
1
4.1
50
90.0000000000
41
0.7143000000
72
0
100
AcDbText
0
LINE
5
226
100
AcDbEntity
8
0
100
AcDbLine
62
2
6
CONTINUOUS
10
60.9821578369
20
207.3326243623
11
46.4993598884
21
207.3326243623
0
LINE
5
227
100
AcDbEntity
8
0
100
AcDbLine
62
2
6
CONTINUOUS
10
60.4758883249
20
203.2326243623
11
46.4993598884
21
203.2326243623
0
LINE
5
228
100
AcDbEntity
8
0
100
AcDbLine
62
2
6
CONTINUOUS
10
47.9993598884
20
207.3326243623
11
47.9993598884
21
218.8706256569
0
LINE
5
229
100
AcDbEntity
8
0
100
AcDbLine
62
2
6
CONTINUOUS
10
47.9993598884
20
218.8706256569
11
47.9993598884
21
205.2826243623
0
LINE
5
22A
100
AcDbEntity
8
0
100
AcDbLine
62
2
6
CONTINUOUS
10
47.9993598884
20
203.2326243623
11
47.9993598884
21
195.2326243623
0
LINE
5
22B
100
AcDbEntity
8
0
100
AcDbLine
62
2
6
CONTINUOUS
10
47.9993598884
20
195.2326243623
11
47.9993598884
21
205.2826243623
0
INSERT
5
22C
100
AcDbEntity
8
0
100
AcDbBlockReference
62
2
6
CONTINUOUS
2
_FILLED
10
47.9993598884
20
207.3326243623
41
  3.500000
42
  3.500000
43
  3.500000
50
270.000000
0
INSERT
5
22D
100
AcDbEntity
8
0
100
AcDbBlockReference
62
2
6
CONTINUOUS
2
_FILLED
10
47.9993598884
20
203.2326243623
41
  3.500000
42
  3.500000
43
  3.500000
50
 90.000000
0
ENDBLK
5
22E
100
AcDbEntity
8
0
6
BYBLOCK
62
0
100
AcDbBlockEnd
0
BLOCK
5
22F
100
AcDbEntity
8
0
100
AcDbBlockBegin
62
2
6
CONTINUOUS
2
*D3
70
65
10
0.0000000000
20
0.0000000000
3
*D3
1

0
TEXT
5
230
100
AcDbEntity
8
0
100
AcDbText
62
2
6
CONTINUOUS
10
33.5566784766
20
195.5201468500
7
STANDARD
40
3.5000000000
1
13.6
50
90.0000000000
41
0.7143000000
72
0
100
AcDbText
0
LINE
5
231
100
AcDbEntity
8
0
100
AcDbLine
62
2
6
CONTINUOUS
10
60.9821578369
20
207.3326243623
11
32.9316784766
21
207.3326243623
0
LINE
5
232
100
AcDbEntity
8
0
100
AcDbLine
62
2
6
CONTINUOUS
10
88.7758883249
20
193.7326243623
11
32.9316784766
21
193.7326243623
0
LINE
5
233
100
AcDbEntity
8
0
100
AcDbLine
62
2
6
CONTINUOUS
10
34.4316784766
20
207.3326243623
11
34.4316784766
21
215.3326243623
0
LINE
5
234
100
AcDbEntity
8
0
100
AcDbLine
62
2
6
CONTINUOUS
10
34.4316784766
20
215.3326243623
11
34.4316784766
21
200.5326243623
0
LINE
5
235
100
AcDbEntity
8
0
100
AcDbLine
62
2
6
CONTINUOUS
10
34.4316784766
20
193.7326243623
11
34.4316784766
21
185.7326243623
0
LINE
5
236
100
AcDbEntity
8
0
100
AcDbLine
62
2
6
CONTINUOUS
10
34.4316784766
20
185.7326243623
11
34.4316784766
21
200.5326243623
0
INSERT
5
237
100
AcDbEntity
8
0
100
AcDbBlockReference
62
2
6
CONTINUOUS
2
_FILLED
10
34.4316784766
20
207.3326243623
41
  3.500000
42
  3.500000
43
  3.500000
50
270.000000
0
INSERT
5
238
100
AcDbEntity
8
0
100
AcDbBlockReference
62
2
6
CONTINUOUS
2
_FILLED
10
34.4316784766
20
193.7326243623
41
  3.500000
42
  3.500000
43
  3.500000
50
 90.000000
0
ENDBLK
5
239
100
AcDbEntity
8
0
6
BYBLOCK
62
0
100
AcDbBlockEnd
0
BLOCK
5
23A
100
AcDbEntity
8
0
100
AcDbBlockBegin
62
2
6
CONTINUOUS
2
*D4
70
65
10
0.0000000000
20
0.0000000000
3
*D4
1

0
TEXT
5
23B
100
AcDbEntity
8
0
100
AcDbText
62
2
6
CONTINUOUS
10
96.2846344591
20
184.8764831061
7
STANDARD
40
3.5000000000
1
42.1
41
0.7143000000
72
0
100
AcDbText
0
LINE
5
23C
100
AcDbEntity
8
0
100
AcDbLine
62
2
6
CONTINUOUS
10
80.6758883249
20
193.8826255298
11
80.6758883249
21
182.5014831061
0
LINE
5
23D
100
AcDbEntity
8
0
100
AcDbLine
62
2
6
CONTINUOUS
10
122.7758883249
20
193.8826249588
11
122.7758883249
21
182.5014831061
0
LINE
5
23E
100
AcDbEntity
8
0
100
AcDbLine
62
2
6
CONTINUOUS
10
80.6758883249
20
184.0014831061
11
101.7258883249
21
184.0014831061
0
LINE
5
23F
100
AcDbEntity
8
0
100
AcDbLine
62
2
6
CONTINUOUS
10
122.7758883249
20
184.0014831061
11
101.7258883249
21
184.0014831061
0
INSERT
5
240
100
AcDbEntity
8
0
100
AcDbBlockReference
62
2
6
CONTINUOUS
2
_FILLED
10
80.6758883249
20
184.0014831061
41
  3.500000
42
  3.500000
43
  3.500000
50
180.000000
0
INSERT
5
241
100
AcDbEntity
8
0
100
AcDbBlockReference
62
2
6
CONTINUOUS
2
_FILLED
10
122.7758883249
20
184.0014831061
41
  3.500000
42
  3.500000
43
  3.500000
0
ENDBLK
5
242
100
AcDbEntity
8
0
6
BYBLOCK
62
0
100
AcDbBlockEnd
0
BLOCK
5
243
100
AcDbEntity
8
0
100
AcDbBlockBegin
2
_FILLED
70
64
10
0.0000000000
20
0.0000000000
3
_FILLED
1

0
SOLID
5
244
100
AcDbEntity
8
0
6
BYBLOCK
62
0
100
AcDbTrace
10
0.0000000000
20
0.0000000000
11
-1.0000000000
21
0.1857142857
12
-1.0000000000
22
-0.1857142857
13
-1.0000000000
23
-0.1857142857
0
ENDBLK
5
245
100
AcDbEntity
8
0
6
BYBLOCK
62
0
100
AcDbBlockEnd
0
ENDSEC
0
SECTION
2
ENTITIES
0
DIMENSION
5
246
100
AcDbEntity
8
0
100
AcDbDimension
62
2
6
CONTINUOUS
2
*D0
10
154.0298289057
20
122.8715974960
11
151.4048289057
21
141.4457914649
70
160
42
38.100000
3
DIMSTYLE_1
100
AcDbAlignedDimension
13
146.3951458264
23
160.9715974960
14
146.4758883249
24
122.8715974960
50
270.000000
100
AcDbRotatedDimension
0
DIMENSION
5
247
100
AcDbEntity
8
0
100
AcDbDimension
62
2
6
CONTINUOUS
2
*D1
10
142.9758883249
20
90.9077519390
11
100.2945079336
21
93.5327519390
70
160
42
82.500000
3
DIMSTYLE_1
100
AcDbAlignedDimension
13
60.4758883249
23
129.1132573144
14
142.9758883249
24
129.1132573144
100
AcDbRotatedDimension
0
DIMENSION
5
248
100
AcDbEntity
8
0
100
AcDbDimension
62
2
6
CONTINUOUS
2
*D2
10
47.9993598884
20
203.2326243623
11
45.3743598884
21
215.1205506569
70
160
42
4.100000
3
DIMSTYLE_2
100
AcDbAlignedDimension
13
60.9821578369
23
207.3326243623
14
60.4758883249
24
203.2326243623
50
270.000000
100
AcDbRotatedDimension
0
DIMENSION
5
249
100
AcDbEntity
8
0
100
AcDbDimension
62
2
6
CONTINUOUS
2
*D3
10
34.4316784766
20
193.7326243623
11
31.8066784766
21
200.5202468500
70
160
42
13.600000
3
DIMSTYLE_3
100
AcDbAlignedDimension
13
60.9821578369
23
207.3326243623
14
88.7758883249
24
193.7326243623
50
270.000000
100
AcDbRotatedDimension
0
DIMENSION
5
24A
100
AcDbEntity
8
0
100
AcDbDimension
62
2
6
CONTINUOUS
2
*D4
10
122.7758883249
20
184.0014831061
11
101.2847344591
21
186.6264831061
70
160
42
42.100000
3
DIMSTYLE_1
100
AcDbAlignedDimension
13
80.6758883249
23
193.8826255298
14
122.7758883249
24
193.8826249588
100
AcDbRotatedDimension
0
LINE
5
24B
100
AcDbEntity
8
0
100
AcDbLine
62
7
6
CONTINUOUS
10
0.0000000000
20
0.0000000000
11
210.0000000000
21
0.0000000000
0
LINE
5
24C
100
AcDbEntity
8
0
100
AcDbLine
62
7
6
CONTINUOUS
10
0.0000000000
20
0.0000000000
11
0.0000000000
21
297.0000000000
0
LINE
5
24D
100
AcDbEntity
8
0
100
AcDbLine
62
7
6
CONTINUOUS
10
210.0000000000
20
0.0000000000
11
210.0000000000
21
297.0000000000
0
LINE
5
24E
100
AcDbEntity
8
0
100
AcDbLine
62
7
6
CONTINUOUS
10
0.0000000000
20
297.0000000000
11
210.0000000000
21
297.0000000000
0
LINE
5
24F
100
AcDbEntity
8
0
100
AcDbLine
62
7
6
CONTINUOUS
10
60.4758883249
20
162.5647186847
11
60.4758883249
21
129.6132573144
0
LINE
5
250
100
AcDbEntity
8
0
100
AcDbLine
62
7
6
CONTINUOUS
10
60.9758883249
20
161.7668961821
11
60.9758883249
21
127.9549449193
0
LINE
5
251
100
AcDbEntity
8
0
100
AcDbLine
62
7
6
CONTINUOUS
10
89.2758883249
20
116.5215974960
11
98.0758883249
21
116.5215974960
0
LINE
5
252
100
AcDbEntity
8
0
100
AcDbLine
62
7
6
CONTINUOUS
10
105.3758883249
20
116.5215974960
11
114.1758883249
21
116.5215974960
0
LINE
5
253
100
AcDbEntity
8
0
100
AcDbLine
62
7
6
CONTINUOUS
10
114.1758883249
20
118.6550583902
11
105.3758883249
21
118.6550583902
0
LINE
5
254
100
AcDbEntity
8
0
100
AcDbLine
62
7
6
CONTINUOUS
10
98.0758883249
20
118.6550583902
11
89.2758883249
21
118.6550583902
0
LINE
5
255
100
AcDbEntity
8
0
100
AcDbLine
62
7
6
CONTINUOUS
10
80.6758883249
20
165.4595481830
11
80.6758883249
21
166.8215974960
0
LINE
5
256
100
AcDbEntity
8
0
100
AcDbLine
62
7
6
CONTINUOUS
10
81.1758883249
20
164.5580084935
11
81.1758883249
21
167.3215974960
0
LINE
5
257
100
AcDbEntity
8
0
100
AcDbLine
62
7
6
CONTINUOUS
10
89.2758883249
20
120.5715974960
11
98.0758883249
21
120.5715974960
0
LINE
5
258
100
AcDbEntity
8
0
100
AcDbLine
62
7
6
CONTINUOUS
10
105.3758883249
20
120.5715974960
11
114.1758883249
21
120.5715974960
0
LINE
5
259
100
AcDbEntity
8
DEFAULT_1
100
AcDbLine
62
2
6
CENTER
10
57.4758883249
20
122.8715974960
11
145.9758883249
21
122.8715974960
0
LINE
5
25A
100
AcDbEntity
8
0
100
AcDbLine
62
7
6
CONTINUOUS
10
87.8258883249
20
167.3215974960
11
87.8258883249
21
156.4715974960
0
LINE
5
25B
100
AcDbEntity
8
0
100
AcDbLine
62
7
6
CONTINUOUS
10
88.3258883249
20
166.8215974960
11
88.3258883249
21
157.1647039270
0
LINE
5
25C
100
AcDbEntity
8
0
100
AcDbLine
62
7
6
CONTINUOUS
10
88.7758883249
20
117.0215974960
11
88.7758883249
21
126.6299776473
0
LINE
5
25D
100
AcDbEntity
8
0
100
AcDbLine
62
7
6
CONTINUOUS
10
104.8758883249
20
126.6132573144
11
98.5758883249
21
126.6132573144
0
LINE
5
25E
100
AcDbEntity
8
0
100
AcDbLine
62
7
6
CONTINUOUS
10
63.4758883249
20
126.6132573144
11
88.7758883249
21
126.6132573144
0
LINE
5
25F
100
AcDbEntity
8
0
100
AcDbLine
62
7
6
CONTINUOUS
10
114.6758883249
20
126.6132573144
11
139.9758883249
21
126.6132573144
0
LINE
5
260
100
AcDbEntity
8
0
100
AcDbLine
62
7
6
CONTINUOUS
10
104.8758883249
20
126.6192087171
11
98.5758883249
21
126.6192087171
0
LINE
5
261
100
AcDbEntity
8
0
100
AcDbLine
62
7
6
CONTINUOUS
10
63.2870153608
20
126.6192087171
11
88.7758883249
21
126.6192087171
0
LINE
5
262
100
AcDbEntity
8
0
100
AcDbLine
62
7
6
CONTINUOUS
10
114.6758883249
20
126.6192087171
11
140.1647612890
21
126.6192087171
0
LINE
5
263
100
AcDbEntity
8
0
100
AcDbLine
62
7
6
CONTINUOUS
10
61.4821578369
20
127.3715974960
11
89.2758883249
21
127.3715974960
0
LINE
5
264
100
AcDbEntity
8
0
100
AcDbLine
62
7
6
CONTINUOUS
10
98.0758883249
20
127.3715974960
11
105.3758883249
21
127.3715974960
0
LINE
5
265
100
AcDbEntity
8
0
100
AcDbLine
62
7
6
CONTINUOUS
10
114.1758883249
20
127.3715974960
11
141.9696188128
21
127.3715974960
0
LINE
5
266
100
AcDbEntity
8
0
100
AcDbLine
62
7
6
CONTINUOUS
10
89.2758883249
20
116.5215974960
11
89.2758883249
21
127.3715974960
0
LINE
5
267
100
AcDbEntity
8
0
100
AcDbLine
62
7
6
CONTINUOUS
10
98.0758883249
20
116.5215974960
11
98.0758883249
21
127.3715974960
0
LINE
5
268
100
AcDbEntity
8
0
100
AcDbLine
62
7
6
CONTINUOUS
10
98.5758883249
20
117.0215974960
11
98.5758883249
21
126.6299776473
0
LINE
5
269
100
AcDbEntity
8
0
100
AcDbLine
62
7
6
CONTINUOUS
10
98.9458883249
20
168.2713142717
11
98.9458883249
21
156.4715974960
0
LINE
5
26A
100
AcDbEntity
8
0
100
AcDbLine
62
7
6
CONTINUOUS
10
104.5058883249
20
156.4715974960
11
104.5058883249
21
168.2713142710
0
LINE
5
26B
100
AcDbEntity
8
0
100
AcDbLine
62
7
6
CONTINUOUS
10
104.8758883249
20
117.0215974960
11
104.8758883249
21
126.6299776473
0
LINE
5
26C
100
AcDbEntity
8
0
100
AcDbLine
62
7
6
CONTINUOUS
10
105.3758883249
20
116.5215974960
11
105.3758883249
21
127.3715974960
0
LINE
5
26D
100
AcDbEntity
8
0
100
AcDbLine
62
7
6
CONTINUOUS
10
114.1758883249
20
127.3715974960
11
114.1758883249
21
116.5215974960
0
LINE
5
26E
100
AcDbEntity
8
0
100
AcDbLine
62
7
6
CONTINUOUS
10
114.6758883249
20
126.6299776473
11
114.6758883249
21
117.0215974960
0
LINE
5
26F
100
AcDbEntity
8
0
100
AcDbLine
62
7
6
CONTINUOUS
10
115.1258883249
20
157.1647039270
11
115.1258883249
21
166.8215974960
0
LINE
5
270
100
AcDbEntity
8
0
100
AcDbLine
62
7
6
CONTINUOUS
10
115.6258883249
20
156.4715974960
11
115.6258883249
21
167.3215974960
0
LINE
5
271
100
AcDbEntity
8
0
100
AcDbLine
62
7
6
CONTINUOUS
10
115.6258883249
20
156.4715974960
11
104.5058883249
21
156.4715974960
0
LINE
5
272
100
AcDbEntity
8
0
100
AcDbLine
62
7
6
CONTINUOUS
10
98.9458883249
20
156.4715974960
11
87.8258883249
21
156.4715974960
0
LINE
5
273
100
AcDbEntity
8
0
100
AcDbLine
62
7
6
CONTINUOUS
10
115.1417391284
20
157.1494334171
11
104.5058883249
21
157.1494334171
0
LINE
5
274
100
AcDbEntity
8
0
100
AcDbLine
62
7
6
CONTINUOUS
10
88.3100375213
20
157.1494334171
11
98.9458883249
21
157.1494334171
0
LINE
5
275
100
AcDbEntity
8
0
100
AcDbLine
62
7
6
CONTINUOUS
10
88.3203289358
20
157.1647039270
11
98.9458883249
21
157.1647039270
0
LINE
5
276
100
AcDbEntity
8
0
100
AcDbLine
62
7
6
CONTINUOUS
10
104.5058883249
20
157.1647039270
11
115.1314477139
21
157.1647039270
0
LINE
5
277
100
AcDbEntity
8
DEFAULT_1
100
AcDbLine
62
2
6
CENTER
10
57.5566308234
20
160.9715974960
11
145.8951458264
21
160.9715974960
0
LINE
5
278
100
AcDbEntity
8
0
100
AcDbLine
62
7
6
CONTINUOUS
10
142.4758883249
20
161.7668961821
11
115.6258883249
21
161.7668961821
0
LINE
5
279
100
AcDbEntity
8
0
100
AcDbLine
62
7
6
CONTINUOUS
10
87.8258883249
20
161.7668961821
11
60.9758883249
21
161.7668961821
0
LINE
5
27A
100
AcDbEntity
8
0
100
AcDbLine
62
7
6
CONTINUOUS
10
122.2758883249
20
164.5580084935
11
122.2758883249
21
167.3215974960
0
LINE
5
27B
100
AcDbEntity
8
0
100
AcDbLine
62
7
6
CONTINUOUS
10
122.7758883249
20
165.4595481830
11
122.7758883249
21
166.8215974960
0
LINE
5
27C
100
AcDbEntity
8
0
100
AcDbLine
62
7
6
CONTINUOUS
10
60.6158111417
20
162.5647186847
11
60.4758883249
21
162.5647186847
0
LINE
5
27D
100
AcDbEntity
8
0
100
AcDbLine
62
7
6
CONTINUOUS
10
142.8359655080
20
162.5647186847
11
142.9758883249
21
162.5647186847
0
LINE
5
27E
100
AcDbEntity
8
0
100
AcDbLine
62
7
6
CONTINUOUS
10
98.9458883249
20
162.6686537709
11
104.5058883249
21
162.6686537709
0
LINE
5
27F
100
AcDbEntity
8
0
100
AcDbLine
62
7
6
CONTINUOUS
10
142.2179400054
20
164.5580084935
11
122.2758883249
21
164.5580084935
0
LINE
5
280
100
AcDbEntity
8
0
100
AcDbLine
62
7
6
CONTINUOUS
10
81.1758883249
20
164.5580084935
11
61.2338366444
21
164.5580084935
0
LINE
5
281
100
AcDbEntity
8
0
100
AcDbLine
62
7
6
CONTINUOUS
10
140.4724189079
20
165.5233429224
11
122.7758883249
21
165.5233429224
0
LINE
5
282
100
AcDbEntity
8
0
100
AcDbLine
62
7
6
CONTINUOUS
10
62.9793577418
20
165.5233429224
11
80.6758883249
21
165.5233429224
0
LINE
5
283
100
AcDbEntity
8
0
100
AcDbLine
62
7
6
CONTINUOUS
10
63.4758883249
20
165.5647186847
11
80.6758883249
21
165.5647186847
0
LINE
5
284
100
AcDbEntity
8
0
100
AcDbLine
62
7
6
CONTINUOUS
10
122.7758883249
20
165.5647186847
11
139.9758883249
21
165.5647186847
0
LINE
5
285
100
AcDbEntity
8
0
100
AcDbLine
62
7
6
CONTINUOUS
10
87.8258883249
20
167.3215974960
11
81.1758883249
21
167.3215974960
0
LINE
5
286
100
AcDbEntity
8
0
100
AcDbLine
62
7
6
CONTINUOUS
10
115.6258883249
20
167.3215974960
11
122.2758883249
21
167.3215974960
0
LINE
5
287
100
AcDbEntity
8
0
100
AcDbLine
62
7
6
CONTINUOUS
10
98.9458883249
20
168.2715974960
11
104.5058883249
21
168.2715974960
0
LINE
5
288
100
AcDbEntity
8
0
100
AcDbLine
62
7
6
CONTINUOUS
10
142.4758883249
20
127.9549449193
11
142.4758883249
21
161.7668961821
0
LINE
5
289
100
AcDbEntity
8
0
100
AcDbLine
62
7
6
CONTINUOUS
10
142.9758883249
20
129.6132573144
11
142.9758883249
21
162.5647186847
0
LINE
5
28A
100
AcDbEntity
8
0
100
AcDbLine
62
7
6
CONTINUOUS
10
60.4758883249
20
203.7326243623
11
60.4758883249
21
206.8326243623
0
LINE
5
28B
100
AcDbEntity
8
0
100
AcDbLine
62
7
6
CONTINUOUS
10
80.6758883249
20
194.3826245995
11
80.6758883249
21
203.2326243623
0
LINE
5
28C
100
AcDbEntity
8
0
100
AcDbLine
62
7
6
CONTINUOUS
10
81.1758883249
20
193.8826243623
11
81.1758883249
21
203.2326243623
0
LINE
5
28D
100
AcDbEntity
8
0
100
AcDbLine
62
7
6
CONTINUOUS
10
87.8258883249
20
203.2326243623
11
87.8258883249
21
193.8826243623
0
LINE
5
28E
100
AcDbEntity
8
0
100
AcDbLine
62
7
6
CONTINUOUS
10
88.3258883249
20
203.2326243623
11
88.3258883249
21
194.3826245995
0
LINE
5
28F
100
AcDbEntity
8
0
100
AcDbLine
62
7
6
CONTINUOUS
10
88.7758883249
20
206.8326243623
11
88.7758883249
21
194.2326243623
0
LINE
5
290
100
AcDbEntity
8
0
100
AcDbLine
62
7
6
CONTINUOUS
10
89.2758883249
20
207.3326243623
11
89.2758883249
21
193.7326243623
0
LINE
5
291
100
AcDbEntity
8
0
100
AcDbLine
62
7
6
CONTINUOUS
10
98.9458883249
20
192.9326243623
11
104.5058883249
21
192.9326243623
0
LINE
5
292
100
AcDbEntity
8
0
100
AcDbLine
62
7
6
CONTINUOUS
10
89.2758883249
20
193.7326243623
11
114.1758883249
21
193.7326243623
0
LINE
5
293
100
AcDbEntity
8
0
100
AcDbLine
62
7
6
CONTINUOUS
10
122.2758883249
20
193.8826243623
11
115.6258883249
21
193.8826243623
0
LINE
5
294
100
AcDbEntity
8
0
100
AcDbLine
62
7
6
CONTINUOUS
10
87.8258883249
20
193.8826243623
11
81.1758883249
21
193.8826243623
0
LINE
5
295
100
AcDbEntity
8
0
100
AcDbLine
62
7
6
CONTINUOUS
10
104.8758883249
20
194.2326243623
11
102.2758883249
21
194.2326243623
0
LINE
5
296
100
AcDbEntity
8
0
100
AcDbLine
62
7
6
CONTINUOUS
10
101.1758883249
20
194.2326243623
11
98.5758883249
21
194.2326243623
0
LINE
5
297
100
AcDbEntity
8
0
100
AcDbLine
62
7
6
CONTINUOUS
10
98.0758883249
20
193.7326243623
11
98.0758883249
21
207.3326243623
0
LINE
5
298
100
AcDbEntity
8
0
100
AcDbLine
62
7
6
CONTINUOUS
10
98.5758883249
20
194.2326243623
11
98.5758883249
21
206.8326243623
0
LINE
5
299
100
AcDbEntity
8
0
100
AcDbLine
62
7
6
CONTINUOUS
10
98.9231802252
20
194.2326243623
11
98.9231802252
21
203.2326243623
0
LINE
5
29A
100
AcDbEntity
8
0
100
AcDbLine
62
7
6
CONTINUOUS
10
98.9458883249
20
193.7326243623
11
98.9458883249
21
192.9328151985
0
LINE
5
29B
100
AcDbEntity
8
0
100
AcDbLine
62
7
6
CONTINUOUS
10
100.5309176528
20
194.2326243623
11
100.5309176528
21
203.2326243623
0
LINE
5
29C
100
AcDbEntity
8
0
100
AcDbLine
62
7
6
CONTINUOUS
10
101.1758883249
20
203.2326243623
11
101.1758883249
21
194.2326243623
0
LINE
5
29D
100
AcDbEntity
8
0
100
AcDbLine
62
7
6
CONTINUOUS
10
88.7758883249
20
200.0826243623
11
98.5758883249
21
200.0826243623
0
LINE
5
29E
100
AcDbEntity
8
0
100
AcDbLine
62
7
6
CONTINUOUS
10
114.6758883249
20
200.0826243623
11
104.8758883249
21
200.0826243623
0
LINE
5
29F
100
AcDbEntity
8
0
100
AcDbLine
62
7
6
CONTINUOUS
10
80.6758883249
20
200.2326243623
11
88.3258883249
21
200.2326243623
0
LINE
5
2A0
100
AcDbEntity
8
0
100
AcDbLine
62
7
6
CONTINUOUS
10
115.1258883249
20
200.2326243623
11
122.7758883249
21
200.2326243623
0
LINE
5
2A1
100
AcDbEntity
8
0
100
AcDbLine
62
7
6
CONTINUOUS
10
102.2758883249
20
203.2326243623
11
102.2758883249
21
194.2326243623
0
LINE
5
2A2
100
AcDbEntity
8
0
100
AcDbLine
62
7
6
CONTINUOUS
10
102.9208589970
20
194.2326243623
11
102.9208589970
21
203.2326243623
0
LINE
5
2A3
100
AcDbEntity
8
0
100
AcDbLine
62
7
6
CONTINUOUS
10
104.5058883249
20
192.9328151720
11
104.5058883249
21
193.7326243623
0
LINE
5
2A4
100
AcDbEntity
8
0
100
AcDbLine
62
7
6
CONTINUOUS
10
104.5285964245
20
194.2326243623
11
104.5285964245
21
203.2326243623
0
LINE
5
2A5
100
AcDbEntity
8
0
100
AcDbLine
62
7
6
CONTINUOUS
10
104.8758883249
20
206.8326243623
11
104.8758883249
21
194.2326243623
0
LINE
5
2A6
100
AcDbEntity
8
0
100
AcDbLine
62
7
6
CONTINUOUS
10
88.7758883249
20
200.8826243623
11
98.5758883249
21
200.8826243623
0
LINE
5
2A7
100
AcDbEntity
8
0
100
AcDbLine
62
7
6
CONTINUOUS
10
104.8758883249
20
200.8826243623
11
114.6758883249
21
200.8826243623
0
LINE
5
2A8
100
AcDbEntity
8
0
100
AcDbLine
62
7
6
CONTINUOUS
10
80.6758883249
20
202.2326243623
11
88.3258883249
21
202.2326243623
0
LINE
5
2A9
100
AcDbEntity
8
0
100
AcDbLine
62
7
6
CONTINUOUS
10
115.1258883249
20
202.2326243623
11
122.7758883249
21
202.2326243623
0
LINE
5
2AA
100
AcDbEntity
8
0
100
AcDbLine
62
7
6
CONTINUOUS
10
142.4758883249
20
203.2326243623
11
114.6758883249
21
203.2326243623
0
LINE
5
2AB
100
AcDbEntity
8
0
100
AcDbLine
62
7
6
CONTINUOUS
10
104.8758883249
20
203.2326243623
11
98.5758883249
21
203.2326243623
0
LINE
5
2AC
100
AcDbEntity
8
0
100
AcDbLine
62
7
6
CONTINUOUS
10
88.7758883249
20
203.2326243623
11
60.9758883249
21
203.2326243623
0
LINE
5
2AD
100
AcDbEntity
8
0
100
AcDbLine
62
7
6
CONTINUOUS
10
105.3758883249
20
207.3326243623
11
105.3758883249
21
193.7326243623
0
LINE
5
2AE
100
AcDbEntity
8
0
100
AcDbLine
62
7
6
CONTINUOUS
10
114.1758883249
20
205.6306026657
11
105.3758883249
21
205.6306026657
0
LINE
5
2AF
100
AcDbEntity
8
0
100
AcDbLine
62
7
6
CONTINUOUS
10
98.0758883249
20
205.6306026657
11
89.2758883249
21
205.6306026657
0
LINE
5
2B0
100
AcDbEntity
8
0
100
AcDbLine
62
7
6
CONTINUOUS
10
104.8758883249
20
206.6774809683
11
98.5758883249
21
206.6774809683
0
LINE
5
2B1
100
AcDbEntity
8
0
100
AcDbLine
62
7
6
CONTINUOUS
10
62.8628194134
20
206.6774809683
11
88.7758883249
21
206.6774809683
0
LINE
5
2B2
100
AcDbEntity
8
0
100
AcDbLine
62
7
6
CONTINUOUS
10
114.6758883249
20
206.6774809683
11
140.5889572363
21
206.6774809683
0
LINE
5
2B3
100
AcDbEntity
8
0
100
AcDbLine
62
7
6
CONTINUOUS
10
104.8758883249
20
206.8044903684
11
98.5758883249
21
206.8044903684
0
LINE
5
2B4
100
AcDbEntity
8
0
100
AcDbLine
62
7
6
CONTINUOUS
10
63.2870153608
20
206.8044903684
11
88.7758883249
21
206.8044903684
0
LINE
5
2B5
100
AcDbEntity
8
0
100
AcDbLine
62
7
6
CONTINUOUS
10
114.6758883249
20
206.8044903684
11
140.1647612890
21
206.8044903684
0
LINE
5
2B6
100
AcDbEntity
8
0
100
AcDbLine
62
7
6
CONTINUOUS
10
60.9758883249
20
207.3326243623
11
142.4758883249
21
207.3326243623
0
LINE
5
2B7
100
AcDbEntity
8
0
100
AcDbLine
62
7
6
CONTINUOUS
10
114.1758883249
20
207.3326243623
11
114.1758883249
21
193.7326243623
0
LINE
5
2B8
100
AcDbEntity
8
0
100
AcDbLine
62
7
6
CONTINUOUS
10
114.6758883249
20
206.8326243623
11
114.6758883249
21
194.2326243623
0
LINE
5
2B9
100
AcDbEntity
8
0
100
AcDbLine
62
7
6
CONTINUOUS
10
115.1258883249
20
194.3826245995
11
115.1258883249
21
203.2326243623
0
LINE
5
2BA
100
AcDbEntity
8
0
100
AcDbLine
62
7
6
CONTINUOUS
10
115.6258883249
20
193.8826243623
11
115.6258883249
21
203.2326243623
0
LINE
5
2BB
100
AcDbEntity
8
0
100
AcDbLine
62
7
6
CONTINUOUS
10
122.2758883249
20
193.8826243623
11
122.2758883249
21
203.2326243623
0
LINE
5
2BC
100
AcDbEntity
8
0
100
AcDbLine
62
7
6
CONTINUOUS
10
122.7758883249
20
194.3826243728
11
122.7758883249
21
203.2326243623
0
LINE
5
2BD
100
AcDbEntity
8
0
100
AcDbLine
62
7
6
CONTINUOUS
10
142.9758883249
20
203.7326243623
11
142.9758883249
21
206.8326243623
0
LINE
5
2BE
100
AcDbEntity
8
0
100
AcDbLine
62
7
6
CONTINUOUS
10
60.4758883249
20
238.9205605031
11
60.4758883249
21
271.8720218734
0
LINE
5
2BF
100
AcDbEntity
8
0
100
AcDbLine
62
7
6
CONTINUOUS
10
60.9758883249
20
244.7136816918
11
60.9758883249
21
271.0556631325
0
LINE
5
2C0
100
AcDbEntity
8
0
100
AcDbLine
62
7
6
CONTINUOUS
10
98.9458883249
20
233.2136816918
11
104.5058883249
21
233.2136816918
0
LINE
5
2C1
100
AcDbEntity
8
0
100
AcDbLine
62
7
6
CONTINUOUS
10
122.2758883249
20
234.1636816918
11
115.6258883249
21
234.1636816918
0
LINE
5
2C2
100
AcDbEntity
8
0
100
AcDbLine
62
7
6
CONTINUOUS
10
87.8258883249
20
234.1636816918
11
81.1758883249
21
234.1636816918
0
LINE
5
2C3
100
AcDbEntity
8
0
100
AcDbLine
62
7
6
CONTINUOUS
10
63.4758883249
20
235.9205605031
11
80.6758883249
21
235.9205605031
0
LINE
5
2C4
100
AcDbEntity
8
0
100
AcDbLine
62
7
6
CONTINUOUS
10
122.7758883249
20
235.9205605031
11
139.9758883249
21
235.9205605031
0
LINE
5
2C5
100
AcDbEntity
8
0
100
AcDbLine
62
7
6
CONTINUOUS
10
80.6758883249
20
234.6636816918
11
80.6758883249
21
246.7456477030
0
LINE
5
2C6
100
AcDbEntity
8
0
100
AcDbLine
62
7
6
CONTINUOUS
10
81.1758883249
20
234.1636816918
11
81.1758883249
21
247.8636816918
0
LINE
5
2C7
100
AcDbEntity
8
0
100
AcDbLine
62
7
6
CONTINUOUS
10
142.4760122576
20
237.2624349586
11
122.7758883249
21
237.2624349586
0
LINE
5
2C8
100
AcDbEntity
8
0
100
AcDbLine
62
7
6
CONTINUOUS
10
60.9757643922
20
237.2624349586
11
80.6758883249
21
237.2624349586
0
LINE
5
2C9
100
AcDbEntity
8
0
100
AcDbLine
62
7
6
CONTINUOUS
10
87.8258883249
20
248.7571183529
11
87.8258883249
21
234.1636816918
0
LINE
5
2CA
100
AcDbEntity
8
0
100
AcDbLine
62
7
6
CONTINUOUS
10
88.3258883249
20
247.8910597764
11
88.3258883249
21
234.6636816918
0
LINE
5
2CB
100
AcDbEntity
8
0
100
AcDbLine
62
7
6
CONTINUOUS
10
88.7758883249
20
284.4636816918
11
88.7758883249
21
271.3288829416
0
LINE
5
2CC
100
AcDbEntity
8
0
100
AcDbLine
62
7
6
CONTINUOUS
10
99.8258883249
20
243.8363312369
11
103.6258883249
21
243.8363312369
0
LINE
5
2CD
100
AcDbEntity
8
0
100
AcDbLine
62
7
6
CONTINUOUS
10
60.5132535709
20
243.9895437607
11
80.6758883249
21
243.9895437607
0
LINE
5
2CE
100
AcDbEntity
8
0
100
AcDbLine
62
7
6
CONTINUOUS
10
122.7758883249
20
243.9895437607
11
142.9385230788
21
243.9895437607
0
LINE
5
2CF
100
AcDbEntity
8
0
100
AcDbLine
62
7
6
CONTINUOUS
10
88.3203289358
20
244.3205752608
11
98.9458883249
21
244.3205752608
0
LINE
5
2D0
100
AcDbEntity
8
0
100
AcDbLine
62
7
6
CONTINUOUS
10
104.5058883249
20
244.3205752608
11
115.1314477139
21
244.3205752608
0
LINE
5
2D1
100
AcDbEntity
8
0
100
AcDbLine
62
7
6
CONTINUOUS
10
88.3258883249
20
244.3829795168
11
98.9458883249
21
244.3829795168
0
LINE
5
2D2
100
AcDbEntity
8
0
100
AcDbLine
62
7
6
CONTINUOUS
10
104.5058883249
20
244.3829795168
11
115.1258883249
21
244.3829795168
0
LINE
5
2D3
100
AcDbEntity
8
0
100
AcDbLine
62
7
6
CONTINUOUS
10
60.9758883249
20
244.7136816918
11
80.6758883249
21
244.7136816918
0
LINE
5
2D4
100
AcDbEntity
8
0
100
AcDbLine
62
7
6
CONTINUOUS
10
122.7758883249
20
244.7136816918
11
142.4758883249
21
244.7136816918
0
LINE
5
2D5
100
AcDbEntity
8
0
100
AcDbLine
62
7
6
CONTINUOUS
10
89.2758883249
20
284.9636816918
11
89.2758883249
21
271.0556631325
0
LINE
5
2D6
100
AcDbEntity
8
0
100
AcDbLine
62
7
6
CONTINUOUS
10
98.4783059237
20
269.3896173505
11
98.9231802263
21
269.6178427980
0
LINE
5
2D7
100
AcDbEntity
8
0
100
AcDbLine
62
7
6
CONTINUOUS
10
87.8258883249
20
246.8636816918
11
81.1758883249
21
246.8636816918
0
LINE
5
2D8
100
AcDbEntity
8
0
100
AcDbLine
62
7
6
CONTINUOUS
10
115.6258883249
20
246.8636816918
11
122.2758883249
21
246.8636816918
0
LINE
5
2D9
100
AcDbEntity
8
0
100
AcDbLine
62
7
6
CONTINUOUS
10
98.9458883249
20
247.8136816918
11
99.8258883249
21
247.8136816918
0
LINE
5
2DA
100
AcDbEntity
8
0
100
AcDbLine
62
7
6
CONTINUOUS
10
103.6258883249
20
247.8136816918
11
104.5058883249
21
247.8136816918
0
LINE
5
2DB
100
AcDbEntity
8
0
100
AcDbLine
62
7
6
CONTINUOUS
10
81.1758883249
20
247.8636816918
11
88.3258883249
21
247.8636816918
0
LINE
5
2DC
100
AcDbEntity
8
0
100
AcDbLine
62
7
6
CONTINUOUS
10
115.1258883249
20
247.8636816918
11
122.2758883249
21
247.8636816918
0
LINE
5
2DD
100
AcDbEntity
8
0
100
AcDbLine
62
7
6
CONTINUOUS
10
88.3258884453
20
247.8875582713
11
98.9458883249
21
247.8875582713
0
LINE
5
2DE
100
AcDbEntity
8
0
100
AcDbLine
62
7
6
CONTINUOUS
10
104.5058883249
20
247.8875582713
11
115.1258882045
21
247.8875582713
0
LINE
5
2DF
100
AcDbEntity
8
0
100
AcDbLine
62
7
6
CONTINUOUS
10
87.8258883249
20
248.7571183529
11
98.9458883249
21
248.7571183529
0
LINE
5
2E0
100
AcDbEntity
8
0
100
AcDbLine
62
7
6
CONTINUOUS
10
104.5058883249
20
248.7571183529
11
115.6258883249
21
248.7571183529
0
LINE
5
2E1
100
AcDbEntity
8
0
100
AcDbLine
62
7
6
CONTINUOUS
10
104.5058883249
20
248.8136816918
11
103.6258883249
21
248.8136816918
0
LINE
5
2E2
100
AcDbEntity
8
0
100
AcDbLine
62
7
6
CONTINUOUS
10
98.9458883249
20
248.8136816918
11
99.8258883249
21
248.8136816918
0
LINE
5
2E3
100
AcDbEntity
8
0
100
AcDbLine
62
7
6
CONTINUOUS
10
100.0860433512
20
266.2556940024
11
100.5309176528
21
266.4839194519
0
LINE
5
2E4
100
AcDbEntity
8
0
100
AcDbLine
62
7
6
CONTINUOUS
10
97.2258883249
20
278.6136816917
11
97.2258883249
21
271.0556631325
0
LINE
5
2E5
100
AcDbEntity
8
0
100
AcDbLine
62
7
6
CONTINUOUS
10
98.0758883249
20
271.0556631325
11
98.0758883249
21
284.9636816918
0
LINE
5
2E6
100
AcDbEntity
8
0
100
AcDbLine
62
7
6
CONTINUOUS
10
98.5758883249
20
271.0556631325
11
98.5758883249
21
284.4636816918
0
LINE
5
2E7
100
AcDbEntity
8
0
100
AcDbLine
62
7
6
CONTINUOUS
10
98.9458883249
20
233.2139649161
11
98.9458883249
21
248.7618316643
0
LINE
5
2E8
100
AcDbEntity
8
0
100
AcDbLine
62
7
6
CONTINUOUS
10
99.8258883249
20
243.8363312369
11
99.8258883249
21
263.8136816918
0
LINE
5
2E9
100
AcDbEntity
8
0
100
AcDbLine
62
7
6
CONTINUOUS
10
104.5285964245
20
269.6178428001
11
102.9208589970
21
266.4839194519
0
LINE
5
2EA
100
AcDbEntity
8
0
100
AcDbLine
62
7
6
CONTINUOUS
10
104.9734707260
20
269.3896173505
11
103.3657332985
21
266.2556940024
0
LINE
5
2EB
100
AcDbEntity
8
0
100
AcDbLine
62
7
6
CONTINUOUS
10
104.1220196111
20
265.8677107381
11
105.7297570386
21
269.0016340862
0
LINE
5
2EC
100
AcDbEntity
8
0
100
AcDbLine
62
7
6
CONTINUOUS
10
103.6258883249
20
263.8136816918
11
103.6258883249
21
243.8363312369
0
LINE
5
2ED
100
AcDbEntity
8
0
100
AcDbLine
62
7
6
CONTINUOUS
10
104.5058883249
20
233.2139649168
11
104.5058883249
21
248.7618305384
0
LINE
5
2EE
100
AcDbEntity
8
0
100
AcDbLine
62
7
6
CONTINUOUS
10
104.8758883249
20
284.4636816918
11
104.8758883249
21
271.0556631325
0
LINE
5
2EF
100
AcDbEntity
8
0
100
AcDbLine
62
7
6
CONTINUOUS
10
105.3758883249
20
284.9636816918
11
105.3758883249
21
271.0556631325
0
LINE
5
2F0
100
AcDbEntity
8
0
100
AcDbLine
62
7
6
CONTINUOUS
10
97.7220196111
20
269.0016340862
11
99.3297570386
21
265.8677107381
0
LINE
5
2F1
100
AcDbEntity
8
0
100
AcDbLine
62
7
6
CONTINUOUS
10
100.0860433512
20
266.2556940024
11
98.4783059237
21
269.3896173505
0
LINE
5
2F2
100
AcDbEntity
8
0
100
AcDbLine
62
7
6
CONTINUOUS
10
100.5309176528
20
266.4839194519
11
98.9231802252
21
269.6178428001
0
LINE
5
2F3
100
AcDbEntity
8
0
100
AcDbLine
62
7
6
CONTINUOUS
10
106.2258883249
20
271.0556631325
11
106.2258883249
21
278.6136816917
0
LINE
5
2F4
100
AcDbEntity
8
0
100
AcDbLine
62
7
6
CONTINUOUS
10
102.7758883249
20
263.8136816918
11
100.6758883249
21
263.8136816918
0
LINE
5
2F5
100
AcDbEntity
8
0
100
AcDbLine
62
7
6
CONTINUOUS
10
103.3657332985
20
266.2556940024
11
102.9208589974
21
266.4839194527
0
LINE
5
2F6
100
AcDbEntity
8
0
100
AcDbLine
62
7
6
CONTINUOUS
10
114.1758883249
20
284.9636816918
11
114.1758883249
21
271.0556631325
0
LINE
5
2F7
100
AcDbEntity
8
0
100
AcDbLine
62
7
6
CONTINUOUS
10
114.6758883249
20
284.4636816918
11
114.6758883249
21
271.3288829416
0
LINE
5
2F8
100
AcDbEntity
8
0
100
AcDbLine
62
7
6
CONTINUOUS
10
115.1258883249
20
234.6636816918
11
115.1258883249
21
247.8910597764
0
LINE
5
2F9
100
AcDbEntity
8
0
100
AcDbLine
62
7
6
CONTINUOUS
10
142.4758883249
20
271.0556631325
11
114.1758883249
21
271.0556631325
0
LINE
5
2FA
100
AcDbEntity
8
0
100
AcDbLine
62
7
6
CONTINUOUS
10
89.2758883249
20
271.0556631325
11
60.9758883249
21
271.0556631325
0
LINE
5
2FB
100
AcDbEntity
8
0
100
AcDbLine
62
7
6
CONTINUOUS
10
98.0758883249
20
271.0556631325
11
105.3758883249
21
271.0556631325
0
LINE
5
2FC
100
AcDbEntity
8
0
100
AcDbLine
62
7
6
CONTINUOUS
10
88.7886198087
20
271.2636816918
11
97.2258883249
21
271.2636816918
0
LINE
5
2FD
100
AcDbEntity
8
0
100
AcDbLine
62
7
6
CONTINUOUS
10
106.2258883249
20
271.2636816918
11
114.6631568410
21
271.2636816918
0
LINE
5
2FE
100
AcDbEntity
8
0
100
AcDbLine
62
7
6
CONTINUOUS
10
89.2758883249
20
272.2636816918
11
97.2258883249
21
272.2636816918
0
LINE
5
2FF
100
AcDbEntity
8
0
100
AcDbLine
62
7
6
CONTINUOUS
10
106.2258883249
20
272.2636816918
11
114.1758883249
21
272.2636816918
0
LINE
5
300
100
AcDbEntity
8
0
100
AcDbLine
62
7
6
CONTINUOUS
10
104.9734707260
20
269.3896173505
11
104.5285964245
21
269.6178428001
0
LINE
5
301
100
AcDbEntity
8
0
100
AcDbLine
62
7
6
CONTINUOUS
10
115.6258883249
20
234.1636816918
11
115.6258883249
21
248.7571183529
0
LINE
5
302
100
AcDbEntity
8
0
100
AcDbLine
62
7
6
CONTINUOUS
10
104.8758883249
20
274.8087115931
11
98.5758883249
21
274.8087115931
0
LINE
5
303
100
AcDbEntity
8
0
100
AcDbLine
62
7
6
CONTINUOUS
10
62.8628194134
20
274.8087115931
11
88.7758883249
21
274.8087115931
0
LINE
5
304
100
AcDbEntity
8
0
100
AcDbLine
62
7
6
CONTINUOUS
10
114.6758883249
20
274.8087115931
11
140.5889572363
21
274.8087115931
0
LINE
5
305
100
AcDbEntity
8
0
100
AcDbLine
62
7
6
CONTINUOUS
10
104.8758883249
20
274.8720218734
11
98.5758883249
21
274.8720218734
0
LINE
5
306
100
AcDbEntity
8
0
100
AcDbLine
62
7
6
CONTINUOUS
10
63.4758883249
20
274.8720218734
11
88.7758883249
21
274.8720218734
0
LINE
5
307
100
AcDbEntity
8
0
100
AcDbLine
62
7
6
CONTINUOUS
10
114.6758883249
20
274.8720218734
11
139.9758883249
21
274.8720218734
0
LINE
5
308
100
AcDbEntity
8
0
100
AcDbLine
62
7
6
CONTINUOUS
10
97.2258883249
20
278.6136816918
11
98.5758883249
21
278.6136816918
0
LINE
5
309
100
AcDbEntity
8
0
100
AcDbLine
62
7
6
CONTINUOUS
10
104.8758883249
20
278.6136816918
11
106.2258883249
21
278.6136816918
0
LINE
5
30A
100
AcDbEntity
8
0
100
AcDbLine
62
7
6
CONTINUOUS
10
122.2758883249
20
234.1636816918
11
122.2758883249
21
247.8636816918
0
LINE
5
30B
100
AcDbEntity
8
0
100
AcDbLine
62
7
6
CONTINUOUS
10
122.7758883249
20
234.6636816918
11
122.7758883249
21
246.7456477030
0
LINE
5
30C
100
AcDbEntity
8
0
100
AcDbLine
62
7
6
CONTINUOUS
10
89.2758883249
20
284.9636816918
11
98.0758883249
21
284.9636816918
0
LINE
5
30D
100
AcDbEntity
8
0
100
AcDbLine
62
7
6
CONTINUOUS
10
105.3758883249
20
284.9636816918
11
114.1758883249
21
284.9636816918
0
LINE
5
30E
100
AcDbEntity
8
0
100
AcDbLine
62
7
6
CONTINUOUS
10
142.4758883249
20
271.0556631325
11
142.4758883249
21
244.7136816918
0
LINE
5
30F
100
AcDbEntity
8
0
100
AcDbLine
62
7
6
CONTINUOUS
10
142.9758883249
20
238.9205605031
11
142.9758883249
21
243.7984952329
0
LINE
5
310
100
AcDbEntity
8
0
100
AcDbLine
62
7
6
CONTINUOUS
10
142.9758883249
20
243.9895437607
11
142.9758883249
21
271.8720218734
0
LINE
5
311
100
AcDbEntity
8
0
100
AcDbLine
62
7
6
CONTINUOUS
10
177.0374466974
20
116.5215974960
11
176.2374466974
21
116.5215974960
0
LINE
5
312
100
AcDbEntity
8
0
100
AcDbLine
62
7
6
CONTINUOUS
10
177.0374466974
20
117.0215974960
11
176.2374466974
21
117.0215974960
0
LINE
5
313
100
AcDbEntity
8
DEFAULT_1
100
AcDbLine
62
2
6
CENTER
10
166.0841212370
20
122.8715974960
11
186.4874466974
21
122.8715974960
0
LINE
5
314
100
AcDbEntity
8
0
100
AcDbLine
62
7
6
CONTINUOUS
10
181.7854250007
20
118.6550583902
11
181.4115684414
21
118.9870693434
0
LINE
5
315
100
AcDbEntity
8
0
100
AcDbLine
62
7
6
CONTINUOUS
10
176.2374466974
20
128.7215974960
11
178.3874466974
21
128.7215974960
0
LINE
5
316
100
AcDbEntity
8
0
100
AcDbLine
62
7
6
CONTINUOUS
10
176.2374466974
20
129.2215974960
11
178.3874466974
21
129.2215974960
0
LINE
5
317
100
AcDbEntity
8
0
100
AcDbLine
62
7
6
CONTINUOUS
10
180.6659156290
20
129.6132573144
11
182.9874466974
21
129.6132573144
0
LINE
5
318
100
AcDbEntity
8
0
100
AcDbLine
62
7
6
CONTINUOUS
10
179.3874466974
20
130.2215974960
11
179.7753333923
21
130.2215974961
0
LINE
5
319
100
AcDbEntity
8
0
100
AcDbLine
62
7
6
CONTINUOUS
10
179.3874466974
20
130.4296160553
11
169.8874466974
21
130.4296160553
0
LINE
5
31A
100
AcDbEntity
8
0
100
AcDbLine
62
7
6
CONTINUOUS
10
169.8874466974
20
132.4836451016
11
179.3874466974
21
132.4836451016
0
LINE
5
31B
100
AcDbEntity
8
0
100
AcDbLine
62
7
6
CONTINUOUS
10
169.8874466974
20
122.8715974961
11
169.8874466974
21
157.6489479509
0
LINE
5
31C
100
AcDbEntity
8
0
100
AcDbLine
62
7
6
CONTINUOUS
10
169.8874466974
20
135.6175684498
11
179.3874466974
21
135.6175684498
0
LINE
5
31D
100
AcDbEntity
8
0
100
AcDbLine
62
7
6
CONTINUOUS
10
179.3874466974
20
137.6715974960
11
169.8874466974
21
137.6715974960
0
LINE
5
31E
100
AcDbEntity
8
0
100
AcDbLine
62
7
6
CONTINUOUS
10
176.2374466974
20
129.2215974960
11
176.2374466974
21
128.7215974960
0
LINE
5
31F
100
AcDbEntity
8
0
100
AcDbLine
62
7
6
CONTINUOUS
10
176.2374466974
20
116.5215974960
11
176.2374466974
21
117.0215974960
0
LINE
5
320
100
AcDbEntity
8
0
100
AcDbLine
62
7
6
CONTINUOUS
10
176.3874466974
20
166.8215974960
11
176.3874466991
21
167.3215974960
0
LINE
5
321
100
AcDbEntity
8
DEFAULT_1
100
AcDbLine
62
2
6
CENTER
10
176.3874466974
20
160.9715974960
11
176.3874466974
21
155.1215974960
0
LINE
5
322
100
AcDbEntity
8
DEFAULT_1
100
AcDbLine
62
2
6
CENTER
10
176.3874466974
20
154.6215974960
11
176.3874466974
21
150.8715974960
0
LINE
5
323
100
AcDbEntity
8
0
100
AcDbLine
62
7
6
CONTINUOUS
10
176.3874466974
20
155.1215974960
11
176.3874466974
21
154.6215974960
0
LINE
5
324
100
AcDbEntity
8
DEFAULT_1
100
AcDbLine
62
2
6
CENTER
10
176.3874466974
20
160.9715974960
11
176.3874466974
21
166.8215974960
0
LINE
5
325
100
AcDbEntity
8
DEFAULT_1
100
AcDbLine
62
2
6
CENTER
10
176.3874466991
20
167.3215974960
11
176.3874466974
21
171.0715974960
0
LINE
5
326
100
AcDbEntity
8
0
100
AcDbLine
62
7
6
CONTINUOUS
10
177.0374466974
20
116.5215974960
11
177.0374466974
21
117.0215974960
0
LINE
5
327
100
AcDbEntity
8
0
100
AcDbLine
62
7
6
CONTINUOUS
10
177.1874466974
20
166.8215974960
11
177.1874466974
21
167.3215974960
0
LINE
5
328
100
AcDbEntity
8
0
100
AcDbLine
62
7
6
CONTINUOUS
10
178.3874466974
20
155.1215974960
11
178.3874466974
21
154.6215974960
0
LINE
5
329
100
AcDbEntity
8
0
100
AcDbLine
62
7
6
CONTINUOUS
10
178.3874466974
20
129.2215974960
11
178.3874466974
21
128.7215974960
0
LINE
5
32A
100
AcDbEntity
8
0
100
AcDbLine
62
7
6
CONTINUOUS
10
179.3874466974
20
130.2215974960
11
179.3874466974
21
156.7715974960
0
LINE
5
32B
100
AcDbEntity
8
0
100
AcDbLine
62
7
6
CONTINUOUS
10
179.8874466974
20
157.6867839549
11
179.8874466974
21
130.1555435839
0
LINE
5
32C
100
AcDbEntity
8
0
100
AcDbLine
62
7
6
CONTINUOUS
10
182.9874466974
20
163.5566506870
11
182.9874466974
21
129.6132573144
0
LINE
5
32D
100
AcDbEntity
8
0
100
AcDbLine
62
7
6
CONTINUOUS
10
182.9874466974
20
120.7615662899
11
182.9874466974
21
126.6299846168
0
LINE
5
32E
100
AcDbEntity
8
0
100
AcDbLine
62
7
6
CONTINUOUS
10
183.4874466974
20
120.5715974960
11
183.4874466974
21
162.6686537709
0
LINE
5
32F
100
AcDbEntity
8
0
100
AcDbLine
62
7
6
CONTINUOUS
10
178.3874466974
20
153.6715974960
11
176.3874466974
21
153.6715974960
0
LINE
5
330
100
AcDbEntity
8
0
100
AcDbLine
62
7
6
CONTINUOUS
10
176.3874466974
20
154.6215974960
11
178.3874466974
21
154.6215974960
0
LINE
5
331
100
AcDbEntity
8
0
100
AcDbLine
62
7
6
CONTINUOUS
10
176.3874466974
20
155.1215974960
11
178.3874466974
21
155.1215974960
0
LINE
5
332
100
AcDbEntity
8
0
100
AcDbLine
62
7
6
CONTINUOUS
10
182.9874466974
20
120.7615662899
11
181.4115684414
21
118.9870693434
0
LINE
5
333
100
AcDbEntity
8
0
100
AcDbLine
62
7
6
CONTINUOUS
10
183.4874466974
20
120.5715974960
11
181.7854250007
21
118.6550583902
0
LINE
5
334
100
AcDbEntity
8
DEFAULT_1
100
AcDbLine
62
2
6
CENTER
10
176.3874466974
20
160.9715974960
11
166.2874466974
21
160.9715974960
0
LINE
5
335
100
AcDbEntity
8
DEFAULT_1
100
AcDbLine
62
2
6
CENTER
10
176.3874466974
20
160.9715974960
11
186.4874466974
21
160.9715974960
0
LINE
5
336
100
AcDbEntity
8
0
100
AcDbLine
62
7
6
CONTINUOUS
10
180.9153562457
20
162.5647186847
11
183.3343536332
21
162.5647186847
0
LINE
5
337
100
AcDbEntity
8
0
100
AcDbLine
62
7
6
CONTINUOUS
10
177.1874466974
20
166.8215974960
11
176.3874466974
21
166.8215974960
0
LINE
5
338
100
AcDbEntity
8
0
100
AcDbLine
62
7
6
CONTINUOUS
10
177.1874466974
20
167.3215974960
11
176.3874466974
21
167.3215974960
0
ARC
5
339
100
AcDbEntity
8
0
100
AcDbCircle
62
7
6
CONTINUOUS
10
87.8258883249
20
166.8215974960
40
0.5000000000
100
AcDbArc
50
0.0000000000
51
90.0000000000
0
ARC
5
33A
100
AcDbEntity
8
0
100
AcDbCircle
62
7
6
CONTINUOUS
10
114.1758883249
20
117.0215974960
40
0.5000000000
100
AcDbArc
50
270.0000000000
51
360.0000000000
0
ARC
5
33B
100
AcDbEntity
8
0
100
AcDbCircle
62
7
6
CONTINUOUS
10
139.9758883249
20
162.5647186847
40
3.0000000000
100
AcDbArc
50
19.3078683676
51
90.0000000000
0
ARC
5
33C
100
AcDbEntity
8
0
100
AcDbCircle
62
7
6
CONTINUOUS
10
63.4758883249
20
162.5647186847
40
3.0000000000
100
AcDbArc
50
90.0000000000
51
160.6921316324
0
ARC
5
33D
100
AcDbEntity
8
0
100
AcDbCircle
62
7
6
CONTINUOUS
10
115.6258883249
20
166.8215974960
40
0.5000000000
100
AcDbArc
50
90.0000000000
51
180.0000000000
0
ARC
5
33E
100
AcDbEntity
8
0
100
AcDbCircle
62
7
6
CONTINUOUS
10
81.1758883249
20
166.8215974960
40
0.5000000000
100
AcDbArc
50
90.0000000000
51
180.0000000000
0
ARC
5
33F
100
AcDbEntity
8
0
100
AcDbCircle
62
7
6
CONTINUOUS
10
122.2758883249
20
166.8215974960
40
0.5000000000
100
AcDbArc
50
0.0000000000
51
90.0000000000
0
ARC
5
340
100
AcDbEntity
8
0
100
AcDbCircle
62
7
6
CONTINUOUS
10
89.2758883249
20
117.0215974960
40
0.5000000000
100
AcDbArc
50
180.0000000000
51
270.0000000000
0
ARC
5
341
100
AcDbEntity
8
0
100
AcDbCircle
62
7
6
CONTINUOUS
10
98.0758883249
20
117.0215974960
40
0.5000000000
100
AcDbArc
50
270.0000000000
51
360.0000000000
0
ARC
5
342
100
AcDbEntity
8
0
100
AcDbCircle
62
7
6
CONTINUOUS
10
105.3758883249
20
117.0215974960
40
0.5000000000
100
AcDbArc
50
180.0000000000
51
270.0000000000
0
ARC
5
343
100
AcDbEntity
8
0
100
AcDbCircle
62
7
6
CONTINUOUS
10
63.4758883249
20
162.5647186847
40
3.0000000000
100
AcDbArc
50
165.7330894061
51
180.0000000000
0
ARC
5
344
100
AcDbEntity
8
0
100
AcDbCircle
62
7
6
CONTINUOUS
10
139.9758883249
20
162.5647186847
40
3.0000000000
100
AcDbArc
50
0.0000000000
51
14.2669025400
0
ARC
5
345
100
AcDbEntity
8
0
100
AcDbCircle
62
7
6
CONTINUOUS
10
63.4758883249
20
129.6132573144
40
3.0000000000
100
AcDbArc
50
180.0000000000
51
270.0000000000
0
ARC
5
346
100
AcDbEntity
8
0
100
AcDbCircle
62
7
6
CONTINUOUS
10
139.9758883249
20
129.6132573144
40
3.0000000000
100
AcDbArc
50
270.0000000000
51
360.0000000000
0
ARC
5
347
100
AcDbEntity
8
0
100
AcDbCircle
62
7
6
CONTINUOUS
10
115.6258883249
20
194.3826243623
40
0.5000000000
100
AcDbArc
50
180.0000000000
51
270.0000000000
0
ARC
5
348
100
AcDbEntity
8
0
100
AcDbCircle
62
7
6
CONTINUOUS
10
87.8258883249
20
194.3826243623
40
0.5000000000
100
AcDbArc
50
270.0000000000
51
360.0000000000
0
ARC
5
349
100
AcDbEntity
8
0
100
AcDbCircle
62
7
6
CONTINUOUS
10
81.1758883249
20
194.3826243623
40
0.5000000000
100
AcDbArc
50
180.0000000000
51
270.0000000000
0
ARC
5
34A
100
AcDbEntity
8
0
100
AcDbCircle
62
7
6
CONTINUOUS
10
122.2758883249
20
194.3826243623
40
0.5000000000
100
AcDbArc
50
270.0000000000
51
360.0000000000
0
ARC
5
34B
100
AcDbEntity
8
0
100
AcDbCircle
62
7
6
CONTINUOUS
10
89.2758883249
20
194.2326243623
40
0.5000000000
100
AcDbArc
50
180.0000000000
51
270.0000000000
0
ARC
5
34C
100
AcDbEntity
8
0
100
AcDbCircle
62
7
6
CONTINUOUS
10
100.6758883249
20
194.2326243623
40
0.5000000000
100
AcDbArc
50
270.0000000000
51
360.0000000000
0
ARC
5
34D
100
AcDbEntity
8
0
100
AcDbCircle
62
7
6
CONTINUOUS
10
98.0758883249
20
206.8326243623
40
0.5000000000
100
AcDbArc
50
0.0000000000
51
90.0000000000
0
ARC
5
34E
100
AcDbEntity
8
0
100
AcDbCircle
62
7
6
CONTINUOUS
10
102.7758883249
20
194.2326243623
40
0.5000000000
100
AcDbArc
50
180.0000000000
51
270.0000000000
0
ARC
5
34F
100
AcDbEntity
8
0
100
AcDbCircle
62
7
6
CONTINUOUS
10
105.3758883249
20
194.2326243623
40
0.5000000000
100
AcDbArc
50
180.0000000000
51
270.0000000000
0
ARC
5
350
100
AcDbEntity
8
0
100
AcDbCircle
62
7
6
CONTINUOUS
10
114.1758883249
20
194.2326243623
40
0.5000000000
100
AcDbArc
50
270.0000000000
51
360.0000000000
0
ARC
5
351
100
AcDbEntity
8
0
100
AcDbCircle
62
7
6
CONTINUOUS
10
89.2758883249
20
206.8326243623
40
0.5000000000
100
AcDbArc
50
90.0000000000
51
180.0000000000
0
ARC
5
352
100
AcDbEntity
8
0
100
AcDbCircle
62
7
6
CONTINUOUS
10
142.4758883249
20
206.8326243623
40
0.5000000000
100
AcDbArc
50
0.0000000000
51
90.0000000000
0
ARC
5
353
100
AcDbEntity
8
0
100
AcDbCircle
62
7
6
CONTINUOUS
10
60.9758883249
20
206.8326243623
40
0.5000000000
100
AcDbArc
50
90.0000000000
51
180.0000000000
0
ARC
5
354
100
AcDbEntity
8
0
100
AcDbCircle
62
7
6
CONTINUOUS
10
98.0758883249
20
194.2326243623
40
0.5000000000
100
AcDbArc
50
270.0000000000
51
360.0000000000
0
ARC
5
355
100
AcDbEntity
8
0
100
AcDbCircle
62
7
6
CONTINUOUS
10
142.4758883249
20
203.7326243623
40
0.5000000000
100
AcDbArc
50
270.0000000000
51
360.0000000000
0
ARC
5
356
100
AcDbEntity
8
0
100
AcDbCircle
62
7
6
CONTINUOUS
10
60.9758883249
20
203.7326243623
40
0.5000000000
100
AcDbArc
50
180.0000000000
51
270.0000000000
0
ARC
5
357
100
AcDbEntity
8
0
100
AcDbCircle
62
7
6
CONTINUOUS
10
114.1758883249
20
206.8326243623
40
0.5000000000
100
AcDbArc
50
0.0000000000
51
90.0000000000
0
ARC
5
358
100
AcDbEntity
8
0
100
AcDbCircle
62
7
6
CONTINUOUS
10
105.3758883249
20
206.8326243623
40
0.5000000000
100
AcDbArc
50
90.0000000000
51
180.0000000000
0
ARC
5
359
100
AcDbEntity
8
0
100
AcDbCircle
62
7
6
CONTINUOUS
10
115.6258883249
20
246.3636816918
40
0.5000000000
100
AcDbArc
50
90.0000000000
51
180.0000000000
0
ARC
5
35A
100
AcDbEntity
8
0
100
AcDbCircle
62
7
6
CONTINUOUS
10
87.8258883249
20
246.3636816918
40
0.5000000000
100
AcDbArc
50
0.0000000000
51
90.0000000000
0
ARC
5
35B
100
AcDbEntity
8
0
100
AcDbCircle
62
7
6
CONTINUOUS
10
87.8258883249
20
234.6636816918
40
0.5000000000
100
AcDbArc
50
270.0000000000
51
360.0000000000
0
ARC
5
35C
100
AcDbEntity
8
0
100
AcDbCircle
62
7
6
CONTINUOUS
10
81.1758883249
20
246.3636816918
40
0.5000000000
100
AcDbArc
50
90.0000000000
51
180.0000000000
0
ARC
5
35D
100
AcDbEntity
8
0
100
AcDbCircle
62
7
6
CONTINUOUS
10
81.1758883249
20
234.6636816918
40
0.5000000000
100
AcDbArc
50
180.0000000000
51
270.0000000000
0
ARC
5
35E
100
AcDbEntity
8
0
100
AcDbCircle
62
7
6
CONTINUOUS
10
122.2758883249
20
246.3636816918
40
0.5000000000
100
AcDbArc
50
0.0000000000
51
90.0000000000
0
ARC
5
35F
100
AcDbEntity
8
0
100
AcDbCircle
62
7
6
CONTINUOUS
10
114.1758883249
20
272.7636816918
40
0.5000000000
100
AcDbArc
50
270.0000000000
51
360.0000000000
0
ARC
5
360
100
AcDbEntity
8
0
100
AcDbCircle
62
7
6
CONTINUOUS
10
114.1758883249
20
284.4636816918
40
0.5000000000
100
AcDbArc
50
0.0000000000
51
90.0000000000
0
ARC
5
361
100
AcDbEntity
8
0
100
AcDbCircle
62
7
6
CONTINUOUS
10
63.4758883249
20
271.8720218734
40
3.0000000000
100
AcDbArc
50
90.0000000000
51
180.0000000000
0
ARC
5
362
100
AcDbEntity
8
0
100
AcDbCircle
62
7
6
CONTINUOUS
10
139.9758883249
20
238.9205605031
40
3.0000000000
100
AcDbArc
50
270.0000000000
51
360.0000000000
0
ARC
5
363
100
AcDbEntity
8
0
100
AcDbCircle
62
7
6
CONTINUOUS
10
63.4758883249
20
238.9205605031
40
3.0000000000
100
AcDbArc
50
180.0000000000
51
270.0000000000
0
ARC
5
364
100
AcDbEntity
8
0
100
AcDbCircle
62
7
6
CONTINUOUS
10
101.7258883249
20
271.0556631325
40
4.5000000000
100
AcDbArc
50
332.8416734432
51
360.0000000000
0
ARC
5
365
100
AcDbEntity
8
0
100
AcDbCircle
62
7
6
CONTINUOUS
10
108.1258883249
20
263.8136816918
40
4.5000000000
100
AcDbArc
50
152.8416734432
51
180.0000000000
0
ARC
5
366
100
AcDbEntity
8
0
100
AcDbCircle
62
7
6
CONTINUOUS
10
95.3258883249
20
263.8136816918
40
4.5000000000
100
AcDbArc
50
0.0000000000
51
27.1583265568
0
ARC
5
367
100
AcDbEntity
8
0
100
AcDbCircle
62
7
6
CONTINUOUS
10
101.7258883249
20
271.0556631325
40
4.5000000000
100
AcDbArc
50
180.0000000000
51
207.1583265568
0
ARC
5
368
100
AcDbEntity
8
0
100
AcDbCircle
62
7
6
CONTINUOUS
10
115.6258883249
20
234.6636816918
40
0.5000000000
100
AcDbArc
50
180.0000000000
51
270.0000000000
0
ARC
5
369
100
AcDbEntity
8
0
100
AcDbCircle
62
7
6
CONTINUOUS
10
122.2758883249
20
234.6636816918
40
0.5000000000
100
AcDbArc
50
270.0000000000
51
360.0000000000
0
ARC
5
36A
100
AcDbEntity
8
0
100
AcDbCircle
62
7
6
CONTINUOUS
10
89.2758883249
20
284.4636816918
40
0.5000000000
100
AcDbArc
50
90.0000000000
51
180.0000000000
0
ARC
5
36B
100
AcDbEntity
8
0
100
AcDbCircle
62
7
6
CONTINUOUS
10
89.2758883249
20
272.7636816918
40
0.5000000000
100
AcDbArc
50
180.0000000000
51
270.0000000000
0
ARC
5
36C
100
AcDbEntity
8
0
100
AcDbCircle
62
7
6
CONTINUOUS
10
95.3258883249
20
263.8136816918
40
5.8500000000
100
AcDbArc
50
0.0000000000
51
27.1583265568
0
ARC
5
36D
100
AcDbEntity
8
0
100
AcDbCircle
62
7
6
CONTINUOUS
10
101.7258883249
20
271.0556631325
40
3.1500000000
100
AcDbArc
50
180.0000000000
51
207.1583265568
0
ARC
5
36E
100
AcDbEntity
8
0
100
AcDbCircle
62
7
6
CONTINUOUS
10
139.9758883249
20
271.8720218734
40
3.0000000000
100
AcDbArc
50
0.0000000000
51
90.0000000000
0
ARC
5
36F
100
AcDbEntity
8
0
100
AcDbCircle
62
7
6
CONTINUOUS
10
98.0758883249
20
284.4636816918
40
0.5000000000
100
AcDbArc
50
0.0000000000
51
90.0000000000
0
ARC
5
370
100
AcDbEntity
8
0
100
AcDbCircle
62
7
6
CONTINUOUS
10
108.1258883249
20
263.8136816918
40
5.8500000000
100
AcDbArc
50
152.8416734432
51
180.0000000000
0
ARC
5
371
100
AcDbEntity
8
0
100
AcDbCircle
62
7
6
CONTINUOUS
10
101.7258883249
20
271.0556631325
40
3.1500000000
100
AcDbArc
50
332.8416734432
51
360.0000000000
0
ARC
5
372
100
AcDbEntity
8
0
100
AcDbCircle
62
7
6
CONTINUOUS
10
105.3758883249
20
284.4636816918
40
0.5000000000
100
AcDbArc
50
90.0000000000
51
180.0000000000
0
ARC
5
373
100
AcDbEntity
8
0
100
AcDbCircle
62
7
6
CONTINUOUS
10
95.3258883249
20
263.8136816918
40
5.3500000000
100
AcDbArc
50
0.0000000000
51
27.1583265568
0
ARC
5
374
100
AcDbEntity
8
0
100
AcDbCircle
62
7
6
CONTINUOUS
10
101.7258883249
20
271.0556631325
40
3.6500047721
100
AcDbArc
50
180.0000000000
51
207.1583265568
0
ARC
5
375
100
AcDbEntity
8
0
100
AcDbCircle
62
7
6
CONTINUOUS
10
108.1258883249
20
263.8136816918
40
5.3500000000
100
AcDbArc
50
152.8416734432
51
180.0000000000
0
ARC
5
376
100
AcDbEntity
8
0
100
AcDbCircle
62
7
6
CONTINUOUS
10
101.7258883249
20
271.0556631325
40
3.6500047721
100
AcDbArc
50
332.8416734432
51
360.0000000000
0
CIRCLE
5
377
100
AcDbEntity
8
0
100
AcDbCircle
62
7
6
CONTINUOUS
10
176.2374466974
20
122.8715974960
40
3.3000000000
0
CIRCLE
5
378
100
AcDbEntity
8
0
100
AcDbCircle
62
7
6
CONTINUOUS
10
176.3874466974
20
160.9715974960
40
2.5000000000
0
ARC
5
379
100
AcDbEntity
8
0
100
AcDbCircle
62
7
6
CONTINUOUS
10
178.3874466974
20
153.6215974960
40
1.0000000000
100
AcDbArc
50
0.0000000000
51
90.0000000000
0
ARC
5
37A
100
AcDbEntity
8
0
100
AcDbCircle
62
7
6
CONTINUOUS
10
176.3874466974
20
160.9715974960
40
6.3500000000
100
AcDbArc
50
90.0000000000
51
270.0000000000
0
ARC
5
37B
100
AcDbEntity
8
0
100
AcDbCircle
62
7
6
CONTINUOUS
10
178.3874466974
20
130.2215974960
40
1.0000000000
100
AcDbArc
50
270.0000000000
51
360.0000000000
0
ARC
5
37C
100
AcDbEntity
8
0
100
AcDbCircle
62
7
6
CONTINUOUS
10
182.6874466974
20
127.3715974960
40
0.8000000000
100
AcDbArc
50
289.8666698593
51
360.0000000000
0
ARC
5
37D
100
AcDbEntity
8
0
100
AcDbCircle
62
7
6
CONTINUOUS
10
176.2374466974
20
122.8715974960
40
6.3500000000
100
AcDbArc
50
90.0000000000
51
270.0000000000
0
ARC
5
37E
100
AcDbEntity
8
0
100
AcDbCircle
62
7
6
CONTINUOUS
10
179.2374466974
20
160.9715974960
40
4.8000000000
100
AcDbArc
50
48.3457357812
51
71.4921724255
0
ARC
5
37F
100
AcDbEntity
8
0
100
AcDbCircle
62
7
6
CONTINUOUS
10
180.5071835395
20
164.7647186847
40
0.8000000000
100
AcDbArc
50
71.4921724255
51
222.6363683780
0
ARC
5
380
100
AcDbEntity
8
0
100
AcDbCircle
62
7
6
CONTINUOUS
10
177.0374466974
20
122.8715974960
40
6.3500000000
100
AcDbArc
50
270.0000000000
51
318.3926675916
0
ARC
5
381
100
AcDbEntity
8
0
100
AcDbCircle
62
7
6
CONTINUOUS
10
176.3874466974
20
160.9715974960
40
4.8000000000
100
AcDbArc
50
313.6028189727
51
42.6363683780
0
ARC
5
382
100
AcDbEntity
8
0
100
AcDbCircle
62
7
6
CONTINUOUS
10
180.3874466974
20
156.7715974960
40
1.0000000000
100
AcDbArc
50
133.6028189727
51
180.0000000000
0
ARC
5
383
100
AcDbEntity
8
0
100
AcDbCircle
62
7
6
CONTINUOUS
10
176.2274466974
20
124.0715974960
40
7.1000000000
100
AcDbArc
50
21.5243861778
51
63.5721555332
0
ARC
5
384
100
AcDbEntity
8
0
100
AcDbCircle
62
7
6
CONTINUOUS
10
177.1874466974
20
160.9715974960
40
6.3500000000
100
AcDbArc
50
7.1948401937
51
90.0000000000
0
ARC
5
385
100
AcDbEntity
8
0
100
AcDbCircle
62
7
6
CONTINUOUS
10
182.9253294527
20
126.7132573144
40
0.1000000000
100
AcDbArc
50
201.5243861777
51
289.8666698594
0
ARC
5
386
100
AcDbEntity
8
0
100
AcDbCircle
62
7
6
CONTINUOUS
10
178.3874466974
20
152.6715974960
40
1.0000000000
100
AcDbArc
50
3.2373719908
51
90.0000000000
0
ARC
5
387
100
AcDbEntity
8
0
100
AcDbCircle
62
7
6
CONTINUOUS
10
176.3874466974
20
160.9715974960
40
7.3000000000
100
AcDbArc
50
13.4427386787
51
270.0000000000
0
ARC
5
388
100
AcDbEntity
8
0
100
AcDbCircle
62
7
6
CONTINUOUS
10
178.3874466974
20
153.6215974960
40
1.5000000000
100
AcDbArc
50
48.1896851042
51
90.0000000000
0
ARC
5
389
100
AcDbEntity
8
0
100
AcDbCircle
62
7
6
CONTINUOUS
10
176.3874466974
20
160.9715974960
40
5.8499988326
100
AcDbArc
50
90.0000000000
51
270.0000000000
0
ARC
5
38A
100
AcDbEntity
8
0
100
AcDbCircle
62
7
6
CONTINUOUS
10
177.1874466974
20
160.9715974960
40
5.8500000000
100
AcDbArc
50
50.1005275208
51
90.0000000000
0
ARC
5
38B
100
AcDbEntity
8
0
100
AcDbCircle
62
7
6
CONTINUOUS
10
177.0374466974
20
122.8715974960
40
5.8499995218
100
AcDbArc
50
270.0000000000
51
318.3926675916
0
ARC
5
38C
100
AcDbEntity
8
0
100
AcDbCircle
62
7
6
CONTINUOUS
10
176.2374466974
20
122.8715974960
40
5.8499994036
100
AcDbArc
50
90.0000000000
51
270.0000000000
0
ARC
5
38D
100
AcDbEntity
8
0
100
AcDbCircle
62
7
6
CONTINUOUS
10
178.3874466974
20
130.2215974960
40
1.5000000000
100
AcDbArc
50
270.0000000000
51
357.5087107721
0
SPLINE
5
38E
100
AcDbEntity
8
0
100
AcDbSpline
62
7
6
CONTINUOUS
70
0
71
3
72
8
73
4
74
2
42
0.0000001000
43
0.0000001000
44
0.0000000001
12
-0.0292908546
22
-0.0711730271
32
0.0000000000
13
-0.0381332618
23
-0.0669835222
33
0.0000000000
40
0.0000000000
40
0.0000000000
40
0.0000000000
40
0.0000000000
40
1.0000000000
40
1.0000000000
40
1.0000000000
40
1.0000000000
10
88.3100375213
20
157.1494334171
30
0.0000000000
10
88.3002739031
20
157.1257090748
30
0.0000000000
10
88.2886656213
20
157.1028246639
30
0.0000000000
10
88.2759545340
20
157.0804968232
30
0.0000000000
11
88.3100375213
21
157.1494334171
31
0.0000000000
11
88.2759545340
21
157.0804968232
31
0.0000000000
0
SPLINE
5
38F
100
AcDbEntity
8
0
100
AcDbSpline
62
7
6
CONTINUOUS
70
0
71
3
72
11
73
7
74
5
42
0.0000001000
43
0.0000001000
44
0.0000000001
12
-0.3752434262
22
-0.6591391661
32
0.0000000000
13
-0.4696925136
23
-0.5941192571
33
0.0000000000
40
0.0000000000
40
0.0000000000
40
0.0000000000
40
0.0000000000
40
0.1170305168
40
0.3894303718
40
0.6898653892
40
1.0000000000
40
1.0000000000
40
1.0000000000
40
1.0000000000
10
88.2759545340
20
157.0804968232
30
0.0000000000
10
88.2613162233
20
157.0547836908
30
0.0000000000
10
88.2077389984
20
156.9716769730
30
0.0000000000
10
88.1063646522
20
156.8304453642
30
0.0000000000
10
87.9699897907
20
156.6539286433
30
0.0000000000
10
87.8744442932
20
156.5330164776
30
0.0000000000
10
87.8258883249
20
156.4715974960
30
0.0000000000
11
88.2759545340
21
157.0804968232
31
0.0000000000
11
88.2287849457
21
157.0051390558
31
0.0000000000
11
88.1095125666
21
156.8368079862
31
0.0000000000
11
87.9711869733
21
156.6561457632
31
0.0000000000
11
87.8258883249
21
156.4715974960
31
0.0000000000
0
SPLINE
5
390
100
AcDbEntity
8
0
100
AcDbSpline
62
7
6
CONTINUOUS
70
0
71
3
72
21
73
17
74
15
42
0.0000001000
43
0.0000001000
44
0.0000000001
12
-1.0941244692
22
0.0000000000
32
0.0000000000
13
0.0000000000
23
1.0941244692
33
0.0000000000
40
0.0000000000
40
0.0000000000
40
0.0000000000
40
0.0000000000
40
0.0610834336
40
0.1252971303
40
0.1926023623
40
0.2568203886
40
0.3215062947
40
0.3888648634
40
0.4588214179
40
0.5314975381
40
0.6066689108
40
0.6840148317
40
0.7629452785
40
0.8426486863
40
0.9220880972
40
1.0000000000
40
1.0000000000
40
1.0000000000
40
1.0000000000
10
81.1758883249
20
164.5580084935
30
0.0000000000
10
81.1536106984
20
164.5580084935
30
0.0000000000
10
81.1076277674
20
164.5668919700
30
0.0000000000
10
81.0456776536
20
164.6016144416
30
0.0000000000
10
80.9919442493
20
164.6491432696
30
0.0000000000
10
80.9452690458
20
164.7035653903
30
0.0000000000
10
80.9039647249
20
164.7621206244
30
0.0000000000
10
80.8659461375
20
164.8252842101
30
0.0000000000
10
80.8304059396
20
164.8931672292
30
0.0000000000
10
80.7972284330
20
164.9653766971
30
0.0000000000
10
80.7665050876
20
165.0415752968
30
0.0000000000
10
80.7385963628
20
165.1212722677
30
0.0000000000
10
80.7141342191
20
165.2038242943
30
0.0000000000
10
80.6941009442
20
165.2883681732
30
0.0000000000
10
80.6799701244
20
165.3737320736
30
0.0000000000
10
80.6758883249
20
165.4311330765
30
0.0000000000
10
80.6758883249
20
165.4595481830
30
0.0000000000
11
81.1758883249
21
164.5580084935
31
0.0000000000
11
81.1101268124
21
164.5699272706
31
0.0000000000
11
81.0481496427
21
164.6030178378
31
0.0000000000
11
80.9923585054
21
164.6510828246
31
0.0000000000
11
80.9462579154
21
164.7041069368
31
0.0000000000
11
80.9052320926
21
164.7617775722
31
0.0000000000
11
80.8670617066
21
164.8248213178
31
0.0000000000
11
80.8314467215
21
164.8925717774
31
0.0000000000
11
80.7981764233
21
164.9647936317
31
0.0000000000
11
80.7673889157
21
165.0410607399
31
0.0000000000
11
80.7394351892
21
165.1209366435
31
0.0000000000
11
80.7149807379
21
165.2037616599
31
0.0000000000
11
80.6950582157
21
165.2886609143
31
0.0000000000
11
80.6812293856
21
165.3744703507
31
0.0000000000
11
80.6758883249
21
165.4595481830
31
0.0000000000
0
SPLINE
5
391
100
AcDbEntity
8
0
100
AcDbSpline
62
7
6
CONTINUOUS
70
0
71
3
72
21
73
17
74
15
42
0.0000001000
43
0.0000001000
44
0.0000000001
12
0.0000000000
22
-1.0941244692
32
0.0000000000
13
-1.0941244692
23
0.0000000000
33
0.0000000000
40
0.0000000000
40
0.0000000000
40
0.0000000000
40
0.0000000000
40
0.0779119028
40
0.1573513137
40
0.2370547215
40
0.3159851683
40
0.3933310892
40
0.4685024619
40
0.5411785821
40
0.6111351366
40
0.6784937053
40
0.7431796114
40
0.8073976377
40
0.8747028697
40
0.9389165664
40
1.0000000000
40
1.0000000000
40
1.0000000000
40
1.0000000000
10
122.7758883249
20
165.4595481830
30
0.0000000000
10
122.7758883249
20
165.4311330765
30
0.0000000000
10
122.7718065254
20
165.3737320736
30
0.0000000000
10
122.7576757055
20
165.2883681732
30
0.0000000000
10
122.7376424306
20
165.2038242943
30
0.0000000000
10
122.7131802870
20
165.1212722677
30
0.0000000000
10
122.6852715621
20
165.0415752968
30
0.0000000000
10
122.6545482167
20
164.9653766971
30
0.0000000000
10
122.6213707102
20
164.8931672292
30
0.0000000000
10
122.5858305122
20
164.8252842101
30
0.0000000000
10
122.5478119248
20
164.7621206244
30
0.0000000000
10
122.5065076040
20
164.7035653903
30
0.0000000000
10
122.4598324005
20
164.6491432696
30
0.0000000000
10
122.4060989961
20
164.6016144416
30
0.0000000000
10
122.3441488823
20
164.5668919700
30
0.0000000000
10
122.2981659513
20
164.5580084935
30
0.0000000000
10
122.2758883249
20
164.5580084935
30
0.0000000000
11
122.7758883249
21
165.4595481830
31
0.0000000000
11
122.7705472641
21
165.3744703507
31
0.0000000000
11
122.7567184340
21
165.2886609143
31
0.0000000000
11
122.7367959119
21
165.2037616599
31
0.0000000000
11
122.7123414605
21
165.1209366435
31
0.0000000000
11
122.6843877340
21
165.0410607399
31
0.0000000000
11
122.6536002264
21
164.9647936317
31
0.0000000000
11
122.6203299282
21
164.8925717774
31
0.0000000000
11
122.5847149432
21
164.8248213178
31
0.0000000000
11
122.5465445572
21
164.7617775722
31
0.0000000000
11
122.5055187343
21
164.7041069368
31
0.0000000000
11
122.4594181443
21
164.6510828246
31
0.0000000000
11
122.4036270070
21
164.6030178378
31
0.0000000000
11
122.3416498373
21
164.5699272706
31
0.0000000000
11
122.2758883249
21
164.5580084935
31
0.0000000000
0
SPLINE
5
392
100
AcDbEntity
8
0
100
AcDbSpline
62
7
6
CONTINUOUS
70
0
71
3
72
11
73
7
74
5
42
0.0000001000
43
0.0000001000
44
0.0000000001
12
0.0000000000
22
-0.5661429820
32
0.0000000000
13
-0.5661429820
23
0.0000000000
33
0.0000000000
40
0.0000000000
40
0.0000000000
40
0.0000000000
40
0.0000000000
40
0.1391907312
40
0.3531832362
40
0.6493384871
40
1.0000000000
40
1.0000000000
40
1.0000000000
40
1.0000000000
10
114.6758883249
20
120.7615662899
30
0.0000000000
10
114.6758883249
20
120.7352990047
30
0.0000000000
10
114.6346654955
20
120.6727122075
30
0.0000000000
10
114.5228736098
20
120.6199440903
30
0.0000000000
10
114.3644952925
20
120.5800945428
30
0.0000000000
10
114.2420631764
20
120.5715974960
30
0.0000000000
10
114.1758883249
20
120.5715974960
30
0.0000000000
11
114.6758883249
21
120.7615662899
31
0.0000000000
11
114.6403547537
21
120.6912306818
31
0.0000000000
11
114.5359575182
21
120.6297601547
31
0.0000000000
11
114.3738055885
21
120.5871137950
31
0.0000000000
11
114.1758883249
21
120.5715974960
31
0.0000000000
0
SPLINE
5
393
100
AcDbEntity
8
0
100
AcDbSpline
62
7
6
CONTINUOUS
70
0
71
3
72
11
73
7
74
5
42
0.0000001000
43
0.0000001000
44
0.0000000001
12
0.0000000000
22
-0.5661429820
32
0.0000000000
13
-0.5661429820
23
-0.0000000000
33
0.0000000000
40
0.0000000000
40
0.0000000000
40
0.0000000000
40
0.0000000000
40
0.1391907312
40
0.3531832362
40
0.6493384871
40
1.0000000000
40
1.0000000000
40
1.0000000000
40
1.0000000000
10
98.5758883249
20
120.7615662899
30
0.0000000000
10
98.5758883249
20
120.7352990047
30
0.0000000000
10
98.5346654955
20
120.6727122075
30
0.0000000000
10
98.4228736098
20
120.6199440903
30
0.0000000000
10
98.2644952925
20
120.5800945428
30
0.0000000000
10
98.1420631764
20
120.5715974960
30
0.0000000000
10
98.0758883249
20
120.5715974960
30
0.0000000000
11
98.5758883249
21
120.7615662899
31
0.0000000000
11
98.5403547537
21
120.6912306818
31
0.0000000000
11
98.4359575182
21
120.6297601547
31
0.0000000000
11
98.2738055885
21
120.5871137950
31
0.0000000000
11
98.0758883249
21
120.5715974960
31
0.0000000000
0
SPLINE
5
394
100
AcDbEntity
8
0
100
AcDbSpline
62
7
6
CONTINUOUS
70
0
71
3
72
8
73
4
74
2
42
0.0000001000
43
0.0000001000
44
0.0000000001
12
0.0000000000
22
0.0519742189
32
0.0000000000
13
0.0175110033
23
0.0493795356
33
0.0000000000
40
0.0000000000
40
0.0000000000
40
0.0000000000
40
0.0000000000
40
1.0000000000
40
1.0000000000
40
1.0000000000
40
1.0000000000
10
88.7758883249
20
126.6299776473
30
0.0000000000
10
88.7758883249
20
126.6473023870
30
0.0000000000
10
88.7796085756
20
126.6641738693
30
0.0000000000
10
88.7854455767
20
126.6806337145
30
0.0000000000
11
88.7758883249
21
126.6299776473
31
0.0000000000
11
88.7854455767
21
126.6806337145
31
0.0000000000
0
SPLINE
5
395
100
AcDbEntity
8
0
100
AcDbSpline
62
7
6
CONTINUOUS
70
0
71
3
72
12
73
8
74
6
42
0.0000001000
43
0.0000001000
44
0.0000000001
12
0.2855848293
22
0.8053248581
32
0.0000000000
13
0.5256847765
23
0.6649444900
33
0.0000000000
40
0.0000000000
40
0.0000000000
40
0.0000000000
40
0.0000000000
40
0.0742618536
40
0.2686653821
40
0.4986562280
40
0.7473584024
40
1.0000000000
40
1.0000000000
40
1.0000000000
40
1.0000000000
10
88.7854455767
20
126.6806337145
30
0.0000000000
10
88.7925149297
20
126.7005686868
30
0.0000000000
10
88.8293235046
20
126.7705052164
30
0.0000000000
10
88.9038674906
20
126.8874389099
30
0.0000000000
10
89.0174601276
20
127.0412262894
30
0.0000000000
10
89.1436955638
20
127.2044454790
30
0.0000000000
10
89.2316183776
20
127.3155999500
30
0.0000000000
10
89.2758883249
20
127.3715974960
30
0.0000000000
11
88.7854455767
21
126.6806337145
31
0.0000000000
11
88.8131197263
21
126.7387011652
31
0.0000000000
11
88.9002637024
21
126.8785576675
31
0.0000000000
11
89.0147276297
21
127.0363657923
31
0.0000000000
11
89.1433566633
21
127.2033853108
31
0.0000000000
11
89.2758883249
21
127.3715974960
31
0.0000000000
0
SPLINE
5
396
100
AcDbEntity
8
0
100
AcDbSpline
62
7
6
CONTINUOUS
70
0
71
3
72
11
73
7
74
5
42
0.0000001000
43
0.0000001000
44
0.0000000001
12
-0.5661429820
22
0.0000000000
32
0.0000000000
13
0.0000000000
23
0.5661429820
33
0.0000000000
40
0.0000000000
40
0.0000000000
40
0.0000000000
40
0.0000000000
40
0.3506615129
40
0.6468167638
40
0.8608092688
40
1.0000000000
40
1.0000000000
40
1.0000000000
40
1.0000000000
10
89.2758883249
20
120.5715974960
30
0.0000000000
10
89.2097134733
20
120.5715974960
30
0.0000000000
10
89.0872813573
20
120.5800945428
30
0.0000000000
10
88.9289030399
20
120.6199440903
30
0.0000000000
10
88.8171111543
20
120.6727122075
30
0.0000000000
10
88.7758883249
20
120.7352990047
30
0.0000000000
10
88.7758883249
20
120.7615662899
30
0.0000000000
11
89.2758883249
21
120.5715974960
31
0.0000000000
11
89.0779710612
21
120.5871137950
31
0.0000000000
11
88.9158191316
21
120.6297601547
31
0.0000000000
11
88.8114218960
21
120.6912306818
31
0.0000000000
11
88.7758883249
21
120.7615662899
31
0.0000000000
0
SPLINE
5
397
100
AcDbEntity
8
0
100
AcDbSpline
62
7
6
CONTINUOUS
70
0
71
3
72
11
73
7
74
5
42
0.0000001000
43
0.0000001000
44
0.0000000001
12
-0.6559033373
22
-0.0000000000
32
0.0000000000
13
0.0000000000
23
0.6559033373
33
0.0000000000
40
0.0000000000
40
0.0000000000
40
0.0000000000
40
0.0000000000
40
0.2942563953
40
0.5648163470
40
0.7977856789
40
1.0000000000
40
1.0000000000
40
1.0000000000
40
1.0000000000
10
89.2758883249
20
118.6550583902
30
0.0000000000
10
89.2115537410
20
118.6550583902
30
0.0000000000
10
89.0873543947
20
118.6706971390
30
0.0000000000
10
88.9244304357
20
118.7395084967
30
0.0000000000
10
88.8073964189
20
118.8467487649
30
0.0000000000
10
88.7758883249
20
118.9428583274
30
0.0000000000
10
88.7758883249
20
118.9870693434
30
0.0000000000
11
89.2758883249
21
118.6550583902
31
0.0000000000
11
89.0845464071
21
118.6803312746
31
0.0000000000
11
88.9223346954
21
118.7523023056
31
0.0000000000
11
88.8139484508
21
118.8600144252
31
0.0000000000
11
88.7758883249
21
118.9870693434
31
0.0000000000
0
SPLINE
5
398
100
AcDbEntity
8
0
100
AcDbSpline
62
7
6
CONTINUOUS
70
0
71
3
72
11
73
7
74
5
42
0.0000001000
43
0.0000001000
44
0.0000000001
12
0.0000000000
22
0.5026373504
32
0.0000000000
13
0.5026373504
23
-0.0000000000
33
0.0000000000
40
0.0000000000
40
0.0000000000
40
0.0000000000
40
0.0000000000
40
0.0794883396
40
0.2958648364
40
0.6188969215
40
1.0000000000
40
1.0000000000
40
1.0000000000
40
1.0000000000
10
115.1258883249
20
161.7348143722
30
0.0000000000
10
115.1258883249
20
161.7481323083
30
0.0000000000
10
115.2016064536
20
161.7448298844
30
0.0000000000
10
115.2814190145
20
161.7633398776
30
0.0000000000
10
115.4474222898
20
161.7640581765
30
0.0000000000
10
115.5620361110
20
161.7668961821
30
0.0000000000
10
115.6258883249
20
161.7668961821
30
0.0000000000
11
115.1258883249
21
161.7348143722
31
0.0000000000
11
115.1638624916
21
161.7472348984
31
0.0000000000
11
115.2721242663
21
161.7576218339
31
0.0000000000
11
115.4343467394
21
161.7644945213
31
0.0000000000
11
115.6258883249
21
161.7668961821
31
0.0000000000
0
SPLINE
5
399
100
AcDbEntity
8
0
100
AcDbSpline
62
7
6
CONTINUOUS
70
0
71
3
72
11
73
7
74
5
42
0.0000001000
43
0.0000001000
44
0.0000000001
12
0.6559033337
22
0.0000000000
32
0.0000000000
13
0.0000000000
23
0.6559033337
33
0.0000000000
40
0.0000000000
40
0.0000000000
40
0.0000000000
40
0.0000000000
40
0.2942560812
40
0.5648159186
40
0.7977853781
40
1.0000000000
40
1.0000000000
40
1.0000000000
40
1.0000000000
10
98.0758883249
20
118.6550583902
30
0.0000000000
10
98.1402228397
20
118.6550583902
30
0.0000000000
10
98.2644220896
20
118.6706971103
30
0.0000000000
10
98.4273460080
20
118.7395083759
30
0.0000000000
10
98.5443801473
20
118.8467486065
30
0.0000000000
10
98.5758883249
20
118.9428582619
30
0.0000000000
10
98.5758883249
20
118.9870693434
30
0.0000000000
11
98.0758883249
21
118.6550583902
31
0.0000000000
11
98.2672300411
21
118.6803312192
31
0.0000000000
11
98.4294417155
21
118.7523021470
31
0.0000000000
11
98.5378280911
21
118.8600142523
31
0.0000000000
11
98.5758883249
21
118.9870693434
31
0.0000000000
0
SPLINE
5
39A
100
AcDbEntity
8
0
100
AcDbSpline
62
7
6
CONTINUOUS
70
0
71
3
72
12
73
8
74
6
42
0.0000001000
43
0.0000001000
44
0.0000000001
12
0.5579178187
22
-0.7057164217
32
0.0000000000
13
-0.0000000000
23
-0.8996154513
33
0.0000000000
40
0.0000000000
40
0.0000000000
40
0.0000000000
40
0.0000000000
40
0.2380455281
40
0.4723792285
40
0.6890826252
40
0.8722547197
40
1.0000000000
40
1.0000000000
40
1.0000000000
40
1.0000000000
10
98.0758883249
20
127.3715974960
30
0.0000000000
10
98.1201582721
20
127.3155999500
30
0.0000000000
10
98.2080810859
20
127.2044454790
30
0.0000000000
10
98.3343165221
20
127.0412262894
30
0.0000000000
10
98.4479091591
20
126.8874389099
30
0.0000000000
10
98.5316193015
20
126.7561266921
30
0.0000000000
10
98.5758883249
20
126.6682848567
30
0.0000000000
10
98.5758883249
20
126.6299776473
30
0.0000000000
11
98.0758883249
21
127.3715974960
31
0.0000000000
11
98.2084199865
21
127.2033853108
31
0.0000000000
11
98.3370490201
21
127.0363657923
31
0.0000000000
11
98.4515129474
21
126.8785576675
31
0.0000000000
11
98.5386569234
21
126.7387011652
31
0.0000000000
11
98.5758883249
21
126.6299776473
31
0.0000000000
0
SPLINE
5
39B
100
AcDbEntity
8
0
100
AcDbSpline
62
7
6
CONTINUOUS
70
0
71
3
72
11
73
7
74
5
42
0.0000001000
43
0.0000001000
44
0.0000000001
12
0.0000000000
22
0.5026373504
32
0.0000000000
13
-0.5026373504
23
-0.0000000000
33
0.0000000000
40
0.0000000000
40
0.0000000000
40
0.0000000000
40
0.0000000000
40
0.0794883396
40
0.2958648364
40
0.6188969215
40
1.0000000000
40
1.0000000000
40
1.0000000000
40
1.0000000000
10
88.3258883249
20
161.7348143722
30
0.0000000000
10
88.3258883249
20
161.7481323083
30
0.0000000000
10
88.2501701961
20
161.7448298844
30
0.0000000000
10
88.1703576353
20
161.7633398776
30
0.0000000000
10
88.0043543600
20
161.7640581765
30
0.0000000000
10
87.8897405387
20
161.7668961821
30
0.0000000000
10
87.8258883249
20
161.7668961821
30
0.0000000000
11
88.3258883249
21
161.7348143722
31
0.0000000000
11
88.2879141582
21
161.7472348984
31
0.0000000000
11
88.1796523835
21
161.7576218339
31
0.0000000000
11
88.0174299104
21
161.7644945213
31
0.0000000000
11
87.8258883249
21
161.7668961821
31
0.0000000000
0
SPLINE
5
39C
100
AcDbEntity
8
0
100
AcDbSpline
62
7
6
CONTINUOUS
70
0
71
3
72
11
73
7
74
5
42
0.0000001000
43
0.0000001000
44
0.0000000001
12
-0.6559033373
22
-0.0000000000
32
0.0000000000
13
0.0000000000
23
0.6559033373
33
0.0000000000
40
0.0000000000
40
0.0000000000
40
0.0000000000
40
0.0000000000
40
0.2942563953
40
0.5648163470
40
0.7977856789
40
1.0000000000
40
1.0000000000
40
1.0000000000
40
1.0000000000
10
105.3758883249
20
118.6550583902
30
0.0000000000
10
105.3115537410
20
118.6550583902
30
0.0000000000
10
105.1873543947
20
118.6706971390
30
0.0000000000
10
105.0244304357
20
118.7395084967
30
0.0000000000
10
104.9073964189
20
118.8467487649
30
0.0000000000
10
104.8758883249
20
118.9428583274
30
0.0000000000
10
104.8758883249
20
118.9870693434
30
0.0000000000
11
105.3758883249
21
118.6550583902
31
0.0000000000
11
105.1845464071
21
118.6803312746
31
0.0000000000
11
105.0223346954
21
118.7523023056
31
0.0000000000
11
104.9139484508
21
118.8600144252
31
0.0000000000
11
104.8758883249
21
118.9870693434
31
0.0000000000
0
SPLINE
5
39D
100
AcDbEntity
8
0
100
AcDbSpline
62
7
6
CONTINUOUS
70
0
71
3
72
12
73
8
74
6
42
0.0000001000
43
0.0000001000
44
0.0000000001
12
0.5579178187
22
-0.7057164217
32
0.0000000000
13
0.0000000000
23
-0.8996154513
33
0.0000000000
40
0.0000000000
40
0.0000000000
40
0.0000000000
40
0.0000000000
40
0.2380455281
40
0.4723792285
40
0.6890826252
40
0.8722547197
40
1.0000000000
40
1.0000000000
40
1.0000000000
40
1.0000000000
10
114.1758883249
20
127.3715974960
30
0.0000000000
10
114.2201582721
20
127.3155999500
30
0.0000000000
10
114.3080810859
20
127.2044454790
30
0.0000000000
10
114.4343165221
20
127.0412262894
30
0.0000000000
10
114.5479091591
20
126.8874389099
30
0.0000000000
10
114.6316193015
20
126.7561266921
30
0.0000000000
10
114.6758883249
20
126.6682848567
30
0.0000000000
10
114.6758883249
20
126.6299776473
30
0.0000000000
11
114.1758883249
21
127.3715974960
31
0.0000000000
11
114.3084199865
21
127.2033853108
31
0.0000000000
11
114.4370490201
21
127.0363657923
31
0.0000000000
11
114.5515129474
21
126.8785576675
31
0.0000000000
11
114.6386569234
21
126.7387011652
31
0.0000000000
11
114.6758883249
21
126.6299776473
31
0.0000000000
0
SPLINE
5
39E
100
AcDbEntity
8
0
100
AcDbSpline
62
7
6
CONTINUOUS
70
0
71
3
72
11
73
7
74
5
42
0.0000001000
43
0.0000001000
44
0.0000000001
12
0.0000000000
22
-0.6559033371
32
0.0000000000
13
-0.6559033371
23
0.0000000001
33
0.0000000000
40
0.0000000000
40
0.0000000000
40
0.0000000000
40
0.0000000000
40
0.2022143369
40
0.4351836755
40
0.7057436212
40
1.0000000000
40
1.0000000000
40
1.0000000000
40
1.0000000000
10
114.6758883249
20
118.9870693434
30
0.0000000000
10
114.6758883249
20
118.9428583240
30
0.0000000000
10
114.6443802265
20
118.8467487566
30
0.0000000000
10
114.5273462032
20
118.7395084904
30
0.0000000000
10
114.3644222464
20
118.6706971375
30
0.0000000000
10
114.2402229051
20
118.6550583902
30
0.0000000000
10
114.1758883249
20
118.6550583902
30
0.0000000000
11
114.6758883249
21
118.9870693434
31
0.0000000000
11
114.6378281933
21
118.8600144161
31
0.0000000000
11
114.5294419418
21
118.7523022973
31
0.0000000000
11
114.3672302320
21
118.6803312717
31
0.0000000000
11
114.1758883249
21
118.6550583902
31
0.0000000000
0
SPLINE
5
39F
100
AcDbEntity
8
0
100
AcDbSpline
62
7
6
CONTINUOUS
70
0
71
3
72
9
73
5
74
3
42
0.0000001000
43
0.0000001000
44
0.0000000001
12
-0.0140409981
22
0.0081281864
32
0.0000000000
13
-0.0071276884
23
-0.0173193704
33
0.0000000000
40
0.0000000000
40
0.0000000000
40
0.0000000000
40
0.0000000000
40
0.0763672844
40
1.0000000000
40
1.0000000000
40
1.0000000000
40
1.0000000000
10
88.3201544894
20
157.1637470306
30
0.0000000000
10
88.3197970651
20
157.1639539398
30
0.0000000000
10
88.3151602721
20
157.1658562511
30
0.0000000000
10
88.3122319767
20
157.1547656628
30
0.0000000000
10
88.3100375213
20
157.1494334171
30
0.0000000000
11
88.3201544894
21
157.1637470306
31
0.0000000000
11
88.3190988304
21
157.1641687144
31
0.0000000000
11
88.3100375213
21
157.1494334171
31
0.0000000000
0
SPLINE
5
3A0
100
AcDbEntity
8
0
100
AcDbSpline
62
7
6
CONTINUOUS
70
0
71
3
72
9
73
5
74
3
42
0.0000001000
43
0.0000001000
44
0.0000000001
12
-0.0071276884
22
0.0173193704
32
0.0000000000
13
-0.0140409981
23
-0.0081281864
33
0.0000000000
40
0.0000000000
40
0.0000000000
40
0.0000000000
40
0.0000000000
40
0.9236327156
40
1.0000000000
40
1.0000000000
40
1.0000000000
40
1.0000000000
10
115.1417391284
20
157.1494334171
30
0.0000000000
10
115.1395446730
20
157.1547656628
30
0.0000000000
10
115.1366163776
20
157.1658562511
30
0.0000000000
10
115.1319795847
20
157.1639539398
30
0.0000000000
10
115.1316221604
20
157.1637470306
30
0.0000000000
11
115.1417391284
21
157.1494334171
31
0.0000000000
11
115.1326778194
21
157.1641687144
31
0.0000000000
11
115.1316221604
21
157.1637470306
31
0.0000000000
0
SPLINE
5
3A1
100
AcDbEntity
8
0
100
AcDbSpline
62
7
6
CONTINUOUS
70
0
71
3
72
11
73
7
74
5
42
0.0000001000
43
0.0000001000
44
0.0000000001
12
-0.5174239495
22
0.6544952786
32
0.0000000000
13
-0.3175221816
23
0.7715382540
33
0.0000000000
40
0.0000000000
40
0.0000000000
40
0.0000000000
40
0.0000000000
40
0.2815252464
40
0.5542456696
40
0.8015171241
40
1.0000000000
40
1.0000000000
40
1.0000000000
40
1.0000000000
10
115.6258883249
20
156.4715974960
30
0.0000000000
10
115.5773323566
20
156.5330164776
30
0.0000000000
10
115.4817868591
20
156.6539286433
30
0.0000000000
10
115.3454119976
20
156.8304453642
30
0.0000000000
10
115.2291043932
20
156.9924815271
30
0.0000000000
10
115.1627467004
20
157.0983877066
30
0.0000000000
10
115.1417391284
20
157.1494334171
30
0.0000000000
11
115.6258883249
21
156.4715974960
31
0.0000000000
11
115.4805896764
21
156.6561457632
31
0.0000000000
11
115.3422640831
21
156.8368079862
31
0.0000000000
11
115.2229917041
21
157.0051390558
31
0.0000000000
11
115.1417391284
21
157.1494334171
31
0.0000000000
0
SPLINE
5
3A2
100
AcDbEntity
8
0
100
AcDbSpline
62
7
6
CONTINUOUS
70
0
71
3
72
8
73
4
74
2
42
0.0000001000
43
0.0000001000
44
0.0000000001
12
0.0000000000
22
0.0519742189
32
0.0000000000
13
0.0175110033
23
0.0493795356
33
0.0000000000
40
0.0000000000
40
0.0000000000
40
0.0000000000
40
0.0000000000
40
1.0000000000
40
1.0000000000
40
1.0000000000
40
1.0000000000
10
104.8758883249
20
126.6299776473
30
0.0000000000
10
104.8758883249
20
126.6473023870
30
0.0000000000
10
104.8796085756
20
126.6641738693
30
0.0000000000
10
104.8854455767
20
126.6806337145
30
0.0000000000
11
104.8758883249
21
126.6299776473
31
0.0000000000
11
104.8854455767
21
126.6806337145
31
0.0000000000
0
SPLINE
5
3A3
100
AcDbEntity
8
0
100
AcDbSpline
62
7
6
CONTINUOUS
70
0
71
3
72
12
73
8
74
6
42
0.0000001000
43
0.0000001000
44
0.0000000001
12
0.2855848293
22
0.8053248581
32
0.0000000000
13
0.5256847765
23
0.6649444900
33
0.0000000000
40
0.0000000000
40
0.0000000000
40
0.0000000000
40
0.0000000000
40
0.0742618536
40
0.2686653821
40
0.4986562280
40
0.7473584024
40
1.0000000000
40
1.0000000000
40
1.0000000000
40
1.0000000000
10
104.8854455767
20
126.6806337145
30
0.0000000000
10
104.8925149297
20
126.7005686868
30
0.0000000000
10
104.9293235046
20
126.7705052164
30
0.0000000000
10
105.0038674906
20
126.8874389099
30
0.0000000000
10
105.1174601276
20
127.0412262894
30
0.0000000000
10
105.2436955638
20
127.2044454790
30
0.0000000000
10
105.3316183776
20
127.3155999500
30
0.0000000000
10
105.3758883249
20
127.3715974960
30
0.0000000000
11
104.8854455767
21
126.6806337145
31
0.0000000000
11
104.9131197263
21
126.7387011652
31
0.0000000000
11
105.0002637024
21
126.8785576675
31
0.0000000000
11
105.1147276297
21
127.0363657923
31
0.0000000000
11
105.2433566633
21
127.2033853108
31
0.0000000000
11
105.3758883249
21
127.3715974960
31
0.0000000000
0
SPLINE
5
3A4
100
AcDbEntity
8
0
100
AcDbSpline
62
7
6
CONTINUOUS
70
0
71
3
72
11
73
7
74
5
42
0.0000001000
43
0.0000001000
44
0.0000000001
12
0.0000000000
22
-0.5661429820
32
0.0000000000
13
0.5661429820
23
-0.0000000000
33
0.0000000000
40
0.0000000000
40
0.0000000000
40
0.0000000000
40
0.0000000000
40
0.1391907312
40
0.3531832362
40
0.6493384871
40
1.0000000000
40
1.0000000000
40
1.0000000000
40
1.0000000000
10
104.8758883249
20
120.7615662899
30
0.0000000000
10
104.8758883249
20
120.7352990047
30
0.0000000000
10
104.9171111543
20
120.6727122075
30
0.0000000000
10
105.0289030399
20
120.6199440903
30
0.0000000000
10
105.1872813573
20
120.5800945428
30
0.0000000000
10
105.3097134733
20
120.5715974960
30
0.0000000000
10
105.3758883249
20
120.5715974960
30
0.0000000000
11
104.8758883249
21
120.7615662899
31
0.0000000000
11
104.9114218960
21
120.6912306818
31
0.0000000000
11
105.0158191316
21
120.6297601547
31
0.0000000000
11
105.1779710612
21
120.5871137950
31
0.0000000000
11
105.3758883249
21
120.5715974960
31
0.0000000000
0
SPLINE
5
3A5
100
AcDbEntity
8
0
100
AcDbSpline
62
7
6
CONTINUOUS
70
0
71
3
72
20
73
16
74
14
42
0.0000001000
43
0.0000001000
44
0.0000000001
12
0.2179245711
22
-0.8727636374
32
0.0000000000
13
0.8995596064
23
0.0000000000
33
0.0000000000
40
0.0000000000
40
0.0000000000
40
0.0000000000
40
0.0000000000
40
0.1159956506
40
0.2235972399
40
0.3233515988
40
0.4158113469
40
0.5015357839
40
0.5809717046
40
0.6546139383
40
0.7227823235
40
0.7857132999
40
0.8480281153
40
0.9069150095
40
0.9566329749
40
1.0000000000
40
1.0000000000
40
1.0000000000
40
1.0000000000
10
60.6158111417
20
162.5647186847
30
0.0000000000
10
60.6242372425
20
162.5309730894
30
0.0000000000
10
60.6410745461
20
162.4660706247
30
0.0000000000
10
60.6671237649
20
162.3726722581
30
0.0000000000
10
60.6928402307
20
162.2865228897
30
0.0000000000
10
60.7181785694
20
162.2071218486
30
0.0000000000
10
60.7431640381
20
162.1340196354
30
0.0000000000
10
60.7678911939
20
162.0668107736
30
0.0000000000
10
60.7925115353
20
162.0051963403
30
0.0000000000
10
60.8172435555
20
161.9489880639
30
0.0000000000
10
60.8430004326
20
161.8969996841
30
0.0000000000
10
60.8706981134
20
161.8491607053
30
0.0000000000
10
60.9012281383
20
161.8078034688
30
0.0000000000
10
60.9350065613
20
161.7765069126
30
0.0000000000
10
60.9628845835
20
161.7668961821
30
0.0000000000
10
60.9758883249
20
161.7668961821
30
0.0000000000
11
60.6158111417
21
162.5647186847
31
0.0000000000
11
60.6420230427
21
162.4637195973
31
0.0000000000
11
60.6680470828
21
162.3704895799
31
0.0000000000
11
60.6937450132
21
162.2845129252
31
0.0000000000
11
60.7190718457
21
162.2052897685
31
0.0000000000
11
60.7440658484
21
162.1323383740
31
0.0000000000
11
60.7688099015
21
162.0653019356
31
0.0000000000
11
60.7934845861
21
162.0038231860
31
0.0000000000
11
60.8183147962
21
161.9477536740
31
0.0000000000
11
60.8436280269
21
161.8971182015
31
0.0000000000
11
60.8721172279
21
161.8488416201
31
0.0000000000
11
60.9042594777
21
161.8067353580
31
0.0000000000
11
60.9384688138
21
161.7779259506
31
0.0000000000
11
60.9758883249
21
161.7668961821
31
0.0000000000
0
SPLINE
5
3A6
100
AcDbEntity
8
0
100
AcDbSpline
62
7
6
CONTINUOUS
70
0
71
3
72
8
73
4
74
2
42
0.0000001000
43
0.0000001000
44
0.0000000001
12
0.0437918877
22
0.1753816334
32
0.0000000000
13
0.0277133234
23
0.1789342277
33
0.0000000000
40
0.0000000000
40
0.0000000000
40
0.0000000000
40
0.0000000000
40
1.0000000000
40
1.0000000000
40
1.0000000000
40
1.0000000000
10
142.8359655080
20
162.5647186847
30
0.0000000000
10
142.8505628040
20
162.6231792292
30
0.0000000000
10
142.8625710114
20
162.6823746682
30
0.0000000000
10
142.8718087859
20
162.7420194107
30
0.0000000000
11
142.8359655080
21
162.5647186847
31
0.0000000000
11
142.8718087859
21
162.7420194107
31
0.0000000000
0
SPLINE
5
3A7
100
AcDbEntity
8
0
100
AcDbSpline
62
7
6
CONTINUOUS
70
0
71
3
72
10
73
6
74
4
42
0.0000001000
43
0.0000001000
44
0.0000000001
12
0.1263337374
22
0.8156881595
32
0.0000000000
13
-0.2724637909
23
0.7776920651
33
0.0000000000
40
0.0000000000
40
0.0000000000
40
0.0000000000
40
0.0000000000
40
0.2115172433
40
0.6183685506
40
1.0000000000
40
1.0000000000
40
1.0000000000
40
1.0000000000
10
142.8718087859
20
162.7420194107
30
0.0000000000
10
142.8807160405
20
162.7995301144
30
0.0000000000
10
142.8992261837
20
162.9688833044
30
0.0000000000
10
142.8913125544
20
163.2449893076
30
0.0000000000
10
142.8418152358
20
163.4577201037
30
0.0000000000
10
142.8071549854
20
163.5566506870
30
0.0000000000
11
142.8718087859
21
162.7420194107
31
0.0000000000
11
142.8906407861
21
162.9155486837
31
0.0000000000
11
142.8795957175
21
163.2506283351
31
0.0000000000
11
142.8071549854
21
163.5566506870
31
0.0000000000
0
SPLINE
5
3A8
100
AcDbEntity
8
0
100
AcDbSpline
62
7
6
CONTINUOUS
70
0
71
3
72
20
73
16
74
14
42
0.0000001000
43
0.0000001000
44
0.0000000001
12
0.8995596064
22
0.0000000000
32
0.0000000000
13
0.2179245711
23
0.8727636374
33
0.0000000000
40
0.0000000000
40
0.0000000000
40
0.0000000000
40
0.0000000000
40
0.0433670251
40
0.0930849905
40
0.1519718847
40
0.2142867001
40
0.2772176765
40
0.3453860617
40
0.4190282954
40
0.4984642161
40
0.5841886531
40
0.6766484012
40
0.7764027601
40
0.8840043494
40
1.0000000000
40
1.0000000000
40
1.0000000000
40
1.0000000000
10
142.4758883249
20
161.7668961821
30
0.0000000000
10
142.4888920662
20
161.7668961821
30
0.0000000000
10
142.5167700884
20
161.7765069126
30
0.0000000000
10
142.5505485114
20
161.8078034688
30
0.0000000000
10
142.5810785364
20
161.8491607053
30
0.0000000000
10
142.6087762172
20
161.8969996841
30
0.0000000000
10
142.6345330943
20
161.9489880639
30
0.0000000000
10
142.6592651144
20
162.0051963403
30
0.0000000000
10
142.6838854558
20
162.0668107736
30
0.0000000000
10
142.7086126117
20
162.1340196354
30
0.0000000000
10
142.7335980803
20
162.2071218486
30
0.0000000000
10
142.7589364191
20
162.2865228897
30
0.0000000000
10
142.7846528848
20
162.3726722581
30
0.0000000000
10
142.8107021037
20
162.4660706247
30
0.0000000000
10
142.8275394072
20
162.5309730894
30
0.0000000000
10
142.8359655080
20
162.5647186847
30
0.0000000000
11
142.4758883249
21
161.7668961821
31
0.0000000000
11
142.5133078359
21
161.7779259506
31
0.0000000000
11
142.5475171720
21
161.8067353580
31
0.0000000000
11
142.5796594219
21
161.8488416201
31
0.0000000000
11
142.6081486229
21
161.8971182015
31
0.0000000000
11
142.6334618536
21
161.9477536740
31
0.0000000000
11
142.6582920636
21
162.0038231860
31
0.0000000000
11
142.6829667482
21
162.0653019356
31
0.0000000000
11
142.7077108014
21
162.1323383740
31
0.0000000000
11
142.7327048041
21
162.2052897685
31
0.0000000000
11
142.7580316366
21
162.2845129253
31
0.0000000000
11
142.7837295669
21
162.3704895799
31
0.0000000000
11
142.8097536070
21
162.4637195973
31
0.0000000000
11
142.8359655080
21
162.5647186847
31
0.0000000000
0
SPLINE
5
3A9
100
AcDbEntity
8
0
100
AcDbSpline
62
7
6
CONTINUOUS
70
0
71
3
72
10
73
6
74
4
42
0.0000001000
43
0.0000001000
44
0.0000000001
12
-0.2724637909
22
-0.7776920651
32
0.0000000000
13
0.1263337374
23
-0.8156881596
33
0.0000000000
40
0.0000000000
40
0.0000000000
40
0.0000000000
40
0.0000000000
40
0.3816314494
40
0.7884827567
40
1.0000000000
40
1.0000000000
40
1.0000000000
40
1.0000000000
10
60.6446216644
20
163.5566506870
30
0.0000000000
10
60.6099614139
20
163.4577201037
30
0.0000000000
10
60.5604640953
20
163.2449893076
30
0.0000000000
10
60.5525504661
20
162.9688833044
30
0.0000000000
10
60.5710606093
20
162.7995301144
30
0.0000000000
10
60.5799678639
20
162.7420194107
30
0.0000000000
11
60.6446216644
21
163.5566506870
31
0.0000000000
11
60.5721809323
21
163.2506283351
31
0.0000000000
11
60.5611358637
21
162.9155486836
31
0.0000000000
11
60.5799678639
21
162.7420194107
31
0.0000000000
0
SPLINE
5
3AA
100
AcDbEntity
8
0
100
AcDbSpline
62
7
6
CONTINUOUS
70
0
71
3
72
8
73
4
74
2
42
0.0000001000
43
0.0000001000
44
0.0000000001
12
0.0277133234
22
-0.1789342277
32
0.0000000000
13
0.0437918877
23
-0.1753816334
33
0.0000000000
40
0.0000000000
40
0.0000000000
40
0.0000000000
40
0.0000000000
40
1.0000000000
40
1.0000000000
40
1.0000000000
40
1.0000000000
10
60.5799678639
20
162.7420194107
30
0.0000000000
10
60.5892056383
20
162.6823746681
30
0.0000000000
10
60.6012138458
20
162.6231792292
30
0.0000000000
10
60.6158111417
20
162.5647186847
30
0.0000000000
11
60.5799678639
21
162.7420194107
31
0.0000000000
11
60.6158111417
21
162.5647186847
31
0.0000000000
0
SPLINE
5
3AB
100
AcDbEntity
8
0
100
AcDbSpline
62
7
6
CONTINUOUS
70
0
71
3
72
11
73
7
74
5
42
0.0000001000
43
0.0000001000
44
0.0000000001
12
0.7379708769
22
0.0000000000
32
0.0000000000
13
0.0000000007
23
0.7379708769
33
0.0000000000
40
0.0000000000
40
0.0000000000
40
0.0000000000
40
0.0000000000
40
0.2363956332
40
0.4809786419
40
0.7366950792
40
1.0000000000
40
1.0000000000
40
1.0000000000
40
1.0000000000
10
98.4783059237
20
193.7326243623
30
0.0000000000
10
98.5364569546
20
193.7326243623
30
0.0000000000
10
98.6562451215
20
193.7598401949
30
0.0000000000
10
98.8038957973
20
193.8732362266
30
0.0000000000
10
98.9008624538
20
194.0390086548
30
0.0000000000
10
98.9231802263
20
194.1678539079
30
0.0000000000
10
98.9231802263
20
194.2326243623
30
0.0000000000
11
98.4783059237
21
193.7326243623
31
0.0000000000
11
98.6485561812
21
193.7706865665
31
0.0000000000
11
98.7928834631
21
193.8790753589
31
0.0000000000
11
98.8893175602
21
194.0412863741
31
0.0000000000
11
98.9231802263
21
194.2326243623
31
0.0000000000
0
SPLINE
5
3AC
100
AcDbEntity
8
0
100
AcDbSpline
62
7
6
CONTINUOUS
70
0
71
3
72
11
73
7
74
5
42
0.0000001000
43
0.0000001000
44
0.0000000001
12
0.7379708973
22
0.0000000000
32
0.0000000000
13
-0.0000000000
23
0.7379708973
33
0.0000000000
40
0.0000000000
40
0.0000000000
40
0.0000000000
40
0.0000000000
40
0.2363894466
40
0.4809708382
40
0.7366897878
40
1.0000000000
40
1.0000000000
40
1.0000000000
40
1.0000000000
10
100.0860433512
20
193.7326243623
30
0.0000000000
10
100.1441928619
20
193.7326243623
30
0.0000000000
10
100.2639790156
20
193.7598389719
30
0.0000000000
10
100.4116300040
20
193.8732323981
30
0.0000000000
10
100.5085990822
20
194.0390053555
30
0.0000000000
10
100.5309176528
20
194.1678526045
30
0.0000000000
10
100.5309176528
20
194.2326243623
30
0.0000000000
11
100.0860433512
21
193.7326243623
31
0.0000000000
11
100.2562893759
21
193.7706845961
31
0.0000000000
11
100.4006169866
21
193.8790709718
31
0.0000000000
11
100.4970536129
21
194.0412826462
31
0.0000000000
11
100.5309176528
21
194.2326243623
31
0.0000000000
0
SPLINE
5
3AD
100
AcDbEntity
8
0
100
AcDbSpline
62
7
6
CONTINUOUS
70
0
71
3
72
12
73
8
74
6
42
0.0000001000
43
0.0000001000
44
0.0000000001
12
1.8869210381
22
0.0000000000
32
0.0000000000
13
1.8588066307
23
-0.3245133492
33
0.0000000000
40
0.0000000000
40
0.0000000000
40
0.0000000000
40
0.0000000000
40
0.1623729958
40
0.3547609905
40
0.5672887697
40
0.7907130213
40
1.0000000000
40
1.0000000000
40
1.0000000000
40
1.0000000000
10
61.4821578369
20
207.3326243623
30
0.0000000000
10
61.5842861775
20
207.3326243623
30
0.0000000000
10
61.8070719845
20
207.3003123183
30
0.0000000000
10
62.1495351659
20
207.1993751304
30
0.0000000000
10
62.5200357929
20
207.0608698483
30
0.0000000000
10
62.8969153752
20
206.9119446514
30
0.0000000000
10
63.1573406862
20
206.8271291745
30
0.0000000000
10
63.2870153608
20
206.8044903684
30
0.0000000000
11
61.4821578369
21
207.3326243623
31
0.0000000000
11
61.7864166661
21
207.2965917871
31
0.0000000000
11
62.1360942441
21
207.1990735582
31
0.0000000000
11
62.5130349506
21
207.0621967494
31
0.0000000000
11
62.9072208219
21
206.9126959096
31
0.0000000000
11
63.2870153608
21
206.8044903684
31
0.0000000000
0
SPLINE
5
3AE
100
AcDbEntity
8
0
100
AcDbSpline
62
7
6
CONTINUOUS
70
0
71
3
72
9
73
5
74
3
42
0.0000001000
43
0.0000001000
44
0.0000000001
12
0.1887855816
22
0.0344673739
32
0.0000000000
13
0.1890468860
23
0.0330040990
33
0.0000000000
40
0.0000000000
40
0.0000000000
40
0.0000000000
40
0.0000000000
40
0.5049972506
40
1.0000000000
40
1.0000000000
40
1.0000000000
40
1.0000000000
10
139.9758883249
20
206.7705071177
30
0.0000000000
10
140.0076670581
20
206.7763090940
30
0.0000000000
10
140.0705955446
20
206.7877983268
30
0.0000000000
10
140.1335683795
20
206.7990446618
30
0.0000000000
10
140.1647612890
20
206.8044903684
30
0.0000000000
11
139.9758883249
21
206.7705071177
31
0.0000000000
11
140.0712357933
21
206.7878512116
31
0.0000000000
11
140.1647612890
21
206.8044903684
31
0.0000000000
0
SPLINE
5
3AF
100
AcDbEntity
8
0
100
AcDbSpline
62
7
6
CONTINUOUS
70
0
71
3
72
10
73
6
74
4
42
0.0000001000
43
0.0000001000
44
0.0000000001
12
-0.6182084542
22
0.0509009069
32
0.0000000000
13
-0.6102135495
23
0.1114092420
33
0.0000000000
40
0.0000000000
40
0.0000000000
40
0.0000000000
40
0.0000000000
40
0.3120793060
40
0.6461030345
40
1.0000000000
40
1.0000000000
40
1.0000000000
40
1.0000000000
10
140.5889572363
20
206.6774809683
30
0.0000000000
10
140.5246472146
20
206.6827760082
30
0.0000000000
10
140.3919171394
20
206.6987057750
30
0.0000000000
10
140.1878013235
20
206.7318080122
30
0.0000000000
10
140.0478725660
20
206.7573646534
30
0.0000000000
10
139.9758883249
20
206.7705071177
30
0.0000000000
11
140.5889572363
21
206.6774809683
31
0.0000000000
11
140.3966235838
21
206.6994380450
31
0.0000000000
11
140.1919725205
21
206.7318067498
31
0.0000000000
11
139.9758883249
21
206.7705071177
31
0.0000000000
0
SPLINE
5
3B0
100
AcDbEntity
8
0
100
AcDbSpline
62
7
6
CONTINUOUS
70
0
71
3
72
11
73
7
74
5
42
0.0000001000
43
0.0000001000
44
0.0000000001
12
-0.6854809120
22
-0.0000000000
32
0.0000000000
13
0.0000000000
23
-0.6854809120
33
0.0000000000
40
0.0000000000
40
0.0000000000
40
0.0000000000
40
0.0000000000
40
0.2822057132
40
0.5467348483
40
0.7840282695
40
1.0000000000
40
1.0000000000
40
1.0000000000
40
1.0000000000
10
89.2758883249
20
205.6306026657
30
0.0000000000
10
89.2114061150
20
205.6306026657
30
0.0000000000
10
89.0856228716
20
205.6126047388
30
0.0000000000
10
88.9213420687
20
205.5336258761
30
0.0000000000
10
88.8054254763
20
205.4109764666
30
0.0000000000
10
88.7758883249
20
205.3060942727
30
0.0000000000
10
88.7758883249
20
205.2567461064
30
0.0000000000
11
89.2758883249
21
205.6306026657
31
0.0000000000
11
89.0845464071
21
205.6021444672
31
0.0000000000
11
88.9223346954
21
205.5211024361
31
0.0000000000
11
88.8139484508
21
205.3998146230
31
0.0000000000
11
88.7758883249
21
205.2567461064
31
0.0000000000
0
SPLINE
5
3B1
100
AcDbEntity
8
0
100
AcDbSpline
62
7
6
CONTINUOUS
70
0
71
3
72
9
73
5
74
3
42
0.0000001000
43
0.0000001000
44
0.0000000001
12
0.1890468860
22
-0.0330040990
32
0.0000000000
13
0.1887855816
23
-0.0344673739
33
0.0000000000
40
0.0000000000
40
0.0000000000
40
0.0000000000
40
0.0000000000
40
0.4950027494
40
1.0000000000
40
1.0000000000
40
1.0000000000
40
1.0000000000
10
63.2870153608
20
206.8044903684
30
0.0000000000
10
63.3182082702
20
206.7990446618
30
0.0000000000
10
63.3811811051
20
206.7877983268
30
0.0000000000
10
63.4441095917
20
206.7763090940
30
0.0000000000
10
63.4758883249
20
206.7705071177
30
0.0000000000
11
63.2870153608
21
206.8044903684
31
0.0000000000
11
63.3805408565
21
206.7878512116
31
0.0000000000
11
63.4758883249
21
206.7705071177
31
0.0000000000
0
SPLINE
5
3B2
100
AcDbEntity
8
0
100
AcDbSpline
62
7
6
CONTINUOUS
70
0
71
3
72
10
73
6
74
4
42
0.0000001000
43
0.0000001000
44
0.0000000001
12
-0.6102135706
22
-0.1114092458
32
0.0000000000
13
-0.6182084756
23
-0.0509009086
33
0.0000000000
40
0.0000000000
40
0.0000000000
40
0.0000000000
40
0.0000000000
40
0.3540410974
40
0.6880628290
40
1.0000000000
40
1.0000000000
40
1.0000000000
40
1.0000000000
10
63.4758883249
20
206.7705071177
30
0.0000000000
10
63.4038747641
20
206.7573593004
30
0.0000000000
10
63.2639170927
20
206.7317973635
30
0.0000000000
10
63.0598008108
20
206.6986976739
30
0.0000000000
10
62.9271001477
20
206.6827735968
30
0.0000000000
10
62.8628194134
20
206.6774809683
30
0.0000000000
11
63.4758883249
21
206.7705071177
31
0.0000000000
11
63.2597160093
21
206.7317915881
31
0.0000000000
11
63.0550657315
21
206.6994258004
31
0.0000000000
11
62.8628194134
21
206.6774809683
31
0.0000000000
0
SPLINE
5
3B3
100
AcDbEntity
8
0
100
AcDbSpline
62
7
6
CONTINUOUS
70
0
71
3
72
11
73
7
74
5
42
0.0000001000
43
0.0000001000
44
0.0000000001
12
0.0000000000
22
0.6854809119
32
0.0000000000
13
-0.6854809119
23
0.0000000001
33
0.0000000000
40
0.0000000000
40
0.0000000000
40
0.0000000000
40
0.0000000000
40
0.2159717470
40
0.4532651740
40
0.7177943027
40
1.0000000000
40
1.0000000000
40
1.0000000000
40
1.0000000000
10
114.6758883249
20
205.2567461064
30
0.0000000000
10
114.6758883249
20
205.3060942764
30
0.0000000000
10
114.6463511694
20
205.4109764756
30
0.0000000000
10
114.5304345701
20
205.5336258835
30
0.0000000000
10
114.3661537693
20
205.6126047405
30
0.0000000000
10
114.2403705311
20
205.6306026657
30
0.0000000000
10
114.1758883249
20
205.6306026657
30
0.0000000000
11
114.6758883249
21
205.2567461064
31
0.0000000000
11
114.6378281933
21
205.3998146332
31
0.0000000000
11
114.5294419418
21
205.5211024454
31
0.0000000000
11
114.3672302320
21
205.6021444705
31
0.0000000000
11
114.1758883249
21
205.6306026657
31
0.0000000000
0
SPLINE
5
3B4
100
AcDbEntity
8
0
100
AcDbSpline
62
7
6
CONTINUOUS
70
0
71
3
72
11
73
7
74
5
42
0.0000001000
43
0.0000001000
44
0.0000000001
12
-0.7379709059
22
0.0000000000
32
0.0000000000
13
0.0000000146
23
0.7379709059
33
0.0000000000
40
0.0000000000
40
0.0000000000
40
0.0000000000
40
0.0000000000
40
0.2363876002
40
0.4809685217
40
0.7366882278
40
1.0000000000
40
1.0000000000
40
1.0000000000
40
1.0000000000
10
103.3657332985
20
193.7326243623
30
0.0000000000
10
103.3075842414
20
193.7326243623
30
0.0000000000
10
103.1877986849
20
193.7598386066
30
0.0000000000
10
103.0401475983
20
193.8732312589
30
0.0000000000
10
102.9431778009
20
194.0390043777
30
0.0000000000
10
102.9208589961
20
194.1678522200
30
0.0000000000
10
102.9208589974
20
194.2326243623
30
0.0000000000
11
103.3657332985
21
193.7326243623
31
0.0000000000
11
103.1954885362
21
193.7706840071
31
0.0000000000
11
103.0511608198
21
193.8790696676
31
0.0000000000
11
102.9547234397
21
194.0412815460
31
0.0000000000
11
102.9208589974
21
194.2326243623
31
0.0000000000
0
SPLINE
5
3B5
100
AcDbEntity
8
0
100
AcDbSpline
62
7
6
CONTINUOUS
70
0
71
3
72
11
73
7
74
5
42
0.0000001000
43
0.0000001000
44
0.0000000001
12
0.6854809094
22
0.0000000000
32
0.0000000000
13
0.0000000000
23
-0.6854809094
33
0.0000000000
40
0.0000000000
40
0.0000000000
40
0.0000000000
40
0.0000000000
40
0.2822054101
40
0.5467344218
40
0.7840279537
40
1.0000000000
40
1.0000000000
40
1.0000000000
40
1.0000000000
10
98.0758883249
20
205.6306026657
30
0.0000000000
10
98.1403704653
20
205.6306026657
30
0.0000000000
10
98.2661536080
20
205.6126047723
30
0.0000000000
10
98.4304343732
20
205.5336260170
30
0.0000000000
10
98.5463510971
20
205.4109766384
30
0.0000000000
10
98.5758883249
20
205.3060943446
30
0.0000000000
10
98.5758883249
20
205.2567461064
30
0.0000000000
11
98.0758883249
21
205.6306026657
31
0.0000000000
11
98.2672300411
21
205.6021445296
31
0.0000000000
11
98.4294417155
21
205.5211026147
31
0.0000000000
11
98.5378280911
21
205.3998148177
31
0.0000000000
11
98.5758883249
21
205.2567461064
31
0.0000000000
0
SPLINE
5
3B6
100
AcDbEntity
8
0
100
AcDbSpline
62
7
6
CONTINUOUS
70
0
71
3
72
14
73
10
74
8
42
0.0000001000
43
0.0000001000
44
0.0000000001
12
0.0000000000
22
3.6620191982
32
0.0000000000
13
-3.6496690983
23
0.3004997192
33
0.0000000000
40
0.0000000000
40
0.0000000000
40
0.0000000000
40
0.0000000000
40
0.1697871323
40
0.3102666788
40
0.4365047796
40
0.5599396087
40
0.6913525285
40
0.8387243133
40
1.0000000000
40
1.0000000000
40
1.0000000000
40
1.0000000000
10
142.9758883249
20
204.5110932940
30
0.0000000000
10
142.9758883249
20
204.7183478733
30
0.0000000000
10
142.9519465681
20
205.0987294377
30
0.0000000000
10
142.7945011433
20
205.6149558823
30
0.0000000000
10
142.5153257891
20
206.0114139163
30
0.0000000000
10
142.1375685582
20
206.2931594848
30
0.0000000000
10
141.6831728223
20
206.4870635510
30
0.0000000000
10
141.1597018083
20
206.6145834597
30
0.0000000000
10
140.7851581997
20
206.6613265354
30
0.0000000000
10
140.5889572363
20
206.6774809683
30
0.0000000000
11
142.9758883249
21
204.5110932940
31
0.0000000000
11
142.9233414860
21
205.1306326194
31
0.0000000000
11
142.7631082319
21
205.6194808364
31
0.0000000000
11
142.4957218894
21
205.9965925070
31
0.0000000000
11
142.1371993695
21
206.2718820430
31
0.0000000000
11
141.6974961467
21
206.4674575393
31
0.0000000000
11
141.1745553985
21
206.6008203793
31
0.0000000000
11
140.5889572363
21
206.6774809683
31
0.0000000000
0
SPLINE
5
3B7
100
AcDbEntity
8
0
100
AcDbSpline
62
7
6
CONTINUOUS
70
0
71
3
72
12
73
8
74
6
42
0.0000001000
43
0.0000001000
44
0.0000000001
12
1.8588035456
22
0.3245128106
32
0.0000000000
13
1.8869179064
23
0.0000000000
33
0.0000000000
40
0.0000000000
40
0.0000000000
40
0.0000000000
40
0.0000000000
40
0.1968222156
40
0.4162926738
40
0.6323003388
40
0.8314040493
40
1.0000000000
40
1.0000000000
40
1.0000000000
40
1.0000000000
10
140.1647612890
20
206.8044903684
30
0.0000000000
10
140.2867125664
20
206.8257808119
30
0.0000000000
10
140.5377253998
20
206.9055504174
30
0.0000000000
10
140.9072568045
20
207.0511612356
30
0.0000000000
10
141.2809842326
20
207.1921672029
30
0.0000000000
10
141.6327288380
20
207.2979696011
30
0.0000000000
10
141.8635765734
20
207.3326243623
30
0.0000000000
10
141.9696188128
20
207.3326243623
30
0.0000000000
11
140.1647612890
21
206.8044903684
31
0.0000000000
11
140.5223431056
21
206.9048089496
31
0.0000000000
11
140.9097795066
21
207.0510644691
31
0.0000000000
11
141.2924760338
21
207.1913211685
31
0.0000000000
11
141.6538310522
21
207.2941185293
31
0.0000000000
11
141.9696188128
21
207.3326243623
31
0.0000000000
0
SPLINE
5
3B8
100
AcDbEntity
8
0
100
AcDbSpline
62
7
6
CONTINUOUS
70
0
71
3
72
11
73
7
74
5
42
0.0000001000
43
0.0000001000
44
0.0000000001
12
-0.7379708973
22
0.0000000000
32
0.0000000000
13
-0.0000000000
23
0.7379708973
33
0.0000000000
40
0.0000000000
40
0.0000000000
40
0.0000000000
40
0.0000000000
40
0.2363894466
40
0.4809708382
40
0.7366897878
40
1.0000000000
40
1.0000000000
40
1.0000000000
40
1.0000000000
10
104.9734707260
20
193.7326243623
30
0.0000000000
10
104.9153212154
20
193.7326243623
30
0.0000000000
10
104.7955350616
20
193.7598389719
30
0.0000000000
10
104.6478840732
20
193.8732323981
30
0.0000000000
10
104.5509149951
20
194.0390053555
30
0.0000000000
10
104.5285964245
20
194.1678526045
30
0.0000000000
10
104.5285964245
20
194.2326243623
30
0.0000000000
11
104.9734707260
21
193.7326243623
31
0.0000000000
11
104.8032247014
21
193.7706845961
31
0.0000000000
11
104.6588970906
21
193.8790709718
31
0.0000000000
11
104.5624604643
21
194.0412826462
31
0.0000000000
11
104.5285964245
21
194.2326243623
31
0.0000000000
0
SPLINE
5
3B9
100
AcDbEntity
8
0
100
AcDbSpline
62
7
6
CONTINUOUS
70
0
71
3
72
14
73
10
74
8
42
0.0000001000
43
0.0000001000
44
0.0000000001
12
-3.6496455548
22
-0.3004977807
32
0.0000000000
13
0.0000000000
23
-3.6619955751
33
0.0000000000
40
0.0000000000
40
0.0000000000
40
0.0000000000
40
0.0000000000
40
0.1607534981
40
0.3075286265
40
0.4388054620
40
0.5625148809
40
0.6892997863
40
0.8299866197
40
1.0000000000
40
1.0000000000
40
1.0000000000
40
1.0000000000
10
62.8628194134
20
206.6774809683
30
0.0000000000
10
62.6672549835
20
206.6613789451
30
0.0000000000
10
62.2940695463
20
206.6148546018
30
0.0000000000
10
61.7720284725
20
206.4880604108
30
0.0000000000
10
61.3178566275
20
206.2951760596
30
0.0000000000
10
60.9386970187
20
206.0139129423
30
0.0000000000
10
60.6580009364
20
205.6168638712
30
0.0000000000
10
60.4998920960
20
205.0995391295
30
0.0000000000
10
60.4758883249
20
204.7186227095
30
0.0000000000
10
60.4758883249
20
204.5110932940
30
0.0000000000
11
62.8628194134
21
206.6774809683
31
0.0000000000
11
62.2791076952
21
206.6011715813
31
0.0000000000
11
61.7581797809
21
206.4687726795
31
0.0000000000
11
61.3185811256
21
206.2741978974
31
0.0000000000
11
60.9585892672
21
205.9991778748
31
0.0000000000
11
60.6893805573
21
205.6209082096
31
0.0000000000
11
60.5285920641
21
205.1314467743
31
0.0000000000
11
60.4758883249
21
204.5110932940
31
0.0000000000
0
SPLINE
5
3BA
100
AcDbEntity
8
0
100
AcDbSpline
62
7
6
CONTINUOUS
70
0
71
3
72
11
73
7
74
5
42
0.0000001000
43
0.0000001000
44
0.0000000001
12
-0.6854809120
22
-0.0000000000
32
0.0000000000
13
0.0000000000
23
-0.6854809120
33
0.0000000000
40
0.0000000000
40
0.0000000000
40
0.0000000000
40
0.0000000000
40
0.2822057132
40
0.5467348483
40
0.7840282695
40
1.0000000000
40
1.0000000000
40
1.0000000000
40
1.0000000000
10
105.3758883249
20
205.6306026657
30
0.0000000000
10
105.3114061150
20
205.6306026657
30
0.0000000000
10
105.1856228716
20
205.6126047388
30
0.0000000000
10
105.0213420687
20
205.5336258761
30
0.0000000000
10
104.9054254763
20
205.4109764666
30
0.0000000000
10
104.8758883249
20
205.3060942727
30
0.0000000000
10
104.8758883249
20
205.2567461064
30
0.0000000000
11
105.3758883249
21
205.6306026657
31
0.0000000000
11
105.1845464071
21
205.6021444672
31
0.0000000000
11
105.0223346954
21
205.5211024361
31
0.0000000000
11
104.9139484508
21
205.3998146230
31
0.0000000000
11
104.8758883249
21
205.2567461064
31
0.0000000000
0
SPLINE
5
3BB
100
AcDbEntity
8
0
100
AcDbSpline
62
7
6
CONTINUOUS
70
0
71
3
72
8
73
4
74
2
42
0.0000001000
43
0.0000001000
44
0.0000000001
12
0.0000000000
22
0.0673950766
32
0.0000000000
13
0.0177482578
23
0.0654717572
33
0.0000000000
40
0.0000000000
40
0.0000000000
40
0.0000000000
40
0.0000000000
40
1.0000000000
40
1.0000000000
40
1.0000000000
40
1.0000000000
10
115.1258883249
20
247.8910597764
30
0.0000000000
10
115.1258883249
20
247.9135248019
30
0.0000000000
10
115.1295769585
20
247.9357125499
30
0.0000000000
10
115.1354930445
20
247.9575364689
30
0.0000000000
11
115.1258883249
21
247.8910597764
31
0.0000000000
11
115.1354930445
21
247.9575364689
31
0.0000000000
0
SPLINE
5
3BC
100
AcDbEntity
8
0
100
AcDbSpline
62
7
6
CONTINUOUS
70
0
71
3
72
12
73
8
74
6
42
0.0000001000
43
0.0000001000
44
0.0000000001
12
0.2474771312
22
0.9129213038
32
0.0000000000
13
0.5425588965
23
0.7672941498
33
0.0000000000
40
0.0000000000
40
0.0000000000
40
0.0000000000
40
0.0000000000
40
0.0816810692
40
0.2809204427
40
0.5084020753
40
0.7518101465
40
1.0000000000
40
1.0000000000
40
1.0000000000
40
1.0000000000
10
115.1354930445
20
247.9575364689
30
0.0000000000
10
115.1422311100
20
247.9823925983
30
0.0000000000
10
115.1753422841
20
248.0662555265
30
0.0000000000
10
115.2509066011
20
248.2051881219
30
0.0000000000
10
115.3645510020
20
248.3823767148
30
0.0000000000
10
115.4920637518
20
248.5678838138
30
0.0000000000
10
115.5810024539
20
248.6936401454
30
0.0000000000
10
115.6258883249
20
248.7571183529
30
0.0000000000
11
115.1354930445
21
247.9575364689
31
0.0000000000
11
115.1622167160
21
248.0305611260
31
0.0000000000
11
115.2486582775
21
248.1966457407
31
0.0000000000
11
115.3627008908
21
248.3774588723
31
0.0000000000
11
115.4916484568
21
248.5663890262
31
0.0000000000
11
115.6258883249
21
248.7571183529
31
0.0000000000
0
SPLINE
5
3BD
100
AcDbEntity
8
0
100
AcDbSpline
62
7
6
CONTINUOUS
70
0
71
3
72
11
73
7
74
5
42
0.0000001000
43
0.0000001000
44
0.0000000001
12
0.0000000000
22
-0.6207678713
32
0.0000000000
13
0.6207678713
23
-0.0000000000
33
0.0000000000
40
0.0000000000
40
0.0000000000
40
0.0000000000
40
0.0000000000
40
0.1965604049
40
0.4254621057
40
0.7062053059
40
1.0000000000
40
1.0000000000
40
1.0000000000
40
1.0000000000
10
60.4758883249
20
271.3297356039
30
0.0000000000
10
60.4758883249
20
271.2890628092
30
0.0000000000
10
60.5110144804
20
271.1999519517
30
0.0000000000
10
60.6355437459
20
271.1148464912
30
0.0000000000
10
60.7957885799
20
271.0661353172
30
0.0000000000
10
60.9150955559
20
271.0556631325
30
0.0000000000
10
60.9758883249
20
271.0556631325
30
0.0000000000
11
60.4758883249
21
271.3297356039
31
0.0000000000
11
60.5168601120
21
271.2148017154
31
0.0000000000
11
60.6287784272
21
271.1272504216
31
0.0000000000
11
60.7943115805
21
271.0727433180
31
0.0000000000
11
60.9758883249
21
271.0556631325
31
0.0000000000
0
SPLINE
5
3BE
100
AcDbEntity
8
0
100
AcDbSpline
62
7
6
CONTINUOUS
70
0
71
3
72
11
73
7
74
5
42
0.0000001000
43
0.0000001000
44
0.0000000001
12
0.0000000000
22
1.2430414384
32
0.0000000000
13
0.7176703091
23
1.0149390844
33
0.0000000000
40
0.0000000000
40
0.0000000000
40
0.0000000000
40
0.0000000000
40
0.2634343728
40
0.5172844696
40
0.7632115714
40
1.0000000000
40
1.0000000000
40
1.0000000000
40
1.0000000000
10
80.6758883249
20
246.7456477030
30
0.0000000000
10
80.6758883249
20
246.8548009836
30
0.0000000000
10
80.7150947310
20
247.0695592983
30
0.0000000000
10
80.8432955952
20
247.3600538052
30
0.0000000000
10
81.0037500672
20
247.6202796786
30
0.0000000000
10
81.1192429833
20
247.7835730815
30
0.0000000000
10
81.1758883249
20
247.8636816918
30
0.0000000000
11
80.6758883249
21
246.7456477030
31
0.0000000000
11
80.7281881756
21
247.0689040618
31
0.0000000000
11
80.8510560280
21
247.3595462621
31
0.0000000000
11
81.0084240032
21
247.6216270317
31
0.0000000000
11
81.1758883249
21
247.8636816918
31
0.0000000000
0
SPLINE
5
3BF
100
AcDbEntity
8
0
100
AcDbSpline
62
7
6
CONTINUOUS
70
0
71
3
72
11
73
7
74
5
42
0.0000001000
43
0.0000001000
44
0.0000000001
12
0.7176703091
22
-1.0149390844
32
0.0000000000
13
0.0000000000
23
-1.2430414384
33
0.0000000000
40
0.0000000000
40
0.0000000000
40
0.0000000000
40
0.0000000000
40
0.2367884286
40
0.4827155304
40
0.7365656272
40
1.0000000000
40
1.0000000000
40
1.0000000000
40
1.0000000000
10
122.2758883249
20
247.8636816918
30
0.0000000000
10
122.3325336664
20
247.7835730815
30
0.0000000000
10
122.4480265825
20
247.6202796786
30
0.0000000000
10
122.6084810546
20
247.3600538052
30
0.0000000000
10
122.7366819188
20
247.0695592983
30
0.0000000000
10
122.7758883249
20
246.8548009836
30
0.0000000000
10
122.7758883249
20
246.7456477030
30
0.0000000000
11
122.2758883249
21
247.8636816918
31
0.0000000000
11
122.4433526465
21
247.6216270317
31
0.0000000000
11
122.6007206218
21
247.3595462621
31
0.0000000000
11
122.7235884742
21
247.0689040618
31
0.0000000000
11
122.7758883249
21
246.7456477030
31
0.0000000000
0
SPLINE
5
3C0
100
AcDbEntity
8
0
100
AcDbSpline
62
7
6
CONTINUOUS
70
0
71
3
72
10
73
6
74
4
42
0.0000001000
43
0.0000001000
44
0.0000000001
12
0.0000000000
22
0.1958704017
32
0.0000000000
13
-0.0774415154
23
0.1799111613
33
0.0000000000
40
0.0000000000
40
0.0000000000
40
0.0000000000
40
0.0000000000
40
0.3498986992
40
0.6817883629
40
1.0000000000
40
1.0000000000
40
1.0000000000
40
1.0000000000
10
142.9758883249
20
243.7984952329
30
0.0000000000
10
142.9758883249
20
243.8213401658
30
0.0000000000
10
142.9731965319
20
243.8659189510
30
0.0000000000
10
142.9606578886
20
243.9301801511
30
0.0000000000
10
142.9467373426
20
243.9704604857
30
0.0000000000
10
142.9385230788
20
243.9895437607
30
0.0000000000
11
142.9758883249
21
243.7984952329
31
0.0000000000
11
142.9715828277
21
243.8668946579
31
0.0000000000
11
142.9589827658
21
243.9306692258
31
0.0000000000
11
142.9385230788
21
243.9895437607
31
0.0000000000
0
SPLINE
5
3C1
100
AcDbEntity
8
0
100
AcDbSpline
62
7
6
CONTINUOUS
70
0
71
3
72
9
73
5
74
3
42
0.0000001000
43
0.0000001000
44
0.0000000001
12
0.0000000000
22
0.0565633388
32
0.0000000000
13
-0.0000000000
23
0.0565633388
33
0.0000000000
40
0.0000000000
40
0.0000000000
40
0.0000000000
40
0.0000000000
40
0.4989656637
40
1.0000000000
40
1.0000000000
40
1.0000000000
40
1.0000000000
10
98.9458883249
20
248.7571183529
30
0.0000000000
10
98.9458883249
20
248.7665260742
30
0.0000000000
10
98.9458883249
20
248.7853805205
30
0.0000000000
10
98.9458883249
20
248.8042349668
30
0.0000000000
10
98.9458883249
20
248.8136816918
30
0.0000000000
11
98.9458883249
21
248.7571183529
31
0.0000000000
11
98.9458883249
21
248.7853415168
31
0.0000000000
11
98.9458883249
21
248.8136816918
31
0.0000000000
0
SPLINE
5
3C2
100
AcDbEntity
8
0
100
AcDbSpline
62
7
6
CONTINUOUS
70
0
71
3
72
11
73
7
74
5
42
0.0000001000
43
0.0000001000
44
0.0000000001
12
-0.5551968153
22
0.0000000000
32
0.0000000000
13
-0.2056772737
23
0.5156940593
33
0.0000000000
40
0.0000000000
40
0.0000000000
40
0.0000000000
40
0.0000000000
40
0.2835916052
40
0.5602628056
40
0.7986684911
40
1.0000000000
40
1.0000000000
40
1.0000000000
40
1.0000000000
10
89.2758883249
20
271.0556631325
30
0.0000000000
10
89.2234052728
20
271.0556631325
30
0.0000000000
10
89.1195138325
20
271.0635775175
30
0.0000000000
10
88.9753940518
20
271.1005075919
30
0.0000000000
10
88.8566352356
20
271.1631727610
30
0.0000000000
10
88.8024229140
20
271.2290732041
30
0.0000000000
10
88.7886198087
20
271.2636816918
30
0.0000000000
11
89.2758883249
21
271.0556631325
31
0.0000000000
11
89.1189459033
21
271.0682850608
31
0.0000000000
11
88.9706707230
21
271.1084045314
31
0.0000000000
11
88.8559809285
21
271.1744800227
31
0.0000000000
11
88.7886198087
21
271.2636816918
31
0.0000000000
0
SPLINE
5
3C3
100
AcDbEntity
8
0
100
AcDbSpline
62
7
6
CONTINUOUS
70
0
71
3
72
10
73
6
74
4
42
0.0000001000
43
0.0000001000
44
0.0000000001
12
-0.0247437340
22
0.0620398959
32
0.0000000000
13
-0.0000000000
23
0.0667922230
33
0.0000000000
40
0.0000000000
40
0.0000000000
40
0.0000000000
40
0.0000000000
40
0.3386821047
40
0.6709022359
40
1.0000000000
40
1.0000000000
40
1.0000000000
40
1.0000000000
10
88.7886198087
20
271.2636816918
30
0.0000000000
10
88.7858263888
20
271.2706856259
30
0.0000000000
10
88.7811180713
20
271.2849093556
30
0.0000000000
10
88.7768347078
20
271.3068139837
30
0.0000000000
10
88.7758883249
20
271.3215558845
30
0.0000000000
10
88.7758883249
20
271.3288829416
30
0.0000000000
11
88.7886198087
21
271.2636816918
31
0.0000000000
11
88.7815402495
21
271.2851666735
31
0.0000000000
11
88.7772973675
21
271.3069469783
31
0.0000000000
11
88.7758883249
21
271.3288829416
31
0.0000000000
0
SPLINE
5
3C4
100
AcDbEntity
8
0
100
AcDbSpline
62
7
6
CONTINUOUS
70
0
71
3
72
9
73
5
74
3
42
0.0000001000
43
0.0000001000
44
0.0000000001
12
0.0000000000
22
-0.0565633388
32
0.0000000000
13
0.0000000000
23
-0.0565633388
33
0.0000000000
40
0.0000000000
40
0.0000000000
40
0.0000000000
40
0.0000000000
40
0.5011806902
40
1.0000000000
40
1.0000000000
40
1.0000000000
40
1.0000000000
10
104.5058883249
20
248.8136816918
30
0.0000000000
10
104.5058883249
20
248.8042322074
30
0.0000000000
10
104.5058883249
20
248.7853777611
30
0.0000000000
10
104.5058883249
20
248.7665233148
30
0.0000000000
10
104.5058883249
20
248.7571183529
30
0.0000000000
11
104.5058883249
21
248.8136816918
31
0.0000000000
11
104.5058883249
21
248.7853332386
31
0.0000000000
11
104.5058883249
21
248.7571183529
31
0.0000000000
0
SPLINE
5
3C5
100
AcDbEntity
8
0
100
AcDbSpline
62
7
6
CONTINUOUS
70
0
71
3
72
10
73
6
74
4
42
0.0000001000
43
0.0000001000
44
0.0000000001
12
-0.3401184724
22
0.7901589866
32
0.0000000000
13
-0.4966661519
23
0.7023920080
33
0.0000000000
40
0.0000000000
40
0.0000000000
40
0.0000000000
40
0.0000000000
40
0.2981186697
40
0.6405029962
40
1.0000000000
40
1.0000000000
40
1.0000000000
40
1.0000000000
10
142.9385230788
20
243.9895437607
30
0.0000000000
10
142.9047245233
20
244.0680641427
30
0.0000000000
10
142.8112792493
20
244.2272100131
30
0.0000000000
10
142.6517589991
20
244.4651926484
30
0.0000000000
10
142.5354049894
20
244.6295124177
30
0.0000000000
10
142.4758883249
20
244.7136816918
30
0.0000000000
11
142.9385230788
21
243.9895437607
31
0.0000000000
11
142.8158465183
21
244.2147560964
31
0.0000000000
11
142.6534442475
21
244.4604738821
31
0.0000000000
11
142.4758883249
21
244.7136816918
31
0.0000000000
0
SPLINE
5
3C6
100
AcDbEntity
8
0
100
AcDbSpline
62
7
6
CONTINUOUS
70
0
71
3
72
11
73
7
74
5
42
0.0000001000
43
0.0000001000
44
0.0000000001
12
0.6207678713
22
0.0000000000
32
0.0000000000
13
-0.0000000000
23
0.6207678713
33
0.0000000000
40
0.0000000000
40
0.0000000000
40
0.0000000000
40
0.0000000000
40
0.2937946941
40
0.5745378943
40
0.8034395951
40
1.0000000000
40
1.0000000000
40
1.0000000000
40
1.0000000000
10
142.4758883249
20
271.0556631325
30
0.0000000000
10
142.5366810938
20
271.0556631325
30
0.0000000000
10
142.6559880698
20
271.0661353172
30
0.0000000000
10
142.8162329038
20
271.1148464912
30
0.0000000000
10
142.9407621693
20
271.1999519517
30
0.0000000000
10
142.9758883249
20
271.2890628092
30
0.0000000000
10
142.9758883249
20
271.3297356039
30
0.0000000000
11
142.4758883249
21
271.0556631325
31
0.0000000000
11
142.6574650692
21
271.0727433180
31
0.0000000000
11
142.8229982226
21
271.1272504216
31
0.0000000000
11
142.9349165378
21
271.2148017154
31
0.0000000000
11
142.9758883249
21
271.3297356039
31
0.0000000000
0
SPLINE
5
3C7
100
AcDbEntity
8
0
100
AcDbSpline
62
7
6
CONTINUOUS
70
0
71
3
72
10
73
6
74
4
42
0.0000001000
43
0.0000001000
44
0.0000000001
12
-0.4966661519
22
-0.7023920080
32
0.0000000000
13
-0.3401184724
23
-0.7901589866
33
0.0000000000
40
0.0000000000
40
0.0000000000
40
0.0000000000
40
0.0000000000
40
0.3594970038
40
0.7018813303
40
1.0000000000
40
1.0000000000
40
1.0000000000
40
1.0000000000
10
60.9758883249
20
244.7136816918
30
0.0000000000
10
60.9163716604
20
244.6295124177
30
0.0000000000
10
60.8000176507
20
244.4651926484
30
0.0000000000
10
60.6404974004
20
244.2272100131
30
0.0000000000
10
60.5470521264
20
244.0680641427
30
0.0000000000
10
60.5132535709
20
243.9895437607
30
0.0000000000
11
60.9758883249
21
244.7136816918
31
0.0000000000
11
60.7983324023
21
244.4604738821
31
0.0000000000
11
60.6359301314
21
244.2147560964
31
0.0000000000
11
60.5132535709
21
243.9895437607
31
0.0000000000
0
SPLINE
5
3C8
100
AcDbEntity
8
0
100
AcDbSpline
62
7
6
CONTINUOUS
70
0
71
3
72
10
73
6
74
4
42
0.0000001000
43
0.0000001000
44
0.0000000001
12
-0.0774415154
22
-0.1799111613
32
0.0000000000
13
0.0000000000
23
-0.1958704017
33
0.0000000000
40
0.0000000000
40
0.0000000000
40
0.0000000000
40
0.0000000000
40
0.3182116371
40
0.6501013008
40
1.0000000000
40
1.0000000000
40
1.0000000000
40
1.0000000000
10
60.5132535709
20
243.9895437607
30
0.0000000000
10
60.5050393071
20
243.9704604857
30
0.0000000000
10
60.4911187611
20
243.9301801511
30
0.0000000000
10
60.4785801179
20
243.8659189510
30
0.0000000000
10
60.4758883249
20
243.8213401658
30
0.0000000000
10
60.4758883249
20
243.7984952329
30
0.0000000000
11
60.5132535709
21
243.9895437607
31
0.0000000000
11
60.4927938840
21
243.9306692258
31
0.0000000000
11
60.4801938220
21
243.8668946579
31
0.0000000000
11
60.4758883249
21
243.7984952329
31
0.0000000000
0
SPLINE
5
3C9
100
AcDbEntity
8
0
100
AcDbSpline
62
7
6
CONTINUOUS
70
0
71
3
72
11
73
7
74
5
42
0.0000001000
43
0.0000001000
44
0.0000000001
12
-0.2056772737
22
-0.5156940593
32
0.0000000000
13
-0.5551968153
23
-0.0000000000
33
0.0000000000
40
0.0000000000
40
0.0000000000
40
0.0000000000
40
0.0000000000
40
0.2013315089
40
0.4397371944
40
0.7164083948
40
1.0000000000
40
1.0000000000
40
1.0000000000
40
1.0000000000
10
114.6631568410
20
271.2636816918
30
0.0000000000
10
114.6493537357
20
271.2290732041
30
0.0000000000
10
114.5951414142
20
271.1631727610
30
0.0000000000
10
114.4763825979
20
271.1005075919
30
0.0000000000
10
114.3322628173
20
271.0635775175
30
0.0000000000
10
114.2283713769
20
271.0556631325
30
0.0000000000
10
114.1758883249
20
271.0556631325
30
0.0000000000
11
114.6631568410
21
271.2636816918
31
0.0000000000
11
114.5957957213
21
271.1744800227
31
0.0000000000
11
114.4811059268
21
271.1084045314
31
0.0000000000
11
114.3328307464
21
271.0682850608
31
0.0000000000
11
114.1758883249
21
271.0556631325
31
0.0000000000
0
SPLINE
5
3CA
100
AcDbEntity
8
0
100
AcDbSpline
62
7
6
CONTINUOUS
70
0
71
3
72
10
73
6
74
4
42
0.0000001000
43
0.0000001000
44
0.0000000001
12
0.0000000000
22
-0.0667922230
32
0.0000000000
13
-0.0247437340
23
-0.0620398959
33
0.0000000000
40
0.0000000000
40
0.0000000000
40
0.0000000000
40
0.0000000000
40
0.3290977641
40
0.6613178953
40
1.0000000000
40
1.0000000000
40
1.0000000000
40
1.0000000000
10
114.6758883249
20
271.3288829416
30
0.0000000000
10
114.6758883249
20
271.3215558845
30
0.0000000000
10
114.6749419420
20
271.3068139837
30
0.0000000000
10
114.6706585785
20
271.2849093556
30
0.0000000000
10
114.6659502610
20
271.2706856259
30
0.0000000000
10
114.6631568410
20
271.2636816918
30
0.0000000000
11
114.6758883249
21
271.3288829416
31
0.0000000000
11
114.6744792822
21
271.3069469783
31
0.0000000000
11
114.6702364003
21
271.2851666735
31
0.0000000000
11
114.6631568410
21
271.2636816918
31
0.0000000000
0
SPLINE
5
3CB
100
AcDbEntity
8
0
100
AcDbSpline
62
7
6
CONTINUOUS
70
0
71
3
72
12
73
8
74
6
42
0.0000001000
43
0.0000001000
44
0.0000000001
12
0.5814694621
22
-0.8223219995
32
0.0000000000
13
0.0000000000
23
-1.0071346515
33
0.0000000000
40
0.0000000000
40
0.0000000000
40
0.0000000000
40
0.0000000000
40
0.2315815736
40
0.4587013505
40
0.6709604485
40
0.8568671929
40
1.0000000000
40
1.0000000000
40
1.0000000000
40
1.0000000000
10
87.8258883249
20
248.7571183529
30
0.0000000000
10
87.8707741959
20
248.6936401454
30
0.0000000000
10
87.9597128979
20
248.5678838138
30
0.0000000000
10
88.0872256478
20
248.3823767148
30
0.0000000000
10
88.2008700486
20
248.2051881219
30
0.0000000000
10
88.2870937004
20
248.0466572676
30
0.0000000000
10
88.3258883249
20
247.9391111130
30
0.0000000000
10
88.3258883249
20
247.8910597764
30
0.0000000000
11
87.8258883249
21
248.7571183529
31
0.0000000000
11
87.9601281929
21
248.5663890262
31
0.0000000000
11
88.0890757590
21
248.3774588723
31
0.0000000000
11
88.2031183722
21
248.1966457407
31
0.0000000000
11
88.2895599338
21
248.0305611260
31
0.0000000000
11
88.3258883249
21
247.8910597764
31
0.0000000000
0
SPLINE
5
3CC
100
AcDbEntity
8
0
100
AcDbSpline
62
7
6
CONTINUOUS
70
0
71
3
72
11
73
7
74
5
42
0.0000001000
43
0.0000001000
44
0.0000000001
12
0.0000000000
22
1.7400612840
32
0.0000000000
13
-0.6576813462
23
1.6109837116
33
0.0000000000
40
0.0000000000
40
0.0000000000
40
0.0000000000
40
0.0000000000
40
0.2313381848
40
0.4791256329
40
0.7375807061
40
1.0000000000
40
1.0000000000
40
1.0000000000
40
1.0000000000
10
183.4874466974
20
127.9549449193
30
0.0000000000
10
183.4874466974
20
128.0891257922
30
0.0000000000
10
183.4416730865
20
128.3662200487
30
0.0000000000
10
183.3167153267
20
128.7752780823
30
0.0000000000
10
183.1591784421
20
129.1926795431
30
0.0000000000
10
183.0449761222
20
129.4723395784
30
0.0000000000
10
182.9874466974
20
129.6132573144
30
0.0000000000
11
183.4874466974
21
127.9549449193
31
0.0000000000
11
183.4349923340
21
128.3540553047
31
0.0000000000
11
183.3142129402
21
128.7679585457
31
0.0000000000
11
183.1581568072
21
129.1897422075
31
0.0000000000
11
182.9874466974
21
129.6132573144
31
0.0000000000
0
SPLINE
5
3CD
100
AcDbEntity
8
0
100
AcDbSpline
62
7
6
CONTINUOUS
70
0
71
3
72
11
73
7
74
5
42
0.0000001000
43
0.0000001000
44
0.0000000001
12
-0.5000000000
22
0.1899687939
32
0.0000000000
13
-0.5000000000
23
0.1899687939
33
0.0000000000
40
0.0000000000
40
0.0000000000
40
0.0000000000
40
0.0000000000
40
0.0816781463
40
0.3061695422
40
0.6297517781
40
1.0000000000
40
1.0000000000
40
1.0000000000
40
1.0000000000
10
183.4874466974
20
120.5715974960
30
0.0000000000
10
183.4738336730
20
120.5767695957
30
0.0000000000
10
183.4228054159
20
120.5961571486
30
0.0000000000
10
183.3178467863
20
120.6360348772
30
0.0000000000
10
183.1647931440
20
120.6941857088
30
0.0000000000
10
183.0491547344
20
120.7381210872
30
0.0000000000
10
182.9874466974
20
120.7615662899
30
0.0000000000
11
183.4874466974
21
120.5715974960
31
0.0000000000
11
183.4466076242
21
120.5871137950
31
0.0000000000
11
183.3343619263
21
120.6297601547
31
0.0000000000
11
183.1725708083
21
120.6912306818
31
0.0000000000
11
182.9874466974
21
120.7615662899
31
0.0000000000
0
ENDSEC
0
SECTION
2
OBJECTS
0
DICTIONARY
5
C
100
AcDbDictionary
280
0
281
1
3
ACAD_GROUP
350
D
3
ACAD_MLINESTYLE
350
17
3
ACAD_LAYOUT
350
1A
3
ACAD_PLOTSETTINGS
350
19
3
ACAD_PLOTSTYLENAME
350
E
0
DICTIONARY
5
D
102
{ACAD_REACTORS
330
C
102
}
100
AcDbDictionary
280
0
281
1
0
ACDBDICTIONARYWDFLT
5
E
102
{ACAD_REACTORS
330
C
102
}
100
AcDbDictionary
281
1
3
Normal
350
F
100
AcDbDictionaryWithDefault
340
F
0
DICTIONARY
5
17
102
{ACAD_REACTORS
330
C
102
}
100
AcDbDictionary
280
0
281
1
3
Standard
350
18
0
DICTIONARY
5
19
102
{ACAD_REACTORS
330
C
102
}
100
AcDbDictionary
281
1
0
DICTIONARY
5
1A
102
{ACAD_REACTORS
330
C
102
}
100
AcDbDictionary
281
1
3
Layout1
350
1E
3
Model
350
22
0
ACDBPLACEHOLDER
5
F
102
{ACAD_REACTORS
330
E
102
}
0
MLINESTYLE
5
18
102
{ACAD_REACTORS
330
17
102
}
100
AcDbMlineStyle
2
STANDARD
70
0
3

62
256
51
90.0
52
90.0
71
2
49
0.5
62
256
6
BYLAYER
49
-0.5
62
256
6
BYLAYER
0
LAYOUT
5
1E
102
{ACAD_REACTORS
330
1A
102
}
100
AcDbPlotSettings
1

2

4

6

40
0.0
41
0.0
42
0.0
43
0.0
44
0.0
45
0.0
46
0.0
47
0.0
48
0.0
49
0.0
140
0.0
141
0.0
142
1.0
143
1.0
70
0
72
0
73
0
74
0
7

75
0
147
1.0
148
0.0
149
0.0
100
AcDbLayout
1
Layout1
70
0
71
0
10
0.0
20
0.0
11
0.0
21
0.0
12
0.0
22
0.0
32
0.0
14
0.0
24
0.0
34
0.0
15
0.0
25
0.0
35
0.0
146
0.0
13
0.0
23
0.0
33
0.0
16
0.0
26
0.0
36
0.0
17
0.0
27
0.0
37
0.0
76
0
330
1B
331
0
345
0
346
0
0
LAYOUT
5
22
102
{ACAD_REACTORS
330
1A
102
}
100
AcDbPlotSettings
1

2

4

6

40
0.0
41
0.0
42
0.0
43
0.0
44
0.0
45
0.0
46
0.0
47
0.0
48
0.0
49
0.0
140
0.0
141
0.0
142
1.0
143
1.0
70
0
72
0
73
0
74
0
7

75
0
147
1.0
148
0.0
149
0.0
100
AcDbLayout
1
Model
70
0
71
0
10
0.0
20
0.0
11
0.0
21
0.0
12
0.0
22
0.0
32
0.0
14
0.0
24
0.0
34
0.0
15
0.0
25
0.0
35
0.0
146
0.0
13
0.0
23
0.0
33
0.0
16
0.0
26
0.0
36
0.0
17
0.0
27
0.0
37
0.0
76
0
330
1F
331
0
345
0
346
0
0
ENDSEC
0
EOF
