0
SECTION
2
HEADER
9
$EXTMAX
10
210.0000000000
20
297.0000000000
30
0.0000000000
9
$EXTMIN
10
0.0000000000
20
0.0000000000
30
0.0000000000
9
$LIMMIN
10
0.0000000000
20
0.0000000000
9
$LIMMAX
10
210.0000000000
20
297.0000000000
9
$VIEWCTR
10
105.0000000000
20
148.5000000000
9
$VIEWSIZE
40
297.0000000000
9
$CLAYER
8
0
9
$LTSCALE
40
19.3600000000
9
$CELTYPE
6
BYLAYER
9
$DIMSCALE
40
1
9
$DIMASZ
40
3.5000000000
9
$DIMEXO
40
2.2000000000
9
$DIMDLI
40
13.3760000000
9
$DIMEXE
40
6.3360000000
9
$DIMCEN
40
3.1680000000
9
$DIMLFAC
40
1.0000000000
9
$DIMBLK
1
_FILLED
9
$DIMTXT
40
3.5000000000
9
$PDMODE
70
3
9
$PDSIZE
40
0.3125000000
0
ENDSEC
0
SECTION
2
TABLES
0
TABLE
2
LTYPE
70
6
0
LTYPE
2
BYBLOCK
70
0
3

72
65
73
0
40
0.0
0
LTYPE
2
BYLAYER
70
0
3

72
65
73
0
40
0.0
0
LTYPE
2
CONTINUOUS
70
64
3
Solid line
72
65
73
0
40
0
0
LTYPE
2
CENTER
70
64
3
____ _ ____ _ ____ _ ____ _ ____ _ ____ _ ____
72
65
73
4
40
0.6
49
0.375
49
-0.075
49
0.075
49
-0.075
0
LTYPE
2
HIDDEN
70
64
3
- - - - - - - - - - - - - - - - - - - -
72
65
73
2
40
0.2
49
0.1
49
-0.1
0
LTYPE
2
PHANTOM
70
64
3
_____ _ _ _____ _ _ _____ _ _ _____
72
65
73
6
40
0.8
49
0.45
49
-0.05
49
0.1
49
-0.05
49
0.1
49
-0.05
0
LTYPE
2
DOT
70
64
3
. . . . . . . . . . . . . . . . . . . .
72
65
73
2
40
0.2
49
0.1
49
-0.1
0
LTYPE
2
DASHED
70
64
3
- - - - - - - - - - - - - - - - - - - -
72
65
73
2
40
0.2
49
0.1
49
-0.1
0
ENDTAB
0
TABLE
2
LAYER
70
36
0
LAYER
2
0
70
0
62
7
6
CONTINUOUS
0
LAYER
2
DEFAULT_1
70
0
62
7
6
CENTER
0
LAYER
2
DEFAULT_2
70
0
62
8
6
HIDDEN
0
LAYER
2
DEFAULT_3
70
0
62
7
6
PHANTOM
0
LAYER
2
ASSI
70
0
62
7
6
CONTINUOUS
0
LAYER
2
CURVE
70
0
62
7
6
CONTINUOUS
0
LAYER
2
PIANI
70
0
62
7
6
CONTINUOUS
0
LAYER
2
SURF_FILETTI
70
0
62
7
6
CONTINUOUS
0
ENDTAB
0
TABLE
2
STYLE
70
1
0
STYLE
2
STANDARD
70
0
40
0.0
41
0.7143000000
50
0.0
71
0
42
0.2
3
txt
4

0
ENDTAB
0
ENDSEC
0
SECTION
2
BLOCKS
0
BLOCK
8
0
62
2
6
CONTINUOUS
2
*D0
70
65
10
0.0000000000
20
0.0000000000
0
TEXT
8
0
62
2
6
CONTINUOUS
10
85.2363340020
20
192.9138669759
7
STANDARD
40
3.5000000000
1
82.55
50
90.0000000000
41
0.7143000000
72
0
0
LINE
8
0
62
2
6
CONTINUOUS
10
72.8327721829
20
241.8512286861
11
87.6113340020
21
241.8512286861
0
LINE
8
0
62
2
6
CONTINUOUS
10
72.8327721829
20
159.3012286861
11
87.6113340020
21
159.3012286861
0
LINE
8
0
62
2
6
CONTINUOUS
10
86.1113340020
20
241.8512286861
11
86.1113340020
21
200.5762286861
0
LINE
8
0
62
2
6
CONTINUOUS
10
86.1113340020
20
159.3012286861
11
86.1113340020
21
200.5762286861
0
INSERT
8
0
62
2
6
CONTINUOUS
2
_FILLED
10
86.1113340020
20
241.8512286861
41
  3.500000
42
  3.500000
43
  3.500000
50
 90.000000
0
INSERT
8
0
62
2
6
CONTINUOUS
2
_FILLED
10
86.1113340020
20
159.3012286861
41
  3.500000
42
  3.500000
43
  3.500000
50
270.000000
0
ENDBLK
8
0
6
BYBLOCK
62
0
0
BLOCK
8
0
62
2
6
CONTINUOUS
2
*D1
70
65
10
0.0000000000
20
0.0000000000
0
TEXT
8
0
62
2
6
CONTINUOUS
10
78.7529359852
20
94.7504169878
7
STANDARD
40
3.5000000000
1
31
50
90.0000000000
41
0.7143000000
72
0
0
LINE
8
0
62
2
6
CONTINUOUS
10
60.4532550458
20
82.2395960273
11
81.1279359852
21
82.2395960273
0
LINE
8
0
62
2
6
CONTINUOUS
10
52.7893170436
20
113.3427941258
11
81.1279359852
21
113.3427941258
0
LINE
8
0
62
2
6
CONTINUOUS
10
79.6279359852
20
82.2395960273
11
79.6279359852
21
97.7911950766
0
LINE
8
0
62
2
6
CONTINUOUS
10
79.6279359852
20
113.3427941258
11
79.6279359852
21
97.7911950766
0
INSERT
8
0
62
2
6
CONTINUOUS
2
_FILLED
10
79.6279359852
20
82.2395960273
41
  3.500000
42
  3.500000
43
  3.500000
50
270.000000
0
INSERT
8
0
62
2
6
CONTINUOUS
2
_FILLED
10
79.6279359852
20
113.3427941258
41
  3.500000
42
  3.500000
43
  3.500000
50
 90.000000
0
ENDBLK
8
0
6
BYBLOCK
62
0
0
BLOCK
8
0
62
2
6
CONTINUOUS
2
*D2
70
65
10
0.0000000000
20
0.0000000000
0
TEXT
8
0
62
2
6
CONTINUOUS
10
95.2636986100
20
98.5364385692
7
STANDARD
40
3.5000000000
1
45.5
50
90.0000000000
41
0.7143000000
72
0
0
LINE
8
0
62
2
6
CONTINUOUS
10
60.4532550458
20
82.2395960273
11
97.6386986100
21
82.2395960273
0
LINE
8
0
62
2
6
CONTINUOUS
10
71.6893442888
20
127.7494120273
11
97.6386986100
21
127.7494120273
0
LINE
8
0
62
2
6
CONTINUOUS
10
96.1386986100
20
82.2395960273
11
96.1386986100
21
104.9945040273
0
LINE
8
0
62
2
6
CONTINUOUS
10
96.1386986100
20
127.7494120273
11
96.1386986100
21
104.9945040273
0
INSERT
8
0
62
2
6
CONTINUOUS
2
_FILLED
10
96.1386986100
20
82.2395960273
41
  3.500000
42
  3.500000
43
  3.500000
50
270.000000
0
INSERT
8
0
62
2
6
CONTINUOUS
2
_FILLED
10
96.1386986100
20
127.7494120273
41
  3.500000
42
  3.500000
43
  3.500000
50
 90.000000
0
ENDBLK
8
0
6
BYBLOCK
62
0
0
BLOCK
8
0
62
2
6
CONTINUOUS
2
*D3
70
65
10
0.0000000000
20
0.0000000000
0
TEXT
8
0
62
2
6
CONTINUOUS
10
181.6214894684
20
193.1047144433
7
STANDARD
40
3.5000000000
1
31.8
50
90.0000000000
41
0.7143000000
72
0
0
LINE
8
0
62
2
6
CONTINUOUS
10
165.8333758062
20
216.4512286861
11
183.9964894684
21
216.4512286861
0
LINE
8
0
62
2
6
CONTINUOUS
10
165.8333758062
20
184.7012286861
11
183.9964894684
21
184.7012286861
0
LINE
8
0
62
2
6
CONTINUOUS
10
182.4964894684
20
216.4512286861
11
182.4964894684
21
200.5762286861
0
LINE
8
0
62
2
6
CONTINUOUS
10
182.4964894684
20
184.7012286861
11
182.4964894684
21
200.5762286861
0
INSERT
8
0
62
2
6
CONTINUOUS
2
_FILLED
10
182.4964894684
20
216.4512286861
41
  3.500000
42
  3.500000
43
  3.500000
50
 90.000000
0
INSERT
8
0
62
2
6
CONTINUOUS
2
_FILLED
10
182.4964894684
20
184.7012286861
41
  3.500000
42
  3.500000
43
  3.500000
50
270.000000
0
ENDBLK
8
0
6
BYBLOCK
62
0
0
BLOCK
8
0
62
2
6
CONTINUOUS
2
*D4
70
65
10
0.0000000000
20
0.0000000000
0
TEXT
8
0
62
2
6
CONTINUOUS
10
192.6227801267
20
193.2606394046
7
STANDARD
40
3.5000000000
1
56.8
50
90.0000000000
41
0.7143000000
72
0
0
LINE
8
0
62
2
6
CONTINUOUS
10
169.8333758062
20
228.9762286861
11
194.9977801267
21
228.9762286861
0
LINE
8
0
62
2
6
CONTINUOUS
10
169.8333758062
20
172.1762286861
11
194.9977801267
21
172.1762286861
0
LINE
8
0
62
2
6
CONTINUOUS
10
193.4977801267
20
228.9762286861
11
193.4977801267
21
200.5762286861
0
LINE
8
0
62
2
6
CONTINUOUS
10
193.4977801267
20
172.1762286861
11
193.4977801267
21
200.5762286861
0
INSERT
8
0
62
2
6
CONTINUOUS
2
_FILLED
10
193.4977801267
20
228.9762286861
41
  3.500000
42
  3.500000
43
  3.500000
50
 90.000000
0
INSERT
8
0
62
2
6
CONTINUOUS
2
_FILLED
10
193.4977801267
20
172.1762286861
41
  3.500000
42
  3.500000
43
  3.500000
50
270.000000
0
ENDBLK
8
0
6
BYBLOCK
62
0
0
BLOCK
8
0
62
2
6
CONTINUOUS
2
*D5
70
65
10
0.0000000000
20
0.0000000000
0
TEXT
8
0
62
2
6
CONTINUOUS
10
148.7797358484
20
152.1917745556
7
STANDARD
40
3.5000000000
1
20.8
41
0.7143000000
72
0
0
LINE
8
0
62
2
6
CONTINUOUS
10
144.5333758062
20
161.7314296927
11
144.5333758062
21
149.8167745556
0
LINE
8
0
62
2
6
CONTINUOUS
10
165.3333758062
20
171.6762286861
11
165.3333758062
21
149.8167745556
0
LINE
8
0
62
2
6
CONTINUOUS
10
144.5333758062
20
151.3167745556
11
154.9333758062
21
151.3167745556
0
LINE
8
0
62
2
6
CONTINUOUS
10
165.3333758062
20
151.3167745556
11
154.9333758062
21
151.3167745556
0
INSERT
8
0
62
2
6
CONTINUOUS
2
_FILLED
10
144.5333758062
20
151.3167745556
41
  3.500000
42
  3.500000
43
  3.500000
50
180.000000
0
INSERT
8
0
62
2
6
CONTINUOUS
2
_FILLED
10
165.3333758062
20
151.3167745556
41
  3.500000
42
  3.500000
43
  3.500000
0
ENDBLK
8
0
6
BYBLOCK
62
0
0
BLOCK
8
0
62
2
6
CONTINUOUS
2
*D6
70
65
10
0.0000000000
20
0.0000000000
0
TEXT
8
0
62
2
6
CONTINUOUS
10
150.8205710849
20
141.0234959168
7
STANDARD
40
3.5000000000
1
24.8
41
0.7143000000
72
0
0
LINE
8
0
62
2
6
CONTINUOUS
10
144.5333758062
20
161.7314296927
11
144.5333758062
21
138.6484959168
0
LINE
8
0
62
2
6
CONTINUOUS
10
169.3333758062
20
171.6762286861
11
169.3333758062
21
138.6484959168
0
LINE
8
0
62
2
6
CONTINUOUS
10
144.5333758062
20
140.1484959168
11
156.9333758062
21
140.1484959168
0
LINE
8
0
62
2
6
CONTINUOUS
10
169.3333758062
20
140.1484959168
11
156.9333758062
21
140.1484959168
0
INSERT
8
0
62
2
6
CONTINUOUS
2
_FILLED
10
144.5333758062
20
140.1484959168
41
  3.500000
42
  3.500000
43
  3.500000
50
180.000000
0
INSERT
8
0
62
2
6
CONTINUOUS
2
_FILLED
10
169.3333758062
20
140.1484959168
41
  3.500000
42
  3.500000
43
  3.500000
0
ENDBLK
8
0
6
BYBLOCK
62
0
0
BLOCK
8
0
62
2
6
CONTINUOUS
2
*D7
70
65
10
0.0000000000
20
0.0000000000
0
TEXT
8
0
62
2
6
CONTINUOUS
10
123.6889895359
20
141.0234959168
7
STANDARD
40
3.5000000000
1
35
41
0.7143000000
72
0
0
LINE
8
0
62
2
6
CONTINUOUS
10
109.5098658062
20
158.8012286861
11
109.5098658062
21
138.6484959168
0
LINE
8
0
62
2
6
CONTINUOUS
10
144.5333758062
20
161.7314296927
11
144.5333758062
21
138.6484959168
0
LINE
8
0
62
2
6
CONTINUOUS
10
109.5098658062
20
140.1484959168
11
127.0216208062
21
140.1484959168
0
LINE
8
0
62
2
6
CONTINUOUS
10
144.5333758062
20
140.1484959168
11
127.0216208062
21
140.1484959168
0
INSERT
8
0
62
2
6
CONTINUOUS
2
_FILLED
10
109.5098658062
20
140.1484959168
41
  3.500000
42
  3.500000
43
  3.500000
50
180.000000
0
INSERT
8
0
62
2
6
CONTINUOUS
2
_FILLED
10
144.5333758062
20
140.1484959168
41
  3.500000
42
  3.500000
43
  3.500000
0
ENDBLK
8
0
6
BYBLOCK
62
0
0
BLOCK
8
0
62
2
6
CONTINUOUS
2
*D8
70
65
10
0.0000000000
20
0.0000000000
0
TEXT
8
0
62
2
6
CONTINUOUS
10
41.9503010532
20
59.5214393180
7
STANDARD
40
3.5000000000
1
18
41
0.7143000000
72
0
0
LINE
8
0
62
2
6
CONTINUOUS
10
36.3993588958
20
76.0895960273
11
36.3993588958
21
57.1464393180
0
LINE
8
0
62
2
6
CONTINUOUS
10
54.3944371458
20
76.1807781273
11
54.3944371458
21
57.1464393180
0
LINE
8
0
62
2
6
CONTINUOUS
10
36.3993588958
20
58.6464393180
11
45.3968980208
21
58.6464393180
0
LINE
8
0
62
2
6
CONTINUOUS
10
54.3944371458
20
58.6464393180
11
45.3968980208
21
58.6464393180
0
INSERT
8
0
62
2
6
CONTINUOUS
2
_FILLED
10
36.3993588958
20
58.6464393180
41
  3.500000
42
  3.500000
43
  3.500000
50
180.000000
0
INSERT
8
0
62
2
6
CONTINUOUS
2
_FILLED
10
54.3944371458
20
58.6464393180
41
  3.500000
42
  3.500000
43
  3.500000
0
ENDBLK
8
0
6
BYBLOCK
62
0
0
BLOCK
8
0
2
_FILLED
70
64
10
0.0000000000
20
0.0000000000
0
SOLID
8
0
6
BYBLOCK
62
0
10
0.0000000000
20
0.0000000000
11
-1.0000000000
21
0.1857142857
12
-1.0000000000
22
-0.1857142857
13
-1.0000000000
23
-0.1857142857
0
ENDBLK
8
0
6
BYBLOCK
62
0
0
ENDSEC
0
SECTION
2
ENTITIES
0
DIMENSION
8
0
62
2
6
CONTINUOUS
2
*D0
10
86.1113340020
20
159.3012286861
11
83.4863340020
21
199.1639919759
70
128
13
72.8327721829
23
241.8512286861
14
72.8327721829
24
159.3012286861
50
270.000000
0
DIMENSION
8
0
62
2
6
CONTINUOUS
2
*D1
10
79.6279359852
20
113.3427941258
11
77.0029359852
21
97.2504669878
70
128
13
60.4532550458
23
82.2395960273
14
52.7893170436
24
113.3427941258
50
90.000000
0
DIMENSION
8
0
62
2
6
CONTINUOUS
2
*D2
10
96.1386986100
20
127.7494120273
11
93.5136986100
21
103.5365385692
70
128
13
60.4532550458
23
82.2395960273
14
71.6893442888
24
127.7494120273
50
90.000000
0
DIMENSION
8
0
62
2
6
CONTINUOUS
2
*D3
10
182.4964894684
20
184.7012286861
11
179.8714894684
21
198.1048144433
70
128
13
165.8333758062
23
216.4512286861
14
165.8333758062
24
184.7012286861
50
270.000000
0
DIMENSION
8
0
62
2
6
CONTINUOUS
2
*D4
10
193.4977801267
20
172.1762286861
11
190.8727801267
21
198.2607394046
70
128
13
169.8333758062
23
228.9762286861
14
169.8333758062
24
172.1762286861
50
270.000000
0
DIMENSION
8
0
62
2
6
CONTINUOUS
2
*D5
10
165.3333758062
20
151.3167745556
11
153.7798358484
21
153.9417745556
70
128
13
144.5333758062
23
161.7314296927
14
165.3333758062
24
171.6762286861
0
DIMENSION
8
0
62
2
6
CONTINUOUS
2
*D6
10
169.3333758062
20
140.1484959168
11
155.8206710849
21
142.7734959168
70
128
13
144.5333758062
23
161.7314296927
14
169.3333758062
24
171.6762286861
0
DIMENSION
8
0
62
2
6
CONTINUOUS
2
*D7
10
144.5333758062
20
140.1484959168
11
126.1890395359
21
142.7734959168
70
128
13
109.5098658062
23
158.8012286861
14
144.5333758062
24
161.7314296927
0
DIMENSION
8
0
62
2
6
CONTINUOUS
2
*D8
10
54.3944371458
20
58.6464393180
11
44.4503510532
21
61.2714393180
70
128
13
36.3993588958
23
76.0895960273
14
54.3944371458
24
76.1807781273
0
LINE
8
0
62
7
6
CONTINUOUS
10
0.0000000000
20
0.0000000000
11
210.0000000000
21
0.0000000000
0
LINE
8
0
62
7
6
CONTINUOUS
10
0.0000000000
20
0.0000000000
11
0.0000000000
21
297.0000000000
0
LINE
8
0
62
7
6
CONTINUOUS
10
210.0000000000
20
0.0000000000
11
210.0000000000
21
297.0000000000
0
LINE
8
0
62
7
6
CONTINUOUS
10
0.0000000000
20
297.0000000000
11
210.0000000000
21
297.0000000000
0
LINE
8
0
62
7
6
CONTINUOUS
10
39.3993588958
20
159.2762286861
11
51.3993588958
21
159.2762286861
0
LINE
8
0
62
7
6
CONTINUOUS
10
29.7493588958
20
159.3012286861
11
72.5493513328
21
159.3012286861
0
LINE
8
0
62
7
6
CONTINUOUS
10
29.5917745739
20
162.2314296927
11
28.5923837467
21
162.1965302031
0
LINE
8
0
62
7
6
CONTINUOUS
10
31.5905562280
20
160.3012286861
11
59.2081615635
21
160.3012286861
0
LINE
8
0
62
7
6
CONTINUOUS
10
61.2069432176
20
162.2314296927
11
62.2063340446
21
162.1965301960
0
LINE
8
0
62
7
6
CONTINUOUS
10
30.8507850938
20
172.1762286861
11
59.9479326977
21
172.1762286861
0
LINE
8
0
62
7
6
CONTINUOUS
10
27.8065023585
20
184.7012286861
11
28.5923837469
21
162.1965301960
0
LINE
8
0
62
7
6
CONTINUOUS
10
28.8071119028
20
184.7012286861
11
29.5917745739
21
162.2314296927
0
LINE
8
0
62
7
6
CONTINUOUS
10
27.6493588958
20
184.7012286861
11
27.6493588958
21
216.4512286861
0
POLYLINE
8
0
62
7
6
CONTINUOUS
66
1
70
0
0
VERTEX
8
0
62
7
6
CONTINUOUS
10
27.6493588958
20
210.4934212894
0
VERTEX
8
0
62
7
6
CONTINUOUS
10
27.6504692480
20
210.6383260876
0
VERTEX
8
0
62
7
6
CONTINUOUS
10
27.6537115103
20
210.7804313433
0
VERTEX
8
0
62
7
6
CONTINUOUS
10
27.6591193075
20
210.9204147166
0
VERTEX
8
0
62
7
6
CONTINUOUS
10
27.6665917647
20
211.0562432272
0
VERTEX
8
0
62
7
6
CONTINUOUS
10
27.6760815621
20
211.1864898323
0
VERTEX
8
0
62
7
6
CONTINUOUS
10
27.6874616580
20
211.3100143785
0
VERTEX
8
0
62
7
6
CONTINUOUS
10
27.7006422128
20
211.4255178322
0
VERTEX
8
0
62
7
6
CONTINUOUS
10
27.7154643002
20
211.5320497918
0
VERTEX
8
0
62
7
6
CONTINUOUS
10
27.7317971102
20
211.6284569875
0
VERTEX
8
0
62
7
6
CONTINUOUS
10
27.7494664543
20
211.7140489904
0
VERTEX
8
0
62
7
6
CONTINUOUS
10
27.7683183111
20
211.7879135701
0
VERTEX
8
0
62
7
6
CONTINUOUS
10
27.7881613688
20
211.8495628603
0
VERTEX
8
0
62
7
6
CONTINUOUS
10
27.8088184791
20
211.8982890092
0
VERTEX
8
0
62
7
6
CONTINUOUS
10
27.8300931302
20
211.9338397432
0
VERTEX
8
0
62
7
6
CONTINUOUS
10
27.8516978157
20
211.9556658101
0
VERTEX
8
0
62
7
6
CONTINUOUS
10
27.8737283709
20
211.9639502941
0
SEQEND
0
LINE
8
0
62
7
6
CONTINUOUS
10
27.8065023585
20
216.4512286861
11
28.5923837469
21
238.9559271762
0
LINE
8
0
62
7
6
CONTINUOUS
10
29.7493588958
20
241.8512286861
11
29.7493588958
21
241.2150513579
0
LINE
8
0
62
7
6
CONTINUOUS
10
29.7493588958
20
159.9370758105
11
29.7493588958
21
159.3012286861
0
LINE
8
0
62
7
6
CONTINUOUS
10
30.8507850938
20
228.9762286861
11
30.8507850938
21
216.4512286861
0
LINE
8
0
62
7
6
CONTINUOUS
10
30.8507850938
20
184.7012286861
11
30.8507850938
21
172.1762286861
0
LINE
8
0
62
7
6
CONTINUOUS
10
31.4664439780
20
172.1762286861
11
31.4664439780
21
188.9848023648
0
LINE
8
0
62
7
6
CONTINUOUS
10
31.4664439780
20
212.1676550073
11
31.4664439780
21
228.9762286861
0
LINE
8
0
62
7
6
CONTINUOUS
10
31.5905562280
20
160.3012286861
11
31.5905562280
21
159.3012286861
0
POLYLINE
8
0
62
7
6
CONTINUOUS
66
1
70
0
0
VERTEX
8
0
62
7
6
CONTINUOUS
10
27.8737283709
20
189.1885070781
0
VERTEX
8
0
62
7
6
CONTINUOUS
10
27.8516962573
20
189.1967915027
0
VERTEX
8
0
62
7
6
CONTINUOUS
10
27.8300889952
20
189.2186231562
0
VERTEX
8
0
62
7
6
CONTINUOUS
10
27.8088103947
20
189.2541852206
0
VERTEX
8
0
62
7
6
CONTINUOUS
10
27.7881490253
20
189.3029281496
0
VERTEX
8
0
62
7
6
CONTINUOUS
10
27.7683021498
20
189.3646012058
0
VERTEX
8
0
62
7
6
CONTINUOUS
10
27.7494474983
20
189.4384911451
0
VERTEX
8
0
62
7
6
CONTINUOUS
10
27.7317773393
20
189.5241066217
0
VERTEX
8
0
62
7
6
CONTINUOUS
10
27.7154453202
20
189.6205312022
0
VERTEX
8
0
62
7
6
CONTINUOUS
10
27.7006258750
20
189.7270686091
0
VERTEX
8
0
62
7
6
CONTINUOUS
10
27.6874489128
20
189.8425670289
0
VERTEX
8
0
62
7
6
CONTINUOUS
10
27.6760727248
20
189.9660734694
0
VERTEX
8
0
62
7
6
CONTINUOUS
10
27.6665865977
20
190.0962951883
0
VERTEX
8
0
62
7
6
CONTINUOUS
10
27.6591167289
20
190.2320957972
0
VERTEX
8
0
62
7
6
CONTINUOUS
10
27.6537106768
20
190.3720532414
0
VERTEX
8
0
62
7
6
CONTINUOUS
10
27.6504692688
20
190.5141415635
0
VERTEX
8
0
62
7
6
CONTINUOUS
10
27.6493588958
20
190.6590360827
0
SEQEND
0
LINE
8
0
62
7
6
CONTINUOUS
10
30.8507850938
20
184.7012286861
11
27.6493588958
21
184.7012286861
0
LINE
8
0
62
7
6
CONTINUOUS
10
59.9479326977
20
184.7012286861
11
63.1493588958
21
184.7012286861
0
LINE
8
0
62
7
6
CONTINUOUS
10
31.4664439780
20
188.9848023648
11
27.8737283709
21
189.1885070781
0
POLYLINE
8
0
62
7
6
CONTINUOUS
66
1
70
0
0
VERTEX
8
0
62
7
6
CONTINUOUS
10
33.7493588958
20
189.1097160800
0
VERTEX
8
0
62
7
6
CONTINUOUS
10
33.7727035226
20
189.1066722712
0
VERTEX
8
0
62
7
6
CONTINUOUS
10
33.8396593535
20
189.1037304521
0
VERTEX
8
0
62
7
6
CONTINUOUS
10
33.9513543545
20
189.1008668646
0
VERTEX
8
0
62
7
6
CONTINUOUS
10
34.1044046272
20
189.0981527829
0
VERTEX
8
0
62
7
6
CONTINUOUS
10
34.2972203786
20
189.0956390822
0
VERTEX
8
0
62
7
6
CONTINUOUS
10
34.7863407238
20
189.0913706863
0
SEQEND
0
POLYLINE
8
0
62
7
6
CONTINUOUS
66
1
70
0
0
VERTEX
8
0
62
7
6
CONTINUOUS
10
39.0493588958
20
189.1097160800
0
VERTEX
8
0
62
7
6
CONTINUOUS
10
39.0260142689
20
189.1127598887
0
VERTEX
8
0
62
7
6
CONTINUOUS
10
38.9590584381
20
189.1157017078
0
VERTEX
8
0
62
7
6
CONTINUOUS
10
38.8473634370
20
189.1185652953
0
VERTEX
8
0
62
7
6
CONTINUOUS
10
38.6943131643
20
189.1212793771
0
VERTEX
8
0
62
7
6
CONTINUOUS
10
38.5014974129
20
189.1237930778
0
VERTEX
8
0
62
7
6
CONTINUOUS
10
38.0123770677
20
189.1280614737
0
SEQEND
0
LINE
8
0
62
7
6
CONTINUOUS
10
62.9249894206
20
189.1885070781
11
59.3322738135
21
188.9848023648
0
POLYLINE
8
0
62
7
6
CONTINUOUS
66
1
70
0
0
VERTEX
8
0
62
7
6
CONTINUOUS
10
56.6104258827
20
189.0985506573
0
VERTEX
8
0
62
7
6
CONTINUOUS
10
56.7582099312
20
189.1011713518
0
VERTEX
8
0
62
7
6
CONTINUOUS
10
56.8660616815
20
189.1039364078
0
VERTEX
8
0
62
7
6
CONTINUOUS
10
56.9307136680
20
189.1067770037
0
VERTEX
8
0
62
7
6
CONTINUOUS
10
56.9532550458
20
189.1097160800
0
SEQEND
0
POLYLINE
8
0
62
7
6
CONTINUOUS
66
1
70
0
0
VERTEX
8
0
62
7
6
CONTINUOUS
10
52.1784484088
20
189.1208815027
0
VERTEX
8
0
62
7
6
CONTINUOUS
10
52.0306643603
20
189.1182608082
0
VERTEX
8
0
62
7
6
CONTINUOUS
10
51.9228126100
20
189.1154957522
0
VERTEX
8
0
62
7
6
CONTINUOUS
10
51.8581606235
20
189.1126551563
0
VERTEX
8
0
62
7
6
CONTINUOUS
10
51.8356192458
20
189.1097160800
0
SEQEND
0
POLYLINE
8
0
62
7
6
CONTINUOUS
66
1
70
0
0
VERTEX
8
0
62
7
6
CONTINUOUS
10
38.6943131998
20
189.0981527834
0
VERTEX
8
0
62
7
6
CONTINUOUS
10
38.8473634534
20
189.1008668650
0
VERTEX
8
0
62
7
6
CONTINUOUS
10
38.9590584429
20
189.1037304523
0
VERTEX
8
0
62
7
6
CONTINUOUS
10
39.0260142681
20
189.1066722713
0
VERTEX
8
0
62
7
6
CONTINUOUS
10
39.0493588958
20
189.1097160800
0
SEQEND
0
POLYLINE
8
0
62
7
6
CONTINUOUS
66
1
70
0
0
VERTEX
8
0
62
7
6
CONTINUOUS
10
34.1044045917
20
189.1212793765
0
VERTEX
8
0
62
7
6
CONTINUOUS
10
33.9513543381
20
189.1185652950
0
VERTEX
8
0
62
7
6
CONTINUOUS
10
33.8396593486
20
189.1157017077
0
VERTEX
8
0
62
7
6
CONTINUOUS
10
33.7727035234
20
189.1127598887
0
VERTEX
8
0
62
7
6
CONTINUOUS
10
33.7493588958
20
189.1097160800
0
SEQEND
0
LINE
8
0
62
7
6
CONTINUOUS
10
56.2037741332
20
189.0939258775
11
56.6104258827
21
189.0985506573
0
LINE
8
0
62
7
6
CONTINUOUS
10
52.5851001583
20
189.1255062825
11
52.1784484088
21
189.1208815027
0
LINE
8
0
62
7
6
CONTINUOUS
10
38.2731706338
20
189.0933632021
11
38.6943131998
21
189.0981527834
0
LINE
8
0
62
7
6
CONTINUOUS
10
34.5255471577
20
189.1260689579
11
34.1044045917
21
189.1212793765
0
LINE
8
0
62
7
6
CONTINUOUS
10
55.3735284054
20
189.0890876098
11
56.2037741332
21
189.0939258775
0
LINE
8
0
62
7
6
CONTINUOUS
10
53.4153458861
20
189.1303445502
11
52.5851001583
21
189.1255062825
0
LINE
8
0
62
7
6
CONTINUOUS
10
37.4133395459
20
189.0883525254
11
38.2731706338
21
189.0933632021
0
LINE
8
0
62
7
6
CONTINUOUS
10
35.3853782456
20
189.1310796346
11
34.5255471577
21
189.1260689579
0
LINE
8
0
62
7
6
CONTINUOUS
10
59.3322738135
20
188.9848023648
11
31.4664439780
21
188.9848023648
0
LINE
8
0
62
7
6
CONTINUOUS
10
62.9249894206
20
189.1885070781
11
27.8737283709
21
189.1885070781
0
LINE
8
0
62
7
6
CONTINUOUS
10
63.1493588958
20
190.6590360827
11
27.6493588958
21
190.6590360827
0
LINE
8
0
62
7
6
CONTINUOUS
10
36.0535101650
20
189.0867902282
11
37.4133395459
21
189.0883525254
0
LINE
8
0
62
7
6
CONTINUOUS
10
54.0604884956
20
189.0875790687
11
55.3735284054
21
189.0890876098
0
LINE
8
0
62
7
6
CONTINUOUS
10
36.7452076265
20
189.1326419318
11
35.3853782456
21
189.1310796346
0
LINE
8
0
62
7
6
CONTINUOUS
10
54.7283857960
20
189.1318530913
11
53.4153458861
21
189.1303445502
0
LINE
8
0
62
7
6
CONTINUOUS
10
34.7863407238
20
189.0913706863
11
36.0535101650
21
189.0867902282
0
LINE
8
0
62
7
6
CONTINUOUS
10
38.0123770677
20
189.1280614737
11
36.7452076265
21
189.1326419318
0
LINE
8
0
62
7
6
CONTINUOUS
10
52.8369202509
20
189.0920019208
11
54.0604884956
21
189.0875790687
0
LINE
8
0
62
7
6
CONTINUOUS
10
55.9519540406
20
189.1274302391
11
54.7283857960
21
189.1318530913
0
POLYLINE
8
0
62
7
6
CONTINUOUS
66
1
70
0
0
VERTEX
8
0
62
7
6
CONTINUOUS
10
51.8356192458
20
189.1097160800
0
VERTEX
8
0
62
7
6
CONTINUOUS
10
51.8581606227
20
189.1067770036
0
VERTEX
8
0
62
7
6
CONTINUOUS
10
51.9228126146
20
189.1039364077
0
VERTEX
8
0
62
7
6
CONTINUOUS
10
52.0306643762
20
189.1011713514
0
VERTEX
8
0
62
7
6
CONTINUOUS
10
52.1784484431
20
189.0985506567
0
VERTEX
8
0
62
7
6
CONTINUOUS
10
52.3646297246
20
189.0961234483
0
VERTEX
8
0
62
7
6
CONTINUOUS
10
52.8369202509
20
189.0920019208
0
SEQEND
0
POLYLINE
8
0
62
7
6
CONTINUOUS
66
1
70
0
0
VERTEX
8
0
62
7
6
CONTINUOUS
10
56.9532550458
20
189.1097160800
0
VERTEX
8
0
62
7
6
CONTINUOUS
10
56.9307136688
20
189.1126551563
0
VERTEX
8
0
62
7
6
CONTINUOUS
10
56.8660616769
20
189.1154957523
0
VERTEX
8
0
62
7
6
CONTINUOUS
10
56.7582099153
20
189.1182608085
0
VERTEX
8
0
62
7
6
CONTINUOUS
10
56.6104258484
20
189.1208815032
0
VERTEX
8
0
62
7
6
CONTINUOUS
10
56.4242445669
20
189.1233087116
0
VERTEX
8
0
62
7
6
CONTINUOUS
10
55.9519540406
20
189.1274302391
0
SEQEND
0
LINE
8
0
62
7
6
CONTINUOUS
10
42.3993588958
20
159.3012286861
11
42.3993588958
21
159.2762286861
0
LINE
8
0
62
7
6
CONTINUOUS
10
59.2081615635
20
160.3012286861
11
59.2081615579
21
159.3012286861
0
LINE
8
0
62
7
6
CONTINUOUS
10
59.3322738135
20
172.1762286861
11
59.3322738135
21
188.9848023648
0
LINE
8
0
62
7
6
CONTINUOUS
10
59.3322738135
20
212.1676550073
11
59.3322738135
21
228.9762286861
0
LINE
8
0
62
7
6
CONTINUOUS
10
59.9479326977
20
228.9762286861
11
59.9479326977
21
216.4512286861
0
LINE
8
0
62
7
6
CONTINUOUS
10
59.9479326977
20
184.7012286861
11
59.9479326977
21
172.1762286861
0
LINE
8
0
62
7
6
CONTINUOUS
10
61.0493588958
20
241.8512286861
11
61.0493588958
21
241.2150513579
0
LINE
8
0
62
7
6
CONTINUOUS
10
61.0493588958
20
159.9370758105
11
61.0493588958
21
159.3012286861
0
LINE
8
0
62
7
6
CONTINUOUS
10
61.5271185721
20
159.3012286861
11
61.5271185721
21
160.4011493938
0
LINE
8
0
62
7
6
CONTINUOUS
10
61.5271185721
20
240.7508978523
11
61.5271185721
21
241.8512286861
0
LINE
8
0
62
7
6
CONTINUOUS
10
61.2069432176
20
162.2314296927
11
61.9916058887
21
184.7012286861
0
POLYLINE
8
0
62
7
6
CONTINUOUS
66
1
70
0
0
VERTEX
8
0
62
7
6
CONTINUOUS
10
56.9532550458
20
212.0427412921
0
VERTEX
8
0
62
7
6
CONTINUOUS
10
56.9307136688
20
212.0398022158
0
VERTEX
8
0
62
7
6
CONTINUOUS
10
56.8660616769
20
212.0369616198
0
VERTEX
8
0
62
7
6
CONTINUOUS
10
56.7582099153
20
212.0341965636
0
VERTEX
8
0
62
7
6
CONTINUOUS
10
56.6104258484
20
212.0315758689
0
SEQEND
0
POLYLINE
8
0
62
7
6
CONTINUOUS
66
1
70
0
0
VERTEX
8
0
62
7
6
CONTINUOUS
10
51.8356192458
20
212.0427412921
0
VERTEX
8
0
62
7
6
CONTINUOUS
10
51.8581606227
20
212.0456803685
0
VERTEX
8
0
62
7
6
CONTINUOUS
10
51.9228126146
20
212.0485209645
0
VERTEX
8
0
62
7
6
CONTINUOUS
10
52.0306643762
20
212.0512860207
0
VERTEX
8
0
62
7
6
CONTINUOUS
10
52.1784484431
20
212.0539067154
0
SEQEND
0
POLYLINE
8
0
62
7
6
CONTINUOUS
66
1
70
0
0
VERTEX
8
0
62
7
6
CONTINUOUS
10
39.0493588958
20
212.0427412921
0
VERTEX
8
0
62
7
6
CONTINUOUS
10
39.0260142689
20
212.0396974834
0
VERTEX
8
0
62
7
6
CONTINUOUS
10
38.9590584381
20
212.0367556643
0
VERTEX
8
0
62
7
6
CONTINUOUS
10
38.8473634370
20
212.0338920768
0
VERTEX
8
0
62
7
6
CONTINUOUS
10
38.6943131643
20
212.0311779950
0
SEQEND
0
LINE
8
0
62
7
6
CONTINUOUS
10
31.4664439780
20
212.1676550073
11
27.8737283709
21
211.9639502941
0
LINE
8
0
62
7
6
CONTINUOUS
10
56.6104258484
20
212.0315758689
11
56.2037740366
21
212.0269510888
0
LINE
8
0
62
7
6
CONTINUOUS
10
52.1784484431
20
212.0539067154
11
52.5851002550
21
212.0585314955
0
LINE
8
0
62
7
6
CONTINUOUS
10
38.6943131643
20
212.0311779950
11
38.2731705338
21
212.0263884134
0
LINE
8
0
62
7
6
CONTINUOUS
10
34.1044046272
20
212.0543045892
11
34.5255472577
21
212.0590941709
0
LINE
8
0
62
7
6
CONTINUOUS
10
56.2037740366
20
212.0269510888
11
55.3735281900
21
212.0221128212
0
LINE
8
0
62
7
6
CONTINUOUS
10
52.5851002550
20
212.0585314955
11
53.4153461015
21
212.0633697631
0
LINE
8
0
62
7
6
CONTINUOUS
10
38.2731705338
20
212.0263884134
11
37.4133393229
21
212.0213777367
0
LINE
8
0
62
7
6
CONTINUOUS
10
34.5255472577
20
212.0590941709
11
35.3853784686
21
212.0641048475
0
LINE
8
0
62
7
6
CONTINUOUS
10
63.1493588958
20
210.4934212894
11
27.6493588958
21
210.4934212894
0
LINE
8
0
62
7
6
CONTINUOUS
10
62.9249894206
20
211.9639502941
11
27.8737283709
21
211.9639502941
0
LINE
8
0
62
7
6
CONTINUOUS
10
59.3322738135
20
212.1676550073
11
31.4664439780
21
212.1676550073
0
LINE
8
0
62
7
6
CONTINUOUS
10
37.4133393229
20
212.0213777367
11
36.0535098897
21
212.0198154406
0
LINE
8
0
62
7
6
CONTINUOUS
10
55.3735281900
20
212.0221128212
11
54.0604882297
21
212.0206042811
0
LINE
8
0
62
7
6
CONTINUOUS
10
35.3853784686
20
212.0641048475
11
36.7452079018
21
212.0656671436
0
LINE
8
0
62
7
6
CONTINUOUS
10
53.4153461015
20
212.0633697631
11
54.7283860618
21
212.0648783032
0
LINE
8
0
62
7
6
CONTINUOUS
10
36.0535098897
20
212.0198154406
11
34.7863405822
21
212.0243958994
0
LINE
8
0
62
7
6
CONTINUOUS
10
36.7452079018
20
212.0656671436
11
38.0123772093
21
212.0610866849
0
LINE
8
0
62
7
6
CONTINUOUS
10
54.0604882297
20
212.0206042811
11
52.8369201142
21
212.0250271339
0
LINE
8
0
62
7
6
CONTINUOUS
10
54.7283860618
20
212.0648783032
11
55.9519541773
21
212.0604554504
0
POLYLINE
8
0
62
7
6
CONTINUOUS
66
1
70
0
0
VERTEX
8
0
62
7
6
CONTINUOUS
10
34.7863405822
20
212.0243958994
0
VERTEX
8
0
62
7
6
CONTINUOUS
10
34.2972203142
20
212.0286642951
0
VERTEX
8
0
62
7
6
CONTINUOUS
10
34.1044045917
20
212.0311779956
0
VERTEX
8
0
62
7
6
CONTINUOUS
10
33.9513543381
20
212.0338920771
0
VERTEX
8
0
62
7
6
CONTINUOUS
10
33.8396593486
20
212.0367556644
0
VERTEX
8
0
62
7
6
CONTINUOUS
10
33.7727035234
20
212.0396974834
0
VERTEX
8
0
62
7
6
CONTINUOUS
10
33.7493588958
20
212.0427412921
0
SEQEND
0
POLYLINE
8
0
62
7
6
CONTINUOUS
66
1
70
0
0
VERTEX
8
0
62
7
6
CONTINUOUS
10
38.0123772093
20
212.0610866849
0
VERTEX
8
0
62
7
6
CONTINUOUS
10
38.5014974773
20
212.0568182892
0
VERTEX
8
0
62
7
6
CONTINUOUS
10
38.6943131998
20
212.0543045887
0
VERTEX
8
0
62
7
6
CONTINUOUS
10
38.8473634534
20
212.0515905072
0
VERTEX
8
0
62
7
6
CONTINUOUS
10
38.9590584429
20
212.0487269198
0
VERTEX
8
0
62
7
6
CONTINUOUS
10
39.0260142681
20
212.0457851008
0
VERTEX
8
0
62
7
6
CONTINUOUS
10
39.0493588958
20
212.0427412921
0
SEQEND
0
POLYLINE
8
0
62
7
6
CONTINUOUS
66
1
70
0
0
VERTEX
8
0
62
7
6
CONTINUOUS
10
52.8369201142
20
212.0250271339
0
VERTEX
8
0
62
7
6
CONTINUOUS
10
52.3646296624
20
212.0291486612
0
VERTEX
8
0
62
7
6
CONTINUOUS
10
52.1784484088
20
212.0315758694
0
VERTEX
8
0
62
7
6
CONTINUOUS
10
52.0306643603
20
212.0341965639
0
VERTEX
8
0
62
7
6
CONTINUOUS
10
51.9228126100
20
212.0369616200
0
VERTEX
8
0
62
7
6
CONTINUOUS
10
51.8581606235
20
212.0398022158
0
VERTEX
8
0
62
7
6
CONTINUOUS
10
51.8356192458
20
212.0427412921
0
SEQEND
0
POLYLINE
8
0
62
7
6
CONTINUOUS
66
1
70
0
0
VERTEX
8
0
62
7
6
CONTINUOUS
10
55.9519541773
20
212.0604554504
0
VERTEX
8
0
62
7
6
CONTINUOUS
10
56.4242446291
20
212.0563339231
0
VERTEX
8
0
62
7
6
CONTINUOUS
10
56.6104258827
20
212.0539067149
0
VERTEX
8
0
62
7
6
CONTINUOUS
10
56.7582099312
20
212.0512860204
0
VERTEX
8
0
62
7
6
CONTINUOUS
10
56.8660616815
20
212.0485209643
0
VERTEX
8
0
62
7
6
CONTINUOUS
10
56.9307136680
20
212.0456803684
0
VERTEX
8
0
62
7
6
CONTINUOUS
10
56.9532550458
20
212.0427412921
0
SEQEND
0
LINE
8
0
62
7
6
CONTINUOUS
10
62.9249894206
20
211.9639502941
11
59.3322738135
21
212.1676550073
0
LINE
8
0
62
7
6
CONTINUOUS
10
62.9922154330
20
216.4512286861
11
62.2063340446
21
238.9559271762
0
LINE
8
0
62
7
6
CONTINUOUS
10
63.1493588958
20
184.7012286861
11
63.1493588958
21
216.4512286861
0
POLYLINE
8
0
62
7
6
CONTINUOUS
66
1
70
0
0
VERTEX
8
0
62
7
6
CONTINUOUS
10
63.1493588958
20
190.6590360827
0
VERTEX
8
0
62
7
6
CONTINUOUS
10
63.1482485435
20
190.5141312845
0
VERTEX
8
0
62
7
6
CONTINUOUS
10
63.1450062813
20
190.3720260289
0
VERTEX
8
0
62
7
6
CONTINUOUS
10
63.1395984840
20
190.2320426555
0
VERTEX
8
0
62
7
6
CONTINUOUS
10
63.1321260268
20
190.0962141449
0
VERTEX
8
0
62
7
6
CONTINUOUS
10
63.1226362294
20
189.9659675399
0
VERTEX
8
0
62
7
6
CONTINUOUS
10
63.1112561335
20
189.8424429936
0
VERTEX
8
0
62
7
6
CONTINUOUS
10
63.0980755787
20
189.7269395400
0
VERTEX
8
0
62
7
6
CONTINUOUS
10
63.0832534913
20
189.6204075804
0
VERTEX
8
0
62
7
6
CONTINUOUS
10
63.0669206813
20
189.5240003846
0
VERTEX
8
0
62
7
6
CONTINUOUS
10
63.0492513372
20
189.4384083817
0
VERTEX
8
0
62
7
6
CONTINUOUS
10
63.0303994804
20
189.3645438020
0
VERTEX
8
0
62
7
6
CONTINUOUS
10
63.0105564227
20
189.3028945118
0
VERTEX
8
0
62
7
6
CONTINUOUS
10
62.9898993124
20
189.2541683629
0
VERTEX
8
0
62
7
6
CONTINUOUS
10
62.9686246613
20
189.2186176289
0
VERTEX
8
0
62
7
6
CONTINUOUS
10
62.9470199758
20
189.1967915620
0
VERTEX
8
0
62
7
6
CONTINUOUS
10
62.9249894206
20
189.1885070781
0
SEQEND
0
LINE
8
0
62
7
6
CONTINUOUS
10
62.2063340446
20
162.1965301960
11
62.9922154330
21
184.7012286861
0
POLYLINE
8
0
62
7
6
CONTINUOUS
66
1
70
0
0
VERTEX
8
0
62
7
6
CONTINUOUS
10
33.7493588958
20
212.0427412921
0
VERTEX
8
0
62
7
6
CONTINUOUS
10
33.7727035226
20
212.0457851009
0
VERTEX
8
0
62
7
6
CONTINUOUS
10
33.8396593535
20
212.0487269200
0
VERTEX
8
0
62
7
6
CONTINUOUS
10
33.9513543545
20
212.0515905075
0
VERTEX
8
0
62
7
6
CONTINUOUS
10
34.1044046272
20
212.0543045892
0
SEQEND
0
LINE
8
0
62
7
6
CONTINUOUS
10
30.8507850938
20
216.4512286861
11
27.6493588958
21
216.4512286861
0
LINE
8
0
62
7
6
CONTINUOUS
10
59.9479326977
20
216.4512286861
11
63.1493588958
21
216.4512286861
0
POLYLINE
8
0
62
7
6
CONTINUOUS
66
1
70
0
0
VERTEX
8
0
62
7
6
CONTINUOUS
10
62.9249894206
20
211.9639502941
0
VERTEX
8
0
62
7
6
CONTINUOUS
10
62.9470215342
20
211.9556658694
0
VERTEX
8
0
62
7
6
CONTINUOUS
10
62.9686287963
20
211.9338342159
0
VERTEX
8
0
62
7
6
CONTINUOUS
10
62.9899073968
20
211.8982721515
0
VERTEX
8
0
62
7
6
CONTINUOUS
10
63.0105687662
20
211.8495292225
0
VERTEX
8
0
62
7
6
CONTINUOUS
10
63.0304156417
20
211.7878561663
0
VERTEX
8
0
62
7
6
CONTINUOUS
10
63.0492702932
20
211.7139662271
0
VERTEX
8
0
62
7
6
CONTINUOUS
10
63.0669404522
20
211.6283507504
0
VERTEX
8
0
62
7
6
CONTINUOUS
10
63.0832724713
20
211.5319261699
0
VERTEX
8
0
62
7
6
CONTINUOUS
10
63.0980919165
20
211.4253887630
0
VERTEX
8
0
62
7
6
CONTINUOUS
10
63.1112688787
20
211.3098903433
0
VERTEX
8
0
62
7
6
CONTINUOUS
10
63.1226450667
20
211.1863839027
0
VERTEX
8
0
62
7
6
CONTINUOUS
10
63.1321311938
20
211.0561621838
0
VERTEX
8
0
62
7
6
CONTINUOUS
10
63.1396010626
20
210.9203615749
0
VERTEX
8
0
62
7
6
CONTINUOUS
10
63.1450071147
20
210.7804041308
0
VERTEX
8
0
62
7
6
CONTINUOUS
10
63.1482485227
20
210.6383158086
0
VERTEX
8
0
62
7
6
CONTINUOUS
10
63.1493588958
20
210.4934212894
0
SEQEND
0
LINE
8
0
62
7
6
CONTINUOUS
10
72.3327721829
20
159.3012286861
11
72.3327721829
21
241.8512286861
0
LINE
8
0
62
7
6
CONTINUOUS
10
72.5493588958
20
241.8512286861
11
72.5493588958
21
159.3012286861
0
LINE
8
0
62
7
6
CONTINUOUS
10
30.8507850938
20
228.9762286861
11
59.9479326977
21
228.9762286861
0
LINE
8
0
62
7
6
CONTINUOUS
10
29.7493588958
20
241.8512286861
11
72.5493525277
21
241.8512286861
0
LINE
8
0
62
7
6
CONTINUOUS
10
39.3993588958
20
241.8762286861
11
51.3993588958
21
241.8762286861
0
LINE
8
0
62
7
6
CONTINUOUS
10
134.7098658062
20
159.2762286861
11
127.7098658062
21
159.2762286861
0
LINE
8
0
62
7
6
CONTINUOUS
10
109.5099889775
20
159.3012286861
11
143.5333758062
21
159.3012286861
0
LINE
8
0
62
7
6
CONTINUOUS
10
143.6898135639
20
162.1969598853
11
140.5333758062
21
162.1965301960
0
LINE
8
0
62
7
6
CONTINUOUS
10
109.5098658062
20
241.8512286861
11
109.5098658062
21
159.3012286861
0
LINE
8
0
62
7
6
CONTINUOUS
10
109.9678782505
20
241.8512286861
11
109.9678782505
21
159.3012286861
0
LINE
8
0
62
7
6
CONTINUOUS
10
165.3333758062
20
172.1762286861
11
169.3333758062
21
172.1762286861
0
LINE
8
0
62
7
6
CONTINUOUS
10
125.6258906948
20
159.3012286861
11
125.6258906948
21
241.8512286861
0
LINE
8
0
62
7
6
CONTINUOUS
10
143.5333758062
20
184.7012286861
11
165.3333758062
21
184.7012286861
0
LINE
8
0
62
7
6
CONTINUOUS
10
127.7098658062
20
241.8512286861
11
127.7098658062
21
159.3012286861
0
LINE
8
0
62
7
6
CONTINUOUS
10
144.5333758062
20
189.2012286861
11
140.5333758062
21
189.2012286861
0
LINE
8
0
62
7
6
CONTINUOUS
10
169.3333758062
20
188.9848023648
11
145.9911276940
21
189.1885070781
0
LINE
8
0
62
7
6
CONTINUOUS
10
140.5333758062
20
159.3012286861
11
140.5333758062
21
241.8512286861
0
LINE
8
0
62
7
6
CONTINUOUS
10
143.5333758062
20
184.7012286861
11
143.5333758062
21
159.3012286861
0
LINE
8
0
62
7
6
CONTINUOUS
10
144.5333758062
20
160.3012286861
11
144.5333758062
21
241.8512286861
0
LINE
8
0
62
7
6
CONTINUOUS
10
169.3333758062
20
212.1676550073
11
145.9911276940
21
211.9639502941
0
LINE
8
0
62
7
6
CONTINUOUS
10
144.5333758062
20
211.9512286861
11
140.5333758062
21
211.9512286861
0
LINE
8
0
62
7
6
CONTINUOUS
10
165.3333758062
20
216.4512286861
11
144.5333758062
21
216.4512286861
0
LINE
8
0
62
7
6
CONTINUOUS
10
165.3333758062
20
228.9762286861
11
165.3333758062
21
216.4512286861
0
LINE
8
0
62
7
6
CONTINUOUS
10
165.3333758062
20
184.7012286861
11
165.3333758062
21
172.1762286861
0
LINE
8
0
62
7
6
CONTINUOUS
10
169.3333758062
20
172.1762286861
11
169.3333758062
21
188.9848023648
0
LINE
8
0
62
7
6
CONTINUOUS
10
169.3333758062
20
212.1676550073
11
169.3333758062
21
228.9762286861
0
LINE
8
0
62
7
6
CONTINUOUS
10
165.3333758062
20
228.9762286861
11
169.3333758062
21
228.9762286861
0
POLYLINE
8
0
62
7
6
CONTINUOUS
66
1
70
0
0
VERTEX
8
0
62
7
6
CONTINUOUS
10
144.5333758062
20
162.2314296927
0
VERTEX
8
0
62
7
6
CONTINUOUS
10
144.5210648005
20
162.2259703476
0
VERTEX
8
0
62
7
6
CONTINUOUS
10
144.4844346071
20
162.2206453916
0
VERTEX
8
0
62
7
6
CONTINUOUS
10
144.4243867161
20
162.2155859414
0
VERTEX
8
0
62
7
6
CONTINUOUS
10
144.3423992227
20
162.2109165785
0
VERTEX
8
0
62
7
6
CONTINUOUS
10
144.2404904326
20
162.2067522824
0
VERTEX
8
0
62
7
6
CONTINUOUS
10
144.1211693949
20
162.2031956062
0
VERTEX
8
0
62
7
6
CONTINUOUS
10
143.9873739505
20
162.2003341402
0
VERTEX
8
0
62
7
6
CONTINUOUS
10
143.8423986613
20
162.1982383604
0
VERTEX
8
0
62
7
6
CONTINUOUS
10
143.6898135639
20
162.1969598853
0
SEQEND
0
LINE
8
0
62
7
6
CONTINUOUS
10
140.5333758062
20
238.9559271762
11
144.5333758062
21
238.9559271762
0
LINE
8
0
62
7
6
CONTINUOUS
10
109.5099889775
20
241.8512286861
11
144.5333758062
21
241.8512286861
0
LINE
8
0
62
7
6
CONTINUOUS
10
127.7098658062
20
241.8762286861
11
134.7098658062
21
241.8762286861
0
LINE
8
0
62
7
6
CONTINUOUS
10
59.3322738135
20
67.9259020273
11
31.4664439780
21
67.9259020273
0
LINE
8
0
62
7
6
CONTINUOUS
10
59.9479326977
20
71.9259020273
11
30.8507850938
21
71.9259020273
0
LINE
8
0
62
7
6
CONTINUOUS
10
27.6493588958
20
92.7259020273
11
27.6493588958
21
96.7259020273
0
LINE
8
0
62
7
6
CONTINUOUS
10
45.7121063480
20
127.2913995830
11
30.5913394947
21
111.6333871387
0
LINE
8
0
62
7
6
CONTINUOUS
10
31.4664439780
20
67.9259020273
11
27.6493588958
21
92.7259020273
0
LINE
8
0
62
7
6
CONTINUOUS
10
28.5923837469
20
96.7259020273
11
28.5923837469
21
92.7259020273
0
LINE
8
0
62
7
6
CONTINUOUS
10
29.7493588958
20
96.5494120273
11
29.7493588958
21
109.5494120273
0
LINE
8
0
62
7
6
CONTINUOUS
10
31.5905562280
20
96.7259020273
11
31.5905562280
21
92.7259020273
0
LINE
8
0
62
7
6
CONTINUOUS
10
34.6249632181
20
97.7786333094
11
37.3724835678
21
112.7486943946
0
LINE
8
0
62
7
6
CONTINUOUS
10
36.5706973732
20
108.3427941258
11
34.4385986958
21
96.7259020273
0
POLYLINE
8
0
62
7
6
CONTINUOUS
66
1
70
0
0
VERTEX
8
0
62
7
6
CONTINUOUS
10
37.3724835678
20
112.7486943946
0
VERTEX
8
0
62
7
6
CONTINUOUS
10
37.4258963054
20
112.9556584584
0
VERTEX
8
0
62
7
6
CONTINUOUS
10
37.5052540616
20
113.1494506612
0
VERTEX
8
0
62
7
6
CONTINUOUS
10
37.6117577997
20
113.3317505398
0
VERTEX
8
0
62
7
6
CONTINUOUS
10
37.7418046294
20
113.4975194838
0
VERTEX
8
0
62
7
6
CONTINUOUS
10
37.8933830715
20
113.6429645424
0
VERTEX
8
0
62
7
6
CONTINUOUS
10
38.0629198553
20
113.7660282733
0
VERTEX
8
0
62
7
6
CONTINUOUS
10
38.2474676839
20
113.8637185133
0
VERTEX
8
0
62
7
6
CONTINUOUS
10
38.4431371566
20
113.9350464748
0
VERTEX
8
0
62
7
6
CONTINUOUS
10
38.6444474612
20
113.9777777102
0
VERTEX
8
0
62
7
6
CONTINUOUS
10
38.8532255351
20
113.9926570355
0
SEQEND
0
LINE
8
0
62
7
6
CONTINUOUS
10
43.3558819468
20
117.2994120273
11
48.0901541542
21
125.4994120273
0
LINE
8
0
62
7
6
CONTINUOUS
10
57.9762461595
20
127.3284217278
11
45.6969076082
21
115.4704023268
0
LINE
8
DEFAULT_1
62
2
6
CENTER
10
54.3944371458
20
82.2395960273
11
48.8356192458
21
82.2395960273
0
LINE
8
DEFAULT_1
62
2
6
CENTER
10
36.3993588958
20
82.2395960273
11
30.7493588958
21
82.2395960273
0
LINE
8
DEFAULT_1
62
2
6
CENTER
10
36.3993588958
20
82.2395960273
11
42.0493588958
21
82.2395960273
0
LINE
8
DEFAULT_1
62
2
6
CENTER
10
54.3944371458
20
82.2395960273
11
59.9532550458
21
82.2395960273
0
LINE
8
DEFAULT_1
62
2
6
CENTER
10
36.3993588958
20
82.2395960273
11
36.3993588958
21
76.5895960273
0
LINE
8
DEFAULT_1
62
2
6
CENTER
10
36.3993588958
20
82.2395960273
11
36.3993588958
21
87.8895960273
0
LINE
8
0
62
7
6
CONTINUOUS
10
38.8532255351
20
113.9926570355
11
38.7298587791
21
113.3204844439
0
LINE
8
0
62
7
6
CONTINUOUS
10
39.3993720958
20
101.4317740273
11
39.3993720958
21
109.9317553273
0
LINE
8
0
62
7
6
CONTINUOUS
10
40.7719180958
20
109.9317553273
11
40.7719180958
21
110.9611648273
0
LINE
8
0
62
7
6
CONTINUOUS
10
42.3993588958
20
105.5494120273
11
42.3993654958
21
101.4317740273
0
LINE
8
0
62
7
6
CONTINUOUS
10
50.0267996958
20
110.9611648273
11
51.4817949039
21
113.0391133336
0
LINE
8
0
62
7
6
CONTINUOUS
10
55.0056493443
20
116.2994120273
11
60.3172718208
21
125.4994120273
0
LINE
8
0
62
7
6
CONTINUOUS
10
70.2276687376
20
127.3510729714
11
57.3653476217
21
114.4887518555
0
LINE
8
0
62
7
6
CONTINUOUS
10
27.6493588958
20
92.7259020273
11
63.1493588958
21
92.7259020273
0
LINE
8
0
62
7
6
CONTINUOUS
10
48.3993522958
20
101.4317740273
11
48.3993522958
21
105.5494120273
0
LINE
8
0
62
7
6
CONTINUOUS
10
50.0267996958
20
109.9317553273
11
50.0267996958
21
110.9611648273
0
LINE
8
0
62
7
6
CONTINUOUS
10
61.0493588958
20
96.5494120273
11
57.6491117796
21
96.5494120273
0
LINE
8
0
62
7
6
CONTINUOUS
10
33.1496060119
20
96.5494120273
11
29.7493588958
21
96.5494120273
0
LINE
8
0
62
7
6
CONTINUOUS
10
59.2081615635
20
96.7259020273
11
56.3601190958
21
96.7259020273
0
LINE
8
0
62
7
6
CONTINUOUS
10
27.6493588958
20
96.7259020273
11
29.7493588958
21
96.7259020273
0
LINE
8
0
62
7
6
CONTINUOUS
10
31.5905562280
20
96.7259020273
11
34.4385986958
21
96.7259020273
0
LINE
8
0
62
7
6
CONTINUOUS
10
61.0493588958
20
96.7259020273
11
63.1493588958
21
96.7259020273
0
LINE
8
0
62
7
6
CONTINUOUS
10
40.7719180958
20
110.9611648273
11
39.3169228876
21
113.0391133336
0
LINE
8
0
62
7
6
CONTINUOUS
10
51.3993456958
20
101.4317740273
11
51.3993456958
21
109.9317553273
0
LINE
8
DEFAULT_1
62
2
6
CENTER
10
54.3944371458
20
82.2395960273
11
54.3944371458
21
76.6807781273
0
LINE
8
DEFAULT_1
62
2
6
CENTER
10
54.3944371458
20
82.2395960273
11
54.3944371458
21
87.7984139273
0
LINE
8
0
62
7
6
CONTINUOUS
10
61.5271185721
20
108.8736976394
11
72.3327721829
21
125.6530467009
0
LINE
8
0
62
7
6
CONTINUOUS
10
51.3993588958
20
102.5494120273
11
48.3993522958
21
102.5494120273
0
LINE
8
0
62
7
6
CONTINUOUS
10
42.3993654958
20
102.5494120273
11
39.3993588958
21
102.5494120273
0
LINE
8
0
62
7
6
CONTINUOUS
10
51.9454922564
20
113.9926570355
11
52.0688592449
21
113.3204831777
0
LINE
8
0
62
7
6
CONTINUOUS
10
48.3993522958
20
105.5494120273
11
42.3993654958
21
105.5494120273
0
LINE
8
0
62
7
6
CONTINUOUS
10
56.3601190958
20
96.7259020273
11
54.2280204183
21
108.3427941258
0
LINE
8
0
62
7
6
CONTINUOUS
10
53.4262342237
20
112.7486943946
11
56.1737545734
21
97.7786333094
0
LINE
8
0
62
7
6
CONTINUOUS
10
59.2081615635
20
92.7259020273
11
59.2081615635
21
96.7259020273
0
LINE
8
0
62
7
6
CONTINUOUS
10
61.0493588958
20
96.5494120273
11
61.0493588958
21
107.2494120273
0
LINE
8
0
62
7
6
CONTINUOUS
10
62.2063340446
20
92.7259020273
11
62.2063340446
21
96.7259020273
0
LINE
8
0
62
7
6
CONTINUOUS
10
54.2280204183
20
108.3427941258
11
51.3993456958
21
108.3427941258
0
LINE
8
0
62
7
6
CONTINUOUS
10
39.3993720958
20
108.3427941258
11
36.5706973732
21
108.3427941258
0
LINE
8
0
62
7
6
CONTINUOUS
10
51.3993588958
20
109.5494120273
11
39.3993588958
21
109.5494120273
0
LINE
8
0
62
7
6
CONTINUOUS
10
51.3993456958
20
109.9317553273
11
50.0267996958
21
109.9317553273
0
LINE
8
0
62
7
6
CONTINUOUS
10
40.7719180958
20
109.9317553273
11
39.3993720958
21
109.9317553273
0
LINE
8
0
62
7
6
CONTINUOUS
10
63.1493588958
20
92.7259020273
11
63.1493588958
21
96.7259020273
0
LINE
8
0
62
7
6
CONTINUOUS
10
59.3322738135
20
67.9259020273
11
63.1493588958
21
92.7259020273
0
LINE
8
0
62
7
6
CONTINUOUS
10
40.7719180958
20
110.8494120273
11
50.0267996958
21
110.8494120273
0
LINE
8
0
62
7
6
CONTINUOUS
10
39.1668149396
20
113.1494120273
11
51.6319054210
21
113.1494120273
0
LINE
8
0
62
7
6
CONTINUOUS
10
38.8532255351
20
113.9926570355
11
51.9454922564
21
113.9926570355
0
POLYLINE
8
0
62
7
6
CONTINUOUS
66
1
70
0
0
VERTEX
8
0
62
7
6
CONTINUOUS
10
51.9454922564
20
113.9926570355
0
VERTEX
8
0
62
7
6
CONTINUOUS
10
52.1542724100
20
113.9777771163
0
VERTEX
8
0
62
7
6
CONTINUOUS
10
52.3555834145
20
113.9350456788
0
VERTEX
8
0
62
7
6
CONTINUOUS
10
52.5512518317
20
113.8637178989
0
VERTEX
8
0
62
7
6
CONTINUOUS
10
52.7357979759
20
113.7660282486
0
VERTEX
8
0
62
7
6
CONTINUOUS
10
52.9053334365
20
113.6429657256
0
VERTEX
8
0
62
7
6
CONTINUOUS
10
53.0569109500
20
113.4975219276
0
VERTEX
8
0
62
7
6
CONTINUOUS
10
53.1869577355
20
113.3317539616
0
VERTEX
8
0
62
7
6
CONTINUOUS
10
53.2934619353
20
113.1494542978
0
VERTEX
8
0
62
7
6
CONTINUOUS
10
53.3728204166
20
112.9556608803
0
VERTEX
8
0
62
7
6
CONTINUOUS
10
53.4262342237
20
112.7486943946
0
SEQEND
0
ARC
8
0
62
7
6
CONTINUOUS
10
31.5905562280
20
162.3012286861
40
3.0000000000
50
182.0000000000
51
270.0000000000
0
ARC
8
0
62
7
6
CONTINUOUS
10
59.2081615635
20
162.3012286861
40
3.0000000000
50
270.0000000000
51
358.0000000000
0
ARC
8
0
62
7
6
CONTINUOUS
10
59.2081615635
20
238.8512286861
40
3.0000000000
50
2.0000000000
51
90.0000000000
0
ARC
8
0
62
7
6
CONTINUOUS
10
31.5905562280
20
238.8512286861
40
3.0000000000
50
90.0000000000
51
178.0000000000
0
ARC
8
0
62
7
6
CONTINUOUS
10
31.5905562280
20
162.3012286861
40
1.9999989680
50
182.0000000000
51
270.0000000000
0
ARC
8
0
62
7
6
CONTINUOUS
10
59.2081615635
20
162.3012286861
40
1.9999989680
50
270.0000000000
51
358.0000000000
0
ARC
8
0
62
7
6
CONTINUOUS
10
143.5333758062
20
160.3012286861
40
1.0000000000
50
270.0000000000
51
360.0000000000
0
ARC
8
0
62
7
6
CONTINUOUS
10
146.0039608062
20
190.6590360827
40
1.4705850000
50
180.0000000000
51
269.5000000000
0
ARC
8
0
62
7
6
CONTINUOUS
10
146.0039608062
20
210.4934212894
40
1.4705850000
50
90.5000000000
51
180.0000000000
0
ARC
8
0
62
7
6
CONTINUOUS
10
49.3993588958
20
103.5494120273
40
1.0000000000
50
180.0000000000
51
270.0000000000
0
ARC
8
0
62
7
6
CONTINUOUS
10
41.3993588958
20
103.5494120273
40
1.0000000000
50
270.0000000000
51
360.0000000000
0
ARC
8
0
62
7
6
CONTINUOUS
10
33.1496060119
20
98.0494120273
40
1.5000000000
50
270.0000000000
51
349.6000000000
0
ARC
8
0
62
7
6
CONTINUOUS
10
32.7493588958
20
109.5494120273
40
3.0000000000
50
136.0000000000
51
180.0000000000
0
ARC
8
0
62
7
6
CONTINUOUS
10
46.7911160485
20
126.2494120273
40
1.5000000000
50
330.0000000000
51
136.0000000000
0
ARC
8
0
62
7
6
CONTINUOUS
10
44.6549200525
20
116.5494120273
40
1.5000000000
50
150.0000000000
51
314.0000000000
0
ARC
8
0
62
7
6
CONTINUOUS
10
59.0182337152
20
126.2494120273
40
1.5000000000
50
330.0000000000
51
134.0000000000
0
ARC
8
0
62
7
6
CONTINUOUS
10
56.3046874500
20
115.5494120273
40
1.5000000000
50
150.0000000000
51
315.0000000000
0
ARC
8
0
62
7
6
CONTINUOUS
10
71.1893442888
20
126.3893974203
40
1.3600146070
50
327.2190613812
51
135.0000000000
0
ARC
8
0
62
7
6
CONTINUOUS
10
64.0493588958
20
107.2494120273
40
3.0000000000
50
147.2190613812
51
180.0000000000
0
ARC
8
0
62
7
6
CONTINUOUS
10
57.6491117796
20
98.0494120273
40
1.5000000000
50
190.4000000000
51
270.0000000000
0
CIRCLE
8
0
62
7
6
CONTINUOUS
10
36.3993588958
20
82.2395960273
40
2.6500000000
0
CIRCLE
8
0
62
7
6
CONTINUOUS
10
54.3944371458
20
82.2395960273
40
2.5588179000
0
ARC
8
0
62
7
6
CONTINUOUS
10
40.8993687958
20
101.4317740273
40
1.4999967000
50
180.0000000000
51
360.0000000000
0
ARC
8
0
62
7
6
CONTINUOUS
10
49.8993489958
20
101.4317740273
40
1.4999967000
50
180.0000000000
51
360.0000000000
0
ARC
8
0
62
7
6
CONTINUOUS
10
52.2893170436
20
112.1173066258
40
1.2254875000
50
10.4000000000
51
131.2190442967
0
ARC
8
0
62
7
6
CONTINUOUS
10
38.5094007479
20
112.1173066258
40
1.2254875000
50
48.7809557033
51
169.4215999810
0
ENDSEC
0
EOF
