  0
SECTION
  2
HEADER
  9
$ACADVER
  1
AC1009
  9
$INSBASE
 10
0
 20
0
  9
$EXTMIN
 10
-412.3071634047163
 20
121.843674212599
  9
$EXTMAX
 10
-255.663935689922
 20
179.90066196988
  9
$LIMMIN
 10
-412.3071634047163
 20
121.843674212599
  9
$LIMMAX
 10
-255.663935689922
 20
179.90066196988
  9
$VIEWCTR
 10
10
 20
10
  9
$VIEWSIZE
 40
10
  9
$SNAPMODE
 70
0
  9
$SNAPUNIT
 10
1
 20
1
  9
$SNAPBASE
 10
0
 20
0
  9
$SNAPANG
 50
0
  9
$SNAPSTYLE
 70
0
  9
$SNAPISOPAIR
 70
0
  9
$GRIDMODE
 70
0
  9
$GRIDUNIT
 10
0
 20
0
  9
$ORTHOMODE
 70
0
  9
$REGENMODE
 70
1
  9
$FILLMODE
 70
1
  9
$QTEXTMODE
 70
0
  9
$DRAGMODE
 70
2
  9
$LTSCALE
 40
1
  9
$OSMODE
 70
0
  9
$ATTMODE
 70
1
  9
$TEXTSIZE
 40
3.5
  9
$TRACEWID
 40
0.5
  9
$TEXTSTYLE
  7
STANDARD
  9
$CLAYER
  8
0
  9
$CELTYPE
  6
BYLAYER
  9
$CECOLOR
 62
256
  9
$DIMSCALE
 40
1
  9
$DIMASZ
 40
0.18
  9
$DIMEXO
 40
0.0625
  9
$DIMDLI
 40
0.38
  9
$DIMRND
 40
0
  9
$DIMDLE
 40
0
  9
$DIMEXE
 40
0.18
  9
$DIMTP
 40
0
  9
$DIMTM
 40
0
  9
$DIMTXT
 40
0.18
  9
$DIMCEN
 40
0.09
  9
$DIMTSZ
 40
0
  9
$DIMTOL
 70
0
  9
$DIMLIM
 70
0
  9
$DIMTIH
 70
1
  9
$DIMTOH
 70
1
  9
$DIMSE1
 70
0
  9
$DIMSE2
 70
0
  9
$DIMTAD
 70
0
  9
$DIMZIN
 70
0
  9
$DIMBLK
  1

  9
$DIMASO
 70
1
  9
$DIMSHO
 70
1
  9
$DIMPOST
  1

  9
$DIMAPOST
  1

  9
$DIMALT
 70
0
  9
$DIMALTD
 70
2
  9
$DIMALTF
 40
25.4
  9
$DIMLFAC
 40
1
  9
$DIMTOFL
 70
0
  9
$DIMTVP
 40
0
  9
$DIMTIX
 70
0
  9
$DIMSOXD
 70
0
  9
$DIMSAH
 70
0
  9
$DIMBLK1
  1

  9
$DIMBLK2
  1

  9
$DIMSTYLE
  2
*UNNAMED
  9
$DIMCLRD
 70
0
  9
$DIMCLRE
 70
0
  9
$DIMCLRT
 70
0
  9
$DIMTFAC
 40
1
  9
$DIMGAP
 40
0.09
  9
$LUNITS
 70
2
  9
$LUPREC
 70
4
  9
$AXISMODE
 70
0
  9
$AXISUNIT
 10
0
 20
0
  9
$SKETCHINC
 40
0.1
  9
$FILLETRAD
 40
2
  9
$AUNITS
 70
0
  9
$AUPREC
 70
0
  9
$MENU
  1
ACAD
  9
$ELEVATION
 40
0
  9
$THICKNESS
 40
0
  9
$VIEWDIR
 10
0
 20
0
 30
1
  9
$LIMCHECK
 70
0
  9
$BLIPMODE
 70
1
  9
$CHAMFERA
 40
0
  9
$CHAMFERB
 40
0
  9
$FASTZOOM
 70
1
  9
$SKPOLY
 70
0
  9
$ANGBASE
 50
0
  9
$ANGDIR
 70
0
  9
$PDMODE
 70
0
  9
$PDSIZE
 40
0
  9
$PLINEWID
 40
0
  9
$COORDS
 70
2
  0
ENDSEC
  0
SECTION
  2
TABLES
  0
TABLE
  2
DIMSTYLE
 70
1
  0
DIMSTYLE
  2
DMST_1
 70
0
  3

  4

  5

  6

  7

 40
1
 41
3.2
 42
1
 43
7
 44
1
 45
0
 46
0
 47
0
 48
0
140
3.2
141
0
142
0
143
25.4
144
1
145
0
146
1
147
0.09
 71
0
 72
0
 73
0
 74
0
 75
0
 76
0
 77
1
 78
9
170
0
171
2
172
0
173
0
174
0
175
0
176
2
177
2
178
2
  0
ENDTAB
  0
TABLE
  2
LTYPE
 70
9
  0
LTYPE
  2
CONTINUOUS
 70
64
  3
Solid line
 72
65
 73
0
 40
0
  0
LTYPE
  2
BORDER
 70
64
  3
__ __ . __ __ .
 72
65
 73
6
 40
7.213832855286579
 49
2.061095101510451
 49
-1.030547550755226
 49
2.061095101510451
 49
-1.030547550755226
 49
0
 49
-1.030547550755226
  0
LTYPE
  2
CENTER
 70
64
  3
____ _ ____ _
 72
65
 73
4
 40
8.244380406041804
 49
5.152737753776128
 49
-1.030547550755226
 49
1.030547550755226
 49
-1.030547550755226
  0
LTYPE
  2
DASHDOT
 70
64
  3
__ . __ . __ .
 72
65
 73
4
 40
4.122190203020902
 49
2.061095101510451
 49
-1.030547550755226
 49
0
 49
-1.030547550755226
  0
LTYPE
  2
DASHED
 70
64
  3
__ __ __ __ __
 72
65
 73
2
 40
3.091642652265676
 49
2.061095101510451
 49
-1.030547550755226
  0
LTYPE
  2
DIVIDE
 70
64
  3
__ . . __ . . 
 72
65
 73
6
 40
5.152737753776128
 49
2.061095101510451
 49
-1.030547550755226
 49
0
 49
-1.030547550755226
 49
0
 49
-1.030547550755226
  0
LTYPE
  2
DOT
 70
64
  3
..............
 72
65
 73
4
 40
2.061095101510451
 49
0
 49
-1.030547550755226
 49
0
 49
-1.030547550755226
  0
LTYPE
  2
HIDDEN
 70
64
  3
_ _ _ _ _ _ _
 72
65
 73
2
 40
1.545821326132838
 49
1.030547550755226
 49
-0.5152737753776128
  0
LTYPE
  2
PHANTOM
 70
64
  3
_____ _ _ _____ _ _ 
 72
65
 73
6
 40
10.30547550755226
 49
5.152737753776128
 49
-1.030547550755226
 49
1.030547550755226
 49
-1.030547550755226
 49
1.030547550755226
 49
-1.030547550755226
  0
ENDTAB
  0
TABLE
  2
LAYER
 70
3
  0
LAYER
  2
0
 70
0
 62
7
  6
CONTINUOUS
  0
LAYER
  2
1
 70
0
 62
7
  6
CONTINUOUS
  0
ENDTAB
  0
TABLE
  2
STYLE
 70
4
  0
STYLE
  2
STANDARD
 70
0
 40
0
 41
1
 50
0
 71
0
 42
3.5
  3
txt
  4

  0
STYLE
  2
SIMPLEX
 70
0
 40
0
 41
1
 50
0
 71
0
 42
3.5
  3
simplex
  4

  0
STYLE
  2
COMPLEX
 70
0
 40
0
 41
1
 50
0
 71
0
 42
3.5
  3
complex
  4

  0
STYLE
  2
ITALIC
 70
0
 40
0
 41
1
 50
0
 71
0
 42
3.5
  3
italic
  4

  0
ENDTAB
  0
TABLE
  2
VIEW
 70
0
  0
ENDTAB
  0
ENDSEC
  0
SECTION
  2
BLOCKS
  0
BLOCK
  8
1
  2
*D0
 70
1
 10
0
 20
0
 30
0
  0
LINE
  8
1
 62
2
 10
-355.41323353823
 20
135.7477296892724
 30
0
 11
-355.41323353823
 21
165.9477296892724
 31
0
  0
LINE
  8
1
 62
2
 10
-385.4056928426751
 20
165.9477296892724
 30
0
 11
-354.41323353823
 21
165.9477296892724
 31
0
  0
LINE
  8
1
 62
2
 10
-368.363935689922
 20
135.7477296892724
 30
0
 11
-354.41323353823
 21
135.7477296892724
 31
0
  0
SOLID
  8
1
 62
2
 10
-355.41323353823
 20
165.9477296892724
 30
0
 11
-354.99723353823
 21
162.7477296892724
 31
0
 12
-355.82923353823
 22
162.7477296892724
 32
0
 13
-355.82923353823
 23
162.7477296892724
 33
0
  0
SOLID
  8
1
 62
2
 10
-355.41323353823
 20
135.7477296892724
 30
0
 11
-355.82923353823
 21
138.9477296892724
 31
0
 12
-354.99723353823
 22
138.9477296892724
 32
0
 13
-354.99723353823
 23
138.9477296892724
 33
0
  0
TEXT
  8
1
 62
2
 10
-356.93323353823
 20
146.4477296892724
 30
0
 40
3.2
  1
30,2
 50
90
 41
0.9
  0
ENDBLK
  8
0
  0
BLOCK
  8
1
  2
*D1
 70
1
 10
0
 20
0
 30
0
  0
LINE
  8
1
 62
2
 10
-412.1639356899221
 20
175.18066196988
 30
0
 11
-369.3639356899221
 21
175.18066196988
 31
0
  0
LINE
  8
1
 62
2
 10
-369.3639356899221
 20
148.7477296892724
 30
0
 11
-369.3639356899221
 21
176.18066196988
 31
0
  0
LINE
  8
1
 62
2
 10
-412.1639356899221
 20
165.4477296892724
 30
0
 11
-412.1639356899221
 21
176.18066196988
 31
0
  0
SOLID
  8
1
 62
2
 10
-369.3639356899221
 20
175.18066196988
 30
0
 11
-372.5639356899221
 21
174.76466196988
 31
0
 12
-372.5639356899221
 22
175.59666196988
 32
0
 13
-372.5639356899221
 23
175.59666196988
 33
0
  0
SOLID
  8
1
 62
2
 10
-412.1639356899221
 20
175.18066196988
 30
0
 11
-408.9639356899222
 21
175.59666196988
 31
0
 12
-408.9639356899222
 22
174.76466196988
 32
0
 13
-408.9639356899222
 23
174.76466196988
 33
0
  0
TEXT
  8
1
 62
2
 10
-395.1639356899221
 20
176.70066196988
 30
0
 40
3.2
  1
42,8
 41
0.9
  0
ENDBLK
  8
0
  0
BLOCK
  8
1
  2
*D2
 70
1
 10
0
 20
0
 30
0
  0
LINE
  8
1
 62
2
 10
-400.6639356899221
 20
125.295643906902
 30
0
 11
-369.3639356899221
 21
125.295643906902
 31
0
  0
LINE
  8
1
 62
2
 10
-369.3639356899221
 20
134.7477296892724
 30
0
 11
-369.3639356899221
 21
124.295643906902
 31
0
  0
LINE
  8
1
 62
2
 10
-400.6639356899221
 20
134.7477296892724
 30
0
 11
-400.6639356899221
 21
124.295643906902
 31
0
  0
SOLID
  8
1
 62
2
 10
-369.3639356899221
 20
125.295643906902
 30
0
 11
-372.5639356899221
 21
124.879643906902
 31
0
 12
-372.5639356899221
 22
125.711643906902
 32
0
 13
-372.5639356899221
 23
125.711643906902
 33
0
  0
SOLID
  8
1
 62
2
 10
-400.6639356899221
 20
125.295643906902
 30
0
 11
-397.4639356899221
 21
125.711643906902
 31
0
 12
-397.4639356899221
 22
124.879643906902
 32
0
 13
-397.4639356899221
 23
124.879643906902
 33
0
  0
TEXT
  8
1
 62
2
 10
-388.9339356899221
 20
126.815643906902
 30
0
 40
3.2
  1
31,3
 41
0.9
  0
ENDBLK
  8
0
  0
BLOCK
  8
1
  2
*D3
 70
1
 10
0
 20
0
 30
0
  0
LINE
  8
1
 62
2
 10
-341.463935689922
 20
122.843674212599
 30
0
 11
-255.663935689922
 21
122.843674212599
 31
0
  0
LINE
  8
1
 62
2
 10
-255.663935689922
 20
134.7477296892724
 30
0
 11
-255.663935689922
 21
121.843674212599
 31
0
  0
LINE
  8
1
 62
2
 10
-341.463935689922
 20
134.7477296892724
 30
0
 11
-341.463935689922
 21
121.843674212599
 31
0
  0
SOLID
  8
1
 62
2
 10
-341.463935689922
 20
122.843674212599
 30
0
 11
-338.263935689922
 21
123.259674212599
 31
0
 12
-338.263935689922
 22
122.427674212599
 32
0
 13
-338.263935689922
 23
122.427674212599
 33
0
  0
SOLID
  8
1
 62
2
 10
-255.663935689922
 20
122.843674212599
 30
0
 11
-258.863935689922
 21
122.427674212599
 31
0
 12
-258.863935689922
 22
123.259674212599
 32
0
 13
-258.863935689922
 23
123.259674212599
 33
0
  0
TEXT
  8
1
 62
2
 10
-302.963935689922
 20
124.363674212599
 30
0
 40
3.2
  1
85,8
 41
0.9
  0
ENDBLK
  8
0
  0
BLOCK
  8
0
  2
TOP__4
 70
0
 10
-364.606525859871
 20
-121.5388166789186
 30
0
  0
LINE
  8
1
 62
2
  6
DASHDOT
 10
-386.4056928426751
 20
166.0977296892724
 30
0
 11
-386.4056928426751
 21
162.7977296892724
 31
0
  0
LINE
  8
1
 62
2
  6
DASHDOT
 10
-384.7556928426751
 20
164.4477296892724
 30
0
 11
-388.0556928426751
 21
164.4477296892724
 31
0
  0
LINE
  8
1
 62
2
  6
DASHDOT
 10
-398.6056928426751
 20
166.0977296892724
 30
0
 11
-398.6056928426751
 21
162.7977296892724
 31
0
  0
LINE
  8
1
 62
2
  6
DASHDOT
 10
-396.9556928426751
 20
164.4477296892724
 30
0
 11
-400.2556928426751
 21
164.4477296892724
 31
0
  0
LINE
  8
1
 62
2
  6
DASHDOT
 10
-410.7348142662986
 20
166.0487156313961
 30
0
 11
-410.7348142662986
 21
162.9040173545607
 31
0
  0
LINE
  8
1
 62
2
  6
DASHDOT
 10
-409.1624651278809
 20
164.4763664929784
 30
0
 11
-412.3071634047163
 21
164.4763664929784
 31
0
  0
LINE
  8
1
 62
7
 10
-400.663935689922
 20
135.7477296892724
 30
0
 11
-369.363935689922
 21
135.7477296892724
 31
0
  0
LINE
  8
1
 62
7
 10
-369.363935689922
 20
147.7477296892724
 30
0
 11
-369.363935689922
 21
135.7477296892724
 31
0
  0
LINE
  8
1
 62
7
 10
-400.663935689922
 20
145.4477296892724
 30
0
 11
-400.663935689922
 21
135.7477296892724
 31
0
  0
LINE
  8
1
 62
7
 10
-385.3266831421671
 20
165.4897172449609
 30
0
 11
-370.2059162889061
 21
149.8317048006494
 31
0
  0
LINE
  8
1
 62
7
 10
-382.9114405409036
 20
155.4977296892724
 30
0
 11
-387.8545815821087
 21
164.0595011216186
 31
0
  0
LINE
  8
1
 62
7
 10
-385.2524662022688
 20
153.6687199887644
 30
0
 11
-397.5266831421671
 21
165.4897172449609
 31
0
  0
LINE
  8
1
 62
7
 10
-395.1114405409036
 20
155.4977296892724
 30
0
 11
-400.0545815821087
 21
164.0595011216186
 31
0
  0
LINE
  8
1
 62
7
 10
-397.4524662022688
 20
153.6687199887644
 30
0
 11
-409.7266831421671
 21
165.4897172449609
 31
0
  0
LINE
  8
1
 62
7
 10
-412.0825002304289
 20
163.9602108235694
 30
0
 11
-401.1193244955065
 21
147.0367400319874
 31
0
  0
LINE
  8
1
 62
7
 10
-380.063935689922
 20
144.7477296892724
 30
0
 11
-389.963935689922
 21
144.7477296892724
 31
0
  0
LINE
  8
1
 62
7
 10
-390.763935689922
 20
145.5477296892724
 30
0
 11
-390.763935689922
 21
147.9477296892724
 31
0
  0
LINE
  8
1
 62
7
 10
-389.963935689922
 20
148.7477296892724
 30
0
 11
-380.063935689922
 21
148.7477296892724
 31
0
  0
LINE
  8
1
 62
7
 10
-379.263935689922
 20
147.9477296892724
 30
0
 11
-379.263935689922
 21
145.5477296892724
 31
0
  0
LINE
  8
1
 62
7
 10
-341.463935689922
 20
135.7477296892724
 30
0
 11
-255.663935689922
 21
135.7477296892724
 31
0
  0
LINE
  8
1
 62
7
 10
-255.663935689922
 20
135.7477296892724
 30
0
 11
-255.663935689922
 21
165.9477296892724
 31
0
  0
LINE
  8
1
 62
7
 10
-255.663935689922
 20
165.9477296892724
 30
0
 11
-341.4639356899221
 21
165.9477296892724
 31
0
  0
LINE
  8
1
 62
7
 10
-341.4639356899221
 20
165.9477296892724
 30
0
 11
-341.463935689922
 21
135.7477296892724
 31
0
  0
LINE
  8
1
 62
7
  6
DASHED
 10
-255.663935689922
 20
148.7477296892724
 30
0
 11
-341.463935689922
 21
148.7477296892724
 31
0
  0
LINE
  8
1
 62
7
  6
DASHED
 10
-341.463935689922
 20
144.7477296892724
 30
0
 11
-255.663935689922
 21
144.7477296892724
 31
0
  0
LINE
  8
1
 62
2
  6
DASHDOT
 10
-385.013935689922
 20
150.4585680126254
 30
0
 11
-385.013935689922
 21
143.4585680126254
 31
0
  0
ARC
  8
1
 62
7
 10
-372.363935689922
 20
147.7477296892724
 30
0
 40
3
 50
0
 51
44.00000000000055
  0
ARC
  8
1
 62
7
 10
-403.663935689922
 20
145.4477296892724
 30
0
 40
3
 50
0
 51
31.98316848614458
  0
ARC
  8
1
 62
7
 10
-380.063935689922
 20
145.5477296892724
 30
0
 40
0.799999999999983
 50
270
 51
0
  0
ARC
  8
1
 62
7
 10
-380.063935689922
 20
147.9477296892724
 30
0
 40
0.8000000000000114
 50
0
 51
90
  0
ARC
  8
1
 62
7
 10
-389.963935689922
 20
147.9477296892724
 30
0
 40
0.8000000000000114
 50
90
 51
180
  0
ARC
  8
1
 62
7
 10
-389.963935689922
 20
145.5477296892724
 30
0
 40
0.8000000000000114
 50
180
 51
270
  0
ARC
  8
1
 62
7
 10
-386.4056928426751
 20
164.4477296892724
 30
0
 40
1.5
 50
90
 51
194.9999999999997
  0
ARC
  8
1
 62
7
 10
-384.2104786465803
 20
154.7477296892724
 30
0
 40
1.5
 50
270
 51
29.99999999999837
  0
ARC
  8
1
 62
7
 10
-398.6056928426751
 20
164.4477296892724
 30
0
 40
1.500000000000052
 50
43.99999999999869
 51
195.0000000000003
  0
ARC
  8
1
 62
7
 10
-410.663935689922
 20
164.4477296892724
 30
0
 40
1.500000000000057
 50
180
 51
198.9663369722896
  0
ARC
  8
1
 62
7
 10
-396.4104786465803
 20
154.7477296892724
 30
0
 40
1.5
 50
270
 51
29.99999999999837
  0
ARC
  8
1
 62
7
 10
-410.7348142662986
 20
164.4763664929784
 30
0
 40
1.429408307652571
 50
45.14794195555041
 51
181.1479419555542
  0
ARC
  8
1
 62
7
 10
-386.4056928426751
 20
164.4477296892724
 30
0
 40
1.500000000000011
 50
44.00000000000019
 51
90
  0
ARC
  8
1
 62
7
 10
-384.2104786465803
 20
154.7477296892724
 30
0
 40
1.500000000000012
 50
226.0000000000013
 51
270
  0
ARC
  8
1
 62
7
 10
-396.4104786465803
 20
154.7477296892724
 30
0
 40
1.500000000000012
 50
226.0000000000013
 51
270
  0
DIMENSION
  8
1
  6
CONTINUOUS
 62
2
  2
*D0
  3
DMST_1
 10
-355.41323353823
 20
165.9477296892724
 30
0
 11
-358.37323353823
 21
150.8477296892724
 31
0
 12
0
 22
0
 32
0
 70
0
 13
-369.363935689922
 23
135.7477296892724
 33
0
 14
-386.4056928426751
 24
165.9477296892724
 34
0
 50
90
 53
0
  0
DIMENSION
  8
1
  6
CONTINUOUS
 62
2
  2
*D1
  3
DMST_1
 10
-369.3639356899221
 20
175.18066196988
 30
0
 11
-390.7639356899221
 21
178.14066196988
 31
0
 12
0
 22
0
 32
0
 70
0
 13
-412.1639356899221
 23
164.4477296892724
 33
0
 14
-369.363935689922
 24
147.7477296892724
 34
0
 53
0
  0
DIMENSION
  8
1
  6
CONTINUOUS
 62
2
  2
*D2
  3
DMST_1
 10
-400.6639356899221
 20
125.295643906902
 30
0
 11
-385.0139356899221
 21
128.255643906902
 31
0
 12
0
 22
0
 32
0
 70
0
 13
-369.363935689922
 23
135.7477296892724
 33
0
 14
-400.663935689922
 24
135.7477296892724
 34
0
 53
0
  0
DIMENSION
  8
1
  6
CONTINUOUS
 62
2
  2
*D3
  3
DMST_1
 10
-341.463935689922
 20
122.843674212599
 30
0
 11
-298.563935689922
 21
125.803674212599
 31
0
 12
0
 22
0
 32
0
 70
0
 13
-255.663935689922
 23
135.7477296892724
 33
0
 14
-341.463935689922
 24
135.7477296892724
 34
0
 53
0
  0
ENDBLK
  8
0
  0
ENDSEC
  0
SECTION
  2
ENTITIES
  0
INSERT
  8
0
  2
TOP__4
 10
-364.606525859871
 20
-121.5388166789186
 30
0
  0
ENDSEC
  0
EOF
