  0
SECTION
  2
HEADER
  9
$ACADVER
  1
AC1009
  9
$INSBASE
 10
0
 20
0
  9
$EXTMIN
 10
-553.3922498376542
 20
10.8362710063459
  9
$EXTMAX
 10
-343.3922498376551
 20
307.8362710063459
  9
$LIMMIN
 10
-553.3922498376542
 20
10.8362710063459
  9
$LIMMAX
 10
-343.3922498376551
 20
307.8362710063459
  9
$VIEWCTR
 10
10
 20
10
  9
$VIEWSIZE
 40
10
  9
$SNAPMODE
 70
0
  9
$SNAPUNIT
 10
1
 20
1
  9
$SNAPBASE
 10
0
 20
0
  9
$SNAPANG
 50
0
  9
$SNAPSTYLE
 70
0
  9
$SNAPISOPAIR
 70
0
  9
$GRIDMODE
 70
0
  9
$GRIDUNIT
 10
0
 20
0
  9
$ORTHOMODE
 70
0
  9
$REGENMODE
 70
1
  9
$FILLMODE
 70
1
  9
$QTEXTMODE
 70
0
  9
$DRAGMODE
 70
2
  9
$LTSCALE
 40
1
  9
$OSMODE
 70
0
  9
$ATTMODE
 70
1
  9
$TEXTSIZE
 40
3.5
  9
$TRACEWID
 40
0.5
  9
$TEXTSTYLE
  7
STANDARD
  9
$CLAYER
  8
0
  9
$CELTYPE
  6
BYLAYER
  9
$CECOLOR
 62
256
  9
$DIMSCALE
 40
1
  9
$DIMASZ
 40
0.18
  9
$DIMEXO
 40
0.0625
  9
$DIMDLI
 40
0.38
  9
$DIMRND
 40
0
  9
$DIMDLE
 40
0
  9
$DIMEXE
 40
0.18
  9
$DIMTP
 40
0
  9
$DIMTM
 40
0
  9
$DIMTXT
 40
0.18
  9
$DIMCEN
 40
0.09
  9
$DIMTSZ
 40
0
  9
$DIMTOL
 70
0
  9
$DIMLIM
 70
0
  9
$DIMTIH
 70
1
  9
$DIMTOH
 70
1
  9
$DIMSE1
 70
0
  9
$DIMSE2
 70
0
  9
$DIMTAD
 70
0
  9
$DIMZIN
 70
0
  9
$DIMBLK
  1

  9
$DIMASO
 70
1
  9
$DIMSHO
 70
1
  9
$DIMPOST
  1

  9
$DIMAPOST
  1

  9
$DIMALT
 70
0
  9
$DIMALTD
 70
2
  9
$DIMALTF
 40
25.4
  9
$DIMLFAC
 40
1
  9
$DIMTOFL
 70
0
  9
$DIMTVP
 40
0
  9
$DIMTIX
 70
0
  9
$DIMSOXD
 70
0
  9
$DIMSAH
 70
0
  9
$DIMBLK1
  1

  9
$DIMBLK2
  1

  9
$DIMSTYLE
  2
*UNNAMED
  9
$DIMCLRD
 70
0
  9
$DIMCLRE
 70
0
  9
$DIMCLRT
 70
0
  9
$DIMTFAC
 40
1
  9
$DIMGAP
 40
0.09
  9
$LUNITS
 70
2
  9
$LUPREC
 70
4
  9
$AXISMODE
 70
0
  9
$AXISUNIT
 10
0
 20
0
  9
$SKETCHINC
 40
0.1
  9
$FILLETRAD
 40
2
  9
$AUNITS
 70
0
  9
$AUPREC
 70
0
  9
$MENU
  1
ACAD
  9
$ELEVATION
 40
0
  9
$THICKNESS
 40
0
  9
$VIEWDIR
 10
0
 20
0
 30
1
  9
$LIMCHECK
 70
0
  9
$BLIPMODE
 70
1
  9
$CHAMFERA
 40
0
  9
$CHAMFERB
 40
0
  9
$FASTZOOM
 70
1
  9
$SKPOLY
 70
0
  9
$ANGBASE
 50
0
  9
$ANGDIR
 70
0
  9
$PDMODE
 70
0
  9
$PDSIZE
 40
0
  9
$PLINEWID
 40
0
  9
$COORDS
 70
2
  0
ENDSEC
  0
SECTION
  2
TABLES
  0
TABLE
  2
DIMSTYLE
 70
2
  0
DIMSTYLE
  2
DMST_1
 70
0
  3

  4

  5

  6

  7

 40
1
 41
3.2
 42
1
 43
7
 44
1
 45
0
 46
0
 47
0
 48
0
140
3.2
141
0
142
0
143
25.4
144
1
145
0
146
1
147
0.09
 71
0
 72
0
 73
0
 74
0
 75
0
 76
0
 77
1
 78
9
170
0
171
2
172
0
173
0
174
0
175
0
176
2
177
2
178
2
  0
DIMSTYLE
  2
DMST_2
 70
0
  3

  4

  5

  6

  7

 40
1
 41
3.5
 42
1
 43
7
 44
1
 45
0
 46
0
 47
0
 48
0
140
3.5
141
0
142
0
143
25.4
144
1
145
0
146
1
147
0.09
 71
0
 72
0
 73
0
 74
0
 75
0
 76
0
 77
1
 78
9
170
0
171
2
172
0
173
0
174
0
175
0
176
2
177
2
178
2
  0
ENDTAB
  0
TABLE
  2
LTYPE
 70
9
  0
LTYPE
  2
CONTINUOUS
 70
64
  3
Solid line
 72
65
 73
0
 40
0
  0
LTYPE
  2
BORDER
 70
64
  3
__ __ . __ __ .
 72
65
 73
6
 40
13.67763157894737
 49
3.907894736842105
 49
-1.953947368421053
 49
3.907894736842105
 49
-1.953947368421053
 49
0
 49
-1.953947368421053
  0
LTYPE
  2
CENTER
 70
64
  3
____ _ ____ _
 72
65
 73
4
 40
15.63157894736842
 49
9.769736842105264
 49
-1.953947368421053
 49
1.953947368421053
 49
-1.953947368421053
  0
LTYPE
  2
DASHDOT
 70
64
  3
__ . __ . __ .
 72
65
 73
4
 40
7.815789473684211
 49
3.907894736842105
 49
-1.953947368421053
 49
0
 49
-1.953947368421053
  0
LTYPE
  2
DASHED
 70
64
  3
__ __ __ __ __
 72
65
 73
2
 40
5.861842105263158
 49
3.907894736842105
 49
-1.953947368421053
  0
LTYPE
  2
DIVIDE
 70
64
  3
__ . . __ . . 
 72
65
 73
6
 40
9.769736842105264
 49
3.907894736842105
 49
-1.953947368421053
 49
0
 49
-1.953947368421053
 49
0
 49
-1.953947368421053
  0
LTYPE
  2
DOT
 70
64
  3
..............
 72
65
 73
4
 40
3.907894736842105
 49
0
 49
-1.953947368421053
 49
0
 49
-1.953947368421053
  0
LTYPE
  2
HIDDEN
 70
64
  3
_ _ _ _ _ _ _
 72
65
 73
2
 40
2.930921052631579
 49
1.953947368421053
 49
-0.9769736842105263
  0
LTYPE
  2
PHANTOM
 70
64
  3
_____ _ _ _____ _ _ 
 72
65
 73
6
 40
19.53947368421053
 49
9.769736842105264
 49
-1.953947368421053
 49
1.953947368421053
 49
-1.953947368421053
 49
1.953947368421053
 49
-1.953947368421053
  0
ENDTAB
  0
TABLE
  2
LAYER
 70
3
  0
LAYER
  2
1
 70
0
 62
7
  6
CONTINUOUS
  0
LAYER
  2
0
 70
0
 62
7
  6
CONTINUOUS
  0
ENDTAB
  0
TABLE
  2
STYLE
 70
4
  0
STYLE
  2
STANDARD
 70
0
 40
0
 41
1
 50
0
 71
0
 42
3.5
  3
txt
  4

  0
STYLE
  2
SIMPLEX
 70
0
 40
0
 41
1
 50
0
 71
0
 42
3.5
  3
simplex
  4

  0
STYLE
  2
COMPLEX
 70
0
 40
0
 41
1
 50
0
 71
0
 42
3.5
  3
complex
  4

  0
STYLE
  2
ITALIC
 70
0
 40
0
 41
1
 50
0
 71
0
 42
3.5
  3
italic
  4

  0
ENDTAB
  0
TABLE
  2
VIEW
 70
0
  0
ENDTAB
  0
ENDSEC
  0
SECTION
  2
BLOCKS
  0
BLOCK
  8
0
  2
TOP__1
 70
0
 10
-343.3922498376551
 20
10.8362710063459
 30
0
  0
LINE
  8
1
 62
2
  6
DOT
 10
-496.0932497069541
 20
40.53627100634594
 30
0
 11
-398.361789767074
 21
40.53627100634594
 31
0
  0
LINE
  8
1
 62
2
  6
DOT
 10
-496.0932497069541
 20
34.23627100634599
 30
0
 11
-398.468716966134
 21
34.23627100634599
 31
0
  0
LINE
  8
1
 62
2
  6
DOT
 10
-398.254862568014
 20
27.93627100634581
 30
0
 11
-496.2001769060141
 21
27.93627100634581
 31
0
  0
LINE
  8
1
 62
7
 10
-396.0563399877742
 20
25.8362710063459
 30
0
 11
-498.3922498376542
 21
25.8362710063459
 31
0
  0
LINE
  8
1
 62
7
 10
-419.1557041744652
 20
68.8362710063459
 30
0
 11
-419.1557041744652
 21
58.8362710063459
 31
0
  0
LINE
  8
1
 62
7
 10
-548.3922498376542
 20
50.45672463435994
 30
0
 11
-498.3922498376542
 21
50.45672463435994
 31
0
  0
LINE
  8
1
 62
2
  6
DOT
 10
-414.2730931393442
 20
76.8362710063459
 30
0
 11
-373.0563399877742
 21
76.8362710063459
 31
0
  0
LINE
  8
1
 62
2
  6
DOT
 10
-458.8922498376551
 20
72.8362710063459
 30
0
 11
-373.0563399877742
 21
72.8362710063459
 31
0
  0
LINE
  8
1
 62
2
 10
-396.0563399877742
 20
45.8362710063459
 30
0
 11
-371.0563399877742
 21
45.8362710063459
 31
0
  0
LINE
  8
1
 62
2
 10
-396.0563399877742
 20
25.8362710063459
 30
0
 11
-371.0563399877742
 21
25.8362710063459
 31
0
  0
LINE
  8
1
 62
7
 10
-396.0563399877742
 20
35.8362710063459
 30
0
 11
-371.0563399877742
 21
35.8362710063459
 31
0
  0
LINE
  8
1
 62
7
 10
-396.0563399877742
 20
15.8362710063459
 30
0
 11
-396.0563399877742
 21
68.8362710063459
 31
0
  0
LINE
  8
1
 62
7
 10
-460.8922498376551
 20
80.8362710063459
 30
0
 11
-460.8922498376551
 21
68.8362710063459
 31
0
  0
LINE
  8
1
 62
7
 10
-498.3922498376542
 20
46.8362710063459
 30
0
 11
-396.0563399877742
 21
46.8362710063459
 31
0
  0
LINE
  8
1
 62
7
 10
-419.1557041744652
 20
58.8362710063459
 30
0
 11
-419.1557041744652
 21
46.8362710063459
 31
0
  0
LINE
  8
1
 62
7
 10
-439.3569985236481
 20
68.8362710063459
 30
0
 11
-439.3569985236491
 21
58.8362710063459
 31
0
  0
LINE
  8
1
 62
7
 10
-371.0563399877742
 20
68.8362710063459
 30
0
 11
-548.3922498376542
 21
68.8362710063459
 31
0
  0
LINE
  8
1
 62
7
 10
-498.3922498376542
 20
68.8362710063459
 30
0
 11
-498.3922498376542
 21
15.8362710063459
 31
0
  0
LINE
  8
1
 62
7
 10
-371.0563399877742
 20
80.8362710063459
 30
0
 11
-371.0563399877742
 21
15.8362710063459
 31
0
  0
LINE
  8
1
 62
7
 10
-371.0563399877742
 20
80.8362710063459
 30
0
 11
-373.2902745782772
 21
80.8362710063459
 31
0
  0
LINE
  8
1
 62
2
  6
DOT
 10
-546.3922498376542
 20
72.8362710063459
 30
0
 11
-462.8922498376551
 21
72.8362710063459
 31
0
  0
LINE
  8
1
 62
2
  6
DOT
 10
-500.8537882991932
 20
76.8362710063459
 30
0
 11
-462.8922498376551
 21
76.8362710063459
 31
0
  0
LINE
  8
1
 62
2
 10
-343.3922498376551
 20
307.8362710063459
 30
0
 11
-553.3922498376542
 21
307.8362710063459
 31
0
  0
LINE
  8
1
 62
2
 10
-343.3922498376551
 20
10.8362710063459
 30
0
 11
-343.3922498376551
 21
307.8362710063459
 31
0
  0
LINE
  8
1
 62
2
 10
-553.3922498376542
 20
10.8362710063459
 30
0
 11
-343.3922498376551
 21
10.8362710063459
 31
0
  0
LINE
  8
1
 62
2
 10
-553.3922498376542
 20
307.8362710063459
 30
0
 11
-553.3922498376542
 21
10.8362710063459
 31
0
  0
LINE
  8
1
 62
7
 10
-548.3922498376542
 20
15.8362710063459
 30
0
 11
-548.3922498376542
 21
302.8362710063459
 31
0
  0
LINE
  8
1
 62
7
 10
-498.3922498376542
 20
40.85185013845398
 30
0
 11
-548.3922498376542
 21
40.85185013845398
 31
0
  0
LINE
  8
1
 62
7
 10
-548.3922498376542
 20
31.24697564254689
 30
0
 11
-498.3922498376542
 21
31.24697564254689
 31
0
  0
LINE
  8
1
 62
7
 10
-548.3922498376542
 20
15.8362710063459
 30
0
 11
-348.3922498376551
 21
15.8362710063459
 31
0
  0
LINE
  8
1
 62
2
 10
-356.6915914178621
 20
80.8362710063459
 30
0
 11
-356.6915914178621
 21
188.4213295168079
 31
0
  0
LINE
  8
1
 62
7
 10
-548.3922498376542
 20
80.8362710063459
 30
0
 11
-348.3922498376551
 21
80.8362710063459
 31
0
  0
LINE
  8
1
 62
2
 10
-364.9909329980692
 20
80.8362710063459
 30
0
 11
-364.9909329980692
 21
188.4213295168079
 31
0
  0
LINE
  8
1
 62
7
 10
-348.3922498376551
 20
302.8362710063459
 30
0
 11
-548.3922498376542
 21
302.8362710063459
 31
0
  0
LINE
  8
1
 62
2
  6
DOT
 10
-473.2516780383751
 20
54.8362710063459
 30
0
 11
-441.2830762802271
 21
54.8362710063459
 31
0
  0
LINE
  8
1
 62
2
  6
DOT
 10
-441.2830762802271
 20
50.8362710063459
 30
0
 11
-495.585339735509
 21
50.8362710063459
 31
0
  0
LINE
  8
1
 62
7
 10
-511.3387789606591
 20
31.24697564254689
 30
0
 11
-511.3387789606591
 21
15.8362710063459
 31
0
  0
LINE
  8
1
 62
7
 10
-498.3922498376542
 20
58.8362710063459
 30
0
 11
-396.0563399877742
 21
58.8362710063459
 31
0
  0
LINE
  8
1
 62
7
 10
-464.6534229841971
 20
68.8362710063459
 30
0
 11
-464.6534229841971
 21
58.8362710063459
 31
0
  0
LINE
  8
1
 62
7
 10
-348.3922498376551
 20
15.8362710063459
 30
0
 11
-348.3922498376551
 21
302.8362710063459
 31
0
  0
LINE
  8
1
 62
2
 10
-373.2902745782772
 20
87.45737677707689
 30
0
 11
-348.3922498376551
 21
87.45737677707689
 31
0
  0
LINE
  8
1
 62
2
 10
-373.2902745782772
 20
103.0541630004718
 30
0
 11
-348.3922498376551
 21
103.0541630004718
 31
0
  0
LINE
  8
1
 62
2
 10
-373.2902745782772
 20
120.3850057943359
 30
0
 11
-348.3922498376551
 21
120.3850057943359
 31
0
  0
LINE
  8
1
 62
2
 10
-373.2902745782772
 20
198.4573767770769
 30
0
 11
-348.3922498376551
 21
198.4573767770769
 31
0
  0
LINE
  8
1
 62
2
 10
-373.2902745782772
 20
214.0541630004718
 30
0
 11
-348.3922498376551
 21
214.0541630004718
 31
0
  0
LINE
  8
1
 62
2
 10
-373.2902745782772
 20
231.3850057943359
 30
0
 11
-348.3922498376551
 21
231.3850057943359
 31
0
  0
LINE
  8
1
 62
2
 10
-375.6920231509332
 20
191.402570963372
 30
0
 11
-348.3922498376551
 21
191.402570963372
 31
0
  0
LINE
  8
1
 62
2
 10
-373.2902745782772
 20
300.7837850554679
 30
0
 11
-373.2902745782772
 21
198.4573767770769
 31
0
  0
LINE
  8
1
 62
2
 10
-352.5419206277582
 20
188.4213295168079
 30
0
 11
-352.5419206277582
 21
80.8362710063459
 31
0
  0
LINE
  8
1
 62
2
 10
-360.8412622079661
 20
188.4213295168079
 30
0
 11
-360.8412622079661
 21
80.8362710063459
 31
0
  0
LINE
  8
1
 62
2
 10
-369.1406037881732
 20
188.4213295168079
 30
0
 11
-369.1406037881732
 21
80.8362710063459
 31
0
  0
LINE
  8
1
 62
2
 10
-373.2902745782772
 20
188.4213295168079
 30
0
 11
-373.2902745782772
 21
80.8362710063459
 31
0
  0
LINE
  8
1
 62
2
 10
-348.3922498376551
 20
188.4213295168079
 30
0
 11
-375.6920231509332
 21
188.4213295168079
 31
0
  0
LINE
  8
1
 62
2
 10
-364.9909329980692
 20
191.402570963372
 30
0
 11
-364.9909329980692
 21
300.7837850554679
 31
0
  0
LINE
  8
1
 62
2
 10
-356.6915914178621
 20
191.402570963372
 30
0
 11
-356.6915914178621
 21
300.7837850554679
 31
0
  0
LINE
  8
1
 62
7
 10
-439.3569985236491
 20
58.8362710063459
 30
0
 11
-439.3569985236491
 21
46.8362710063459
 31
0
  0
LINE
  8
1
 62
2
 10
-352.5419206277582
 20
300.7837850554679
 30
0
 11
-352.5419206277582
 21
191.402570963372
 31
0
  0
LINE
  8
1
 62
2
 10
-360.8412622079661
 20
300.7837850554679
 30
0
 11
-360.8412622079661
 21
191.402570963372
 31
0
  0
LINE
  8
1
 62
2
 10
-369.1406037881732
 20
300.7837850554679
 30
0
 11
-369.1406037881732
 21
191.402570963372
 31
0
  0
LINE
  8
1
 62
2
 10
-373.2902745782772
 20
300.7837850554679
 30
0
 11
-373.2902745782772
 21
191.402570963372
 31
0
  0
LINE
  8
1
 62
2
 10
-375.592182638597
 20
300.7837850554679
 30
0
 11
-348.3922498376551
 21
300.7837850554679
 31
0
  0
LINE
  8
1
 62
7
 10
-371.0563399877742
 20
25.8362710063459
 30
0
 11
-348.3922498376551
 21
25.8362710063459
 31
0
  0
LINE
  8
1
 62
7
 10
-396.0563399877742
 20
55.8362710063459
 30
0
 11
-371.0563399877742
 21
55.8362710063459
 31
0
  0
TEXT
  8
1
 62
2
 10
-495.8793953088341
 20
22.67731139322382
 30
0
 40
1.5
  1
Progetto (Project)
 41
0.9
  0
TEXT
  8
1
 62
2
 10
-373.836333769779
 20
82.1684326237928
 30
0
 40
1.2
  1
(Ind.)
 50
90
 41
1.08
  7
SIMPLEX
  0
TEXT
  8
1
 62
2
 10
-375.5410785318991
 20
81.95435335097795
 30
0
 40
1.2
  1
Indic.
 50
90
 41
1.08
  0
TEXT
  8
1
 62
2
 10
-373.836333769779
 20
107.4963301893538
 30
0
 40
1.2
  1
(Draftsm.)
 50
90
 41
1.08
  7
SIMPLEX
  0
TEXT
  8
1
 62
2
 10
-375.5410785318991
 20
109.613028619222
 30
0
 40
1.2
  1
 Dis.
 50
90
 41
1.08
  0
TEXT
  8
1
 62
2
 10
-373.962611159566
 20
92.40307780796798
 30
0
 40
1.2
  1
(Date)
 50
90
 41
1.08
  7
SIMPLEX
  0
TEXT
  8
1
 62
2
 10
-375.6673559216861
 20
92.7659582578699
 30
0
 40
1.2
  1
Data
 50
90
 41
1.08
  0
TEXT
  8
1
 62
2
 10
-394.8693557642282
 20
23.25288318118
 30
0
 40
1.2
  1
Data
 41
1.08
  0
TEXT
  8
1
 62
2
 10
-394.8693557642282
 20
20.61288318118
 30
0
 40
1.2
  1
(Date)
 41
1.08
  0
TEXT
  8
1
 62
2
 10
-547.2754473966511
 20
38.681167559413
 30
0
 40
1.2
  1
Dis. Complessivo
 41
1.35
  0
TEXT
  8
1
 62
2
 10
-547.2754473966511
 20
36.041167559413
 30
0
 40
1.2
  1
(Assembly drawing)
 41
1.35
  0
TEXT
  8
1
 62
2
 10
-457.8922498376551
 20
76.8362710063459
 30
0
 40
1.3
  1
Tratt. superfic. (Surface treatments)
 41
0.9899999999999999
  0
TEXT
  8
1
 62
2
 10
-417.8596213136202
 20
56.49525151203797
 30
0
 40
1.2
  1
Ritiro %%%
 41
1.08
  0
TEXT
  8
1
 62
2
 10
-417.8596213136202
 20
53.85525151203797
 30
0
 40
1.2
  1
(Contraction %%%)
 41
1.08
  0
TEXT
  8
1
 62
2
 10
-495.3922498376551
 20
55.63029971070091
 30
0
 40
1.2
  1
Materiale (Mat.)
 41
1.08
  0
TEXT
  8
1
 62
2
 10
-547.2754473966511
 20
28.61026396109482
 30
0
 40
1.2
  1
Disegno o stp.
 41
1.35
  0
TEXT
  8
1
 62
2
 10
-547.2754473966511
 20
25.97026396109482
 30
0
 40
1.2
  1
(Drawing or mould)
 41
1.35
  0
TEXT
  8
1
 62
2
 10
-369.875504530032
 20
23.49574661466399
 30
0
 40
1.2
  1
Foglio
 41
1.08
  0
TEXT
  8
1
 62
2
 10
-369.875504530032
 20
20.85574661466399
 30
0
 40
1.2
  1
(Sheet)
 41
1.08
  0
TEXT
  8
1
 62
2
 10
-394.7567848047111
 20
33.41490003454386
 30
0
 40
1.2
  1
Contr.
 41
1.08
  0
TEXT
  8
1
 62
2
 10
-394.7567848047111
 20
30.77490003454386
 30
0
 40
1.2
  1
(Check)
 41
1.08
  0
TEXT
  8
1
 62
2
 10
-394.7567848047111
 20
53.44895147593786
 30
0
 40
1.2
  1
Dis.
 41
1.08
  0
TEXT
  8
1
 62
2
 10
-394.7567848047111
 20
50.80895147593786
 30
0
 40
1.2
  1
(Draftsm.)
 41
1.08
  0
TEXT
  8
1
 62
2
 10
-394.7567848047111
 20
66.10743611579882
 30
0
 40
1.2
  1
Scala
 41
1.08
  0
TEXT
  8
1
 62
2
 10
-394.7567848047111
 20
63.46743611579882
 30
0
 40
1.2
  1
(Scale)
 41
1.08
  0
TEXT
  8
1
 62
2
 10
-547.2120291277661
 20
47.86475308556091
 30
0
 40
1.2
  1
Dis. Cliente
 41
1.35
  0
TEXT
  8
1
 62
2
 10
-547.2120291277661
 20
45.22475308556091
 30
0
 40
1.2
  1
(Customer Drawing)
 41
1.35
  0
TEXT
  8
1
 62
2
 10
-545.3922498376542
 20
76.8362710063459
 30
0
 40
1.2
  1
Tratt. termici (Heat treatments)
 41
1.35
  0
TEXT
  8
1
 62
2
 10
-368.2845066414393
 20
27.971058587073
 30
0
 40
1.180511166170861
  1
Proprieta' della Marbett S.p.A..
 50
90
 41
1.350000000000001
  0
TEXT
  8
1
 62
2
 10
-365.6873820758634
 20
27.971058587073
 30
0
 40
1.180511166170861
  1
Senza autorizzazione scritta della
 50
90
 41
1.350000000000001
  0
TEXT
  8
1
 62
2
 10
-363.0902575102875
 20
27.971058587073
 30
0
 40
1.180511166170861
  1
stessa il presente disegno non puo'
 50
90
 41
1.350000000000001
  0
TEXT
  8
1
 62
2
 10
-360.4931329447117
 20
27.971058587073
 30
0
 40
1.180511166170861
  1
essere comunque utilizzato per la
 50
90
 41
1.350000000000001
  0
TEXT
  8
1
 62
2
 10
-357.8960083791358
 20
27.971058587073
 30
0
 40
1.180511166170861
  1
costruzione dell'oggetto rappresentato,
 50
90
 41
1.350000000000001
  0
TEXT
  8
1
 62
2
 10
-355.2988838135599
 20
27.971058587073
 30
0
 40
1.180511166170861
  1
ne' venire comunicato a terzi o
 50
90
 41
1.350000000000001
  0
TEXT
  8
1
 62
2
 10
-352.701759247984
 20
27.971058587073
 30
0
 40
1.180511166170861
  1
riprodotto. La Societa' proprietaria
 50
90
 41
1.350000000000001
  0
TEXT
  8
1
 62
2
 10
-350.1046346824081
 20
27.971058587073
 30
0
 40
1.180511166170861
  1
tutela i propri diritti a rigore di legge.
 50
90
 41
1.350000000000001
  0
TEXT
  8
1
 62
2
 10
-495.3984183792791
 20
41.8362710063459
 30
0
 40
1.5
  1
Descrizione (Description)
 41
0.9
  0
TEXT
  8
1
 62
2
 10
-360.889541385711
 20
12.36912365372382
 30
0
 40
2
  1
 UNI A/4
 41
0.9
  0
TEXT
  8
1
 62
2
 10
-438.0543440650461
 20
66.28042064849693
 30
0
 40
1.3
  1
Peso
 41
1.08
  0
TEXT
  8
1
 62
2
 10
-438.0543440650461
 20
63.68042064849693
 30
0
 40
1.3
  1
(Weight)
 41
1.08
  0
TEXT
  8
1
 62
2
 10
-374.1874458499192
 20
141.4395871815518
 30
0
 40
1.3
  1
Modifiche (Modifications)
 50
90
 41
1.08
  0
TEXT
  8
1
 62
2
 10
-509.2630804228991
 20
28.4170202945038
 30
0
 40
1.3
  1
Modifica
 41
1.08
  0
TEXT
  8
1
 62
2
 10
-494.975036625618
 20
62.73454445185189
 30
0
 40
2.5
  1
UFFICI TECNICI
 41
0.9
  0
TEXT
  8
1
 62
2
 10
-463.3708968545111
 20
66.61525341725678
 30
0
 40
1.3
  1
Linea
 41
1.08
  0
TEXT
  8
1
 62
2
 10
-374.1874458499192
 20
253.060737459849
 30
0
 40
1.3
  1
Modifiche (Modifications)
 50
90
 41
1.08
  0
TEXT
  8
1
 62
2
 10
-417.780931782054
 20
66.3888736475808
 30
0
 40
1.2
  1
Toll. Gen.
 41
1.08
  0
TEXT
  8
1
 62
2
 10
-417.7301010601732
 20
63.69705919268586
 30
0
 40
1.2
  1
(Gen. Tol.)
 41
1.08
  0
TEXT
  8
1
 62
2
 10
-463.68321671801
 20
63.85242891711096
 30
0
 40
1.2
  1
(Line)
 41
1.08
  0
TEXT
  8
1
 62
2
 10
-547.1922498376541
 20
32.88865109295398
 30
0
 40
1.2
  1
N%%d
 41
0.9
  0
TEXT
  8
1
 62
2
 10
-547.1922498376541
 20
43.01223642897594
 30
0
 40
1.2
  1
N%%d
 41
0.9
  0
TEXT
  8
1
 62
2
 10
-547.1922498376541
 20
23.41520426474995
 30
0
 40
1.2
  1
N%%d
 41
0.9
  0
TEXT
  8
1
 62
2
 10
-437.8018499335192
 20
56.64006319503291
 30
0
 40
1.2
  1
Colore
 41
1.08
  0
TEXT
  8
1
 62
2
 10
-437.8018499335192
 20
54.00006319503291
 30
0
 40
1.2
  1
(Colour)
 41
1.08
  0
TEXT
  8
1
 62
2
 10
-373.836333769779
 20
192.9075372949269
 30
0
 40
1.2
  1
(Ind.)
 50
90
 41
1.08
  7
SIMPLEX
  0
TEXT
  8
1
 62
2
 10
-375.5410785318991
 20
192.6777704973829
 30
0
 40
1.2
  1
Indic.
 50
90
 41
1.08
  0
TEXT
  8
1
 62
2
 10
-373.836333769779
 20
218.3752193189648
 30
0
 40
1.2
  1
(Draftsm.)
 50
90
 41
1.08
  7
SIMPLEX
  0
TEXT
  8
1
 62
2
 10
-375.5410785318991
 20
221.3622619219029
 30
0
 40
1.2
  1
Dis.
 50
90
 41
1.08
  0
TEXT
  8
1
 62
2
 10
-373.962611159566
 20
203.366085361359
 30
0
 40
1.2
  1
(Date)
 50
90
 41
1.08
  7
SIMPLEX
  0
TEXT
  8
1
 62
2
 10
-375.6673559216861
 20
203.9601983399068
 30
0
 40
1.2
  1
Data
 50
90
 41
1.08
  0
TEXT
  8
1
 62
2
 10
-510.1422850947402
 20
26.23305542033791
 30
0
 40
1.2
  1
(Modific.)
 41
1.35
  0
TEXT
  8
1
 62
2
 10
-394.8693557642282
 20
43.25288318118
 30
0
 40
1.2
  1
Data
 41
1.08
  0
TEXT
  8
1
 62
2
 10
-394.8693557642282
 20
40.61288318118
 30
0
 40
1.2
  1
(Date)
 41
1.08
  0
TEXT
  8
1
 62
2
 10
-545.3406936835502
 20
58.14649782035281
 30
0
 40
4
  1
Rexnord Marbett
 41
0.7785
 51
9.999999999999996
  7
COMPLEX
  0
ENDBLK
  8
0
  0
BLOCK
  8
1
  2
*D0
 70
1
 10
0
 20
0
 30
0
  0
LINE
  8
1
 62
2
 10
-541.4043317786781
 20
244.8275773083225
 30
0
 11
-541.4043317786781
 21
258.8275773083224
 31
0
  0
LINE
  8
1
 62
2
 10
-480.8076450265698
 20
258.8275773083224
 30
0
 11
-542.4043317786781
 21
258.8275773083224
 31
0
  0
LINE
  8
1
 62
2
 10
-512.802836230558
 20
244.8275773083225
 30
0
 11
-542.4043317786781
 21
244.8275773083225
 31
0
  0
SOLID
  8
1
 62
2
 10
-541.4043317786781
 20
258.8275773083224
 30
0
 11
-540.988331778678
 21
255.6275773083224
 31
0
 12
-541.8203317786781
 22
255.6275773083224
 32
0
 13
-541.8203317786781
 23
255.6275773083224
 33
0
  0
SOLID
  8
1
 62
2
 10
-541.4043317786781
 20
244.8275773083225
 30
0
 11
-541.8203317786781
 21
248.0275773083224
 31
0
 12
-540.988331778678
 22
248.0275773083224
 32
0
 13
-540.988331778678
 23
248.0275773083224
 33
0
  0
TEXT
  8
1
 62
2
 10
-542.604331778678
 20
249.9075773083224
 30
0
 40
3.2
  1
14
 50
90
 41
0.9
  0
ENDBLK
  8
0
  0
BLOCK
  8
1
  2
*D1
 70
1
 10
0
 20
0
 30
0
  0
LINE
  8
1
 62
2
 10
-530.266985980562
 20
251.8275773083224
 30
0
 11
-530.266985980562
 21
258.2275773083223
 31
0
  0
LINE
  8
1
 62
2
 10
-530.266985980562
 20
244.8275773083224
 30
0
 11
-530.266985980562
 21
238.4275773083224
 31
0
  0
LINE
  8
1
 62
2
 10
-530.266985980562
 20
244.8275773083224
 30
0
 11
-530.266985980562
 21
251.8275773083224
 31
0
  0
LINE
  8
1
 62
2
 10
-521.202836230558
 20
251.8275773083224
 30
0
 11
-531.266985980562
 21
251.8275773083224
 31
0
  0
LINE
  8
1
 62
2
 10
-512.802836230558
 20
244.8275773083224
 30
0
 11
-531.266985980562
 21
244.8275773083224
 31
0
  0
SOLID
  8
1
 62
2
 10
-530.266985980562
 20
251.8275773083224
 30
0
 11
-530.6829859805621
 21
255.0275773083224
 31
0
 12
-529.850985980562
 22
255.0275773083224
 32
0
 13
-529.850985980562
 23
255.0275773083224
 33
0
  0
SOLID
  8
1
 62
2
 10
-530.266985980562
 20
244.8275773083224
 30
0
 11
-529.850985980562
 21
241.6275773083224
 31
0
 12
-530.6829859805621
 22
241.6275773083224
 32
0
 13
-530.6829859805621
 23
241.6275773083224
 33
0
  0
TEXT
  8
1
 62
2
 10
-531.466985980562
 20
247.3675773083224
 30
0
 40
3.2
  1
7
 50
90
 41
0.9
  0
ENDBLK
  8
0
  0
BLOCK
  8
1
  2
*D2
 70
1
 10
0
 20
0
 30
0
  0
LINE
  8
1
 62
2
 10
-511.802836230558
 20
108.223350418476
 30
0
 11
-461.8028362305581
 21
108.223350418476
 31
0
  0
LINE
  8
1
 62
2
 10
-511.802836230558
 20
127.2107247623692
 30
0
 11
-511.802836230558
 21
107.223350418476
 31
0
  0
LINE
  8
1
 62
2
 10
-461.8028362305581
 20
127.2107247623692
 30
0
 11
-461.8028362305581
 21
107.223350418476
 31
0
  0
SOLID
  8
1
 62
2
 10
-511.802836230558
 20
108.223350418476
 30
0
 11
-508.302836230558
 21
108.678350418476
 31
0
 12
-508.302836230558
 22
107.768350418476
 32
0
 13
-508.302836230558
 23
107.768350418476
 33
0
  0
SOLID
  8
1
 62
2
 10
-461.8028362305581
 20
108.223350418476
 30
0
 11
-465.3028362305581
 21
107.768350418476
 31
0
 12
-465.3028362305581
 22
108.678350418476
 32
0
 13
-465.3028362305581
 23
108.678350418476
 33
0
  0
TEXT
  8
1
 62
2
 10
-490.133570882258
 20
110.223350418476
 30
0
 40
3.5
  1
50
 41
0.9
  0
ENDBLK
  8
0
  0
BLOCK
  8
1
  2
*D3
 70
1
 10
0
 20
0
 30
0
  0
LINE
  8
1
 62
2
 10
-530.88160289547
 20
138.2107247623692
 30
0
 11
-530.88160289547
 21
213.2107247623692
 31
0
  0
LINE
  8
1
 62
2
 10
-470.802836230558
 20
213.2107247623692
 30
0
 11
-531.88160289547
 21
213.2107247623692
 31
0
  0
LINE
  8
1
 62
2
 10
-466.552836230558
 20
138.2107247623692
 30
0
 11
-531.88160289547
 21
138.2107247623692
 31
0
  0
SOLID
  8
1
 62
2
 10
-530.88160289547
 20
213.2107247623692
 30
0
 11
-530.4656028954699
 21
210.0107247623692
 31
0
 12
-531.2976028954701
 22
210.0107247623692
 32
0
 13
-531.2976028954701
 23
210.0107247623692
 33
0
  0
SOLID
  8
1
 62
2
 10
-530.88160289547
 20
138.2107247623692
 30
0
 11
-531.2976028954701
 21
141.4107247623692
 31
0
 12
-530.4656028954699
 22
141.4107247623692
 32
0
 13
-530.4656028954699
 23
141.4107247623692
 33
0
  0
TEXT
  8
1
 62
2
 10
-532.0816028954699
 20
173.3107247623692
 30
0
 40
3.200000000000001
  1
75
 50
90
 41
0.9
  0
ENDBLK
  8
0
  0
ENDSEC
  0
SECTION
  2
ENTITIES
  0
LINE
  8
1
 62
7
 10
-408.624172003659
 20
151.2107247623692
 30
0
 11
-402.624172003659
 21
151.2107247623692
 31
0
  0
LINE
  8
1
 62
7
 10
-409.624172003659
 20
162.2107247623692
 30
0
 11
-409.624172003659
 21
152.2107247623692
 31
0
  0
LINE
  8
1
 62
7
 10
-408.624172003659
 20
163.2107247623692
 30
0
 11
-408.044402231313
 21
163.2107247623692
 31
0
  0
LINE
  8
1
 62
7
 10
-409.624172003659
 20
187.2107247623692
 30
0
 11
-409.624172003659
 21
177.2107247623692
 31
0
  0
LINE
  8
1
 62
7
 10
-402.624172003659
 20
176.2107247623692
 30
0
 11
-408.624172003659
 21
176.2107247623692
 31
0
  0
LINE
  8
1
 62
7
 10
-408.624172003659
 20
201.2107247623692
 30
0
 11
-402.624172003659
 21
201.2107247623692
 31
0
  0
LINE
  8
1
 62
7
 10
-409.624172003659
 20
212.2107247623692
 30
0
 11
-409.624172003659
 21
202.2107247623692
 31
0
  0
LINE
  8
1
 62
7
 10
-402.624172003659
 20
213.2107247623692
 30
0
 11
-408.624172003659
 21
213.2107247623692
 31
0
  0
LINE
  8
1
 62
7
 10
-471.802836230558
 20
202.4107247623693
 30
0
 11
-471.802836230558
 21
206.1607247623693
 31
0
  0
LINE
  8
1
 62
7
 10
-471.802836230558
 20
206.1607247623693
 30
0
 11
-471.802836230558
 21
207.4607247623693
 31
0
  0
LINE
  8
1
 62
7
 10
-471.802836230558
 20
207.4607247623693
 30
0
 11
-471.802836230558
 21
208.7607247623693
 31
0
  0
LINE
  8
1
 62
7
 10
-471.802836230558
 20
208.7607247623693
 30
0
 11
-471.802836230558
 21
211.7107247623692
 31
0
  0
LINE
  8
1
 62
7
 10
-473.8728362305579
 20
211.7107247623692
 30
0
 11
-471.802836230558
 21
211.7107247623692
 31
0
  0
LINE
  8
1
 62
7
 10
-475.0728362305579
 20
211.7107247623692
 30
0
 11
-474.4728362305589
 21
211.7107247623692
 31
0
  0
LINE
  8
1
 62
7
 10
-476.612836230558
 20
211.7107247623692
 30
0
 11
-475.0728362305579
 21
211.7107247623692
 31
0
  0
LINE
  8
1
 62
7
 10
-477.812836230558
 20
211.7107247623692
 30
0
 11
-477.212836230559
 21
211.7107247623692
 31
0
  0
LINE
  8
1
 62
7
 10
-479.352836230558
 20
211.7107247623692
 30
0
 11
-477.812836230558
 21
211.7107247623692
 31
0
  0
LINE
  8
1
 62
7
 10
-480.552836230558
 20
211.7107247623692
 30
0
 11
-479.952836230559
 21
211.7107247623692
 31
0
  0
LINE
  8
1
 62
7
 10
-482.092836230558
 20
211.7107247623692
 30
0
 11
-480.552836230558
 21
211.7107247623692
 31
0
  0
LINE
  8
1
 62
7
 10
-483.2928362305581
 20
211.7107247623692
 30
0
 11
-484.832836230558
 21
211.7107247623692
 31
0
  0
LINE
  8
1
 62
7
 10
-483.2928362305581
 20
211.7107247623692
 30
0
 11
-482.692836230559
 21
211.7107247623692
 31
0
  0
LINE
  8
1
 62
7
 10
-484.832836230558
 20
211.7107247623692
 30
0
 11
-483.2928362305581
 21
211.7107247623692
 31
0
  0
LINE
  8
1
 62
7
 10
-486.032836230558
 20
211.7107247623692
 30
0
 11
-485.432836230559
 21
211.7107247623692
 31
0
  0
LINE
  8
1
 62
7
 10
-487.572836230558
 20
211.7107247623692
 30
0
 11
-486.032836230558
 21
211.7107247623692
 31
0
  0
LINE
  8
1
 62
7
 10
-488.772836230558
 20
211.7107247623692
 30
0
 11
-490.312836230558
 21
211.7107247623692
 31
0
  0
LINE
  8
1
 62
7
 10
-490.312836230558
 20
211.7107247623692
 30
0
 11
-490.912836230559
 21
211.7107247623692
 31
0
  0
LINE
  8
1
 62
7
 10
-491.512836230558
 20
211.7107247623692
 30
0
 11
-490.912836230559
 21
211.7107247623692
 31
0
  0
LINE
  8
1
 62
7
 10
-493.052836230558
 20
211.7107247623692
 30
0
 11
-491.512836230558
 21
211.7107247623692
 31
0
  0
LINE
  8
1
 62
7
 10
-494.252836230558
 20
211.7107247623692
 30
0
 11
-493.652836230559
 21
211.7107247623692
 31
0
  0
LINE
  8
1
 62
7
 10
-495.792836230558
 20
211.7107247623692
 30
0
 11
-494.252836230558
 21
211.7107247623692
 31
0
  0
LINE
  8
1
 62
7
 10
-496.992836230558
 20
211.7107247623692
 30
0
 11
-496.392836230559
 21
211.7107247623692
 31
0
  0
LINE
  8
1
 62
7
 10
-498.532836230558
 20
211.7107247623692
 30
0
 11
-496.992836230558
 21
211.7107247623692
 31
0
  0
LINE
  8
1
 62
7
 10
-499.732836230558
 20
211.7107247623692
 30
0
 11
-499.132836230559
 21
211.7107247623692
 31
0
  0
LINE
  8
1
 62
7
 10
-501.802836230558
 20
208.7607247623693
 30
0
 11
-501.802836230558
 21
211.7107247623692
 31
0
  0
LINE
  8
1
 62
7
 10
-501.802836230558
 20
206.1607247623693
 30
0
 11
-501.8028362305581
 21
207.4607247623693
 31
0
  0
LINE
  8
1
 62
7
 10
-501.802836230558
 20
202.4107247623693
 30
0
 11
-501.802836230558
 21
206.1607247623693
 31
0
  0
LINE
  8
1
 62
7
 10
-501.802836230558
 20
193.4607247623693
 30
0
 11
-501.8028362305581
 21
194.7607247623693
 31
0
  0
LINE
  8
1
 62
7
 10
-501.8028362305581
 20
196.0607247623693
 30
0
 11
-501.802836230558
 21
199.8107247623693
 31
0
  0
LINE
  8
1
 62
7
 10
-501.802836230558
 20
199.8107247623693
 30
0
 11
-501.8028362305581
 21
201.1107247623693
 31
0
  0
LINE
  8
1
 62
7
 10
-501.8028362305581
 20
201.1107247623693
 30
0
 11
-501.802836230558
 21
202.4107247623693
 31
0
  0
LINE
  8
1
 62
7
 10
-471.802836230558
 20
201.1107247623693
 30
0
 11
-471.802836230558
 21
202.4107247623693
 31
0
  0
LINE
  8
1
 62
7
 10
-471.802836230558
 20
199.8107247623693
 30
0
 11
-471.802836230558
 21
201.1107247623693
 31
0
  0
LINE
  8
1
 62
7
 10
-471.802836230558
 20
196.0607247623693
 30
0
 11
-471.802836230558
 21
199.8107247623693
 31
0
  0
LINE
  8
1
 62
7
 10
-471.802836230558
 20
194.7607247623693
 30
0
 11
-471.802836230558
 21
196.0607247623693
 31
0
  0
LINE
  8
1
 62
7
 10
-471.802836230558
 20
193.4607247623693
 30
0
 11
-471.802836230558
 21
194.7607247623693
 31
0
  0
LINE
  8
1
 62
7
 10
-474.4728362305589
 20
182.0607247623692
 30
0
 11
-477.212836230559
 21
182.0607247623691
 31
0
  0
LINE
  8
1
 62
7
 10
-474.4728362305589
 20
182.0607247623692
 30
0
 11
-474.4728362305589
 21
175.7107247623694
 31
0
  0
LINE
  8
1
 62
7
 10
-474.4728362305589
 20
182.0607247623692
 30
0
 11
-474.4728362305579
 21
182.0607247623692
 31
0
  0
LINE
  8
1
 62
7
 10
-474.4728362305589
 20
188.4107247623693
 30
0
 11
-471.802836230558
 21
188.4107247623693
 31
0
  0
LINE
  8
1
 62
7
 10
-474.4728362305589
 20
188.4107247623693
 30
0
 11
-474.4728362305579
 21
188.4107247623696
 31
0
  0
LINE
  8
1
 62
7
 10
-474.4728362305589
 20
188.4107247623693
 30
0
 11
-474.4728362305579
 21
188.4107247623696
 31
0
  0
LINE
  8
1
 62
7
 10
-474.4728362305589
 20
188.4107247623693
 30
0
 11
-474.4728362305589
 21
182.0607247623692
 31
0
  0
LINE
  8
1
 62
7
 10
-474.4728362305579
 20
182.0607247623692
 30
0
 11
-474.4728362305589
 21
182.0607247623692
 31
0
  0
LINE
  8
1
 62
7
 10
-474.4728362305579
 20
182.0607247623692
 30
0
 11
-474.4728362305589
 21
182.0607247623692
 31
0
  0
LINE
  8
1
 62
7
 10
-474.4728362305579
 20
188.4107247623696
 30
0
 11
-474.4728362305589
 21
188.4107247623693
 31
0
  0
LINE
  8
1
 62
7
 10
-474.4728362305579
 20
188.4107247623696
 30
0
 11
-474.4728362305589
 21
188.4107247623693
 31
0
  0
LINE
  8
1
 62
7
 10
-474.4728362305579
 20
194.7607247623693
 30
0
 11
-471.802836230558
 21
194.7607247623693
 31
0
  0
LINE
  8
1
 62
7
 10
-474.4728362305579
 20
194.7607247623693
 30
0
 11
-474.4728362305589
 21
188.4107247623693
 31
0
  0
LINE
  8
1
 62
7
 10
-501.802836230558
 20
180.7607247623692
 30
0
 11
-501.8028362305581
 21
182.0607247623692
 31
0
  0
LINE
  8
1
 62
7
 10
-501.8028362305581
 20
182.0607247623692
 30
0
 11
-501.802836230558
 21
183.3607247623692
 31
0
  0
LINE
  8
1
 62
7
 10
-501.802836230558
 20
183.3607247623692
 30
0
 11
-501.802836230558
 21
187.1107247623692
 31
0
  0
LINE
  8
1
 62
7
 10
-501.802836230558
 20
187.1107247623692
 30
0
 11
-501.8028362305581
 21
188.4107247623693
 31
0
  0
LINE
  8
1
 62
7
 10
-501.8028362305581
 20
188.4107247623693
 30
0
 11
-501.802836230558
 21
189.7107247623693
 31
0
  0
LINE
  8
1
 62
7
 10
-501.802836230558
 20
189.7107247623693
 30
0
 11
-501.802836230558
 21
193.4607247623693
 31
0
  0
LINE
  8
1
 62
7
 10
-471.802836230558
 20
182.0607247623692
 30
0
 11
-474.4728362305589
 21
182.0607247623692
 31
0
  0
LINE
  8
1
 62
7
 10
-474.4728362305589
 20
175.7107247623694
 30
0
 11
-474.472836230559
 21
169.3607247623694
 31
0
  0
LINE
  8
1
 62
7
 10
-471.802836230558
 20
189.7107247623692
 30
0
 11
-471.802836230558
 21
193.4607247623693
 31
0
  0
LINE
  8
1
 62
7
 10
-471.802836230558
 20
188.4107247623693
 30
0
 11
-471.802836230558
 21
189.7107247623692
 31
0
  0
LINE
  8
1
 62
7
 10
-471.8028362305581
 20
187.1107247623692
 30
0
 11
-471.802836230558
 21
188.4107247623693
 31
0
  0
LINE
  8
1
 62
7
 10
-471.8028362305581
 20
183.3607247623692
 30
0
 11
-471.8028362305581
 21
187.1107247623692
 31
0
  0
LINE
  8
1
 62
7
 10
-471.802836230558
 20
182.0607247623692
 30
0
 11
-471.8028362305581
 21
183.3607247623692
 31
0
  0
LINE
  8
1
 62
7
 10
-471.802836230558
 20
180.7607247623692
 30
0
 11
-471.802836230558
 21
182.0607247623692
 31
0
  0
LINE
  8
1
 62
7
 10
-471.802836230558
 20
177.0107247623692
 30
0
 11
-471.802836230558
 21
180.7607247623692
 31
0
  0
LINE
  8
1
 62
7
 10
-471.802836230558
 20
175.7107247623694
 30
0
 11
-471.802836230558
 21
177.0107247623692
 31
0
  0
LINE
  8
1
 62
7
 10
-471.802836230558
 20
174.4107247623694
 30
0
 11
-471.802836230558
 21
175.7107247623694
 31
0
  0
LINE
  8
1
 62
7
 10
-501.802836230558
 20
177.0107247623692
 30
0
 11
-501.802836230558
 21
180.7607247623692
 31
0
  0
LINE
  8
1
 62
7
 10
-501.8028362305581
 20
175.7107247623694
 30
0
 11
-501.802836230558
 21
177.0107247623692
 31
0
  0
LINE
  8
1
 62
7
 10
-501.802836230558
 20
174.4107247623694
 30
0
 11
-501.8028362305581
 21
175.7107247623694
 31
0
  0
LINE
  8
1
 62
7
 10
-402.624172003659
 20
175.4607247623693
 30
0
 11
-402.624172003659
 21
175.9607247623693
 31
0
  0
LINE
  8
1
 62
7
 10
-402.624172003659
 20
175.9607247623693
 30
0
 11
-402.624172003659
 21
181.8107247623693
 31
0
  0
LINE
  8
1
 62
7
 10
-471.802836230558
 20
170.6607247623694
 30
0
 11
-471.802836230558
 21
174.4107247623694
 31
0
  0
LINE
  8
1
 62
7
 10
-471.802836230558
 20
169.3607247623694
 30
0
 11
-471.802836230558
 21
170.6607247623694
 31
0
  0
LINE
  8
1
 62
7
 10
-471.802836230558
 20
168.0607247623694
 30
0
 11
-471.802836230558
 21
169.3607247623694
 31
0
  0
LINE
  8
1
 62
7
 10
-501.8028362305581
 20
170.6607247623694
 30
0
 11
-501.802836230558
 21
174.4107247623694
 31
0
  0
LINE
  8
1
 62
7
 10
-501.8028362305581
 20
169.3607247623694
 30
0
 11
-501.8028362305581
 21
170.6607247623694
 31
0
  0
LINE
  8
1
 62
7
 10
-501.802836230558
 20
168.0607247623694
 30
0
 11
-501.8028362305581
 21
169.3607247623694
 31
0
  0
LINE
  8
1
 62
7
 10
-471.802836230558
 20
164.3107247623694
 30
0
 11
-471.802836230558
 21
168.0607247623694
 31
0
  0
LINE
  8
1
 62
7
 10
-471.802836230558
 20
163.0107247623694
 30
0
 11
-471.802836230558
 21
164.3107247623694
 31
0
  0
LINE
  8
1
 62
7
 10
-471.802836230558
 20
161.7107247623694
 30
0
 11
-471.802836230558
 21
163.0107247623694
 31
0
  0
LINE
  8
1
 62
7
 10
-501.802836230558
 20
164.3107247623694
 30
0
 11
-501.802836230558
 21
168.0607247623694
 31
0
  0
LINE
  8
1
 62
7
 10
-501.8028362305581
 20
163.0107247623694
 30
0
 11
-501.802836230558
 21
164.3107247623694
 31
0
  0
LINE
  8
1
 62
7
 10
-501.802836230558
 20
161.7107247623694
 30
0
 11
-501.8028362305581
 21
163.0107247623694
 31
0
  0
LINE
  8
1
 62
7
 10
-471.802836230558
 20
157.9607247623694
 30
0
 11
-471.802836230558
 21
161.7107247623694
 31
0
  0
LINE
  8
1
 62
7
 10
-471.802836230558
 20
156.6607247623694
 30
0
 11
-471.802836230558
 21
157.9607247623694
 31
0
  0
LINE
  8
1
 62
7
 10
-471.802836230558
 20
155.3607247623693
 30
0
 11
-471.802836230558
 21
156.6607247623694
 31
0
  0
LINE
  8
1
 62
7
 10
-501.802836230558
 20
157.9607247623694
 30
0
 11
-501.802836230558
 21
161.7107247623694
 31
0
  0
LINE
  8
1
 62
7
 10
-501.8028362305581
 20
156.6607247623694
 30
0
 11
-501.802836230558
 21
157.9607247623694
 31
0
  0
LINE
  8
1
 62
7
 10
-501.802836230558
 20
155.3607247623693
 30
0
 11
-501.8028362305581
 21
156.6607247623694
 31
0
  0
LINE
  8
1
 62
7
 10
-471.802836230558
 20
150.3107247623693
 30
0
 11
-471.802836230558
 21
151.6107247623694
 31
0
  0
LINE
  8
1
 62
7
 10
-471.802836230558
 20
149.0107247623693
 30
0
 11
-471.802836230558
 21
150.3107247623693
 31
0
  0
LINE
  8
1
 62
7
 10
-471.802836230558
 20
151.6107247623694
 30
0
 11
-471.802836230558
 21
155.3607247623693
 31
0
  0
LINE
  8
1
 62
7
 10
-501.802836230558
 20
151.6107247623694
 30
0
 11
-501.802836230558
 21
155.3607247623693
 31
0
  0
LINE
  8
1
 62
7
 10
-501.8028362305581
 20
150.3107247623693
 30
0
 11
-501.802836230558
 21
151.6107247623694
 31
0
  0
LINE
  8
1
 62
7
 10
-501.802836230558
 20
149.0107247623693
 30
0
 11
-501.8028362305581
 21
150.3107247623693
 31
0
  0
LINE
  8
1
 62
7
 10
-499.1328362305499
 20
143.9607247623691
 30
0
 11
-496.3928362305591
 21
143.9607247623691
 31
0
  0
LINE
  8
1
 62
7
 10
-499.1328362305499
 20
139.7107247623692
 30
0
 11
-498.5328362305589
 21
139.7107247623692
 31
0
  0
LINE
  8
1
 62
7
 10
-496.3928362305509
 20
143.9607247623691
 30
0
 11
-493.6528362305591
 21
143.9607247623691
 31
0
  0
LINE
  8
1
 62
7
 10
-496.3928362305509
 20
139.7107247623692
 30
0
 11
-495.7928362305588
 21
139.7107247623692
 31
0
  0
LINE
  8
1
 62
7
 10
-493.6528362305519
 20
143.9607247623691
 30
0
 11
-490.9128362305591
 21
143.9607247623691
 31
0
  0
LINE
  8
1
 62
7
 10
-493.6528362305519
 20
139.7107247623692
 30
0
 11
-493.0528362305587
 21
139.7107247623692
 31
0
  0
LINE
  8
1
 62
7
 10
-490.912836230553
 20
143.9607247623691
 30
0
 11
-488.1728362305591
 21
143.9607247623691
 31
0
  0
LINE
  8
1
 62
7
 10
-490.912836230553
 20
139.7107247623692
 30
0
 11
-490.3128362305586
 21
139.7107247623692
 31
0
  0
LINE
  8
1
 62
7
 10
-488.172836230554
 20
143.9607247623691
 30
0
 11
-485.4328362305591
 21
143.9607247623691
 31
0
  0
LINE
  8
1
 62
7
 10
-488.172836230554
 20
139.7107247623692
 30
0
 11
-487.5728362305586
 21
139.7107247623692
 31
0
  0
LINE
  8
1
 62
7
 10
-485.432836230555
 20
143.9607247623691
 30
0
 11
-482.6928362305591
 21
143.9607247623691
 31
0
  0
LINE
  8
1
 62
7
 10
-485.432836230555
 20
139.7107247623692
 30
0
 11
-484.8328362305584
 21
139.7107247623692
 31
0
  0
LINE
  8
1
 62
7
 10
-482.692836230556
 20
143.9607247623691
 30
0
 11
-479.9528362305591
 21
143.9607247623691
 31
0
  0
LINE
  8
1
 62
7
 10
-482.692836230556
 20
139.7107247623692
 30
0
 11
-482.0928362305582
 21
139.7107247623692
 31
0
  0
LINE
  8
1
 62
7
 10
-479.952836230557
 20
143.9607247623691
 30
0
 11
-477.212836230559
 21
143.9607247623691
 31
0
  0
LINE
  8
1
 62
7
 10
-479.952836230557
 20
139.7107247623692
 30
0
 11
-479.3528362305582
 21
139.7107247623692
 31
0
  0
LINE
  8
1
 62
7
 10
-477.212836230558
 20
139.7107247623692
 30
0
 11
-476.612836230558
 21
139.7107247623692
 31
0
  0
LINE
  8
1
 62
7
 10
-499.732836230559
 20
139.7107247623692
 30
0
 11
-499.1328362305499
 21
139.7107247623692
 31
0
  0
LINE
  8
1
 62
7
 10
-498.5328362305589
 20
139.7107247623692
 30
0
 11
-496.9928362305589
 21
139.7107247623692
 31
0
  0
LINE
  8
1
 62
7
 10
-496.9928362305589
 20
139.7107247623692
 30
0
 11
-496.3928362305509
 21
139.7107247623692
 31
0
  0
LINE
  8
1
 62
7
 10
-495.7928362305588
 20
139.7107247623692
 30
0
 11
-494.2528362305588
 21
139.7107247623692
 31
0
  0
LINE
  8
1
 62
7
 10
-494.2528362305588
 20
139.7107247623692
 30
0
 11
-493.6528362305519
 21
139.7107247623692
 31
0
  0
LINE
  8
1
 62
7
 10
-493.0528362305587
 20
139.7107247623692
 30
0
 11
-491.5128362305586
 21
139.7107247623692
 31
0
  0
LINE
  8
1
 62
7
 10
-491.5128362305586
 20
139.7107247623692
 30
0
 11
-490.912836230553
 21
139.7107247623692
 31
0
  0
LINE
  8
1
 62
7
 10
-490.3128362305586
 20
139.7107247623692
 30
0
 11
-488.7728362305585
 21
139.7107247623692
 31
0
  0
LINE
  8
1
 62
7
 10
-488.7728362305585
 20
139.7107247623692
 30
0
 11
-488.172836230554
 21
139.7107247623692
 31
0
  0
LINE
  8
1
 62
7
 10
-487.5728362305586
 20
139.7107247623692
 30
0
 11
-486.0328362305585
 21
139.7107247623692
 31
0
  0
LINE
  8
1
 62
7
 10
-486.0328362305585
 20
139.7107247623692
 30
0
 11
-485.432836230555
 21
139.7107247623692
 31
0
  0
LINE
  8
1
 62
7
 10
-484.8328362305584
 20
139.7107247623692
 30
0
 11
-483.2928362305583
 21
139.7107247623692
 31
0
  0
LINE
  8
1
 62
7
 10
-483.2928362305583
 20
139.7107247623692
 30
0
 11
-482.692836230556
 21
139.7107247623692
 31
0
  0
LINE
  8
1
 62
7
 10
-482.0928362305582
 20
139.7107247623692
 30
0
 11
-480.5528362305582
 21
139.7107247623692
 31
0
  0
LINE
  8
1
 62
7
 10
-480.5528362305582
 20
139.7107247623692
 30
0
 11
-479.952836230557
 21
139.7107247623692
 31
0
  0
LINE
  8
1
 62
7
 10
-479.3528362305582
 20
139.7107247623692
 30
0
 11
-477.812836230558
 21
139.7107247623692
 31
0
  0
LINE
  8
1
 62
7
 10
-477.812836230558
 20
139.7107247623692
 30
0
 11
-477.212836230558
 21
139.7107247623692
 31
0
  0
LINE
  8
1
 62
7
 10
-476.612836230558
 20
139.7107247623692
 30
0
 11
-475.0728362305579
 21
139.7107247623692
 31
0
  0
LINE
  8
1
 62
7
 10
-475.0728362305579
 20
139.7107247623692
 30
0
 11
-474.472836230559
 21
139.7107247623692
 31
0
  0
LINE
  8
1
 62
7
 10
-473.8728362305579
 20
139.7107247623692
 30
0
 11
-471.802836230558
 21
139.7107247623692
 31
0
  0
LINE
  8
1
 62
7
 10
-471.8028362305579
 20
145.2607247623694
 30
0
 11
-471.802836230558
 21
149.0107247623693
 31
0
  0
LINE
  8
1
 62
7
 10
-471.802836230558
 20
142.6607247623693
 30
0
 11
-471.802836230558
 21
143.9607247623691
 31
0
  0
LINE
  8
1
 62
7
 10
-501.802836230558
 20
145.2607247623693
 30
0
 11
-501.802836230558
 21
149.0107247623693
 31
0
  0
LINE
  8
1
 62
7
 10
-501.8028362305581
 20
143.9607247623691
 30
0
 11
-501.802836230558
 21
145.2607247623693
 31
0
  0
LINE
  8
1
 62
7
 10
-501.802836230558
 20
142.6607247623693
 30
0
 11
-501.8028362305581
 21
143.9607247623691
 31
0
  0
LINE
  8
1
 62
7
 10
-485.432836230559
 20
207.4607247623693
 30
0
 11
-482.692836230559
 21
207.4607247623693
 31
0
  0
LINE
  8
1
 62
7
 10
-518.802836230558
 20
204.374029538623
 30
0
 11
-518.802836230558
 21
212.2107247623692
 31
0
  0
LINE
  8
1
 62
7
 10
-504.085518232911
 20
213.2107247623692
 30
0
 11
-469.802836230558
 21
213.2107247623692
 31
0
  0
LINE
  8
1
 62
7
 10
-402.624172003659
 20
150.0607247623692
 30
0
 11
-402.624172003659
 21
150.5607247623692
 31
0
  0
LINE
  8
1
 62
7
 10
-402.624172003659
 20
150.0607247623692
 30
0
 11
-402.6241720036589
 21
144.2107247623691
 31
0
  0
LINE
  8
1
 62
7
 10
-499.1328362305499
 20
143.9607247623691
 30
0
 11
-499.1328362305499
 21
139.7107247623692
 31
0
  0
LINE
  8
1
 62
7
 10
-496.3928362305509
 20
143.9607247623691
 30
0
 11
-496.3928362305509
 21
139.7107247623692
 31
0
  0
LINE
  8
1
 62
7
 10
-493.6528362305519
 20
143.9607247623691
 30
0
 11
-493.6528362305519
 21
139.7107247623692
 31
0
  0
LINE
  8
1
 62
7
 10
-490.912836230553
 20
143.9607247623691
 30
0
 11
-490.912836230553
 21
139.7107247623692
 31
0
  0
LINE
  8
1
 62
7
 10
-488.172836230554
 20
143.9607247623691
 30
0
 11
-488.172836230554
 21
139.7107247623692
 31
0
  0
LINE
  8
1
 62
7
 10
-485.432836230555
 20
143.9607247623691
 30
0
 11
-485.432836230555
 21
139.7107247623692
 31
0
  0
LINE
  8
1
 62
7
 10
-482.692836230556
 20
143.9607247623691
 30
0
 11
-482.692836230556
 21
139.7107247623692
 31
0
  0
LINE
  8
1
 62
7
 10
-479.952836230557
 20
143.9607247623691
 30
0
 11
-479.952836230557
 21
139.7107247623692
 31
0
  0
LINE
  8
1
 62
7
 10
-477.212836230559
 20
143.9607247623691
 30
0
 11
-477.212836230558
 21
139.7107247623692
 31
0
  0
LINE
  8
1
 62
7
 10
-474.472836230559
 20
139.7107247623692
 30
0
 11
-473.8728362305579
 21
139.7107247623692
 31
0
  0
LINE
  8
1
 62
7
 10
-474.472836230559
 20
143.9607247623691
 30
0
 11
-474.472836230559
 21
139.7107247623692
 31
0
  0
LINE
  8
1
 62
7
 10
-501.802836230558
 20
139.7107247623692
 30
0
 11
-499.732836230559
 21
139.7107247623692
 31
0
  0
LINE
  8
1
 62
7
 10
-471.802836230558
 20
143.9607247623691
 30
0
 11
-471.8028362305579
 21
145.2607247623694
 31
0
  0
LINE
  8
1
 62
7
 10
-474.472836230559
 20
143.9607247623691
 30
0
 11
-471.802836230558
 21
143.9607247623691
 31
0
  0
LINE
  8
1
 62
7
 10
-477.212836230559
 20
143.9607247623691
 30
0
 11
-474.472836230559
 21
143.9607247623691
 31
0
  0
LINE
  8
1
 62
7
 10
-479.9528362305591
 20
143.9607247623691
 30
0
 11
-479.952836230557
 21
143.9607247623691
 31
0
  0
LINE
  8
1
 62
7
 10
-482.6928362305591
 20
143.9607247623691
 30
0
 11
-482.692836230556
 21
143.9607247623691
 31
0
  0
LINE
  8
1
 62
7
 10
-474.4728362305577
 20
150.3107247623693
 30
0
 11
-471.802836230558
 21
150.3107247623693
 31
0
  0
LINE
  8
1
 62
7
 10
-477.212836230558
 20
150.3107247623693
 30
0
 11
-474.4728362305577
 21
150.3107247623693
 31
0
  0
LINE
  8
1
 62
7
 10
-479.952836230558
 20
150.3107247623693
 30
0
 11
-477.212836230558
 21
150.3107247623693
 31
0
  0
LINE
  8
1
 62
7
 10
-482.6928362305591
 20
150.3107247623693
 30
0
 11
-479.952836230558
 21
150.3107247623693
 31
0
  0
LINE
  8
1
 62
7
 10
-479.952836230558
 20
150.3107247623693
 30
0
 11
-479.9528362305591
 21
156.6607247623694
 31
0
  0
LINE
  8
1
 62
7
 10
-477.212836230558
 20
150.3107247623693
 30
0
 11
-477.212836230559
 21
156.6607247623694
 31
0
  0
LINE
  8
1
 62
7
 10
-474.4728362305577
 20
150.3107247623693
 30
0
 11
-474.472836230559
 21
156.6607247623694
 31
0
  0
LINE
  8
1
 62
7
 10
-482.6928362305591
 20
150.3107247623693
 30
0
 11
-482.6928362305591
 21
143.9607247623691
 31
0
  0
LINE
  8
1
 62
7
 10
-479.9528362305591
 20
143.9607247623691
 30
0
 11
-479.952836230558
 21
150.3107247623693
 31
0
  0
LINE
  8
1
 62
7
 10
-477.212836230559
 20
143.9607247623691
 30
0
 11
-477.212836230558
 21
150.3107247623693
 31
0
  0
LINE
  8
1
 62
7
 10
-474.472836230559
 20
143.9607247623691
 30
0
 11
-474.4728362305577
 21
150.3107247623693
 31
0
  0
LINE
  8
1
 62
7
 10
-482.6928362305591
 20
156.6607247623694
 30
0
 11
-482.6928362305591
 21
150.3107247623693
 31
0
  0
LINE
  8
1
 62
7
 10
-485.4328362305591
 20
143.9607247623691
 30
0
 11
-485.432836230555
 21
143.9607247623691
 31
0
  0
LINE
  8
1
 62
7
 10
-485.4328362305591
 20
143.9607247623691
 30
0
 11
-485.4328362305591
 21
150.3107247623693
 31
0
  0
LINE
  8
1
 62
7
 10
-488.1728362305591
 20
143.9607247623691
 30
0
 11
-488.1728362305591
 21
150.3107247623693
 31
0
  0
LINE
  8
1
 62
7
 10
-499.1328362305589
 20
143.9607247623691
 30
0
 11
-501.8028362305581
 21
143.9607247623691
 31
0
  0
LINE
  8
1
 62
7
 10
-499.1328362305589
 20
143.9607247623691
 30
0
 11
-499.1328362305499
 21
143.9607247623691
 31
0
  0
LINE
  8
1
 62
7
 10
-496.3928362305591
 20
143.9607247623691
 30
0
 11
-496.3928362305509
 21
143.9607247623691
 31
0
  0
LINE
  8
1
 62
7
 10
-493.6528362305591
 20
143.9607247623691
 30
0
 11
-493.6528362305519
 21
143.9607247623691
 31
0
  0
LINE
  8
1
 62
7
 10
-490.9128362305591
 20
143.9607247623691
 30
0
 11
-490.912836230553
 21
143.9607247623691
 31
0
  0
LINE
  8
1
 62
7
 10
-488.1728362305591
 20
143.9607247623691
 30
0
 11
-488.172836230554
 21
143.9607247623691
 31
0
  0
LINE
  8
1
 62
7
 10
-485.4328362305591
 20
150.3107247623693
 30
0
 11
-482.6928362305591
 21
150.3107247623693
 31
0
  0
LINE
  8
1
 62
7
 10
-488.1728362305591
 20
150.3107247623693
 30
0
 11
-485.4328362305591
 21
150.3107247623693
 31
0
  0
LINE
  8
1
 62
7
 10
-490.9128362305591
 20
150.3107247623693
 30
0
 11
-488.1728362305591
 21
150.3107247623693
 31
0
  0
LINE
  8
1
 62
7
 10
-490.9128362305591
 20
150.3107247623693
 30
0
 11
-490.9128362305591
 21
143.9607247623691
 31
0
  0
LINE
  8
1
 62
7
 10
-493.6528362305591
 20
150.3107247623693
 30
0
 11
-490.9128362305591
 21
150.3107247623693
 31
0
  0
LINE
  8
1
 62
7
 10
-493.6528362305591
 20
150.3107247623693
 30
0
 11
-493.6528362305591
 21
143.9607247623691
 31
0
  0
LINE
  8
1
 62
7
 10
-496.3928362305591
 20
150.3107247623693
 30
0
 11
-493.6528362305591
 21
150.3107247623693
 31
0
  0
LINE
  8
1
 62
7
 10
-496.3928362305591
 20
150.3107247623693
 30
0
 11
-496.3928362305591
 21
143.9607247623691
 31
0
  0
LINE
  8
1
 62
7
 10
-499.1328362305589
 20
150.3107247623693
 30
0
 11
-496.3928362305591
 21
150.3107247623693
 31
0
  0
LINE
  8
1
 62
7
 10
-499.1328362305589
 20
150.3107247623693
 30
0
 11
-499.1328362305589
 21
143.9607247623691
 31
0
  0
LINE
  8
1
 62
7
 10
-499.1328362305589
 20
150.3107247623693
 30
0
 11
-501.8028362305581
 21
150.3107247623693
 31
0
  0
LINE
  8
1
 62
7
 10
-499.1328362305589
 20
156.6607247623694
 30
0
 11
-501.8028362305581
 21
156.6607247623694
 31
0
  0
LINE
  8
1
 62
7
 10
-499.1328362305589
 20
156.6607247623694
 30
0
 11
-499.1328362305589
 21
150.3107247623693
 31
0
  0
LINE
  8
1
 62
7
 10
-499.1328362305589
 20
156.6607247623694
 30
0
 11
-496.3928362305591
 21
156.6607247623694
 31
0
  0
LINE
  8
1
 62
7
 10
-496.3928362305591
 20
156.6607247623694
 30
0
 11
-496.3928362305591
 21
150.3107247623693
 31
0
  0
LINE
  8
1
 62
7
 10
-496.392836230559
 20
163.0107247623694
 30
0
 11
-496.3928362305591
 21
156.6607247623694
 31
0
  0
LINE
  8
1
 62
7
 10
-499.1328362305589
 20
163.0107247623694
 30
0
 11
-496.392836230559
 21
163.0107247623694
 31
0
  0
LINE
  8
1
 62
7
 10
-499.1328362305589
 20
163.0107247623694
 30
0
 11
-499.1328362305589
 21
156.6607247623694
 31
0
  0
LINE
  8
1
 62
7
 10
-499.1328362305589
 20
163.0107247623694
 30
0
 11
-501.8028362305581
 21
163.0107247623694
 31
0
  0
LINE
  8
1
 62
7
 10
-493.6528362305591
 20
156.6607247623694
 30
0
 11
-493.6528362305591
 21
150.3107247623693
 31
0
  0
LINE
  8
1
 62
7
 10
-490.9128362305591
 20
156.6607247623694
 30
0
 11
-490.9128362305591
 21
150.3107247623693
 31
0
  0
LINE
  8
1
 62
7
 10
-488.1728362305591
 20
156.6607247623694
 30
0
 11
-488.1728362305591
 21
150.3107247623693
 31
0
  0
LINE
  8
1
 62
7
 10
-485.4328362305591
 20
156.6607247623694
 30
0
 11
-485.4328362305591
 21
150.3107247623693
 31
0
  0
LINE
  8
1
 62
7
 10
-496.3928362305591
 20
156.6607247623694
 30
0
 11
-493.6528362305591
 21
156.6607247623694
 31
0
  0
LINE
  8
1
 62
7
 10
-493.6528362305591
 20
156.6607247623694
 30
0
 11
-490.9128362305591
 21
156.6607247623694
 31
0
  0
LINE
  8
1
 62
7
 10
-490.9128362305591
 20
156.6607247623694
 30
0
 11
-488.1728362305591
 21
156.6607247623694
 31
0
  0
LINE
  8
1
 62
7
 10
-488.1728362305591
 20
156.6607247623694
 30
0
 11
-485.4328362305591
 21
156.6607247623694
 31
0
  0
LINE
  8
1
 62
7
 10
-493.6528362305591
 20
163.0107247623694
 30
0
 11
-493.6528362305591
 21
156.6607247623694
 31
0
  0
LINE
  8
1
 62
7
 10
-490.9128362305591
 20
163.0107247623694
 30
0
 11
-490.9128362305591
 21
156.6607247623694
 31
0
  0
LINE
  8
1
 62
7
 10
-488.1728362305591
 20
163.0107247623694
 30
0
 11
-488.1728362305591
 21
156.6607247623694
 31
0
  0
LINE
  8
1
 62
7
 10
-485.4328362305591
 20
163.0107247623694
 30
0
 11
-485.4328362305591
 21
156.6607247623694
 31
0
  0
LINE
  8
1
 62
7
 10
-496.392836230559
 20
163.0107247623694
 30
0
 11
-493.6528362305591
 21
163.0107247623694
 31
0
  0
LINE
  8
1
 62
7
 10
-493.6528362305591
 20
163.0107247623694
 30
0
 11
-490.9128362305591
 21
163.0107247623694
 31
0
  0
LINE
  8
1
 62
7
 10
-490.9128362305591
 20
163.0107247623694
 30
0
 11
-488.1728362305591
 21
163.0107247623694
 31
0
  0
LINE
  8
1
 62
7
 10
-488.1728362305591
 20
163.0107247623694
 30
0
 11
-485.4328362305591
 21
163.0107247623694
 31
0
  0
LINE
  8
1
 62
7
 10
-485.4328362305591
 20
156.6607247623694
 30
0
 11
-482.6928362305591
 21
156.6607247623694
 31
0
  0
LINE
  8
1
 62
7
 10
-482.6928362305591
 20
156.6607247623694
 30
0
 11
-479.9528362305591
 21
156.6607247623694
 31
0
  0
LINE
  8
1
 62
7
 10
-479.9528362305591
 20
156.6607247623694
 30
0
 11
-477.212836230559
 21
156.6607247623694
 31
0
  0
LINE
  8
1
 62
7
 10
-477.212836230559
 20
156.6607247623694
 30
0
 11
-474.472836230559
 21
156.6607247623694
 31
0
  0
LINE
  8
1
 62
7
 10
-474.472836230559
 20
156.6607247623694
 30
0
 11
-471.802836230558
 21
156.6607247623694
 31
0
  0
LINE
  8
1
 62
7
 10
-474.472836230559
 20
163.0107247623694
 30
0
 11
-474.472836230559
 21
156.6607247623694
 31
0
  0
LINE
  8
1
 62
7
 10
-477.212836230559
 20
163.0107247623694
 30
0
 11
-477.212836230559
 21
156.6607247623694
 31
0
  0
LINE
  8
1
 62
7
 10
-479.9528362305591
 20
163.0107247623694
 30
0
 11
-479.9528362305591
 21
156.6607247623694
 31
0
  0
LINE
  8
1
 62
7
 10
-482.6928362305591
 20
163.0107247623694
 30
0
 11
-482.6928362305591
 21
156.6607247623694
 31
0
  0
LINE
  8
1
 62
7
 10
-485.4328362305591
 20
163.0107247623694
 30
0
 11
-482.6928362305591
 21
163.0107247623694
 31
0
  0
LINE
  8
1
 62
7
 10
-482.6928362305591
 20
163.0107247623694
 30
0
 11
-479.9528362305591
 21
163.0107247623694
 31
0
  0
LINE
  8
1
 62
7
 10
-479.9528362305591
 20
163.0107247623694
 30
0
 11
-477.212836230559
 21
163.0107247623694
 31
0
  0
LINE
  8
1
 62
7
 10
-477.212836230559
 20
163.0107247623694
 30
0
 11
-474.472836230559
 21
163.0107247623694
 31
0
  0
LINE
  8
1
 62
7
 10
-474.472836230559
 20
163.0107247623694
 30
0
 11
-471.802836230558
 21
163.0107247623694
 31
0
  0
LINE
  8
1
 62
7
 10
-474.472836230559
 20
169.3607247623694
 30
0
 11
-471.802836230558
 21
169.3607247623694
 31
0
  0
LINE
  8
1
 62
7
 10
-477.212836230559
 20
169.3607247623694
 30
0
 11
-474.472836230559
 21
169.3607247623694
 31
0
  0
LINE
  8
1
 62
7
 10
-474.472836230559
 20
169.3607247623694
 30
0
 11
-474.472836230559
 21
163.0107247623694
 31
0
  0
LINE
  8
1
 62
7
 10
-479.9528362305591
 20
169.3607247623694
 30
0
 11
-477.212836230559
 21
169.3607247623694
 31
0
  0
LINE
  8
1
 62
7
 10
-477.212836230559
 20
169.3607247623694
 30
0
 11
-477.212836230559
 21
163.0107247623694
 31
0
  0
LINE
  8
1
 62
7
 10
-479.9528362305591
 20
169.3607247623694
 30
0
 11
-479.9528362305591
 21
163.0107247623694
 31
0
  0
LINE
  8
1
 62
7
 10
-482.6928362305591
 20
169.3607247623694
 30
0
 11
-482.6928362305591
 21
163.0107247623694
 31
0
  0
LINE
  8
1
 62
7
 10
-482.6928362305591
 20
169.3607247623694
 30
0
 11
-479.9528362305591
 21
169.3607247623694
 31
0
  0
LINE
  8
1
 62
7
 10
-485.4328362305591
 20
169.3607247623694
 30
0
 11
-482.6928362305591
 21
169.3607247623694
 31
0
  0
LINE
  8
1
 62
7
 10
-485.4328362305591
 20
169.3607247623694
 30
0
 11
-485.4328362305591
 21
163.0107247623694
 31
0
  0
LINE
  8
1
 62
7
 10
-488.1728362305591
 20
169.3607247623694
 30
0
 11
-485.4328362305591
 21
169.3607247623694
 31
0
  0
LINE
  8
1
 62
7
 10
-488.1728362305591
 20
169.3607247623694
 30
0
 11
-488.1728362305591
 21
163.0107247623694
 31
0
  0
LINE
  8
1
 62
7
 10
-490.9128362305591
 20
169.3607247623694
 30
0
 11
-488.1728362305591
 21
169.3607247623694
 31
0
  0
LINE
  8
1
 62
7
 10
-490.9128362305591
 20
169.3607247623694
 30
0
 11
-490.9128362305591
 21
163.0107247623694
 31
0
  0
LINE
  8
1
 62
7
 10
-493.6528362305591
 20
169.3607247623694
 30
0
 11
-490.9128362305591
 21
169.3607247623694
 31
0
  0
LINE
  8
1
 62
7
 10
-493.6528362305591
 20
169.3607247623694
 30
0
 11
-493.6528362305591
 21
163.0107247623694
 31
0
  0
LINE
  8
1
 62
7
 10
-496.392836230559
 20
169.3607247623694
 30
0
 11
-493.6528362305591
 21
169.3607247623694
 31
0
  0
LINE
  8
1
 62
7
 10
-496.392836230559
 20
169.3607247623694
 30
0
 11
-496.392836230559
 21
163.0107247623694
 31
0
  0
LINE
  8
1
 62
7
 10
-499.1328362305589
 20
169.3607247623694
 30
0
 11
-496.392836230559
 21
169.3607247623694
 31
0
  0
LINE
  8
1
 62
7
 10
-499.1328362305589
 20
169.3607247623694
 30
0
 11
-499.1328362305589
 21
163.0107247623694
 31
0
  0
LINE
  8
1
 62
7
 10
-499.1328362305589
 20
169.3607247623694
 30
0
 11
-501.8028362305581
 21
169.3607247623694
 31
0
  0
LINE
  8
1
 62
7
 10
-499.1328362305589
 20
175.7107247623694
 30
0
 11
-501.8028362305581
 21
175.7107247623694
 31
0
  0
LINE
  8
1
 62
7
 10
-499.1328362305589
 20
182.0607247623691
 30
0
 11
-501.8028362305581
 21
182.0607247623692
 31
0
  0
LINE
  8
1
 62
7
 10
-499.1328362305589
 20
175.7107247623694
 30
0
 11
-499.1328362305589
 21
169.3607247623694
 31
0
  0
LINE
  8
1
 62
7
 10
-499.1328362305589
 20
182.0607247623691
 30
0
 11
-499.1328362305589
 21
175.7107247623694
 31
0
  0
LINE
  8
1
 62
7
 10
-499.1328362305589
 20
188.4107247623693
 30
0
 11
-499.1328362305589
 21
182.0607247623691
 31
0
  0
LINE
  8
1
 62
7
 10
-499.1328362305589
 20
175.7107247623694
 30
0
 11
-496.392836230559
 21
175.7107247623694
 31
0
  0
LINE
  8
1
 62
7
 10
-499.1328362305589
 20
182.0607247623691
 30
0
 11
-496.392836230559
 21
182.0607247623691
 31
0
  0
LINE
  8
1
 62
7
 10
-496.392836230559
 20
175.7107247623694
 30
0
 11
-496.392836230559
 21
169.3607247623694
 31
0
  0
LINE
  8
1
 62
7
 10
-496.392836230559
 20
182.0607247623691
 30
0
 11
-496.392836230559
 21
175.7107247623694
 31
0
  0
LINE
  8
1
 62
7
 10
-496.392836230559
 20
188.4107247623693
 30
0
 11
-496.392836230559
 21
182.0607247623691
 31
0
  0
LINE
  8
1
 62
7
 10
-496.392836230559
 20
175.7107247623694
 30
0
 11
-493.6528362305591
 21
175.7107247623694
 31
0
  0
LINE
  8
1
 62
7
 10
-496.392836230559
 20
182.0607247623691
 30
0
 11
-493.6528362305591
 21
182.0607247623691
 31
0
  0
LINE
  8
1
 62
7
 10
-493.6528362305591
 20
175.7107247623694
 30
0
 11
-493.6528362305591
 21
169.3607247623694
 31
0
  0
LINE
  8
1
 62
7
 10
-493.6528362305591
 20
182.0607247623691
 30
0
 11
-493.6528362305591
 21
175.7107247623694
 31
0
  0
LINE
  8
1
 62
7
 10
-493.6528362305591
 20
188.4107247623693
 30
0
 11
-493.6528362305591
 21
182.0607247623691
 31
0
  0
LINE
  8
1
 62
7
 10
-493.6528362305591
 20
175.7107247623694
 30
0
 11
-490.9128362305591
 21
175.7107247623694
 31
0
  0
LINE
  8
1
 62
7
 10
-493.6528362305591
 20
182.0607247623691
 30
0
 11
-490.9128362305591
 21
182.0607247623691
 31
0
  0
LINE
  8
1
 62
7
 10
-490.9128362305591
 20
175.7107247623694
 30
0
 11
-490.9128362305591
 21
169.3607247623694
 31
0
  0
LINE
  8
1
 62
7
 10
-490.9128362305591
 20
182.0607247623691
 30
0
 11
-490.9128362305591
 21
175.7107247623694
 31
0
  0
LINE
  8
1
 62
7
 10
-490.9128362305591
 20
188.4107247623693
 30
0
 11
-490.9128362305591
 21
182.0607247623691
 31
0
  0
LINE
  8
1
 62
7
 10
-490.9128362305591
 20
175.7107247623694
 30
0
 11
-488.1728362305591
 21
175.7107247623694
 31
0
  0
LINE
  8
1
 62
7
 10
-490.9128362305591
 20
182.0607247623691
 30
0
 11
-488.1728362305591
 21
182.0607247623691
 31
0
  0
LINE
  8
1
 62
7
 10
-488.1728362305591
 20
175.7107247623694
 30
0
 11
-488.1728362305591
 21
169.3607247623694
 31
0
  0
LINE
  8
1
 62
7
 10
-488.1728362305591
 20
182.0607247623691
 30
0
 11
-488.1728362305591
 21
175.7107247623694
 31
0
  0
LINE
  8
1
 62
7
 10
-488.1728362305591
 20
188.4107247623693
 30
0
 11
-488.1728362305591
 21
182.0607247623691
 31
0
  0
LINE
  8
1
 62
7
 10
-488.1728362305591
 20
175.7107247623694
 30
0
 11
-485.4328362305591
 21
175.7107247623694
 31
0
  0
LINE
  8
1
 62
7
 10
-488.1728362305591
 20
182.0607247623691
 30
0
 11
-485.4328362305591
 21
182.0607247623691
 31
0
  0
LINE
  8
1
 62
7
 10
-485.4328362305591
 20
175.7107247623694
 30
0
 11
-485.4328362305591
 21
169.3607247623694
 31
0
  0
LINE
  8
1
 62
7
 10
-485.4328362305591
 20
182.0607247623691
 30
0
 11
-485.4328362305591
 21
175.7107247623694
 31
0
  0
LINE
  8
1
 62
7
 10
-485.4328362305591
 20
188.4107247623693
 30
0
 11
-485.4328362305591
 21
182.0607247623691
 31
0
  0
LINE
  8
1
 62
7
 10
-485.4328362305591
 20
175.7107247623694
 30
0
 11
-482.6928362305591
 21
175.7107247623694
 31
0
  0
LINE
  8
1
 62
7
 10
-485.4328362305591
 20
182.0607247623691
 30
0
 11
-482.6928362305591
 21
182.0607247623691
 31
0
  0
LINE
  8
1
 62
7
 10
-482.6928362305591
 20
175.7107247623694
 30
0
 11
-482.6928362305591
 21
169.3607247623694
 31
0
  0
LINE
  8
1
 62
7
 10
-482.6928362305591
 20
182.0607247623691
 30
0
 11
-482.6928362305591
 21
175.7107247623694
 31
0
  0
LINE
  8
1
 62
7
 10
-482.6928362305591
 20
188.4107247623693
 30
0
 11
-482.6928362305591
 21
182.0607247623691
 31
0
  0
LINE
  8
1
 62
7
 10
-482.6928362305591
 20
175.7107247623694
 30
0
 11
-479.9528362305591
 21
175.7107247623694
 31
0
  0
LINE
  8
1
 62
7
 10
-482.6928362305591
 20
182.0607247623691
 30
0
 11
-479.9528362305591
 21
182.0607247623691
 31
0
  0
LINE
  8
1
 62
7
 10
-479.9528362305591
 20
175.7107247623694
 30
0
 11
-479.9528362305591
 21
169.3607247623694
 31
0
  0
LINE
  8
1
 62
7
 10
-479.9528362305591
 20
182.0607247623691
 30
0
 11
-479.9528362305591
 21
175.7107247623694
 31
0
  0
LINE
  8
1
 62
7
 10
-479.9528362305591
 20
188.4107247623693
 30
0
 11
-479.9528362305591
 21
182.0607247623691
 31
0
  0
LINE
  8
1
 62
7
 10
-479.9528362305591
 20
175.7107247623694
 30
0
 11
-477.212836230559
 21
175.7107247623694
 31
0
  0
LINE
  8
1
 62
7
 10
-479.9528362305591
 20
182.0607247623691
 30
0
 11
-477.212836230559
 21
182.0607247623691
 31
0
  0
LINE
  8
1
 62
7
 10
-477.212836230559
 20
175.7107247623694
 30
0
 11
-477.212836230559
 21
169.3607247623694
 31
0
  0
LINE
  8
1
 62
7
 10
-477.212836230559
 20
182.0607247623691
 30
0
 11
-477.212836230559
 21
175.7107247623694
 31
0
  0
LINE
  8
1
 62
7
 10
-477.212836230559
 20
188.4107247623693
 30
0
 11
-477.212836230559
 21
182.0607247623691
 31
0
  0
LINE
  8
1
 62
7
 10
-477.212836230559
 20
175.7107247623694
 30
0
 11
-474.4728362305589
 21
175.7107247623694
 31
0
  0
LINE
  8
1
 62
7
 10
-474.4728362305579
 20
175.7107247623698
 30
0
 11
-474.4728362305589
 21
175.7107247623694
 31
0
  0
LINE
  8
1
 62
7
 10
-474.4728362305589
 20
175.7107247623694
 30
0
 11
-471.802836230558
 21
175.7107247623694
 31
0
  0
LINE
  8
1
 62
7
 10
-474.4728362305589
 20
188.4107247623693
 30
0
 11
-474.4728362305579
 21
188.4107247623696
 31
0
  0
LINE
  8
1
 62
7
 10
-477.212836230559
 20
188.4107247623693
 30
0
 11
-474.4728362305589
 21
188.4107247623693
 31
0
  0
LINE
  8
1
 62
7
 10
-477.212836230559
 20
194.7607247623693
 30
0
 11
-477.212836230559
 21
188.4107247623693
 31
0
  0
LINE
  8
1
 62
7
 10
-479.9528362305591
 20
188.4107247623693
 30
0
 11
-477.212836230559
 21
188.4107247623693
 31
0
  0
LINE
  8
1
 62
7
 10
-479.9528362305591
 20
194.7607247623693
 30
0
 11
-479.9528362305591
 21
188.4107247623693
 31
0
  0
LINE
  8
1
 62
7
 10
-482.6928362305591
 20
188.4107247623693
 30
0
 11
-479.9528362305591
 21
188.4107247623693
 31
0
  0
LINE
  8
1
 62
7
 10
-482.6928362305591
 20
194.7607247623693
 30
0
 11
-482.6928362305591
 21
188.4107247623693
 31
0
  0
LINE
  8
1
 62
7
 10
-485.4328362305591
 20
188.4107247623693
 30
0
 11
-482.6928362305591
 21
188.4107247623693
 31
0
  0
LINE
  8
1
 62
7
 10
-485.4328362305591
 20
194.7607247623693
 30
0
 11
-485.4328362305591
 21
188.4107247623693
 31
0
  0
LINE
  8
1
 62
7
 10
-488.1728362305591
 20
188.4107247623693
 30
0
 11
-485.4328362305591
 21
188.4107247623693
 31
0
  0
LINE
  8
1
 62
7
 10
-488.1728362305591
 20
194.7607247623693
 30
0
 11
-488.1728362305591
 21
188.4107247623693
 31
0
  0
LINE
  8
1
 62
7
 10
-490.9128362305591
 20
188.4107247623693
 30
0
 11
-488.1728362305591
 21
188.4107247623693
 31
0
  0
LINE
  8
1
 62
7
 10
-490.9128362305591
 20
194.7607247623693
 30
0
 11
-490.9128362305591
 21
188.4107247623693
 31
0
  0
LINE
  8
1
 62
7
 10
-493.6528362305591
 20
188.4107247623693
 30
0
 11
-490.9128362305591
 21
188.4107247623693
 31
0
  0
LINE
  8
1
 62
7
 10
-493.6528362305591
 20
194.7607247623693
 30
0
 11
-493.6528362305591
 21
188.4107247623693
 31
0
  0
LINE
  8
1
 62
7
 10
-496.392836230559
 20
188.4107247623693
 30
0
 11
-493.6528362305591
 21
188.4107247623693
 31
0
  0
LINE
  8
1
 62
7
 10
-496.392836230559
 20
194.7607247623693
 30
0
 11
-496.392836230559
 21
188.4107247623693
 31
0
  0
LINE
  8
1
 62
7
 10
-499.1328362305589
 20
188.4107247623693
 30
0
 11
-496.392836230559
 21
188.4107247623693
 31
0
  0
LINE
  8
1
 62
7
 10
-499.1328362305589
 20
194.7607247623693
 30
0
 11
-499.1328362305589
 21
188.4107247623693
 31
0
  0
LINE
  8
1
 62
7
 10
-499.1328362305589
 20
188.4107247623693
 30
0
 11
-501.8028362305581
 21
188.4107247623693
 31
0
  0
LINE
  8
1
 62
7
 10
-501.8028362305581
 20
194.7607247623693
 30
0
 11
-501.8028362305581
 21
196.0607247623693
 31
0
  0
LINE
  8
1
 62
7
 10
-499.1328362305589
 20
194.7607247623693
 30
0
 11
-501.8028362305581
 21
194.7607247623693
 31
0
  0
LINE
  8
1
 62
7
 10
-499.1328362305589
 20
194.7607247623693
 30
0
 11
-496.392836230559
 21
194.7607247623693
 31
0
  0
LINE
  8
1
 62
7
 10
-496.392836230559
 20
194.7607247623693
 30
0
 11
-493.6528362305591
 21
194.7607247623693
 31
0
  0
LINE
  8
1
 62
7
 10
-499.132836230559
 20
201.1107247623693
 30
0
 11
-499.1328362305589
 21
194.7607247623693
 31
0
  0
LINE
  8
1
 62
7
 10
-496.3928362305589
 20
201.1107247623693
 30
0
 11
-496.392836230559
 21
194.7607247623693
 31
0
  0
LINE
  8
1
 62
7
 10
-499.132836230559
 20
207.4607247623693
 30
0
 11
-499.132836230559
 21
201.1107247623693
 31
0
  0
LINE
  8
1
 62
7
 10
-496.3928362305589
 20
207.4607247623693
 30
0
 11
-496.3928362305589
 21
201.1107247623693
 31
0
  0
LINE
  8
1
 62
7
 10
-493.652836230559
 20
201.1107247623693
 30
0
 11
-493.6528362305591
 21
194.7607247623693
 31
0
  0
LINE
  8
1
 62
7
 10
-490.912836230559
 20
201.1107247623693
 30
0
 11
-490.9128362305591
 21
194.7607247623693
 31
0
  0
LINE
  8
1
 62
7
 10
-488.172836230559
 20
201.1107247623693
 30
0
 11
-488.1728362305591
 21
194.7607247623693
 31
0
  0
LINE
  8
1
 62
7
 10
-485.432836230559
 20
201.1107247623693
 30
0
 11
-485.4328362305591
 21
194.7607247623693
 31
0
  0
LINE
  8
1
 62
7
 10
-493.6528362305591
 20
194.7607247623693
 30
0
 11
-490.9128362305591
 21
194.7607247623693
 31
0
  0
LINE
  8
1
 62
7
 10
-490.9128362305591
 20
194.7607247623693
 30
0
 11
-488.1728362305591
 21
194.7607247623693
 31
0
  0
LINE
  8
1
 62
7
 10
-488.1728362305591
 20
194.7607247623693
 30
0
 11
-485.4328362305591
 21
194.7607247623693
 31
0
  0
LINE
  8
1
 62
7
 10
-493.652836230559
 20
207.4607247623693
 30
0
 11
-493.652836230559
 21
201.1107247623693
 31
0
  0
LINE
  8
1
 62
7
 10
-490.912836230559
 20
207.4607247623694
 30
0
 11
-490.912836230559
 21
201.1107247623693
 31
0
  0
LINE
  8
1
 62
7
 10
-488.172836230559
 20
207.4607247623694
 30
0
 11
-488.172836230559
 21
201.1107247623693
 31
0
  0
LINE
  8
1
 62
7
 10
-485.432836230559
 20
207.4607247623693
 30
0
 11
-485.432836230559
 21
201.1107247623693
 31
0
  0
LINE
  8
1
 62
7
 10
-485.4328362305591
 20
194.7607247623693
 30
0
 11
-482.6928362305591
 21
194.7607247623693
 31
0
  0
LINE
  8
1
 62
7
 10
-482.6928362305591
 20
194.7607247623693
 30
0
 11
-479.9528362305591
 21
194.7607247623693
 31
0
  0
LINE
  8
1
 62
7
 10
-479.9528362305591
 20
194.7607247623693
 30
0
 11
-477.212836230559
 21
194.7607247623693
 31
0
  0
LINE
  8
1
 62
7
 10
-482.692836230559
 20
201.1107247623693
 30
0
 11
-482.6928362305591
 21
194.7607247623693
 31
0
  0
LINE
  8
1
 62
7
 10
-479.952836230559
 20
201.1107247623693
 30
0
 11
-479.9528362305591
 21
194.7607247623693
 31
0
  0
LINE
  8
1
 62
7
 10
-482.692836230559
 20
207.4607247623693
 30
0
 11
-482.692836230559
 21
201.1107247623693
 31
0
  0
LINE
  8
1
 62
7
 10
-477.212836230559
 20
201.1107247623693
 30
0
 11
-477.212836230559
 21
194.7607247623693
 31
0
  0
LINE
  8
1
 62
7
 10
-479.952836230559
 20
207.4607247623694
 30
0
 11
-479.952836230559
 21
201.1107247623693
 31
0
  0
LINE
  8
1
 62
7
 10
-477.212836230559
 20
207.4607247623693
 30
0
 11
-477.212836230559
 21
201.1107247623693
 31
0
  0
LINE
  8
1
 62
7
 10
-474.4728362305589
 20
207.4607247623693
 30
0
 11
-474.4728362305589
 21
201.1107247623693
 31
0
  0
LINE
  8
1
 62
7
 10
-477.212836230559
 20
194.7607247623693
 30
0
 11
-474.4728362305579
 21
194.7607247623693
 31
0
  0
LINE
  8
1
 62
7
 10
-474.4728362305579
 20
188.4107247623696
 30
0
 11
-474.4728362305589
 21
188.4107247623693
 31
0
  0
LINE
  8
1
 62
7
 10
-474.4728362305589
 20
201.1107247623693
 30
0
 11
-471.802836230558
 21
201.1107247623693
 31
0
  0
LINE
  8
1
 62
7
 10
-474.4728362305579
 20
194.7607247623693
 30
0
 11
-474.4728362305589
 21
201.1107247623693
 31
0
  0
LINE
  8
1
 62
7
 10
-477.212836230559
 20
201.1107247623693
 30
0
 11
-474.4728362305589
 21
201.1107247623693
 31
0
  0
LINE
  8
1
 62
7
 10
-479.952836230559
 20
201.1107247623693
 30
0
 11
-477.212836230559
 21
201.1107247623693
 31
0
  0
LINE
  8
1
 62
7
 10
-482.692836230559
 20
201.1107247623693
 30
0
 11
-479.952836230559
 21
201.1107247623693
 31
0
  0
LINE
  8
1
 62
7
 10
-482.692836230559
 20
201.1107247623693
 30
0
 11
-485.432836230559
 21
201.1107247623693
 31
0
  0
LINE
  8
1
 62
7
 10
-485.432836230559
 20
201.1107247623693
 30
0
 11
-488.172836230559
 21
201.1107247623693
 31
0
  0
LINE
  8
1
 62
7
 10
-488.172836230559
 20
201.1107247623693
 30
0
 11
-490.912836230559
 21
201.1107247623693
 31
0
  0
LINE
  8
1
 62
7
 10
-490.912836230559
 20
201.1107247623693
 30
0
 11
-493.652836230559
 21
201.1107247623693
 31
0
  0
LINE
  8
1
 62
7
 10
-493.652836230559
 20
201.1107247623693
 30
0
 11
-496.3928362305589
 21
201.1107247623693
 31
0
  0
LINE
  8
1
 62
7
 10
-496.3928362305589
 20
201.1107247623693
 30
0
 11
-499.132836230559
 21
201.1107247623693
 31
0
  0
LINE
  8
1
 62
7
 10
-501.8028362305581
 20
201.1107247623693
 30
0
 11
-499.132836230559
 21
201.1107247623693
 31
0
  0
LINE
  8
1
 62
7
 10
-506.552836230558
 20
213.2107247623692
 30
0
 11
-504.085518232911
 21
213.2107247623692
 31
0
  0
LINE
  8
1
 62
7
 10
-518.802836230558
 20
202.2107247623692
 30
0
 11
-518.802836230558
 21
204.374029538623
 31
0
  0
LINE
  8
1
 62
7
 10
-471.6280121566829
 20
258.8275773083224
 30
0
 11
-474.3478362305579
 21
258.8275773083224
 31
0
  0
LINE
  8
1
 62
7
 10
-479.8076450265698
 20
258.8275773083224
 30
0
 11
-503.802836230558
 21
258.8275773083224
 31
0
  0
LINE
  8
1
 62
7
 10
-395.624172003659
 20
213.2107247623692
 30
0
 11
-395.624172003659
 21
211.888336747365
 31
0
  0
LINE
  8
1
 62
7
 10
-501.8028362305581
 20
207.4607247623693
 30
0
 11
-501.802836230558
 21
208.7607247623693
 31
0
  0
LINE
  8
1
 62
7
 10
-501.8028362305581
 20
207.4607247623693
 30
0
 11
-499.132836230559
 21
207.4607247623693
 31
0
  0
LINE
  8
1
 62
7
 10
-471.802836230558
 20
139.7107247623692
 30
0
 11
-471.802836230558
 21
142.6607247623693
 31
0
  0
LINE
  8
1
 62
7
 10
-471.802836230558
 20
142.6607247623693
 30
0
 11
-473.8728362305579
 21
142.6607247623693
 31
0
  0
LINE
  8
1
 62
7
 10
-501.802836230558
 20
145.2607247623693
 30
0
 11
-499.732836230558
 21
145.2607247623693
 31
0
  0
LINE
  8
1
 62
7
 10
-471.802836230558
 20
149.0107247623693
 30
0
 11
-473.8728362305579
 21
149.0107247623693
 31
0
  0
LINE
  8
1
 62
7
 10
-501.802836230558
 20
151.6107247623694
 30
0
 11
-499.732836230559
 21
151.6107247623694
 31
0
  0
LINE
  8
1
 62
7
 10
-471.802836230558
 20
155.3607247623693
 30
0
 11
-473.8728362305579
 21
155.3607247623694
 31
0
  0
LINE
  8
1
 62
7
 10
-501.802836230558
 20
157.9607247623694
 30
0
 11
-499.732836230558
 21
157.9607247623694
 31
0
  0
LINE
  8
1
 62
7
 10
-471.802836230558
 20
161.7107247623694
 30
0
 11
-473.8728362305579
 21
161.7107247623694
 31
0
  0
LINE
  8
1
 62
7
 10
-501.802836230558
 20
164.3107247623694
 30
0
 11
-499.732836230558
 21
164.3107247623694
 31
0
  0
LINE
  8
1
 62
7
 10
-471.802836230558
 20
168.0607247623694
 30
0
 11
-473.8728362305579
 21
168.0607247623694
 31
0
  0
LINE
  8
1
 62
7
 10
-501.8028362305581
 20
170.6607247623694
 30
0
 11
-499.732836230558
 21
170.6607247623694
 31
0
  0
LINE
  8
1
 62
7
 10
-471.802836230558
 20
174.4107247623694
 30
0
 11
-473.8728362305579
 21
174.4107247623694
 31
0
  0
LINE
  8
1
 62
7
 10
-501.802836230558
 20
177.0107247623692
 30
0
 11
-499.732836230558
 21
177.0107247623692
 31
0
  0
LINE
  8
1
 62
7
 10
-471.802836230558
 20
180.7607247623692
 30
0
 11
-473.8728362305579
 21
180.7607247623692
 31
0
  0
LINE
  8
1
 62
7
 10
-501.802836230558
 20
183.3607247623692
 30
0
 11
-499.732836230558
 21
183.3607247623692
 31
0
  0
LINE
  8
1
 62
7
 10
-471.8028362305581
 20
187.1107247623692
 30
0
 11
-473.8728362305579
 21
187.1107247623692
 31
0
  0
LINE
  8
1
 62
7
 10
-501.802836230558
 20
189.7107247623693
 30
0
 11
-499.732836230558
 21
189.7107247623693
 31
0
  0
LINE
  8
1
 62
7
 10
-471.802836230558
 20
193.4607247623693
 30
0
 11
-473.8728362305579
 21
193.4607247623693
 31
0
  0
LINE
  8
1
 62
7
 10
-501.8028362305581
 20
196.0607247623693
 30
0
 11
-499.732836230558
 21
196.0607247623693
 31
0
  0
LINE
  8
1
 62
7
 10
-471.802836230558
 20
199.8107247623693
 30
0
 11
-473.8728362305579
 21
199.8107247623693
 31
0
  0
LINE
  8
1
 62
7
 10
-501.802836230558
 20
202.4107247623693
 30
0
 11
-499.732836230559
 21
202.4107247623693
 31
0
  0
LINE
  8
1
 62
7
 10
-471.802836230558
 20
206.1607247623693
 30
0
 11
-473.8728362305579
 21
206.1607247623693
 31
0
  0
LINE
  8
1
 62
7
 10
-501.802836230558
 20
208.7607247623693
 30
0
 11
-499.732836230558
 21
208.7607247623693
 31
0
  0
LINE
  8
1
 62
7
 10
-501.802836230558
 20
139.7107247623692
 30
0
 11
-501.802836230558
 21
142.6607247623693
 31
0
  0
LINE
  8
1
 62
7
 10
-501.802836230558
 20
211.7107247623692
 30
0
 11
-499.732836230558
 21
211.7107247623692
 31
0
  0
LINE
  8
1
 62
7
 10
-455.802836230558
 20
138.2107247623692
 30
0
 11
-458.052836230558
 21
138.2107247623692
 31
0
  0
LINE
  8
1
 62
7
 10
-402.624172003659
 20
138.2107247623692
 30
0
 11
-402.624172003659
 21
139.7107247623692
 31
0
  0
LINE
  8
1
 62
7
 10
-402.6241720036589
 20
163.2107247623692
 30
0
 11
-402.624172003659
 21
175.2107247623692
 31
0
  0
LINE
  8
1
 62
7
 10
-402.624172003659
 20
200.2107247623692
 30
0
 11
-402.624172003659
 21
200.8607247623694
 31
0
  0
LINE
  8
1
 62
7
 10
-408.624172003659
 20
138.2107247623692
 30
0
 11
-402.624172003659
 21
138.2107247623692
 31
0
  0
LINE
  8
1
 62
7
 10
-409.624172003659
 20
149.2107247623692
 30
0
 11
-409.624172003659
 21
139.2107247623692
 31
0
  0
LINE
  8
1
 62
7
 10
-402.624172003659
 20
150.2107247623692
 30
0
 11
-408.624172003659
 21
150.2107247623692
 31
0
  0
LINE
  8
1
 62
7
 10
-408.624172003659
 20
163.2107247623692
 30
0
 11
-402.6241720036589
 21
163.2107247623692
 31
0
  0
LINE
  8
1
 62
7
 10
-409.624172003659
 20
174.2107247623692
 30
0
 11
-409.624172003659
 21
164.2107247623692
 31
0
  0
LINE
  8
1
 62
7
 10
-402.624172003659
 20
175.2107247623692
 30
0
 11
-408.624172003659
 21
175.2107247623692
 31
0
  0
LINE
  8
1
 62
7
 10
-408.624172003659
 20
188.2107247623692
 30
0
 11
-402.624172003659
 21
188.2107247623692
 31
0
  0
LINE
  8
1
 62
7
 10
-409.624172003659
 20
199.2107247623692
 30
0
 11
-409.624172003659
 21
189.2107247623692
 31
0
  0
LINE
  8
1
 62
7
 10
-402.624172003659
 20
200.2107247623692
 30
0
 11
-408.624172003659
 21
200.2107247623692
 31
0
  0
LINE
  8
1
 62
2
  6
DASHDOT
 10
-461.8028362305581
 20
184.8107247623689
 30
0
 11
-461.802836230558
 21
203.2107247623692
 31
0
  0
LINE
  8
1
 62
7
 10
-402.624172003659
 20
139.7107247623692
 30
0
 11
-402.624172003659
 21
138.2107247623692
 31
0
  0
LINE
  8
1
 62
7
 10
-402.624172003659
 20
213.2107247623692
 30
0
 11
-402.624172003659
 21
211.7107247623692
 31
0
  0
LINE
  8
1
 62
7
 10
-395.624172003659
 20
213.2107247623692
 30
0
 11
-402.624172003659
 21
213.2107247623692
 31
0
  0
LINE
  8
1
 62
7
 10
-402.624172003659
 20
138.2107247623692
 30
0
 11
-395.624172003659
 21
138.2107247623692
 31
0
  0
LINE
  8
1
 62
7
 10
-517.802836230558
 20
188.2107247623692
 30
0
 11
-515.552836230558
 21
188.2107247623692
 31
0
  0
LINE
  8
1
 62
7
 10
-517.802836230558
 20
201.2107247623692
 30
0
 11
-515.552836230558
 21
201.2107247623692
 31
0
  0
LINE
  8
1
 62
7
 10
-455.802836230558
 20
200.2107247623692
 30
0
 11
-458.052836230558
 21
200.2107247623692
 31
0
  0
LINE
  8
1
 62
7
 10
-455.802836230558
 20
163.2107247623692
 30
0
 11
-458.052836230558
 21
163.2107247623692
 31
0
  0
LINE
  8
1
 62
7
 10
-455.802836230558
 20
150.2107247623692
 30
0
 11
-458.052836230558
 21
150.2107247623692
 31
0
  0
LINE
  8
1
 62
7
 10
-517.802836230558
 20
151.2107247623692
 30
0
 11
-515.552836230558
 21
151.2107247623692
 31
0
  0
LINE
  8
1
 62
7
 10
-517.052836230558
 20
213.2107247623692
 30
0
 11
-506.552836230558
 21
213.2107247623692
 31
0
  0
LINE
  8
1
 62
7
 10
-468.802836230558
 20
188.2107247623692
 30
0
 11
-465.552836230558
 21
188.2107247623692
 31
0
  0
LINE
  8
1
 62
7
 10
-454.802836230558
 20
199.2107247623692
 30
0
 11
-454.802836230558
 21
189.2107247623692
 31
0
  0
LINE
  8
1
 62
7
 10
-469.802836230558
 20
187.2107247623692
 30
0
 11
-469.802836230558
 21
176.2107247623692
 31
0
  0
LINE
  8
1
 62
7
 10
-468.802836230558
 20
175.2107247623692
 30
0
 11
-465.552836230558
 21
175.2107247623692
 31
0
  0
LINE
  8
1
 62
7
 10
-454.802836230558
 20
174.2107247623692
 30
0
 11
-454.802836230558
 21
164.2107247623692
 31
0
  0
LINE
  8
1
 62
7
 10
-469.802836230558
 20
162.2107247623692
 30
0
 11
-469.802836230558
 21
151.4607247623692
 31
0
  0
LINE
  8
1
 62
7
 10
-454.802836230558
 20
149.2107247623692
 30
0
 11
-454.802836230558
 21
139.2107247623692
 31
0
  0
LINE
  8
1
 62
7
 10
-503.802836230558
 20
199.9607247623692
 30
0
 11
-503.802836230558
 21
189.2107247623692
 31
0
  0
LINE
  8
1
 62
7
 10
-518.802836230558
 20
187.2107247623692
 30
0
 11
-518.802836230558
 21
177.2107247623692
 31
0
  0
LINE
  8
1
 62
7
 10
-517.802836230558
 20
176.2107247623692
 30
0
 11
-515.552836230558
 21
176.2107247623692
 31
0
  0
LINE
  8
1
 62
7
 10
-503.802836230558
 20
175.2107247623692
 30
0
 11
-503.802836230558
 21
164.2107247623692
 31
0
  0
LINE
  8
1
 62
7
 10
-518.802836230558
 20
162.2107247623692
 30
0
 11
-518.802836230558
 21
152.2107247623692
 31
0
  0
LINE
  8
1
 62
7
 10
-503.802836230558
 20
150.2107247623692
 30
0
 11
-503.802836230558
 21
138.2107247623692
 31
0
  0
LINE
  8
1
 62
7
 10
-469.802836230558
 20
213.2107247623692
 30
0
 11
-469.802836230558
 21
201.2107247623692
 31
0
  0
LINE
  8
1
 62
7
 10
-517.802836230558
 20
213.2107247623692
 30
0
 11
-517.052836230558
 21
213.2107247623692
 31
0
  0
LINE
  8
1
 62
7
 10
-517.802836230558
 20
163.2107247623692
 30
0
 11
-515.552836230558
 21
163.2107247623692
 31
0
  0
LINE
  8
1
 62
2
  6
DASHDOT
 10
-511.802836230558
 20
197.5107247623691
 30
0
 11
-511.802836230558
 21
216.2107247623692
 31
0
  0
LINE
  8
1
 62
2
  6
DASHDOT
 10
-461.8028362305581
 20
159.4107247623689
 30
0
 11
-461.802836230558
 21
177.8107247623689
 31
0
  0
LINE
  8
1
 62
2
  6
DASHDOT
 10
-461.8028362305581
 20
128.2107247623692
 30
0
 11
-461.802836230558
 21
152.4107247623689
 31
0
  0
LINE
  8
1
 62
2
  6
DASHDOT
 10
-511.802836230558
 20
171.8107247623689
 30
0
 11
-511.802836230558
 21
190.5107247623691
 31
0
  0
LINE
  8
1
 62
2
  6
DASHDOT
 10
-511.802836230558
 20
128.2107247623692
 30
0
 11
-511.802836230558
 21
165.110724762369
 31
0
  0
LINE
  8
1
 62
7
 10
-499.732836230558
 20
211.7107247623692
 30
0
 11
-499.732836230558
 21
208.7607247623693
 31
0
  0
LINE
  8
1
 62
7
 10
-499.132836230559
 20
207.4607247623693
 30
0
 11
-499.132836230559
 21
211.7107247623692
 31
0
  0
LINE
  8
1
 62
7
 10
-498.532836230558
 20
211.7107247623692
 30
0
 11
-498.532836230558
 21
208.7607247623693
 31
0
  0
LINE
  8
1
 62
7
 10
-499.132836230559
 20
211.7107247623692
 30
0
 11
-498.532836230558
 21
211.7107247623692
 31
0
  0
LINE
  8
1
 62
7
 10
-498.532836230558
 20
208.7607247623693
 30
0
 11
-496.992836230558
 21
208.7607247623693
 31
0
  0
LINE
  8
1
 62
7
 10
-499.732836230558
 20
206.1607247623693
 30
0
 11
-501.802836230558
 21
206.1607247623693
 31
0
  0
LINE
  8
1
 62
7
 10
-496.992836230558
 20
211.7107247623692
 30
0
 11
-496.992836230558
 21
208.7607247623693
 31
0
  0
LINE
  8
1
 62
7
 10
-496.3928362305589
 20
207.4607247623693
 30
0
 11
-499.132836230559
 21
207.4607247623693
 31
0
  0
LINE
  8
1
 62
7
 10
-496.392836230559
 20
211.7107247623692
 30
0
 11
-496.3928362305589
 21
207.4607247623693
 31
0
  0
LINE
  8
1
 62
7
 10
-495.792836230558
 20
208.7607247623693
 30
0
 11
-495.792836230558
 21
211.7107247623692
 31
0
  0
LINE
  8
1
 62
7
 10
-495.792836230558
 20
208.7607247623693
 30
0
 11
-494.252836230558
 21
208.7607247623693
 31
0
  0
LINE
  8
1
 62
7
 10
-496.392836230559
 20
211.7107247623692
 30
0
 11
-495.792836230558
 21
211.7107247623692
 31
0
  0
LINE
  8
1
 62
7
 10
-496.9928362305581
 20
206.1607247623693
 30
0
 11
-498.532836230558
 21
206.1607247623693
 31
0
  0
LINE
  8
1
 62
7
 10
-494.252836230558
 20
211.7107247623692
 30
0
 11
-494.252836230558
 21
208.7607247623693
 31
0
  0
LINE
  8
1
 62
7
 10
-493.652836230559
 20
207.4607247623693
 30
0
 11
-496.3928362305589
 21
207.4607247623693
 31
0
  0
LINE
  8
1
 62
7
 10
-493.652836230559
 20
207.4607247623693
 30
0
 11
-493.652836230559
 21
211.7107247623692
 31
0
  0
LINE
  8
1
 62
7
 10
-493.052836230558
 20
208.7607247623693
 30
0
 11
-493.052836230558
 21
211.7107247623692
 31
0
  0
LINE
  8
1
 62
7
 10
-493.052836230558
 20
208.7607247623693
 30
0
 11
-491.512836230558
 21
208.7607247623693
 31
0
  0
LINE
  8
1
 62
7
 10
-493.652836230559
 20
211.7107247623692
 30
0
 11
-493.052836230558
 21
211.7107247623692
 31
0
  0
LINE
  8
1
 62
7
 10
-494.252836230558
 20
206.1607247623693
 30
0
 11
-495.792836230558
 21
206.1607247623693
 31
0
  0
LINE
  8
1
 62
7
 10
-491.512836230558
 20
211.7107247623692
 30
0
 11
-491.512836230558
 21
208.7607247623693
 31
0
  0
LINE
  8
1
 62
7
 10
-490.912836230559
 20
207.4607247623694
 30
0
 11
-493.652836230559
 21
207.4607247623693
 31
0
  0
LINE
  8
1
 62
7
 10
-490.912836230559
 20
211.7107247623692
 30
0
 11
-490.912836230559
 21
207.4607247623694
 31
0
  0
LINE
  8
1
 62
7
 10
-490.312836230558
 20
208.7607247623693
 30
0
 11
-490.312836230558
 21
211.7107247623692
 31
0
  0
LINE
  8
1
 62
7
 10
-490.312836230558
 20
208.7607247623693
 30
0
 11
-488.772836230558
 21
208.7607247623693
 31
0
  0
LINE
  8
1
 62
7
 10
-491.512836230558
 20
206.1607247623693
 30
0
 11
-493.0528362305579
 21
206.1607247623693
 31
0
  0
LINE
  8
1
 62
7
 10
-488.772836230558
 20
211.7107247623692
 30
0
 11
-488.772836230558
 21
208.7607247623693
 31
0
  0
LINE
  8
1
 62
7
 10
-488.172836230559
 20
211.7107247623692
 30
0
 11
-488.772836230558
 21
211.7107247623692
 31
0
  0
LINE
  8
1
 62
7
 10
-488.172836230559
 20
207.4607247623694
 30
0
 11
-490.912836230559
 21
207.4607247623694
 31
0
  0
LINE
  8
1
 62
7
 10
-488.172836230559
 20
211.7107247623692
 30
0
 11
-488.172836230559
 21
207.4607247623694
 31
0
  0
LINE
  8
1
 62
7
 10
-487.572836230558
 20
211.7107247623692
 30
0
 11
-487.572836230558
 21
208.7607247623693
 31
0
  0
LINE
  8
1
 62
7
 10
-488.172836230559
 20
211.7107247623692
 30
0
 11
-487.572836230558
 21
211.7107247623692
 31
0
  0
LINE
  8
1
 62
7
 10
-487.572836230558
 20
208.7607247623693
 30
0
 11
-486.032836230558
 21
208.7607247623693
 31
0
  0
LINE
  8
1
 62
7
 10
-488.772836230558
 20
206.1607247623693
 30
0
 11
-490.312836230558
 21
206.1607247623693
 31
0
  0
LINE
  8
1
 62
7
 10
-486.032836230558
 20
211.7107247623692
 30
0
 11
-486.032836230558
 21
208.7607247623693
 31
0
  0
LINE
  8
1
 62
7
 10
-485.432836230559
 20
207.4607247623693
 30
0
 11
-488.172836230559
 21
207.4607247623694
 31
0
  0
LINE
  8
1
 62
7
 10
-485.432836230559
 20
207.4607247623693
 30
0
 11
-485.432836230559
 21
211.7107247623692
 31
0
  0
LINE
  8
1
 62
7
 10
-484.832836230558
 20
211.7107247623692
 30
0
 11
-484.832836230558
 21
208.7607247623693
 31
0
  0
LINE
  8
1
 62
7
 10
-485.432836230559
 20
211.7107247623692
 30
0
 11
-484.832836230558
 21
211.7107247623692
 31
0
  0
LINE
  8
1
 62
7
 10
-484.832836230558
 20
208.7607247623693
 30
0
 11
-483.2928362305581
 21
208.7607247623693
 31
0
  0
LINE
  8
1
 62
7
 10
-486.0328362305581
 20
206.1607247623693
 30
0
 11
-487.572836230558
 21
206.1607247623693
 31
0
  0
LINE
  8
1
 62
7
 10
-483.2928362305581
 20
211.7107247623692
 30
0
 11
-483.2928362305581
 21
208.7607247623693
 31
0
  0
LINE
  8
1
 62
7
 10
-482.692836230559
 20
211.7107247623692
 30
0
 11
-483.2928362305581
 21
211.7107247623692
 31
0
  0
LINE
  8
1
 62
7
 10
-482.692836230559
 20
211.7107247623692
 30
0
 11
-482.692836230559
 21
207.4607247623693
 31
0
  0
LINE
  8
1
 62
7
 10
-482.092836230558
 20
211.7107247623692
 30
0
 11
-482.092836230558
 21
208.7607247623693
 31
0
  0
LINE
  8
1
 62
7
 10
-482.692836230559
 20
211.7107247623692
 30
0
 11
-482.092836230558
 21
211.7107247623692
 31
0
  0
LINE
  8
1
 62
7
 10
-482.692836230559
 20
207.4607247623693
 30
0
 11
-479.952836230559
 21
207.4607247623694
 31
0
  0
LINE
  8
1
 62
7
 10
-482.092836230558
 20
208.7607247623693
 30
0
 11
-480.552836230558
 21
208.7607247623693
 31
0
  0
LINE
  8
1
 62
7
 10
-483.2928362305581
 20
206.1607247623693
 30
0
 11
-484.832836230558
 21
206.1607247623693
 31
0
  0
LINE
  8
1
 62
7
 10
-480.552836230558
 20
211.7107247623692
 30
0
 11
-480.552836230558
 21
208.7607247623693
 31
0
  0
LINE
  8
1
 62
7
 10
-479.952836230559
 20
207.4607247623694
 30
0
 11
-479.952836230559
 21
211.7107247623692
 31
0
  0
LINE
  8
1
 62
7
 10
-479.952836230559
 20
207.4607247623694
 30
0
 11
-477.212836230559
 21
207.4607247623693
 31
0
  0
LINE
  8
1
 62
7
 10
-479.352836230558
 20
211.7107247623692
 30
0
 11
-479.352836230558
 21
208.7607247623693
 31
0
  0
LINE
  8
1
 62
7
 10
-479.952836230559
 20
211.7107247623692
 30
0
 11
-479.352836230558
 21
211.7107247623692
 31
0
  0
LINE
  8
1
 62
7
 10
-479.352836230558
 20
208.7607247623693
 30
0
 11
-477.812836230558
 21
208.7607247623693
 31
0
  0
LINE
  8
1
 62
7
 10
-480.552836230558
 20
206.1607247623693
 30
0
 11
-482.092836230558
 21
206.1607247623693
 31
0
  0
LINE
  8
1
 62
7
 10
-477.812836230558
 20
211.7107247623692
 30
0
 11
-477.812836230558
 21
208.7607247623693
 31
0
  0
LINE
  8
1
 62
7
 10
-477.212836230559
 20
207.4607247623693
 30
0
 11
-477.212836230559
 21
211.7107247623692
 31
0
  0
LINE
  8
1
 62
7
 10
-477.212836230559
 20
207.4607247623693
 30
0
 11
-474.4728362305589
 21
207.4607247623693
 31
0
  0
LINE
  8
1
 62
7
 10
-477.212836230559
 20
211.7107247623692
 30
0
 11
-476.612836230558
 21
211.7107247623692
 31
0
  0
LINE
  8
1
 62
7
 10
-476.612836230558
 20
211.7107247623692
 30
0
 11
-476.612836230558
 21
208.7607247623693
 31
0
  0
LINE
  8
1
 62
7
 10
-476.612836230558
 20
208.7607247623693
 30
0
 11
-475.0728362305579
 21
208.7607247623693
 31
0
  0
LINE
  8
1
 62
7
 10
-477.812836230558
 20
206.1607247623693
 30
0
 11
-479.3528362305581
 21
206.1607247623693
 31
0
  0
LINE
  8
1
 62
7
 10
-475.0728362305579
 20
211.7107247623692
 30
0
 11
-475.0728362305579
 21
208.7607247623693
 31
0
  0
LINE
  8
1
 62
7
 10
-474.4728362305589
 20
207.4607247623693
 30
0
 11
-474.4728362305589
 21
211.7107247623692
 31
0
  0
LINE
  8
1
 62
7
 10
-474.4728362305589
 20
207.4607247623693
 30
0
 11
-471.802836230558
 21
207.4607247623693
 31
0
  0
LINE
  8
1
 62
7
 10
-474.4728362305589
 20
211.7107247623692
 30
0
 11
-473.8728362305579
 21
211.7107247623692
 31
0
  0
LINE
  8
1
 62
7
 10
-473.8728362305579
 20
211.7107247623692
 30
0
 11
-473.8728362305579
 21
208.7607247623693
 31
0
  0
LINE
  8
1
 62
7
 10
-473.8728362305579
 20
208.7607247623693
 30
0
 11
-471.802836230558
 21
208.7607247623693
 31
0
  0
LINE
  8
1
 62
7
 10
-475.0728362305579
 20
206.1607247623693
 30
0
 11
-476.612836230558
 21
206.1607247623693
 31
0
  0
LINE
  8
1
 62
7
 10
-473.8728362305579
 20
206.1607247623693
 30
0
 11
-473.8728362305579
 21
202.4107247623693
 31
0
  0
LINE
  8
1
 62
7
 10
-473.8728362305579
 20
202.4107247623693
 30
0
 11
-471.802836230558
 21
202.4107247623693
 31
0
  0
LINE
  8
1
 62
7
 10
-475.0728362305579
 20
206.1607247623693
 30
0
 11
-475.0728362305579
 21
202.4107247623693
 31
0
  0
LINE
  8
1
 62
7
 10
-476.612836230558
 20
206.1607247623693
 30
0
 11
-476.612836230558
 21
202.4107247623693
 31
0
  0
LINE
  8
1
 62
7
 10
-479.3528362305581
 20
206.1607247623693
 30
0
 11
-479.3528362305581
 21
202.4107247623693
 31
0
  0
LINE
  8
1
 62
7
 10
-482.092836230558
 20
206.1607247623693
 30
0
 11
-482.0928362305582
 21
202.4107247623693
 31
0
  0
LINE
  8
1
 62
7
 10
-484.832836230558
 20
206.1607247623693
 30
0
 11
-484.8328362305584
 21
202.4107247623693
 31
0
  0
LINE
  8
1
 62
7
 10
-487.572836230558
 20
206.1607247623693
 30
0
 11
-487.5728362305585
 21
202.4107247623693
 31
0
  0
LINE
  8
1
 62
7
 10
-490.312836230558
 20
206.1607247623693
 30
0
 11
-490.3128362305586
 21
202.4107247623693
 31
0
  0
LINE
  8
1
 62
7
 10
-493.0528362305579
 20
206.1607247623693
 30
0
 11
-493.0528362305587
 21
202.4107247623693
 31
0
  0
LINE
  8
1
 62
7
 10
-495.792836230558
 20
206.1607247623693
 30
0
 11
-495.7928362305588
 21
202.4107247623693
 31
0
  0
LINE
  8
1
 62
7
 10
-498.532836230558
 20
206.1607247623693
 30
0
 11
-498.5328362305589
 21
202.4107247623693
 31
0
  0
LINE
  8
1
 62
7
 10
-477.812836230558
 20
206.1607247623693
 30
0
 11
-477.812836230558
 21
202.4107247623693
 31
0
  0
LINE
  8
1
 62
7
 10
-480.552836230558
 20
206.1607247623693
 30
0
 11
-480.5528362305582
 21
202.4107247623693
 31
0
  0
LINE
  8
1
 62
7
 10
-483.2928362305581
 20
206.1607247623693
 30
0
 11
-483.2928362305584
 21
202.4107247623693
 31
0
  0
LINE
  8
1
 62
7
 10
-486.0328362305581
 20
206.1607247623693
 30
0
 11
-486.0328362305585
 21
202.4107247623693
 31
0
  0
LINE
  8
1
 62
7
 10
-488.772836230558
 20
206.1607247623693
 30
0
 11
-488.7728362305584
 21
202.4107247623693
 31
0
  0
LINE
  8
1
 62
7
 10
-491.512836230558
 20
206.1607247623693
 30
0
 11
-491.5128362305587
 21
202.4107247623693
 31
0
  0
LINE
  8
1
 62
7
 10
-494.252836230558
 20
206.1607247623693
 30
0
 11
-494.2528362305588
 21
202.4107247623693
 31
0
  0
LINE
  8
1
 62
7
 10
-496.9928362305581
 20
206.1607247623693
 30
0
 11
-496.9928362305589
 21
202.4107247623693
 31
0
  0
LINE
  8
1
 62
7
 10
-499.732836230558
 20
206.1607247623693
 30
0
 11
-499.732836230559
 21
202.4107247623693
 31
0
  0
LINE
  8
1
 62
7
 10
-476.612836230558
 20
202.4107247623693
 30
0
 11
-475.0728362305579
 21
202.4107247623693
 31
0
  0
LINE
  8
1
 62
7
 10
-475.072836230558
 20
199.8107247623693
 30
0
 11
-476.612836230558
 21
199.8107247623693
 31
0
  0
LINE
  8
1
 62
7
 10
-477.812836230558
 20
199.8107247623693
 30
0
 11
-479.3528362305581
 21
199.8107247623693
 31
0
  0
LINE
  8
1
 62
7
 10
-479.3528362305581
 20
202.4107247623693
 30
0
 11
-477.812836230558
 21
202.4107247623693
 31
0
  0
LINE
  8
1
 62
7
 10
-480.552836230558
 20
199.8107247623693
 30
0
 11
-482.092836230558
 21
199.8107247623693
 31
0
  0
LINE
  8
1
 62
7
 10
-482.0928362305582
 20
202.4107247623693
 30
0
 11
-480.5528362305582
 21
202.4107247623693
 31
0
  0
LINE
  8
1
 62
7
 10
-483.2928362305581
 20
199.8107247623693
 30
0
 11
-484.832836230558
 21
199.8107247623693
 31
0
  0
LINE
  8
1
 62
7
 10
-484.8328362305584
 20
202.4107247623693
 30
0
 11
-483.2928362305584
 21
202.4107247623693
 31
0
  0
LINE
  8
1
 62
7
 10
-486.032836230558
 20
199.8107247623693
 30
0
 11
-487.5728362305579
 21
199.8107247623693
 31
0
  0
LINE
  8
1
 62
7
 10
-487.5728362305585
 20
202.4107247623693
 30
0
 11
-486.0328362305585
 21
202.4107247623693
 31
0
  0
LINE
  8
1
 62
7
 10
-488.772836230558
 20
199.8107247623693
 30
0
 11
-490.312836230558
 21
199.8107247623693
 31
0
  0
LINE
  8
1
 62
7
 10
-490.3128362305586
 20
202.4107247623693
 30
0
 11
-488.7728362305584
 21
202.4107247623693
 31
0
  0
LINE
  8
1
 62
7
 10
-491.512836230558
 20
199.8107247623693
 30
0
 11
-493.052836230558
 21
199.8107247623693
 31
0
  0
LINE
  8
1
 62
7
 10
-493.0528362305587
 20
202.4107247623693
 30
0
 11
-491.5128362305587
 21
202.4107247623693
 31
0
  0
LINE
  8
1
 62
7
 10
-494.252836230558
 20
199.8107247623693
 30
0
 11
-495.792836230558
 21
199.8107247623693
 31
0
  0
LINE
  8
1
 62
7
 10
-495.7928362305588
 20
202.4107247623693
 30
0
 11
-494.2528362305588
 21
202.4107247623693
 31
0
  0
LINE
  8
1
 62
7
 10
-496.992836230558
 20
199.8107247623693
 30
0
 11
-498.532836230558
 21
199.8107247623693
 31
0
  0
LINE
  8
1
 62
7
 10
-498.5328362305589
 20
202.4107247623693
 30
0
 11
-496.9928362305589
 21
202.4107247623693
 31
0
  0
LINE
  8
1
 62
7
 10
-499.732836230558
 20
199.8107247623693
 30
0
 11
-501.802836230558
 21
199.8107247623693
 31
0
  0
LINE
  8
1
 62
7
 10
-499.732836230558
 20
199.8107247623693
 30
0
 11
-499.732836230558
 21
196.0607247623693
 31
0
  0
LINE
  8
1
 62
7
 10
-498.532836230558
 20
199.8107247623693
 30
0
 11
-498.532836230558
 21
196.0607247623693
 31
0
  0
LINE
  8
1
 62
7
 10
-498.532836230558
 20
196.0607247623693
 30
0
 11
-496.992836230558
 21
196.0607247623693
 31
0
  0
LINE
  8
1
 62
7
 10
-496.992836230558
 20
199.8107247623693
 30
0
 11
-496.992836230558
 21
196.0607247623693
 31
0
  0
LINE
  8
1
 62
7
 10
-494.252836230558
 20
199.8107247623693
 30
0
 11
-494.252836230558
 21
196.0607247623693
 31
0
  0
LINE
  8
1
 62
7
 10
-491.512836230558
 20
199.8107247623693
 30
0
 11
-491.512836230558
 21
196.0607247623693
 31
0
  0
LINE
  8
1
 62
7
 10
-488.772836230558
 20
199.8107247623693
 30
0
 11
-488.772836230558
 21
196.0607247623693
 31
0
  0
LINE
  8
1
 62
7
 10
-486.032836230558
 20
199.8107247623693
 30
0
 11
-486.032836230558
 21
196.0607247623693
 31
0
  0
LINE
  8
1
 62
7
 10
-483.2928362305581
 20
199.8107247623693
 30
0
 11
-483.292836230558
 21
196.0607247623693
 31
0
  0
LINE
  8
1
 62
7
 10
-480.552836230558
 20
199.8107247623693
 30
0
 11
-480.552836230558
 21
196.0607247623693
 31
0
  0
LINE
  8
1
 62
7
 10
-477.812836230558
 20
199.8107247623693
 30
0
 11
-477.812836230558
 21
196.0607247623693
 31
0
  0
LINE
  8
1
 62
7
 10
-475.072836230558
 20
199.8107247623693
 30
0
 11
-475.072836230558
 21
196.0607247623693
 31
0
  0
LINE
  8
1
 62
7
 10
-473.8728362305579
 20
199.8107247623693
 30
0
 11
-473.8728362305579
 21
196.0607247623693
 31
0
  0
LINE
  8
1
 62
7
 10
-473.8728362305579
 20
196.0607247623693
 30
0
 11
-471.802836230558
 21
196.0607247623693
 31
0
  0
LINE
  8
1
 62
7
 10
-476.612836230558
 20
199.8107247623693
 30
0
 11
-476.612836230558
 21
196.0607247623693
 31
0
  0
LINE
  8
1
 62
7
 10
-479.3528362305581
 20
199.8107247623693
 30
0
 11
-479.3528362305582
 21
196.0607247623693
 31
0
  0
LINE
  8
1
 62
7
 10
-482.092836230558
 20
199.8107247623693
 30
0
 11
-482.0928362305581
 21
196.0607247623693
 31
0
  0
LINE
  8
1
 62
7
 10
-484.832836230558
 20
199.8107247623693
 30
0
 11
-484.8328362305584
 21
196.0607247623693
 31
0
  0
LINE
  8
1
 62
7
 10
-487.5728362305579
 20
199.8107247623693
 30
0
 11
-487.5728362305584
 21
196.0607247623693
 31
0
  0
LINE
  8
1
 62
7
 10
-490.312836230558
 20
199.8107247623693
 30
0
 11
-490.3128362305586
 21
196.0607247623693
 31
0
  0
LINE
  8
1
 62
7
 10
-493.052836230558
 20
199.8107247623693
 30
0
 11
-493.0528362305587
 21
196.0607247623693
 31
0
  0
LINE
  8
1
 62
7
 10
-495.792836230558
 20
199.8107247623693
 30
0
 11
-495.7928362305588
 21
196.0607247623693
 31
0
  0
LINE
  8
1
 62
7
 10
-475.0728362305579
 20
193.4607247623692
 30
0
 11
-476.612836230558
 21
193.4607247623693
 31
0
  0
LINE
  8
1
 62
7
 10
-476.612836230558
 20
196.0607247623693
 30
0
 11
-475.072836230558
 21
196.0607247623693
 31
0
  0
LINE
  8
1
 62
7
 10
-477.812836230558
 20
193.4607247623693
 30
0
 11
-479.352836230558
 21
193.4607247623693
 31
0
  0
LINE
  8
1
 62
7
 10
-479.3528362305582
 20
196.0607247623693
 30
0
 11
-477.812836230558
 21
196.0607247623693
 31
0
  0
LINE
  8
1
 62
7
 10
-480.552836230558
 20
193.4607247623693
 30
0
 11
-482.0928362305581
 21
193.4607247623692
 31
0
  0
LINE
  8
1
 62
7
 10
-482.0928362305581
 20
196.0607247623693
 30
0
 11
-480.552836230558
 21
196.0607247623693
 31
0
  0
LINE
  8
1
 62
7
 10
-483.2928362305581
 20
193.4607247623692
 30
0
 11
-484.832836230558
 21
193.4607247623692
 31
0
  0
LINE
  8
1
 62
7
 10
-484.8328362305584
 20
196.0607247623693
 30
0
 11
-483.292836230558
 21
196.0607247623693
 31
0
  0
LINE
  8
1
 62
7
 10
-486.032836230558
 20
193.4607247623693
 30
0
 11
-487.572836230558
 21
193.4607247623693
 31
0
  0
LINE
  8
1
 62
7
 10
-487.5728362305584
 20
196.0607247623693
 30
0
 11
-486.032836230558
 21
196.0607247623693
 31
0
  0
LINE
  8
1
 62
7
 10
-488.772836230558
 20
193.4607247623693
 30
0
 11
-490.312836230558
 21
193.4607247623693
 31
0
  0
LINE
  8
1
 62
7
 10
-490.3128362305586
 20
196.0607247623693
 30
0
 11
-488.772836230558
 21
196.0607247623693
 31
0
  0
LINE
  8
1
 62
7
 10
-491.512836230558
 20
193.4607247623693
 30
0
 11
-493.052836230558
 21
193.4607247623693
 31
0
  0
LINE
  8
1
 62
7
 10
-493.0528362305587
 20
196.0607247623693
 30
0
 11
-491.512836230558
 21
196.0607247623693
 31
0
  0
LINE
  8
1
 62
7
 10
-494.252836230558
 20
193.4607247623693
 30
0
 11
-495.792836230558
 21
193.4607247623693
 31
0
  0
LINE
  8
1
 62
7
 10
-495.7928362305588
 20
196.0607247623693
 30
0
 11
-494.252836230558
 21
196.0607247623693
 31
0
  0
LINE
  8
1
 62
7
 10
-496.992836230558
 20
193.4607247623693
 30
0
 11
-498.532836230558
 21
193.4607247623693
 31
0
  0
LINE
  8
1
 62
7
 10
-499.732836230558
 20
193.4607247623693
 30
0
 11
-501.802836230558
 21
193.4607247623693
 31
0
  0
LINE
  8
1
 62
7
 10
-499.732836230558
 20
193.4607247623693
 30
0
 11
-499.732836230558
 21
189.7107247623693
 31
0
  0
LINE
  8
1
 62
7
 10
-498.532836230558
 20
193.4607247623693
 30
0
 11
-498.532836230558
 21
189.7107247623693
 31
0
  0
LINE
  8
1
 62
7
 10
-498.532836230558
 20
189.7107247623693
 30
0
 11
-496.992836230558
 21
189.7107247623693
 31
0
  0
LINE
  8
1
 62
7
 10
-496.992836230558
 20
193.4607247623693
 30
0
 11
-496.992836230558
 21
189.7107247623693
 31
0
  0
LINE
  8
1
 62
7
 10
-494.252836230558
 20
193.4607247623693
 30
0
 11
-494.252836230558
 21
189.7107247623693
 31
0
  0
LINE
  8
1
 62
7
 10
-491.512836230558
 20
193.4607247623693
 30
0
 11
-491.512836230558
 21
189.7107247623693
 31
0
  0
LINE
  8
1
 62
7
 10
-488.772836230558
 20
193.4607247623693
 30
0
 11
-488.772836230558
 21
189.7107247623693
 31
0
  0
LINE
  8
1
 62
7
 10
-486.032836230558
 20
193.4607247623693
 30
0
 11
-486.032836230558
 21
189.7107247623693
 31
0
  0
LINE
  8
1
 62
7
 10
-483.2928362305581
 20
193.4607247623692
 30
0
 11
-483.2928362305581
 21
189.7107247623693
 31
0
  0
LINE
  8
1
 62
7
 10
-480.552836230558
 20
193.4607247623693
 30
0
 11
-480.552836230558
 21
189.7107247623693
 31
0
  0
LINE
  8
1
 62
7
 10
-477.812836230558
 20
193.4607247623693
 30
0
 11
-477.812836230558
 21
189.7107247623693
 31
0
  0
LINE
  8
1
 62
7
 10
-475.0728362305579
 20
193.4607247623692
 30
0
 11
-475.072836230558
 21
189.7107247623693
 31
0
  0
LINE
  8
1
 62
7
 10
-473.8728362305579
 20
193.4607247623693
 30
0
 11
-473.8728362305579
 21
189.7107247623693
 31
0
  0
LINE
  8
1
 62
7
 10
-473.8728362305579
 20
189.7107247623693
 30
0
 11
-471.802836230558
 21
189.7107247623692
 31
0
  0
LINE
  8
1
 62
7
 10
-476.612836230558
 20
193.4607247623693
 30
0
 11
-476.612836230558
 21
189.7107247623693
 31
0
  0
LINE
  8
1
 62
7
 10
-479.352836230558
 20
193.4607247623693
 30
0
 11
-479.3528362305581
 21
189.7107247623693
 31
0
  0
LINE
  8
1
 62
7
 10
-482.0928362305581
 20
193.4607247623692
 30
0
 11
-482.0928362305581
 21
189.7107247623693
 31
0
  0
LINE
  8
1
 62
7
 10
-484.832836230558
 20
193.4607247623692
 30
0
 11
-484.8328362305584
 21
189.7107247623693
 31
0
  0
LINE
  8
1
 62
7
 10
-487.572836230558
 20
193.4607247623693
 30
0
 11
-487.5728362305586
 21
189.7107247623693
 31
0
  0
LINE
  8
1
 62
7
 10
-490.312836230558
 20
193.4607247623693
 30
0
 11
-490.3128362305587
 21
189.7107247623693
 31
0
  0
LINE
  8
1
 62
7
 10
-493.052836230558
 20
193.4607247623693
 30
0
 11
-493.0528362305587
 21
189.7107247623693
 31
0
  0
LINE
  8
1
 62
7
 10
-495.792836230558
 20
193.4607247623693
 30
0
 11
-495.7928362305588
 21
189.7107247623693
 31
0
  0
LINE
  8
1
 62
7
 10
-499.732836230558
 20
187.1107247623692
 30
0
 11
-501.802836230558
 21
187.1107247623692
 31
0
  0
LINE
  8
1
 62
7
 10
-495.7928362305588
 20
189.7107247623693
 30
0
 11
-494.252836230558
 21
189.7107247623693
 31
0
  0
LINE
  8
1
 62
7
 10
-496.992836230558
 20
187.1107247623692
 30
0
 11
-498.5328362305581
 21
187.1107247623692
 31
0
  0
LINE
  8
1
 62
7
 10
-493.0528362305587
 20
189.7107247623693
 30
0
 11
-491.512836230558
 21
189.7107247623693
 31
0
  0
LINE
  8
1
 62
7
 10
-494.252836230558
 20
187.1107247623692
 30
0
 11
-495.792836230558
 21
187.1107247623692
 31
0
  0
LINE
  8
1
 62
7
 10
-490.3128362305587
 20
189.7107247623693
 30
0
 11
-488.772836230558
 21
189.7107247623693
 31
0
  0
LINE
  8
1
 62
7
 10
-491.512836230558
 20
187.1107247623692
 30
0
 11
-493.052836230558
 21
187.1107247623692
 31
0
  0
LINE
  8
1
 62
7
 10
-487.5728362305586
 20
189.7107247623693
 30
0
 11
-486.032836230558
 21
189.7107247623693
 31
0
  0
LINE
  8
1
 62
7
 10
-488.772836230558
 20
187.1107247623692
 30
0
 11
-490.312836230558
 21
187.1107247623692
 31
0
  0
LINE
  8
1
 62
7
 10
-484.8328362305584
 20
189.7107247623693
 30
0
 11
-483.2928362305581
 21
189.7107247623693
 31
0
  0
LINE
  8
1
 62
7
 10
-486.032836230558
 20
187.1107247623692
 30
0
 11
-487.572836230558
 21
187.1107247623692
 31
0
  0
LINE
  8
1
 62
7
 10
-482.0928362305581
 20
189.7107247623693
 30
0
 11
-480.552836230558
 21
189.7107247623693
 31
0
  0
LINE
  8
1
 62
7
 10
-483.2928362305581
 20
187.1107247623692
 30
0
 11
-484.832836230558
 21
187.1107247623692
 31
0
  0
LINE
  8
1
 62
7
 10
-479.3528362305581
 20
189.7107247623693
 30
0
 11
-477.812836230558
 21
189.7107247623693
 31
0
  0
LINE
  8
1
 62
7
 10
-480.552836230558
 20
187.1107247623692
 30
0
 11
-482.092836230558
 21
187.1107247623692
 31
0
  0
LINE
  8
1
 62
7
 10
-476.612836230558
 20
189.7107247623693
 30
0
 11
-475.072836230558
 21
189.7107247623693
 31
0
  0
LINE
  8
1
 62
7
 10
-477.812836230558
 20
187.1107247623692
 30
0
 11
-479.352836230558
 21
187.1107247623692
 31
0
  0
LINE
  8
1
 62
7
 10
-475.0728362305579
 20
187.1107247623692
 30
0
 11
-476.612836230558
 21
187.1107247623692
 31
0
  0
LINE
  8
1
 62
7
 10
-473.8728362305579
 20
187.1107247623692
 30
0
 11
-473.8728362305579
 21
183.3607247623692
 31
0
  0
LINE
  8
1
 62
7
 10
-473.8728362305579
 20
183.3607247623692
 30
0
 11
-471.8028362305581
 21
183.3607247623692
 31
0
  0
LINE
  8
1
 62
7
 10
-475.0728362305579
 20
183.3607247623692
 30
0
 11
-475.0728362305579
 21
187.1107247623692
 31
0
  0
LINE
  8
1
 62
7
 10
-476.612836230558
 20
187.1107247623692
 30
0
 11
-476.612836230558
 21
183.3607247623692
 31
0
  0
LINE
  8
1
 62
7
 10
-479.352836230558
 20
187.1107247623692
 30
0
 11
-479.3528362305581
 21
183.3607247623692
 31
0
  0
LINE
  8
1
 62
7
 10
-482.092836230558
 20
187.1107247623692
 30
0
 11
-482.0928362305582
 21
183.3607247623692
 31
0
  0
LINE
  8
1
 62
7
 10
-484.832836230558
 20
187.1107247623692
 30
0
 11
-484.8328362305584
 21
183.3607247623692
 31
0
  0
LINE
  8
1
 62
7
 10
-487.572836230558
 20
187.1107247623692
 30
0
 11
-487.5728362305585
 21
183.3607247623692
 31
0
  0
LINE
  8
1
 62
7
 10
-490.312836230558
 20
187.1107247623692
 30
0
 11
-490.3128362305587
 21
183.3607247623692
 31
0
  0
LINE
  8
1
 62
7
 10
-493.052836230558
 20
187.1107247623692
 30
0
 11
-493.0528362305587
 21
183.3607247623692
 31
0
  0
LINE
  8
1
 62
7
 10
-495.792836230558
 20
187.1107247623692
 30
0
 11
-495.7928362305589
 21
183.3607247623692
 31
0
  0
LINE
  8
1
 62
7
 10
-498.5328362305581
 20
187.1107247623692
 30
0
 11
-498.5328362305589
 21
183.3607247623692
 31
0
  0
LINE
  8
1
 62
7
 10
-499.732836230558
 20
187.1107247623692
 30
0
 11
-499.732836230558
 21
183.3607247623692
 31
0
  0
LINE
  8
1
 62
7
 10
-496.992836230558
 20
187.1107247623692
 30
0
 11
-496.992836230558
 21
183.3607247623692
 31
0
  0
LINE
  8
1
 62
7
 10
-494.252836230558
 20
187.1107247623692
 30
0
 11
-494.252836230558
 21
183.3607247623692
 31
0
  0
LINE
  8
1
 62
7
 10
-491.512836230558
 20
187.1107247623692
 30
0
 11
-491.512836230558
 21
183.3607247623692
 31
0
  0
LINE
  8
1
 62
7
 10
-488.772836230558
 20
187.1107247623692
 30
0
 11
-488.772836230558
 21
183.3607247623692
 31
0
  0
LINE
  8
1
 62
7
 10
-486.032836230558
 20
187.1107247623692
 30
0
 11
-486.032836230558
 21
183.3607247623692
 31
0
  0
LINE
  8
1
 62
7
 10
-483.2928362305581
 20
187.1107247623692
 30
0
 11
-483.292836230558
 21
183.3607247623692
 31
0
  0
LINE
  8
1
 62
7
 10
-480.552836230558
 20
187.1107247623692
 30
0
 11
-480.552836230558
 21
183.3607247623692
 31
0
  0
LINE
  8
1
 62
7
 10
-477.812836230558
 20
187.1107247623692
 30
0
 11
-477.812836230558
 21
183.3607247623692
 31
0
  0
LINE
  8
1
 62
7
 10
-475.0728362305579
 20
180.7607247623692
 30
0
 11
-476.612836230558
 21
180.7607247623692
 31
0
  0
LINE
  8
1
 62
7
 10
-476.612836230558
 20
183.3607247623692
 30
0
 11
-475.0728362305579
 21
183.3607247623692
 31
0
  0
LINE
  8
1
 62
7
 10
-477.812836230558
 20
180.7607247623692
 30
0
 11
-479.352836230558
 21
180.7607247623692
 31
0
  0
LINE
  8
1
 62
7
 10
-479.3528362305581
 20
183.3607247623692
 30
0
 11
-477.812836230558
 21
183.3607247623692
 31
0
  0
LINE
  8
1
 62
7
 10
-480.552836230558
 20
180.7607247623692
 30
0
 11
-482.092836230558
 21
180.7607247623692
 31
0
  0
LINE
  8
1
 62
7
 10
-482.0928362305582
 20
183.3607247623692
 30
0
 11
-480.552836230558
 21
183.3607247623692
 31
0
  0
LINE
  8
1
 62
7
 10
-483.2928362305581
 20
180.7607247623692
 30
0
 11
-484.8328362305579
 21
180.7607247623692
 31
0
  0
LINE
  8
1
 62
7
 10
-484.8328362305584
 20
183.3607247623692
 30
0
 11
-483.292836230558
 21
183.3607247623692
 31
0
  0
LINE
  8
1
 62
7
 10
-486.032836230558
 20
180.7607247623692
 30
0
 11
-487.572836230558
 21
180.7607247623692
 31
0
  0
LINE
  8
1
 62
7
 10
-487.5728362305585
 20
183.3607247623692
 30
0
 11
-486.032836230558
 21
183.3607247623692
 31
0
  0
LINE
  8
1
 62
7
 10
-488.772836230558
 20
180.7607247623692
 30
0
 11
-490.312836230558
 21
180.7607247623692
 31
0
  0
LINE
  8
1
 62
7
 10
-490.3128362305587
 20
183.3607247623692
 30
0
 11
-488.772836230558
 21
183.3607247623692
 31
0
  0
LINE
  8
1
 62
7
 10
-491.512836230558
 20
180.7607247623692
 30
0
 11
-493.052836230558
 21
180.7607247623692
 31
0
  0
LINE
  8
1
 62
7
 10
-493.0528362305587
 20
183.3607247623692
 30
0
 11
-491.512836230558
 21
183.3607247623692
 31
0
  0
LINE
  8
1
 62
7
 10
-494.252836230558
 20
180.7607247623692
 30
0
 11
-495.7928362305581
 21
180.7607247623692
 31
0
  0
LINE
  8
1
 62
7
 10
-495.7928362305589
 20
183.3607247623692
 30
0
 11
-494.252836230558
 21
183.3607247623692
 31
0
  0
LINE
  8
1
 62
7
 10
-496.992836230558
 20
180.7607247623692
 30
0
 11
-498.532836230558
 21
180.7607247623692
 31
0
  0
LINE
  8
1
 62
7
 10
-498.5328362305589
 20
183.3607247623692
 30
0
 11
-496.992836230558
 21
183.3607247623692
 31
0
  0
LINE
  8
1
 62
7
 10
-499.732836230558
 20
180.7607247623692
 30
0
 11
-501.802836230558
 21
180.7607247623692
 31
0
  0
LINE
  8
1
 62
7
 10
-499.732836230558
 20
180.7607247623692
 30
0
 11
-499.732836230558
 21
177.0107247623692
 31
0
  0
LINE
  8
1
 62
7
 10
-498.532836230558
 20
180.7607247623692
 30
0
 11
-498.532836230558
 21
177.0107247623692
 31
0
  0
LINE
  8
1
 62
7
 10
-498.532836230558
 20
177.0107247623692
 30
0
 11
-496.992836230558
 21
177.0107247623692
 31
0
  0
LINE
  8
1
 62
7
 10
-496.992836230558
 20
180.7607247623692
 30
0
 11
-496.992836230558
 21
177.0107247623692
 31
0
  0
LINE
  8
1
 62
7
 10
-494.252836230558
 20
180.7607247623692
 30
0
 11
-494.252836230558
 21
177.0107247623692
 31
0
  0
LINE
  8
1
 62
7
 10
-491.512836230558
 20
180.7607247623692
 30
0
 11
-491.512836230558
 21
177.0107247623692
 31
0
  0
LINE
  8
1
 62
7
 10
-488.772836230558
 20
180.7607247623692
 30
0
 11
-488.772836230558
 21
177.0107247623692
 31
0
  0
LINE
  8
1
 62
7
 10
-486.032836230558
 20
180.7607247623692
 30
0
 11
-486.032836230558
 21
177.0107247623692
 31
0
  0
LINE
  8
1
 62
7
 10
-483.2928362305581
 20
180.7607247623692
 30
0
 11
-483.292836230558
 21
177.0107247623692
 31
0
  0
LINE
  8
1
 62
7
 10
-480.552836230558
 20
180.7607247623692
 30
0
 11
-480.552836230558
 21
177.0107247623692
 31
0
  0
LINE
  8
1
 62
7
 10
-477.812836230558
 20
180.7607247623692
 30
0
 11
-477.812836230558
 21
177.0107247623692
 31
0
  0
LINE
  8
1
 62
7
 10
-475.0728362305579
 20
180.7607247623692
 30
0
 11
-475.0728362305579
 21
177.0107247623692
 31
0
  0
LINE
  8
1
 62
7
 10
-473.8728362305579
 20
180.7607247623692
 30
0
 11
-473.8728362305579
 21
177.0107247623692
 31
0
  0
LINE
  8
1
 62
7
 10
-473.8728362305579
 20
177.0107247623692
 30
0
 11
-471.802836230558
 21
177.0107247623692
 31
0
  0
LINE
  8
1
 62
7
 10
-476.612836230558
 20
180.7607247623692
 30
0
 11
-476.612836230558
 21
177.0107247623692
 31
0
  0
LINE
  8
1
 62
7
 10
-479.352836230558
 20
180.7607247623692
 30
0
 11
-479.3528362305581
 21
177.0107247623692
 31
0
  0
LINE
  8
1
 62
7
 10
-482.092836230558
 20
180.7607247623692
 30
0
 11
-482.0928362305582
 21
177.0107247623692
 31
0
  0
LINE
  8
1
 62
7
 10
-484.8328362305579
 20
180.7607247623692
 30
0
 11
-484.8328362305584
 21
177.0107247623692
 31
0
  0
LINE
  8
1
 62
7
 10
-487.572836230558
 20
180.7607247623692
 30
0
 11
-487.5728362305585
 21
177.0107247623692
 31
0
  0
LINE
  8
1
 62
7
 10
-490.312836230558
 20
180.7607247623692
 30
0
 11
-490.3128362305586
 21
177.0107247623692
 31
0
  0
LINE
  8
1
 62
7
 10
-493.052836230558
 20
180.7607247623692
 30
0
 11
-493.0528362305587
 21
177.0107247623692
 31
0
  0
LINE
  8
1
 62
7
 10
-495.7928362305581
 20
180.7607247623692
 30
0
 11
-495.7928362305588
 21
177.0107247623692
 31
0
  0
LINE
  8
1
 62
7
 10
-499.732836230558
 20
174.4107247623694
 30
0
 11
-501.802836230558
 21
174.4107247623694
 31
0
  0
LINE
  8
1
 62
7
 10
-496.992836230558
 20
174.4107247623694
 30
0
 11
-498.532836230558
 21
174.4107247623694
 31
0
  0
LINE
  8
1
 62
7
 10
-495.7928362305588
 20
177.0107247623692
 30
0
 11
-494.252836230558
 21
177.0107247623692
 31
0
  0
LINE
  8
1
 62
7
 10
-494.252836230558
 20
174.4107247623694
 30
0
 11
-495.792836230558
 21
174.4107247623694
 31
0
  0
LINE
  8
1
 62
7
 10
-493.0528362305587
 20
177.0107247623692
 30
0
 11
-491.512836230558
 21
177.0107247623692
 31
0
  0
LINE
  8
1
 62
7
 10
-491.512836230558
 20
174.4107247623694
 30
0
 11
-493.052836230558
 21
174.4107247623694
 31
0
  0
LINE
  8
1
 62
7
 10
-490.3128362305586
 20
177.0107247623692
 30
0
 11
-488.772836230558
 21
177.0107247623692
 31
0
  0
LINE
  8
1
 62
7
 10
-488.772836230558
 20
174.4107247623694
 30
0
 11
-490.312836230558
 21
174.4107247623694
 31
0
  0
LINE
  8
1
 62
7
 10
-487.5728362305585
 20
177.0107247623692
 30
0
 11
-486.032836230558
 21
177.0107247623692
 31
0
  0
LINE
  8
1
 62
7
 10
-484.8328362305584
 20
177.0107247623692
 30
0
 11
-483.292836230558
 21
177.0107247623692
 31
0
  0
LINE
  8
1
 62
7
 10
-486.032836230558
 20
174.4107247623694
 30
0
 11
-487.572836230558
 21
174.4107247623694
 31
0
  0
LINE
  8
1
 62
7
 10
-483.2928362305581
 20
174.4107247623694
 30
0
 11
-484.832836230558
 21
174.4107247623694
 31
0
  0
LINE
  8
1
 62
7
 10
-482.0928362305582
 20
177.0107247623692
 30
0
 11
-480.552836230558
 21
177.0107247623692
 31
0
  0
LINE
  8
1
 62
7
 10
-480.552836230558
 20
174.4107247623694
 30
0
 11
-482.0928362305581
 21
174.4107247623694
 31
0
  0
LINE
  8
1
 62
7
 10
-479.3528362305581
 20
177.0107247623692
 30
0
 11
-477.812836230558
 21
177.0107247623692
 31
0
  0
LINE
  8
1
 62
7
 10
-477.812836230558
 20
174.4107247623694
 30
0
 11
-479.352836230558
 21
174.4107247623694
 31
0
  0
LINE
  8
1
 62
7
 10
-476.612836230558
 20
177.0107247623692
 30
0
 11
-475.0728362305579
 21
177.0107247623692
 31
0
  0
LINE
  8
1
 62
7
 10
-475.0728362305579
 20
174.4107247623694
 30
0
 11
-476.612836230558
 21
174.4107247623694
 31
0
  0
LINE
  8
1
 62
7
 10
-499.732836230558
 20
174.4107247623694
 30
0
 11
-499.732836230558
 21
170.6607247623694
 31
0
  0
LINE
  8
1
 62
7
 10
-498.532836230558
 20
174.4107247623694
 30
0
 11
-498.532836230558
 21
170.6607247623694
 31
0
  0
LINE
  8
1
 62
7
 10
-498.532836230558
 20
170.6607247623694
 30
0
 11
-496.992836230558
 21
170.6607247623694
 31
0
  0
LINE
  8
1
 62
7
 10
-496.992836230558
 20
174.4107247623694
 30
0
 11
-496.992836230558
 21
170.6607247623694
 31
0
  0
LINE
  8
1
 62
7
 10
-494.252836230558
 20
174.4107247623694
 30
0
 11
-494.252836230558
 21
170.6607247623694
 31
0
  0
LINE
  8
1
 62
7
 10
-491.512836230558
 20
174.4107247623694
 30
0
 11
-491.512836230558
 21
170.6607247623694
 31
0
  0
LINE
  8
1
 62
7
 10
-488.772836230558
 20
174.4107247623694
 30
0
 11
-488.772836230558
 21
170.6607247623694
 31
0
  0
LINE
  8
1
 62
7
 10
-486.032836230558
 20
174.4107247623694
 30
0
 11
-486.032836230558
 21
170.6607247623694
 31
0
  0
LINE
  8
1
 62
7
 10
-483.2928362305581
 20
174.4107247623694
 30
0
 11
-483.292836230558
 21
170.6607247623694
 31
0
  0
LINE
  8
1
 62
7
 10
-480.552836230558
 20
174.4107247623694
 30
0
 11
-480.552836230558
 21
170.6607247623694
 31
0
  0
LINE
  8
1
 62
7
 10
-477.812836230558
 20
174.4107247623694
 30
0
 11
-477.812836230558
 21
170.6607247623694
 31
0
  0
LINE
  8
1
 62
7
 10
-475.0728362305579
 20
174.4107247623694
 30
0
 11
-475.0728362305579
 21
170.6607247623694
 31
0
  0
LINE
  8
1
 62
7
 10
-473.8728362305579
 20
174.4107247623694
 30
0
 11
-473.8728362305579
 21
170.6607247623694
 31
0
  0
LINE
  8
1
 62
7
 10
-473.8728362305579
 20
170.6607247623694
 30
0
 11
-471.802836230558
 21
170.6607247623694
 31
0
  0
LINE
  8
1
 62
7
 10
-476.612836230558
 20
174.4107247623694
 30
0
 11
-476.612836230558
 21
170.6607247623694
 31
0
  0
LINE
  8
1
 62
7
 10
-479.352836230558
 20
174.4107247623694
 30
0
 11
-479.3528362305581
 21
170.6607247623694
 31
0
  0
LINE
  8
1
 62
7
 10
-482.0928362305581
 20
174.4107247623694
 30
0
 11
-482.0928362305582
 21
170.6607247623694
 31
0
  0
LINE
  8
1
 62
7
 10
-484.832836230558
 20
174.4107247623694
 30
0
 11
-484.8328362305585
 21
170.6607247623694
 31
0
  0
LINE
  8
1
 62
7
 10
-487.572836230558
 20
174.4107247623694
 30
0
 11
-487.5728362305585
 21
170.6607247623694
 31
0
  0
LINE
  8
1
 62
7
 10
-490.312836230558
 20
174.4107247623694
 30
0
 11
-490.3128362305586
 21
170.6607247623694
 31
0
  0
LINE
  8
1
 62
7
 10
-493.052836230558
 20
174.4107247623694
 30
0
 11
-493.0528362305587
 21
170.6607247623694
 31
0
  0
LINE
  8
1
 62
7
 10
-495.792836230558
 20
174.4107247623694
 30
0
 11
-495.792836230558
 21
170.6607247623694
 31
0
  0
LINE
  8
1
 62
7
 10
-475.0728362305579
 20
168.0607247623694
 30
0
 11
-476.6128362305581
 21
168.0607247623694
 31
0
  0
LINE
  8
1
 62
7
 10
-476.612836230558
 20
170.6607247623694
 30
0
 11
-475.0728362305579
 21
170.6607247623694
 31
0
  0
LINE
  8
1
 62
7
 10
-477.812836230558
 20
168.0607247623694
 30
0
 11
-479.3528362305581
 21
168.0607247623694
 31
0
  0
LINE
  8
1
 62
7
 10
-479.3528362305581
 20
170.6607247623694
 30
0
 11
-477.812836230558
 21
170.6607247623694
 31
0
  0
LINE
  8
1
 62
7
 10
-480.552836230558
 20
168.0607247623694
 30
0
 11
-482.092836230558
 21
168.0607247623694
 31
0
  0
LINE
  8
1
 62
7
 10
-482.0928362305582
 20
170.6607247623694
 30
0
 11
-480.552836230558
 21
170.6607247623694
 31
0
  0
LINE
  8
1
 62
7
 10
-483.2928362305581
 20
168.0607247623694
 30
0
 11
-484.832836230558
 21
168.0607247623694
 31
0
  0
LINE
  8
1
 62
7
 10
-484.8328362305585
 20
170.6607247623694
 30
0
 11
-483.292836230558
 21
170.6607247623694
 31
0
  0
LINE
  8
1
 62
7
 10
-486.032836230558
 20
168.0607247623694
 30
0
 11
-487.572836230558
 21
168.0607247623694
 31
0
  0
LINE
  8
1
 62
7
 10
-487.5728362305585
 20
170.6607247623694
 30
0
 11
-486.032836230558
 21
170.6607247623694
 31
0
  0
LINE
  8
1
 62
7
 10
-488.772836230558
 20
168.0607247623694
 30
0
 11
-490.312836230558
 21
168.0607247623694
 31
0
  0
LINE
  8
1
 62
7
 10
-491.512836230558
 20
168.0607247623694
 30
0
 11
-493.052836230558
 21
168.0607247623694
 31
0
  0
LINE
  8
1
 62
7
 10
-490.3128362305586
 20
170.6607247623694
 30
0
 11
-488.772836230558
 21
170.6607247623694
 31
0
  0
LINE
  8
1
 62
7
 10
-493.0528362305587
 20
170.6607247623694
 30
0
 11
-491.512836230558
 21
170.6607247623694
 31
0
  0
LINE
  8
1
 62
7
 10
-494.252836230558
 20
168.0607247623694
 30
0
 11
-495.792836230558
 21
168.0607247623694
 31
0
  0
LINE
  8
1
 62
7
 10
-495.792836230558
 20
170.6607247623694
 30
0
 11
-494.252836230558
 21
170.6607247623694
 31
0
  0
LINE
  8
1
 62
7
 10
-496.992836230558
 20
168.0607247623694
 30
0
 11
-498.532836230558
 21
168.0607247623694
 31
0
  0
LINE
  8
1
 62
7
 10
-499.732836230558
 20
168.0607247623694
 30
0
 11
-501.802836230558
 21
168.0607247623694
 31
0
  0
LINE
  8
1
 62
7
 10
-499.732836230558
 20
168.0607247623694
 30
0
 11
-499.732836230558
 21
164.3107247623694
 31
0
  0
LINE
  8
1
 62
7
 10
-496.992836230558
 20
168.0607247623694
 30
0
 11
-496.992836230558
 21
164.3107247623694
 31
0
  0
LINE
  8
1
 62
7
 10
-498.532836230558
 20
168.0607247623694
 30
0
 11
-498.532836230558
 21
164.3107247623694
 31
0
  0
LINE
  8
1
 62
7
 10
-498.532836230558
 20
164.3107247623694
 30
0
 11
-496.992836230558
 21
164.3107247623694
 31
0
  0
LINE
  8
1
 62
7
 10
-495.792836230558
 20
168.0607247623694
 30
0
 11
-495.792836230558
 21
164.3107247623694
 31
0
  0
LINE
  8
1
 62
7
 10
-494.252836230558
 20
168.0607247623694
 30
0
 11
-494.252836230558
 21
164.3107247623694
 31
0
  0
LINE
  8
1
 62
7
 10
-493.052836230558
 20
168.0607247623694
 30
0
 11
-493.052836230558
 21
164.3107247623694
 31
0
  0
LINE
  8
1
 62
7
 10
-491.512836230558
 20
168.0607247623694
 30
0
 11
-491.512836230558
 21
164.3107247623694
 31
0
  0
LINE
  8
1
 62
7
 10
-490.312836230558
 20
168.0607247623694
 30
0
 11
-490.312836230558
 21
164.3107247623694
 31
0
  0
LINE
  8
1
 62
7
 10
-488.772836230558
 20
168.0607247623694
 30
0
 11
-488.772836230558
 21
164.3107247623694
 31
0
  0
LINE
  8
1
 62
7
 10
-487.572836230558
 20
168.0607247623694
 30
0
 11
-487.572836230558
 21
164.3107247623694
 31
0
  0
LINE
  8
1
 62
7
 10
-486.032836230558
 20
168.0607247623694
 30
0
 11
-486.032836230558
 21
164.3107247623694
 31
0
  0
LINE
  8
1
 62
7
 10
-484.832836230558
 20
168.0607247623694
 30
0
 11
-484.832836230558
 21
164.3107247623694
 31
0
  0
LINE
  8
1
 62
7
 10
-483.2928362305581
 20
168.0607247623694
 30
0
 11
-483.2928362305581
 21
164.3107247623694
 31
0
  0
LINE
  8
1
 62
7
 10
-482.092836230558
 20
168.0607247623694
 30
0
 11
-482.092836230558
 21
164.3107247623694
 31
0
  0
LINE
  8
1
 62
7
 10
-480.552836230558
 20
168.0607247623694
 30
0
 11
-480.552836230558
 21
164.3107247623694
 31
0
  0
LINE
  8
1
 62
7
 10
-479.3528362305581
 20
168.0607247623694
 30
0
 11
-479.3528362305579
 21
164.3107247623694
 31
0
  0
LINE
  8
1
 62
7
 10
-477.812836230558
 20
168.0607247623694
 30
0
 11
-477.812836230558
 21
164.3107247623694
 31
0
  0
LINE
  8
1
 62
7
 10
-476.6128362305581
 20
168.0607247623694
 30
0
 11
-476.6128362305579
 21
164.3107247623694
 31
0
  0
LINE
  8
1
 62
7
 10
-475.0728362305579
 20
168.0607247623694
 30
0
 11
-475.072836230558
 21
164.3107247623694
 31
0
  0
LINE
  8
1
 62
7
 10
-473.8728362305579
 20
168.0607247623694
 30
0
 11
-473.8728362305579
 21
164.3107247623694
 31
0
  0
LINE
  8
1
 62
7
 10
-473.8728362305579
 20
164.3107247623694
 30
0
 11
-471.802836230558
 21
164.3107247623694
 31
0
  0
LINE
  8
1
 62
7
 10
-475.072836230558
 20
161.7107247623694
 30
0
 11
-476.6128362305581
 21
161.7107247623694
 31
0
  0
LINE
  8
1
 62
7
 10
-476.6128362305579
 20
164.3107247623694
 30
0
 11
-475.072836230558
 21
164.3107247623694
 31
0
  0
LINE
  8
1
 62
7
 10
-477.812836230558
 20
161.7107247623694
 30
0
 11
-479.352836230558
 21
161.7107247623694
 31
0
  0
LINE
  8
1
 62
7
 10
-479.3528362305579
 20
164.3107247623694
 30
0
 11
-477.812836230558
 21
164.3107247623694
 31
0
  0
LINE
  8
1
 62
7
 10
-480.552836230558
 20
161.7107247623694
 30
0
 11
-482.092836230558
 21
161.7107247623694
 31
0
  0
LINE
  8
1
 62
7
 10
-482.092836230558
 20
164.3107247623694
 30
0
 11
-480.552836230558
 21
164.3107247623694
 31
0
  0
LINE
  8
1
 62
7
 10
-483.2928362305581
 20
161.7107247623694
 30
0
 11
-484.832836230558
 21
161.7107247623694
 31
0
  0
LINE
  8
1
 62
7
 10
-484.832836230558
 20
164.3107247623694
 30
0
 11
-483.2928362305581
 21
164.3107247623694
 31
0
  0
LINE
  8
1
 62
7
 10
-486.032836230558
 20
161.7107247623694
 30
0
 11
-487.572836230558
 21
161.7107247623694
 31
0
  0
LINE
  8
1
 62
7
 10
-487.572836230558
 20
164.3107247623694
 30
0
 11
-486.032836230558
 21
164.3107247623694
 31
0
  0
LINE
  8
1
 62
7
 10
-488.772836230558
 20
161.7107247623694
 30
0
 11
-490.312836230558
 21
161.7107247623694
 31
0
  0
LINE
  8
1
 62
7
 10
-490.312836230558
 20
164.3107247623694
 30
0
 11
-488.772836230558
 21
164.3107247623694
 31
0
  0
LINE
  8
1
 62
7
 10
-491.512836230558
 20
161.7107247623694
 30
0
 11
-493.052836230558
 21
161.7107247623694
 31
0
  0
LINE
  8
1
 62
7
 10
-493.052836230558
 20
164.3107247623694
 30
0
 11
-491.512836230558
 21
164.3107247623694
 31
0
  0
LINE
  8
1
 62
7
 10
-494.252836230558
 20
161.7107247623694
 30
0
 11
-495.792836230558
 21
161.7107247623694
 31
0
  0
LINE
  8
1
 62
7
 10
-495.792836230558
 20
164.3107247623694
 30
0
 11
-494.252836230558
 21
164.3107247623694
 31
0
  0
LINE
  8
1
 62
7
 10
-496.992836230558
 20
161.7107247623694
 30
0
 11
-498.532836230558
 21
161.7107247623694
 31
0
  0
LINE
  8
1
 62
7
 10
-499.732836230558
 20
161.7107247623694
 30
0
 11
-501.802836230558
 21
161.7107247623694
 31
0
  0
LINE
  8
1
 62
7
 10
-499.732836230558
 20
161.7107247623694
 30
0
 11
-499.732836230558
 21
157.9607247623694
 31
0
  0
LINE
  8
1
 62
7
 10
-498.532836230558
 20
161.7107247623694
 30
0
 11
-498.532836230558
 21
157.9607247623694
 31
0
  0
LINE
  8
1
 62
7
 10
-498.532836230558
 20
157.9607247623694
 30
0
 11
-496.992836230558
 21
157.9607247623694
 31
0
  0
LINE
  8
1
 62
7
 10
-496.992836230558
 20
161.7107247623694
 30
0
 11
-496.992836230558
 21
157.9607247623694
 31
0
  0
LINE
  8
1
 62
7
 10
-495.792836230558
 20
161.7107247623694
 30
0
 11
-495.792836230558
 21
157.9607247623694
 31
0
  0
LINE
  8
1
 62
7
 10
-494.252836230558
 20
161.7107247623694
 30
0
 11
-494.252836230558
 21
157.9607247623694
 31
0
  0
LINE
  8
1
 62
7
 10
-493.052836230558
 20
161.7107247623694
 30
0
 11
-493.052836230558
 21
157.9607247623694
 31
0
  0
LINE
  8
1
 62
7
 10
-491.512836230558
 20
161.7107247623694
 30
0
 11
-491.512836230558
 21
157.9607247623694
 31
0
  0
LINE
  8
1
 62
7
 10
-490.312836230558
 20
161.7107247623694
 30
0
 11
-490.312836230558
 21
157.9607247623694
 31
0
  0
LINE
  8
1
 62
7
 10
-488.772836230558
 20
161.7107247623694
 30
0
 11
-488.772836230558
 21
157.9607247623694
 31
0
  0
LINE
  8
1
 62
7
 10
-487.572836230558
 20
161.7107247623694
 30
0
 11
-487.572836230558
 21
157.9607247623694
 31
0
  0
LINE
  8
1
 62
7
 10
-486.032836230558
 20
161.7107247623694
 30
0
 11
-486.032836230558
 21
157.9607247623694
 31
0
  0
LINE
  8
1
 62
7
 10
-484.832836230558
 20
161.7107247623694
 30
0
 11
-484.832836230558
 21
157.9607247623694
 31
0
  0
LINE
  8
1
 62
7
 10
-483.2928362305581
 20
161.7107247623694
 30
0
 11
-483.292836230558
 21
157.9607247623694
 31
0
  0
LINE
  8
1
 62
7
 10
-482.092836230558
 20
161.7107247623694
 30
0
 11
-482.092836230558
 21
157.9607247623694
 31
0
  0
LINE
  8
1
 62
7
 10
-480.552836230558
 20
161.7107247623694
 30
0
 11
-480.552836230558
 21
157.9607247623694
 31
0
  0
LINE
  8
1
 62
7
 10
-477.812836230558
 20
161.7107247623694
 30
0
 11
-477.812836230558
 21
157.9607247623694
 31
0
  0
LINE
  8
1
 62
7
 10
-479.352836230558
 20
161.7107247623694
 30
0
 11
-479.352836230558
 21
157.9607247623694
 31
0
  0
LINE
  8
1
 62
7
 10
-476.6128362305581
 20
161.7107247623694
 30
0
 11
-476.6128362305578
 21
157.9607247623694
 31
0
  0
LINE
  8
1
 62
7
 10
-475.072836230558
 20
161.7107247623694
 30
0
 11
-475.072836230558
 21
157.9607247623694
 31
0
  0
LINE
  8
1
 62
7
 10
-473.8728362305579
 20
161.7107247623694
 30
0
 11
-473.8728362305579
 21
157.9607247623694
 31
0
  0
LINE
  8
1
 62
7
 10
-499.732836230558
 20
155.3607247623693
 30
0
 11
-501.802836230558
 21
155.3607247623693
 31
0
  0
LINE
  8
1
 62
7
 10
-495.792836230558
 20
157.9607247623694
 30
0
 11
-494.252836230558
 21
157.9607247623694
 31
0
  0
LINE
  8
1
 62
7
 10
-496.9928362305579
 20
155.3607247623694
 30
0
 11
-498.532836230558
 21
155.3607247623694
 31
0
  0
LINE
  8
1
 62
7
 10
-493.052836230558
 20
157.9607247623694
 30
0
 11
-491.512836230558
 21
157.9607247623694
 31
0
  0
LINE
  8
1
 62
7
 10
-494.2528362305579
 20
155.3607247623693
 30
0
 11
-495.792836230558
 21
155.3607247623694
 31
0
  0
LINE
  8
1
 62
7
 10
-490.312836230558
 20
157.9607247623694
 30
0
 11
-488.772836230558
 21
157.9607247623694
 31
0
  0
LINE
  8
1
 62
7
 10
-491.512836230558
 20
155.3607247623694
 30
0
 11
-493.052836230558
 21
155.3607247623694
 31
0
  0
LINE
  8
1
 62
7
 10
-487.572836230558
 20
157.9607247623694
 30
0
 11
-486.032836230558
 21
157.9607247623694
 31
0
  0
LINE
  8
1
 62
7
 10
-488.772836230558
 20
155.3607247623694
 30
0
 11
-490.312836230558
 21
155.3607247623694
 31
0
  0
LINE
  8
1
 62
7
 10
-484.832836230558
 20
157.9607247623694
 30
0
 11
-483.292836230558
 21
157.9607247623694
 31
0
  0
LINE
  8
1
 62
7
 10
-486.032836230558
 20
155.3607247623693
 30
0
 11
-487.572836230558
 21
155.3607247623694
 31
0
  0
LINE
  8
1
 62
7
 10
-482.092836230558
 20
157.9607247623694
 30
0
 11
-480.552836230558
 21
157.9607247623694
 31
0
  0
LINE
  8
1
 62
7
 10
-483.2928362305581
 20
155.3607247623693
 30
0
 11
-484.832836230558
 21
155.3607247623694
 31
0
  0
LINE
  8
1
 62
7
 10
-479.352836230558
 20
157.9607247623694
 30
0
 11
-477.812836230558
 21
157.9607247623694
 31
0
  0
LINE
  8
1
 62
7
 10
-480.5528362305581
 20
155.3607247623693
 30
0
 11
-482.092836230558
 21
155.3607247623694
 31
0
  0
LINE
  8
1
 62
7
 10
-476.6128362305578
 20
157.9607247623694
 30
0
 11
-475.072836230558
 21
157.9607247623694
 31
0
  0
LINE
  8
1
 62
7
 10
-477.812836230558
 20
155.3607247623693
 30
0
 11
-479.352836230558
 21
155.3607247623694
 31
0
  0
LINE
  8
1
 62
7
 10
-473.8728362305579
 20
157.9607247623694
 30
0
 11
-471.802836230558
 21
157.9607247623694
 31
0
  0
LINE
  8
1
 62
7
 10
-475.0728362305579
 20
155.3607247623693
 30
0
 11
-476.612836230558
 21
155.3607247623694
 31
0
  0
LINE
  8
1
 62
7
 10
-473.8728362305579
 20
155.3607247623694
 30
0
 11
-473.8728362305579
 21
151.6107247623694
 31
0
  0
LINE
  8
1
 62
7
 10
-473.8728362305579
 20
151.6107247623694
 30
0
 11
-471.802836230558
 21
151.6107247623694
 31
0
  0
LINE
  8
1
 62
7
 10
-475.0728362305579
 20
151.6107247623694
 30
0
 11
-475.0728362305579
 21
155.3607247623693
 31
0
  0
LINE
  8
1
 62
7
 10
-476.612836230558
 20
155.3607247623694
 30
0
 11
-476.612836230558
 21
151.6107247623694
 31
0
  0
LINE
  8
1
 62
7
 10
-477.812836230558
 20
151.6107247623694
 30
0
 11
-477.812836230558
 21
155.3607247623693
 31
0
  0
LINE
  8
1
 62
7
 10
-479.352836230558
 20
155.3607247623694
 30
0
 11
-479.3528362305581
 21
151.6107247623694
 31
0
  0
LINE
  8
1
 62
7
 10
-480.5528362305582
 20
151.6107247623694
 30
0
 11
-480.5528362305581
 21
155.3607247623693
 31
0
  0
LINE
  8
1
 62
7
 10
-482.092836230558
 20
155.3607247623694
 30
0
 11
-482.0928362305582
 21
151.6107247623694
 31
0
  0
LINE
  8
1
 62
7
 10
-483.2928362305583
 20
151.6107247623694
 30
0
 11
-483.2928362305581
 21
155.3607247623693
 31
0
  0
LINE
  8
1
 62
7
 10
-484.832836230558
 20
155.3607247623694
 30
0
 11
-484.8328362305584
 21
151.6107247623694
 31
0
  0
LINE
  8
1
 62
7
 10
-486.0328362305584
 20
151.6107247623694
 30
0
 11
-486.032836230558
 21
155.3607247623693
 31
0
  0
LINE
  8
1
 62
7
 10
-487.572836230558
 20
155.3607247623694
 30
0
 11
-487.5728362305586
 21
151.6107247623694
 31
0
  0
LINE
  8
1
 62
7
 10
-488.7728362305585
 20
151.6107247623694
 30
0
 11
-488.772836230558
 21
155.3607247623694
 31
0
  0
LINE
  8
1
 62
7
 10
-490.312836230558
 20
155.3607247623694
 30
0
 11
-490.3128362305586
 21
151.6107247623694
 31
0
  0
LINE
  8
1
 62
7
 10
-491.5128362305586
 20
151.6107247623694
 30
0
 11
-491.512836230558
 21
155.3607247623694
 31
0
  0
LINE
  8
1
 62
7
 10
-493.052836230558
 20
155.3607247623694
 30
0
 11
-493.0528362305586
 21
151.6107247623694
 31
0
  0
LINE
  8
1
 62
7
 10
-494.2528362305588
 20
151.6107247623694
 30
0
 11
-494.2528362305579
 21
155.3607247623693
 31
0
  0
LINE
  8
1
 62
7
 10
-495.792836230558
 20
155.3607247623694
 30
0
 11
-495.792836230558
 21
151.6107247623694
 31
0
  0
LINE
  8
1
 62
7
 10
-496.9928362305589
 20
151.6107247623694
 30
0
 11
-496.9928362305579
 21
155.3607247623694
 31
0
  0
LINE
  8
1
 62
7
 10
-498.532836230558
 20
155.3607247623694
 30
0
 11
-498.532836230559
 21
151.6107247623694
 31
0
  0
LINE
  8
1
 62
7
 10
-499.732836230559
 20
151.6107247623694
 30
0
 11
-499.732836230558
 21
155.3607247623693
 31
0
  0
LINE
  8
1
 62
7
 10
-475.0728362305579
 20
149.0107247623693
 30
0
 11
-476.6128362305581
 21
149.0107247623693
 31
0
  0
LINE
  8
1
 62
7
 10
-476.612836230558
 20
151.6107247623694
 30
0
 11
-475.0728362305579
 21
151.6107247623694
 31
0
  0
LINE
  8
1
 62
7
 10
-477.812836230558
 20
149.0107247623693
 30
0
 11
-479.352836230558
 21
149.0107247623693
 31
0
  0
LINE
  8
1
 62
7
 10
-482.0928362305582
 20
151.6107247623694
 30
0
 11
-480.5528362305582
 21
151.6107247623694
 31
0
  0
LINE
  8
1
 62
7
 10
-479.3528362305581
 20
151.6107247623694
 30
0
 11
-477.812836230558
 21
151.6107247623694
 31
0
  0
LINE
  8
1
 62
7
 10
-480.552836230558
 20
149.0107247623693
 30
0
 11
-482.092836230558
 21
149.0107247623693
 31
0
  0
LINE
  8
1
 62
7
 10
-483.2928362305582
 20
149.0107247623693
 30
0
 11
-484.832836230558
 21
149.0107247623693
 31
0
  0
LINE
  8
1
 62
7
 10
-487.5728362305586
 20
151.6107247623694
 30
0
 11
-486.0328362305584
 21
151.6107247623694
 31
0
  0
LINE
  8
1
 62
7
 10
-484.8328362305584
 20
151.6107247623694
 30
0
 11
-483.2928362305583
 21
151.6107247623694
 31
0
  0
LINE
  8
1
 62
7
 10
-486.032836230558
 20
149.0107247623693
 30
0
 11
-487.572836230558
 21
149.0107247623693
 31
0
  0
LINE
  8
1
 62
7
 10
-488.772836230558
 20
149.0107247623693
 30
0
 11
-490.312836230558
 21
149.0107247623693
 31
0
  0
LINE
  8
1
 62
7
 10
-493.0528362305586
 20
151.6107247623694
 30
0
 11
-491.5128362305586
 21
151.6107247623694
 31
0
  0
LINE
  8
1
 62
7
 10
-490.3128362305586
 20
151.6107247623694
 30
0
 11
-488.7728362305585
 21
151.6107247623694
 31
0
  0
LINE
  8
1
 62
7
 10
-491.512836230558
 20
149.0107247623693
 30
0
 11
-493.052836230558
 21
149.0107247623693
 31
0
  0
LINE
  8
1
 62
7
 10
-494.252836230558
 20
149.0107247623693
 30
0
 11
-495.792836230558
 21
149.0107247623693
 31
0
  0
LINE
  8
1
 62
7
 10
-498.532836230559
 20
151.6107247623694
 30
0
 11
-496.9928362305589
 21
151.6107247623694
 31
0
  0
LINE
  8
1
 62
7
 10
-495.792836230558
 20
151.6107247623694
 30
0
 11
-494.2528362305588
 21
151.6107247623694
 31
0
  0
LINE
  8
1
 62
7
 10
-496.992836230558
 20
149.0107247623693
 30
0
 11
-498.532836230558
 21
149.0107247623693
 31
0
  0
LINE
  8
1
 62
7
 10
-499.732836230558
 20
149.0107247623693
 30
0
 11
-501.802836230558
 21
149.0107247623693
 31
0
  0
LINE
  8
1
 62
7
 10
-499.732836230558
 20
149.0107247623693
 30
0
 11
-499.732836230558
 21
145.2607247623693
 31
0
  0
LINE
  8
1
 62
7
 10
-498.532836230558
 20
145.2607247623693
 30
0
 11
-498.532836230558
 21
149.0107247623693
 31
0
  0
LINE
  8
1
 62
7
 10
-496.992836230558
 20
149.0107247623693
 30
0
 11
-496.992836230558
 21
145.2607247623693
 31
0
  0
LINE
  8
1
 62
7
 10
-495.792836230558
 20
145.2607247623693
 30
0
 11
-495.792836230558
 21
149.0107247623693
 31
0
  0
LINE
  8
1
 62
7
 10
-494.252836230558
 20
149.0107247623693
 30
0
 11
-494.252836230558
 21
145.2607247623693
 31
0
  0
LINE
  8
1
 62
7
 10
-493.052836230558
 20
145.2607247623693
 30
0
 11
-493.052836230558
 21
149.0107247623693
 31
0
  0
LINE
  8
1
 62
7
 10
-491.512836230558
 20
149.0107247623693
 30
0
 11
-491.512836230558
 21
145.2607247623693
 31
0
  0
LINE
  8
1
 62
7
 10
-490.312836230558
 20
145.2607247623693
 30
0
 11
-490.312836230558
 21
149.0107247623693
 31
0
  0
LINE
  8
1
 62
7
 10
-488.772836230558
 20
149.0107247623693
 30
0
 11
-488.772836230558
 21
145.2607247623693
 31
0
  0
LINE
  8
1
 62
7
 10
-487.572836230558
 20
145.2607247623694
 30
0
 11
-487.572836230558
 21
149.0107247623693
 31
0
  0
LINE
  8
1
 62
7
 10
-486.032836230558
 20
149.0107247623693
 30
0
 11
-486.032836230558
 21
145.2607247623693
 31
0
  0
LINE
  8
1
 62
7
 10
-484.832836230558
 20
145.2607247623693
 30
0
 11
-484.832836230558
 21
149.0107247623693
 31
0
  0
LINE
  8
1
 62
7
 10
-483.2928362305582
 20
149.0107247623693
 30
0
 11
-483.292836230558
 21
145.2607247623693
 31
0
  0
LINE
  8
1
 62
7
 10
-482.092836230558
 20
145.2607247623693
 30
0
 11
-482.092836230558
 21
149.0107247623693
 31
0
  0
LINE
  8
1
 62
7
 10
-480.552836230558
 20
149.0107247623693
 30
0
 11
-480.552836230558
 21
145.2607247623694
 31
0
  0
LINE
  8
1
 62
7
 10
-479.352836230558
 20
145.2607247623693
 30
0
 11
-479.352836230558
 21
149.0107247623693
 31
0
  0
LINE
  8
1
 62
7
 10
-477.812836230558
 20
149.0107247623693
 30
0
 11
-477.812836230558
 21
145.2607247623694
 31
0
  0
LINE
  8
1
 62
7
 10
-476.6128362305579
 20
145.2607247623693
 30
0
 11
-476.6128362305581
 21
149.0107247623693
 31
0
  0
LINE
  8
1
 62
7
 10
-475.0728362305579
 20
149.0107247623693
 30
0
 11
-475.072836230558
 21
145.2607247623694
 31
0
  0
LINE
  8
1
 62
7
 10
-473.8728362305579
 20
149.0107247623693
 30
0
 11
-473.8728362305579
 21
145.2607247623693
 31
0
  0
LINE
  8
1
 62
7
 10
-473.8728362305579
 20
145.2607247623693
 30
0
 11
-471.8028362305579
 21
145.2607247623694
 31
0
  0
LINE
  8
1
 62
7
 10
-499.7328362305581
 20
142.6607247623693
 30
0
 11
-501.802836230558
 21
142.6607247623693
 31
0
  0
LINE
  8
1
 62
7
 10
-496.992836230558
 20
145.2607247623693
 30
0
 11
-498.532836230558
 21
145.2607247623693
 31
0
  0
LINE
  8
1
 62
7
 10
-496.9928362305579
 20
142.6607247623693
 30
0
 11
-498.532836230558
 21
142.6607247623693
 31
0
  0
LINE
  8
1
 62
7
 10
-494.252836230558
 20
145.2607247623693
 30
0
 11
-495.792836230558
 21
145.2607247623693
 31
0
  0
LINE
  8
1
 62
7
 10
-494.252836230558
 20
142.6607247623693
 30
0
 11
-495.792836230558
 21
142.6607247623693
 31
0
  0
LINE
  8
1
 62
7
 10
-491.512836230558
 20
145.2607247623693
 30
0
 11
-493.052836230558
 21
145.2607247623693
 31
0
  0
LINE
  8
1
 62
7
 10
-491.512836230558
 20
142.6607247623693
 30
0
 11
-493.0528362305581
 21
142.6607247623693
 31
0
  0
LINE
  8
1
 62
7
 10
-488.772836230558
 20
145.2607247623693
 30
0
 11
-490.312836230558
 21
145.2607247623693
 31
0
  0
LINE
  8
1
 62
7
 10
-488.772836230558
 20
142.6607247623693
 30
0
 11
-490.312836230558
 21
142.6607247623693
 31
0
  0
LINE
  8
1
 62
7
 10
-486.032836230558
 20
142.6607247623693
 30
0
 11
-487.572836230558
 21
142.6607247623693
 31
0
  0
LINE
  8
1
 62
7
 10
-486.032836230558
 20
145.2607247623693
 30
0
 11
-487.572836230558
 21
145.2607247623694
 31
0
  0
LINE
  8
1
 62
7
 10
-483.292836230558
 20
145.2607247623693
 30
0
 11
-484.832836230558
 21
145.2607247623693
 31
0
  0
LINE
  8
1
 62
7
 10
-480.552836230558
 20
145.2607247623694
 30
0
 11
-482.092836230558
 21
145.2607247623693
 31
0
  0
LINE
  8
1
 62
7
 10
-480.5528362305581
 20
142.6607247623693
 30
0
 11
-482.092836230558
 21
142.6607247623693
 31
0
  0
LINE
  8
1
 62
7
 10
-483.2928362305581
 20
142.6607247623693
 30
0
 11
-484.832836230558
 21
142.6607247623693
 31
0
  0
LINE
  8
1
 62
7
 10
-477.812836230558
 20
145.2607247623694
 30
0
 11
-479.352836230558
 21
145.2607247623693
 31
0
  0
LINE
  8
1
 62
7
 10
-477.812836230558
 20
142.6607247623693
 30
0
 11
-479.352836230558
 21
142.6607247623693
 31
0
  0
LINE
  8
1
 62
7
 10
-475.0728362305579
 20
142.6607247623693
 30
0
 11
-476.612836230558
 21
142.6607247623693
 31
0
  0
LINE
  8
1
 62
7
 10
-475.072836230558
 20
145.2607247623694
 30
0
 11
-476.6128362305579
 21
145.2607247623693
 31
0
  0
LINE
  8
1
 62
7
 10
-473.8728362305579
 20
142.6607247623693
 30
0
 11
-473.8728362305579
 21
139.7107247623692
 31
0
  0
LINE
  8
1
 62
7
 10
-475.0728362305579
 20
142.6607247623693
 30
0
 11
-475.0728362305579
 21
139.7107247623692
 31
0
  0
LINE
  8
1
 62
7
 10
-476.612836230558
 20
142.6607247623693
 30
0
 11
-476.612836230558
 21
139.7107247623692
 31
0
  0
LINE
  8
1
 62
7
 10
-477.812836230558
 20
142.6607247623693
 30
0
 11
-477.812836230558
 21
139.7107247623692
 31
0
  0
LINE
  8
1
 62
7
 10
-479.352836230558
 20
142.6607247623693
 30
0
 11
-479.3528362305582
 21
139.7107247623692
 31
0
  0
LINE
  8
1
 62
7
 10
-480.5528362305581
 20
142.6607247623693
 30
0
 11
-480.5528362305582
 21
139.7107247623692
 31
0
  0
LINE
  8
1
 62
7
 10
-482.092836230558
 20
142.6607247623693
 30
0
 11
-482.0928362305582
 21
139.7107247623692
 31
0
  0
LINE
  8
1
 62
7
 10
-483.2928362305581
 20
142.6607247623693
 30
0
 11
-483.2928362305583
 21
139.7107247623692
 31
0
  0
LINE
  8
1
 62
7
 10
-484.832836230558
 20
142.6607247623693
 30
0
 11
-484.8328362305584
 21
139.7107247623692
 31
0
  0
LINE
  8
1
 62
7
 10
-486.032836230558
 20
142.6607247623693
 30
0
 11
-486.0328362305585
 21
139.7107247623692
 31
0
  0
LINE
  8
1
 62
7
 10
-487.572836230558
 20
142.6607247623693
 30
0
 11
-487.5728362305586
 21
139.7107247623692
 31
0
  0
LINE
  8
1
 62
7
 10
-488.772836230558
 20
142.6607247623693
 30
0
 11
-488.7728362305585
 21
139.7107247623692
 31
0
  0
LINE
  8
1
 62
7
 10
-490.312836230558
 20
142.6607247623693
 30
0
 11
-490.3128362305586
 21
139.7107247623692
 31
0
  0
LINE
  8
1
 62
7
 10
-491.512836230558
 20
142.6607247623693
 30
0
 11
-491.5128362305586
 21
139.7107247623692
 31
0
  0
LINE
  8
1
 62
7
 10
-493.0528362305581
 20
142.6607247623693
 30
0
 11
-493.0528362305587
 21
139.7107247623692
 31
0
  0
LINE
  8
1
 62
7
 10
-494.252836230558
 20
142.6607247623693
 30
0
 11
-494.2528362305588
 21
139.7107247623692
 31
0
  0
LINE
  8
1
 62
7
 10
-495.792836230558
 20
142.6607247623693
 30
0
 11
-495.7928362305588
 21
139.7107247623692
 31
0
  0
LINE
  8
1
 62
7
 10
-496.9928362305579
 20
142.6607247623693
 30
0
 11
-496.9928362305589
 21
139.7107247623692
 31
0
  0
LINE
  8
1
 62
7
 10
-498.532836230558
 20
142.6607247623693
 30
0
 11
-498.5328362305589
 21
139.7107247623692
 31
0
  0
LINE
  8
1
 62
7
 10
-499.7328362305581
 20
142.6607247623693
 30
0
 11
-499.732836230559
 21
139.7107247623692
 31
0
  0
LINE
  8
1
 62
7
 10
-461.802836230558
 20
258.8275773083224
 30
0
 11
-471.6280121566829
 21
258.8275773083224
 31
0
  0
LINE
  8
1
 62
7
 10
-503.802836230558
 20
258.8275773083224
 30
0
 11
-511.802836230558
 21
258.8275773083224
 31
0
  0
LINE
  8
1
 62
7
 10
-503.802836230558
 20
251.8275773083224
 30
0
 11
-504.802836230558
 21
251.8275773083224
 31
0
  0
LINE
  8
1
 62
7
 10
-501.802836230558
 20
251.8275773083224
 30
0
 11
-503.402836230558
 21
251.8275773083224
 31
0
  0
LINE
  8
1
 62
7
 10
-501.802836230558
 20
251.8275773083224
 30
0
 11
-471.802836230558
 21
251.8275773083224
 31
0
  0
LINE
  8
1
 62
7
 10
-471.802836230558
 20
251.8275773083224
 30
0
 11
-468.802836230558
 21
251.8275773083224
 31
0
  0
LINE
  8
1
 62
2
  6
DASHDOT
 10
-470.202836230558
 20
251.8275773083224
 30
0
 11
-461.802836230558
 21
251.8275773083224
 31
0
  0
LINE
  8
1
 62
2
  6
DASHDOT
 10
-453.402836230558
 20
251.8275773083224
 30
0
 11
-461.802836230558
 21
251.8275773083224
 31
0
  0
LINE
  8
1
 62
2
  6
DASHDOT
 10
-461.802836230558
 20
243.4275773083223
 30
0
 11
-461.802836230558
 21
251.8275773083224
 31
0
  0
LINE
  8
1
 62
2
  6
DASHDOT
 10
-461.802836230558
 20
260.2275773083222
 30
0
 11
-461.802836230558
 21
251.8275773083224
 31
0
  0
LINE
  8
1
 62
7
 10
-477.0878362305579
 20
258.8275773083224
 30
0
 11
-479.8076450265698
 21
258.8275773083224
 31
0
  0
LINE
  8
1
 62
7
 10
-476.8378362305579
 20
258.8275773083224
 30
0
 11
-477.0878362305579
 21
258.8275773083224
 31
0
  0
LINE
  8
1
 62
7
 10
-474.3478362305579
 20
258.8275773083224
 30
0
 11
-476.8378362305579
 21
258.8275773083224
 31
0
  0
LINE
  8
1
 62
2
  6
DASHDOT
 10
-520.202836230558
 20
251.8275773083224
 30
0
 11
-511.802836230558
 21
251.8275773083224
 31
0
  0
LINE
  8
1
 62
2
  6
DASHDOT
 10
-503.402836230558
 20
251.8275773083224
 30
0
 11
-511.802836230558
 21
251.8275773083224
 31
0
  0
LINE
  8
1
 62
7
 10
-503.402836230558
 20
251.8275773083224
 30
0
 11
-503.802836230558
 21
251.8275773083224
 31
0
  0
LINE
  8
1
 62
2
  6
DASHDOT
 10
-511.802836230558
 20
243.4275773083223
 30
0
 11
-511.802836230558
 21
251.8275773083224
 31
0
  0
LINE
  8
1
 62
2
  6
DASHDOT
 10
-511.802836230558
 20
260.2275773083222
 30
0
 11
-511.802836230558
 21
251.8275773083224
 31
0
  0
LINE
  8
1
 62
7
 10
-402.624172003659
 20
207.7107247623694
 30
0
 11
-402.624172003659
 21
211.7107247623692
 31
0
  0
LINE
  8
1
 62
7
 10
-402.624172003659
 20
207.2107247623694
 30
0
 11
-402.624172003659
 21
207.7107247623694
 31
0
  0
LINE
  8
1
 62
7
 10
-395.624172003659
 20
207.7107247623694
 30
0
 11
-395.624172003659
 21
207.2107247623694
 31
0
  0
LINE
  8
1
 62
7
 10
-395.624172003659
 20
207.2107247623694
 30
0
 11
-395.6241720036591
 21
201.3607247623694
 31
0
  0
LINE
  8
1
 62
7
 10
-395.624172003659
 20
211.888336747365
 30
0
 11
-395.6222781085453
 21
211.8884712987532
 31
0
  0
LINE
  8
1
 62
7
 10
-395.624172003659
 20
211.888336747365
 30
0
 11
-395.624172003659
 21
207.7107247623694
 31
0
  0
LINE
  8
1
 62
7
 10
-395.6241720036591
 20
201.3607247623694
 30
0
 11
-395.624172003659
 21
200.8607247623694
 31
0
  0
LINE
  8
1
 62
7
 10
-395.624172003659
 20
200.8607247623694
 30
0
 11
-395.6241720036591
 21
195.0107247623694
 31
0
  0
LINE
  8
1
 62
7
 10
-395.6241720036591
 20
195.0107247623694
 30
0
 11
-395.624172003659
 21
194.5107247623694
 31
0
  0
LINE
  8
1
 62
7
 10
-395.624172003659
 20
194.5107247623694
 30
0
 11
-395.6241720036589
 21
188.6607247623693
 31
0
  0
LINE
  8
1
 62
7
 10
-402.624172003659
 20
194.5107247623694
 30
0
 11
-402.624172003659
 21
188.2107247623692
 31
0
  0
LINE
  8
1
 62
7
 10
-402.624172003659
 20
200.8607247623694
 30
0
 11
-402.624172003659
 21
194.5107247623694
 31
0
  0
LINE
  8
1
 62
7
 10
-402.624172003659
 20
201.3607247623694
 30
0
 11
-402.624172003659
 21
207.2107247623694
 31
0
  0
LINE
  8
1
 62
7
 10
-402.624172003659
 20
200.8607247623694
 30
0
 11
-402.624172003659
 21
201.3607247623694
 31
0
  0
LINE
  8
1
 62
7
 10
-402.624172003659
 20
200.8607247623694
 30
0
 11
-402.624172003659
 21
195.0107247623694
 31
0
  0
LINE
  8
1
 62
7
 10
-402.624172003659
 20
194.5107247623694
 30
0
 11
-402.624172003659
 21
195.0107247623694
 31
0
  0
LINE
  8
1
 62
7
 10
-402.624172003659
 20
188.6607247623694
 30
0
 11
-402.624172003659
 21
194.5107247623694
 31
0
  0
LINE
  8
1
 62
7
 10
-402.624172003659
 20
188.1607247623694
 30
0
 11
-402.624172003659
 21
188.6607247623694
 31
0
  0
LINE
  8
1
 62
7
 10
-395.6241720036589
 20
188.6607247623693
 30
0
 11
-395.624172003659
 21
188.1607247623694
 31
0
  0
LINE
  8
1
 62
7
 10
-395.624172003659
 20
188.1607247623694
 30
0
 11
-395.6241720036591
 21
182.3107247623694
 31
0
  0
LINE
  8
1
 62
7
 10
-395.6241720036591
 20
182.3107247623694
 30
0
 11
-395.624172003659
 21
181.8107247623694
 31
0
  0
LINE
  8
1
 62
7
 10
-395.624172003659
 20
181.8107247623694
 30
0
 11
-395.6241720036591
 21
175.9607247623692
 31
0
  0
LINE
  8
1
 62
7
 10
-402.624172003659
 20
182.3107247623693
 30
0
 11
-402.624172003659
 21
188.1607247623694
 31
0
  0
LINE
  8
1
 62
7
 10
-402.624172003659
 20
181.8107247623693
 30
0
 11
-402.624172003659
 21
182.3107247623693
 31
0
  0
LINE
  8
1
 62
7
 10
-402.624172003659
 20
175.2107247623692
 30
0
 11
-402.624172003659
 21
175.4607247623693
 31
0
  0
LINE
  8
1
 62
7
 10
-402.624172003659
 20
175.4607247623693
 30
0
 11
-402.624172003659
 21
175.2107247623692
 31
0
  0
LINE
  8
1
 62
7
 10
-395.6241720036591
 20
175.9607247623692
 30
0
 11
-395.6241720036591
 21
175.4607247623692
 31
0
  0
LINE
  8
1
 62
7
 10
-395.6241720036591
 20
175.4607247623692
 30
0
 11
-395.6241720036591
 21
169.6107247623693
 31
0
  0
LINE
  8
1
 62
7
 10
-395.6241720036591
 20
169.6107247623693
 30
0
 11
-395.624172003659
 21
169.1107247623693
 31
0
  0
LINE
  8
1
 62
7
 10
-395.624172003659
 20
169.1107247623693
 30
0
 11
-395.6241720036589
 21
163.2607247623692
 31
0
  0
LINE
  8
1
 62
7
 10
-402.624172003659
 20
169.6107247623693
 30
0
 11
-402.624172003659
 21
175.4607247623693
 31
0
  0
LINE
  8
1
 62
7
 10
-402.624172003659
 20
169.1107247623693
 30
0
 11
-402.624172003659
 21
169.6107247623693
 31
0
  0
LINE
  8
1
 62
7
 10
-402.624172003659
 20
156.9107247623693
 30
0
 11
-402.624172003659
 21
162.7607247623693
 31
0
  0
LINE
  8
1
 62
7
 10
-402.624172003659
 20
156.4107247623693
 30
0
 11
-402.624172003659
 21
156.9107247623693
 31
0
  0
LINE
  8
1
 62
7
 10
-395.624172003659
 20
156.9107247623693
 30
0
 11
-395.624172003659
 21
156.4107247623693
 31
0
  0
LINE
  8
1
 62
7
 10
-395.624172003659
 20
156.4107247623693
 30
0
 11
-395.6241720036591
 21
150.5607247623692
 31
0
  0
LINE
  8
1
 62
7
 10
-395.6241720036589
 20
163.2607247623692
 30
0
 11
-395.624172003659
 21
162.7607247623693
 31
0
  0
LINE
  8
1
 62
7
 10
-395.624172003659
 20
162.7607247623693
 30
0
 11
-395.624172003659
 21
156.9107247623693
 31
0
  0
LINE
  8
1
 62
7
 10
-402.624172003659
 20
163.2607247623693
 30
0
 11
-402.624172003659
 21
169.1107247623693
 31
0
  0
LINE
  8
1
 62
7
 10
-402.624172003659
 20
162.7607247623693
 30
0
 11
-402.624172003659
 21
163.2607247623693
 31
0
  0
LINE
  8
1
 62
7
 10
-402.624172003659
 20
150.5607247623692
 30
0
 11
-402.624172003659
 21
156.4107247623693
 31
0
  0
LINE
  8
1
 62
7
 10
-402.6241720036589
 20
144.2107247623691
 30
0
 11
-402.624172003659
 21
150.0607247623692
 31
0
  0
LINE
  8
1
 62
7
 10
-402.624172003659
 20
143.7107247623691
 30
0
 11
-402.6241720036589
 21
144.2107247623691
 31
0
  0
LINE
  8
1
 62
7
 10
-395.624172003659
 20
143.7107247623691
 30
0
 11
-395.624172003659
 21
138.2107247623692
 31
0
  0
LINE
  8
1
 62
7
 10
-395.624172003659
 20
144.2107247623691
 30
0
 11
-395.624172003659
 21
143.7107247623691
 31
0
  0
LINE
  8
1
 62
7
 10
-395.624172003659
 20
150.0607247623692
 30
0
 11
-395.624172003659
 21
144.2107247623691
 31
0
  0
LINE
  8
1
 62
7
 10
-395.6241720036591
 20
150.5607247623692
 30
0
 11
-395.624172003659
 21
150.0607247623692
 31
0
  0
LINE
  8
1
 62
7
 10
-402.6241720036589
 20
144.2107247623691
 30
0
 11
-402.624172003659
 21
143.7107247623691
 31
0
  0
LINE
  8
1
 62
7
 10
-402.624172003659
 20
143.7107247623691
 30
0
 11
-402.624172003659
 21
139.7107247623692
 31
0
  0
LINE
  8
1
 62
7
 10
-515.552836230558
 20
201.2107247623692
 30
0
 11
-508.052836230558
 21
201.2107247623692
 31
0
  0
LINE
  8
1
 62
7
 10
-508.052836230558
 20
201.2107247623692
 30
0
 11
-505.052836230558
 21
201.2107247623692
 31
0
  0
LINE
  8
1
 62
7
 10
-515.552836230558
 20
188.2107247623692
 30
0
 11
-508.052836230558
 21
188.2107247623692
 31
0
  0
LINE
  8
1
 62
7
 10
-515.552836230558
 20
176.2107247623692
 30
0
 11
-508.052836230558
 21
176.2107247623692
 31
0
  0
LINE
  8
1
 62
7
 10
-508.052836230558
 20
188.2107247623692
 30
0
 11
-504.802836230558
 21
188.2107247623692
 31
0
  0
LINE
  8
1
 62
7
 10
-508.052836230558
 20
176.2107247623692
 30
0
 11
-504.802836230558
 21
176.2107247623692
 31
0
  0
LINE
  8
1
 62
7
 10
-515.552836230558
 20
163.2107247623692
 30
0
 11
-508.052836230558
 21
163.2107247623692
 31
0
  0
LINE
  8
1
 62
7
 10
-515.552836230558
 20
151.2107247623692
 30
0
 11
-508.052836230558
 21
151.2107247623692
 31
0
  0
LINE
  8
1
 62
7
 10
-508.052836230558
 20
163.2107247623692
 30
0
 11
-504.802836230558
 21
163.2107247623692
 31
0
  0
LINE
  8
1
 62
7
 10
-508.052836230558
 20
151.2107247623692
 30
0
 11
-504.802836230558
 21
151.2107247623692
 31
0
  0
LINE
  8
1
 62
7
 10
-465.552836230558
 20
150.2107247623692
 30
0
 11
-468.552836230558
 21
150.2107247623692
 31
0
  0
LINE
  8
1
 62
7
 10
-465.552836230558
 20
138.2107247623692
 30
0
 11
-503.802836230558
 21
138.2107247623692
 31
0
  0
LINE
  8
1
 62
7
 10
-458.052836230558
 20
138.2107247623692
 30
0
 11
-465.552836230558
 21
138.2107247623692
 31
0
  0
LINE
  8
1
 62
7
 10
-458.052836230558
 20
150.2107247623692
 30
0
 11
-465.552836230558
 21
150.2107247623692
 31
0
  0
LINE
  8
1
 62
7
 10
-465.552836230558
 20
175.2107247623692
 30
0
 11
-458.052836230558
 21
175.2107247623692
 31
0
  0
LINE
  8
1
 62
7
 10
-465.552836230558
 20
163.2107247623692
 30
0
 11
-468.802836230558
 21
163.2107247623692
 31
0
  0
LINE
  8
1
 62
7
 10
-458.052836230558
 20
163.2107247623692
 30
0
 11
-465.552836230558
 21
163.2107247623692
 31
0
  0
LINE
  8
1
 62
7
 10
-458.052836230558
 20
175.2107247623692
 30
0
 11
-455.802836230558
 21
175.2107247623692
 31
0
  0
LINE
  8
1
 62
7
 10
-465.552836230558
 20
200.2107247623692
 30
0
 11
-468.802836230558
 21
200.2107247623692
 31
0
  0
LINE
  8
1
 62
7
 10
-465.552836230558
 20
188.2107247623692
 30
0
 11
-458.052836230558
 21
188.2107247623692
 31
0
  0
LINE
  8
1
 62
7
 10
-458.052836230558
 20
188.2107247623692
 30
0
 11
-455.802836230558
 21
188.2107247623692
 31
0
  0
LINE
  8
1
 62
7
 10
-458.052836230558
 20
200.2107247623692
 30
0
 11
-465.552836230558
 21
200.2107247623692
 31
0
  0
LINE
  8
1
 62
7
 10
-402.624172003659
 20
139.7107247623692
 30
0
 11
-402.624172003659
 21
143.7107247623691
 31
0
  0
ARC
  8
1
 62
7
 10
-511.802836230558
 20
251.8275773083224
 30
0
 40
7.000000000000028
 50
90
 51
270
  0
ARC
  8
1
 62
7
 10
-511.802836230558
 20
251.8275773083224
 30
0
 40
7
 50
270
 51
0
  0
ARC
  8
1
 62
7
 10
-461.802836230558
 20
251.8275773083224
 30
0
 40
7
 50
180
 51
0
  0
ARC
  8
1
 62
7
 10
-461.802836230558
 20
251.8275773083224
 30
0
 40
7
 50
0
 51
90
  0
CIRCLE
  8
1
 62
7
 10
-511.802836230558
 20
251.8275773083224
 30
0
 40
3.75
  0
CIRCLE
  8
1
 62
7
 10
-461.802836230558
 20
251.8275773083224
 30
0
 40
3.759000000000015
  0
ARC
  8
1
 62
7
 10
-408.624172003659
 20
212.2107247623692
 30
0
 40
1
 50
90
 51
180
  0
ARC
  8
1
 62
7
 10
-408.624172003659
 20
202.2107247623692
 30
0
 40
1
 50
180
 51
270
  0
ARC
  8
1
 62
7
 10
-408.624172003659
 20
187.2107247623692
 30
0
 40
1
 50
90
 51
180
  0
ARC
  8
1
 62
7
 10
-408.624172003659
 20
177.2107247623692
 30
0
 40
1
 50
180
 51
270
  0
ARC
  8
1
 62
7
 10
-408.624172003659
 20
162.2107247623692
 30
0
 40
1
 50
90
 51
180
  0
ARC
  8
1
 62
7
 10
-408.624172003659
 20
152.2107247623692
 30
0
 40
1
 50
180
 51
270
  0
ARC
  8
1
 62
7
 10
-505.052836230558
 20
199.9607247623692
 30
0
 40
1.25
 50
0
 51
90
  0
ARC
  8
1
 62
7
 10
-468.552836230558
 20
151.4607247623692
 30
0
 40
1.25
 50
180
 51
270
  0
ARC
  8
1
 62
7
 10
-517.802836230558
 20
212.2107247623692
 30
0
 40
1
 50
90
 51
180
  0
ARC
  8
1
 62
7
 10
-517.802836230558
 20
202.2107247623692
 30
0
 40
1
 50
180
 51
270
  0
ARC
  8
1
 62
7
 10
-504.802836230558
 20
189.2107247623692
 30
0
 40
1
 50
270
 51
0
  0
ARC
  8
1
 62
7
 10
-517.802836230558
 20
187.2107247623692
 30
0
 40
1
 50
90
 51
180
  0
ARC
  8
1
 62
7
 10
-517.802836230558
 20
177.2107247623692
 30
0
 40
1
 50
180
 51
270
  0
ARC
  8
1
 62
7
 10
-504.802836230558
 20
175.2107247623692
 30
0
 40
1
 50
0
 51
90
  0
ARC
  8
1
 62
7
 10
-504.802836230558
 20
164.2107247623692
 30
0
 40
1
 50
270
 51
0
  0
ARC
  8
1
 62
7
 10
-517.802836230558
 20
162.2107247623692
 30
0
 40
1
 50
90
 51
180
  0
ARC
  8
1
 62
7
 10
-517.802836230558
 20
152.2107247623692
 30
0
 40
1
 50
180
 51
270
  0
ARC
  8
1
 62
7
 10
-504.802836230558
 20
150.2107247623692
 30
0
 40
1
 50
0
 51
90
  0
ARC
  8
1
 62
7
 10
-455.802836230558
 20
139.2107247623692
 30
0
 40
1
 50
270
 51
0
  0
ARC
  8
1
 62
7
 10
-455.802836230558
 20
149.2107247623692
 30
0
 40
1
 50
0
 51
90
  0
ARC
  8
1
 62
7
 10
-455.802836230558
 20
164.2107247623692
 30
0
 40
1
 50
270
 51
0
  0
ARC
  8
1
 62
7
 10
-455.802836230558
 20
174.2107247623692
 30
0
 40
1
 50
0
 51
90
  0
ARC
  8
1
 62
7
 10
-468.802836230558
 20
162.2107247623692
 30
0
 40
1
 50
90
 51
180
  0
ARC
  8
1
 62
7
 10
-468.802836230558
 20
176.2107247623692
 30
0
 40
1
 50
180
 51
270
  0
ARC
  8
1
 62
7
 10
-468.802836230558
 20
187.2107247623692
 30
0
 40
1
 50
90
 51
180
  0
ARC
  8
1
 62
7
 10
-455.802836230558
 20
189.2107247623692
 30
0
 40
1
 50
270
 51
0
  0
ARC
  8
1
 62
7
 10
-455.802836230558
 20
199.2107247623692
 30
0
 40
1
 50
0
 51
90
  0
ARC
  8
1
 62
7
 10
-468.802836230558
 20
201.2107247623692
 30
0
 40
1
 50
180
 51
270
  0
ARC
  8
1
 62
7
 10
-408.624172003659
 20
199.2107247623692
 30
0
 40
1
 50
90
 51
180
  0
ARC
  8
1
 62
7
 10
-408.624172003659
 20
189.2107247623692
 30
0
 40
1
 50
180
 51
270
  0
ARC
  8
1
 62
7
 10
-408.624172003659
 20
174.2107247623692
 30
0
 40
1
 50
90
 51
180
  0
ARC
  8
1
 62
7
 10
-408.624172003659
 20
164.2107247623692
 30
0
 40
1
 50
180
 51
270
  0
ARC
  8
1
 62
7
 10
-408.624172003659
 20
149.2107247623692
 30
0
 40
1
 50
90
 51
180
  0
ARC
  8
1
 62
7
 10
-408.624172003659
 20
139.2107247623692
 30
0
 40
1
 50
180
 51
270
  0
TEXT
  8
1
 62
2
 10
-392.190415585401
 20
35.8362710063459
 30
0
 40
3.2
  1
07/10/05
 41
0.9
  0
TEXT
  8
1
 62
2
 10
-390.277363937109
 20
45.8362710063459
 30
0
 40
3.2
  1
Fiore
 41
0.9
  0
TEXT
  8
1
 62
2
 10
-387.451298222669
 20
57.5811579061209
 30
0
 40
3.2
  1
1:1
 41
0.9
  0
TEXT
  8
1
 62
2
 10
-457.842096028545
 20
59.8420029612439
 30
0
 40
3.2
  1
MatTop
 41
0.9
  0
TEXT
  8
1
 62
2
 10
-471.841870535677
 20
34.23627100634599
 30
0
 40
3.2
  1
Modulo catena 6391
 41
0.9
  0
TEXT
  8
1
 62
2
 10
-534.4067153735469
 20
18.6684069149859
 30
0
 40
3.2
  1
6391
 41
0.9
  0
DIMENSION
  8
1
  6
CONTINUOUS
 62
2
  2
*D0
  3
DMST_1
 10
-541.4043317786781
 20
244.8275773083225
 30
0
 11
-544.204331778678
 21
251.8275773083224
 31
0
 12
0
 22
0
 32
0
 70
0
 13
-479.8076450265698
 23
258.8275773083224
 33
0
 14
-511.802836230558
 24
244.8275773083224
 34
0
 50
90
 53
0
  0
DIMENSION
  8
1
  6
CONTINUOUS
 62
2
  2
*D1
  3
DMST_1
 10
-530.266985980562
 20
251.8275773083224
 30
0
 11
-533.066985980562
 21
248.3275773083224
 31
0
 12
0
 22
0
 32
0
 70
0
 13
-511.802836230558
 23
244.8275773083224
 33
0
 14
-520.202836230558
 24
251.8275773083224
 34
0
 50
90
 53
0
  0
DIMENSION
  8
1
  6
CONTINUOUS
 62
2
  2
*D2
  3
DMST_2
 10
-511.802836230558
 20
108.223350418476
 30
0
 11
-487.508570882258
 21
111.973350418476
 31
0
 12
0
 22
0
 32
0
 70
0
 13
-461.8028362305581
 23
128.2107247623692
 33
0
 14
-511.802836230558
 24
128.2107247623692
 34
0
 53
0
  0
DIMENSION
  8
1
  6
CONTINUOUS
 62
2
  2
*D3
  3
DMST_1
 10
-530.88160289547
 20
213.2107247623692
 30
0
 11
-533.68160289547
 21
175.7107247623692
 31
0
 12
0
 22
0
 32
0
 70
0
 13
-465.552836230558
 23
138.2107247623692
 33
0
 14
-469.802836230558
 24
213.2107247623692
 34
0
 50
90
 53
0
  0
INSERT
  8
0
  2
TOP__1
 10
-343.3922498376551
 20
10.8362710063459
 30
0
  0
ENDSEC
  0
EOF
