  0
SECTION
  2
HEADER
  9
$ACADVER
  1
AC1009
  9
$INSBASE
 10
0
 20
0
  9
$EXTMIN
 10
-392.6539476755511
 20
-39.64430889371863
  9
$EXTMAX
 10
-182.653947675552
 20
257.3556911062814
  9
$LIMMIN
 10
-392.6539476755511
 20
-39.64430889371863
  9
$LIMMAX
 10
-182.653947675552
 20
257.3556911062814
  9
$VIEWCTR
 10
10
 20
10
  9
$VIEWSIZE
 40
10
  9
$SNAPMODE
 70
0
  9
$SNAPUNIT
 10
1
 20
1
  9
$SNAPBASE
 10
0
 20
0
  9
$SNAPANG
 50
0
  9
$SNAPSTYLE
 70
0
  9
$SNAPISOPAIR
 70
0
  9
$GRIDMODE
 70
0
  9
$GRIDUNIT
 10
0
 20
0
  9
$ORTHOMODE
 70
0
  9
$REGENMODE
 70
1
  9
$FILLMODE
 70
1
  9
$QTEXTMODE
 70
0
  9
$DRAGMODE
 70
2
  9
$LTSCALE
 40
1
  9
$OSMODE
 70
0
  9
$ATTMODE
 70
1
  9
$TEXTSIZE
 40
3.5
  9
$TRACEWID
 40
0.5
  9
$TEXTSTYLE
  7
STANDARD
  9
$CLAYER
  8
0
  9
$CELTYPE
  6
BYLAYER
  9
$CECOLOR
 62
256
  9
$DIMSCALE
 40
1
  9
$DIMASZ
 40
0.18
  9
$DIMEXO
 40
0.0625
  9
$DIMDLI
 40
0.38
  9
$DIMRND
 40
0
  9
$DIMDLE
 40
0
  9
$DIMEXE
 40
0.18
  9
$DIMTP
 40
0
  9
$DIMTM
 40
0
  9
$DIMTXT
 40
0.18
  9
$DIMCEN
 40
0.09
  9
$DIMTSZ
 40
0
  9
$DIMTOL
 70
0
  9
$DIMLIM
 70
0
  9
$DIMTIH
 70
1
  9
$DIMTOH
 70
1
  9
$DIMSE1
 70
0
  9
$DIMSE2
 70
0
  9
$DIMTAD
 70
0
  9
$DIMZIN
 70
0
  9
$DIMBLK
  1

  9
$DIMASO
 70
1
  9
$DIMSHO
 70
1
  9
$DIMPOST
  1

  9
$DIMAPOST
  1

  9
$DIMALT
 70
0
  9
$DIMALTD
 70
2
  9
$DIMALTF
 40
25.4
  9
$DIMLFAC
 40
1
  9
$DIMTOFL
 70
0
  9
$DIMTVP
 40
0
  9
$DIMTIX
 70
0
  9
$DIMSOXD
 70
0
  9
$DIMSAH
 70
0
  9
$DIMBLK1
  1

  9
$DIMBLK2
  1

  9
$DIMSTYLE
  2
*UNNAMED
  9
$DIMCLRD
 70
0
  9
$DIMCLRE
 70
0
  9
$DIMCLRT
 70
0
  9
$DIMTFAC
 40
1
  9
$DIMGAP
 40
0.09
  9
$LUNITS
 70
2
  9
$LUPREC
 70
4
  9
$AXISMODE
 70
0
  9
$AXISUNIT
 10
0
 20
0
  9
$SKETCHINC
 40
0.1
  9
$FILLETRAD
 40
2
  9
$AUNITS
 70
0
  9
$AUPREC
 70
0
  9
$MENU
  1
ACAD
  9
$ELEVATION
 40
0
  9
$THICKNESS
 40
0
  9
$VIEWDIR
 10
0
 20
0
 30
1
  9
$LIMCHECK
 70
0
  9
$BLIPMODE
 70
1
  9
$CHAMFERA
 40
0
  9
$CHAMFERB
 40
0
  9
$FASTZOOM
 70
1
  9
$SKPOLY
 70
0
  9
$ANGBASE
 50
0
  9
$ANGDIR
 70
0
  9
$PDMODE
 70
0
  9
$PDSIZE
 40
0
  9
$PLINEWID
 40
0
  9
$COORDS
 70
2
  0
ENDSEC
  0
SECTION
  2
TABLES
  0
TABLE
  2
DIMSTYLE
 70
2
  0
DIMSTYLE
  2
DMST_1
 70
0
  3

  4

  5

  6

  7

 40
1
 41
3.2
 42
1
 43
7
 44
1
 45
0
 46
0
 47
0
 48
0
140
3.2
141
0
142
0
143
25.4
144
1
145
0
146
1
147
0.09
 71
0
 72
0
 73
0
 74
0
 75
0
 76
0
 77
1
 78
9
170
0
171
2
172
0
173
0
174
0
175
0
176
2
177
2
178
2
  0
DIMSTYLE
  2
DMST_2
 70
0
  3

  4

  5

  6

  7

 40
1
 41
3.5
 42
1
 43
7
 44
1
 45
0
 46
0
 47
0
 48
0
140
3.5
141
0
142
0
143
25.4
144
1
145
0
146
1
147
0.09
 71
0
 72
0
 73
0
 74
0
 75
0
 76
0
 77
1
 78
9
170
0
171
2
172
0
173
0
174
0
175
0
176
2
177
2
178
2
  0
ENDTAB
  0
TABLE
  2
LTYPE
 70
9
  0
LTYPE
  2
CONTINUOUS
 70
64
  3
Solid line
 72
65
 73
0
 40
0
  0
LTYPE
  2
BORDER
 70
64
  3
__ __ . __ __ .
 72
65
 73
6
 40
13.67763157894737
 49
3.907894736842106
 49
-1.953947368421053
 49
3.907894736842106
 49
-1.953947368421053
 49
0
 49
-1.953947368421053
  0
LTYPE
  2
CENTER
 70
64
  3
____ _ ____ _
 72
65
 73
4
 40
15.63157894736843
 49
9.769736842105266
 49
-1.953947368421053
 49
1.953947368421053
 49
-1.953947368421053
  0
LTYPE
  2
DASHDOT
 70
64
  3
__ . __ . __ .
 72
65
 73
4
 40
7.815789473684212
 49
3.907894736842106
 49
-1.953947368421053
 49
0
 49
-1.953947368421053
  0
LTYPE
  2
DASHED
 70
64
  3
__ __ __ __ __
 72
65
 73
2
 40
5.861842105263159
 49
3.907894736842106
 49
-1.953947368421053
  0
LTYPE
  2
DIVIDE
 70
64
  3
__ . . __ . . 
 72
65
 73
6
 40
9.769736842105266
 49
3.907894736842106
 49
-1.953947368421053
 49
0
 49
-1.953947368421053
 49
0
 49
-1.953947368421053
  0
LTYPE
  2
DOT
 70
64
  3
..............
 72
65
 73
4
 40
3.907894736842106
 49
0
 49
-1.953947368421053
 49
0
 49
-1.953947368421053
  0
LTYPE
  2
HIDDEN
 70
64
  3
_ _ _ _ _ _ _
 72
65
 73
2
 40
2.93092105263158
 49
1.953947368421053
 49
-0.9769736842105266
  0
LTYPE
  2
PHANTOM
 70
64
  3
_____ _ _ _____ _ _ 
 72
65
 73
6
 40
19.53947368421053
 49
9.769736842105266
 49
-1.953947368421053
 49
1.953947368421053
 49
-1.953947368421053
 49
1.953947368421053
 49
-1.953947368421053
  0
ENDTAB
  0
TABLE
  2
LAYER
 70
5
  0
LAYER
  2
MO_001_VIEW_AA
 70
0
 62
7
  6
CONTINUOUS
  0
LAYER
  2
MO_001_VIEW_PV
 70
0
 62
7
  6
CONTINUOUS
  0
LAYER
  2
1
 70
0
 62
7
  6
CONTINUOUS
  0
LAYER
  2
0
 70
0
 62
7
  6
CONTINUOUS
  0
ENDTAB
  0
TABLE
  2
STYLE
 70
4
  0
STYLE
  2
STANDARD
 70
0
 40
0
 41
1
 50
0
 71
0
 42
3.5
  3
txt
  4

  0
STYLE
  2
SIMPLEX
 70
0
 40
0
 41
1
 50
0
 71
0
 42
3.5
  3
simplex
  4

  0
STYLE
  2
COMPLEX
 70
0
 40
0
 41
1
 50
0
 71
0
 42
3.5
  3
complex
  4

  0
STYLE
  2
ITALIC
 70
0
 40
0
 41
1
 50
0
 71
0
 42
3.5
  3
italic
  4

  0
ENDTAB
  0
TABLE
  2
VIEW
 70
0
  0
ENDTAB
  0
ENDSEC
  0
SECTION
  2
BLOCKS
  0
BLOCK
  8
0
  2
A4
 70
0
 10
-182.653947675552
 20
-39.64430889371863
 30
0
  0
LINE
  8
1
 62
2
  6
DOT
 10
-335.354947544851
 20
-9.944308893718528
 30
0
 11
-237.6234876049712
 21
-9.944308893718528
 31
0
  0
LINE
  8
1
 62
2
  6
DOT
 10
-335.354947544851
 20
-16.24430889371854
 30
0
 11
-237.7304148040312
 21
-16.24430889371854
 31
0
  0
LINE
  8
1
 62
2
  6
DOT
 10
-237.5165604059112
 20
-22.54430889371855
 30
0
 11
-335.461874743911
 21
-22.54430889371855
 31
0
  0
LINE
  8
1
 62
7
 10
-235.3180378256711
 20
-24.64430889371863
 30
0
 11
-337.6539476755511
 21
-24.64430889371863
 31
0
  0
LINE
  8
1
 62
7
 10
-258.4174020123621
 20
18.35569110628137
 30
0
 11
-258.4174020123621
 21
8.355691106281142
 31
0
  0
LINE
  8
1
 62
7
 10
-387.6539476755511
 20
-0.0238552657042419
 30
0
 11
-337.6539476755511
 21
-0.0238552657042419
 31
0
  0
LINE
  8
1
 62
2
 10
-382.9034616945971
 20
5.892859894964261
 30
0
 11
-382.9034616945971
 21
12.39285989496426
 31
0
  0
LINE
  8
1
 62
2
 10
-382.9034616945971
 20
12.39285989496426
 30
0
 11
-381.303461694597
 21
12.39285989496426
 31
0
  0
LINE
  8
1
 62
2
 10
-382.9034616945971
 20
5.892859894964261
 30
0
 11
-381.303461694597
 21
5.892859894964261
 31
0
  0
LINE
  8
1
 62
2
 10
-381.303461694597
 20
12.39285989496426
 30
0
 11
-381.303461694597
 21
11.89285989496426
 31
0
  0
LINE
  8
1
 62
2
 10
-379.803461694597
 20
5.892859894964261
 30
0
 11
-378.2034616945971
 21
5.892859894964261
 31
0
  0
LINE
  8
1
 62
2
 10
-376.7034616945971
 20
5.892859894964261
 30
0
 11
-375.1034616945972
 21
5.892859894964261
 31
0
  0
LINE
  8
1
 62
2
 10
-375.1053128361232
 20
10.40470453390037
 30
0
 11
-375.1034616945972
 21
5.892859894964261
 31
0
  0
LINE
  8
1
 62
2
 10
-369.805818734686
 20
12.39285989496426
 30
0
 11
-369.805818734686
 21
5.892859894964261
 31
0
  0
LINE
  8
1
 62
2
 10
-369.805818734686
 20
5.892859894964261
 30
0
 11
-369.803461256929
 21
5.892859894964261
 31
0
  0
LINE
  8
1
 62
2
 10
-369.805818734686
 20
5.892859894964261
 30
0
 11
-371.3035178326402
 21
5.892859894964261
 31
0
  0
LINE
  8
1
 62
2
 10
-369.805818734686
 20
12.39285989496426
 30
0
 11
-371.306128234741
 21
12.39285989496426
 31
0
  0
LINE
  8
1
 62
2
 10
-371.3060528586382
 20
12.20914338231563
 30
0
 11
-371.306128234741
 21
12.39285989496426
 31
0
  0
LINE
  8
1
 62
2
 10
-371.3035367593031
 20
6.076576457789827
 30
0
 11
-371.3035178326402
 21
5.892859894964261
 31
0
  0
LINE
  8
1
 62
2
 10
-371.3057254073522
 20
6.075069134912667
 30
0
 11
-371.3035367593031
 21
6.076576457789827
 31
0
  0
LINE
  8
1
 62
2
 10
-369.505818734686
 20
5.892859894964261
 30
0
 11
-369.505818734686
 21
12.39285989496426
 31
0
  0
LINE
  8
1
 62
2
 10
-368.005818734686
 20
12.39285989496426
 30
0
 11
-369.505818734686
 21
12.39285989496426
 31
0
  0
LINE
  8
1
 62
2
 10
-368.005818734686
 20
5.892859894964261
 30
0
 11
-369.505818734686
 21
5.892859894964261
 31
0
  0
LINE
  8
1
 62
2
 10
-368.005818734686
 20
9.837882965576739
 30
0
 11
-368.005818734686
 21
5.892859894964261
 31
0
  0
LINE
  8
1
 62
2
 10
-366.505818734686
 20
11.05458057509867
 30
0
 11
-366.505818734686
 21
12.59285989496425
 31
0
  0
LINE
  8
1
 62
2
 10
-368.005818734686
 20
11.93285989496434
 30
0
 11
-368.005818734686
 21
12.39285989496426
 31
0
  0
LINE
  8
1
 62
2
 10
-375.1058187346862
 20
12.59220084490278
 30
0
 11
-374.505818734686
 21
12.59220084490278
 31
0
  0
LINE
  8
1
 62
2
 10
-375.1058187346862
 20
12.59220084490278
 30
0
 11
-375.1058187346862
 21
14.09220084490278
 31
0
  0
LINE
  8
1
 62
2
 10
-365.005818734686
 20
9.292200844902766
 30
0
 11
-365.005818734686
 21
14.09220084490278
 31
0
  0
LINE
  8
1
 62
2
 10
-374.505818734686
 20
12.59220084490278
 30
0
 11
-374.505818734686
 21
13.49220084490287
 31
0
  0
LINE
  8
1
 62
2
 10
-364.6058187346862
 20
14.09220084490278
 30
0
 11
-364.6058187346862
 21
5.892859894964261
 31
0
  0
LINE
  8
1
 62
2
 10
-364.6058187346862
 20
14.09220084490278
 30
0
 11
-363.1058187346862
 21
14.09220084490278
 31
0
  0
LINE
  8
1
 62
2
 10
-364.6058187346862
 20
5.892859894964261
 30
0
 11
-363.1058187346862
 21
5.892859894964261
 31
0
  0
LINE
  8
1
 62
2
 10
-363.1058187346862
 20
5.892859894964261
 30
0
 11
-363.1058187346862
 21
6.375188058216338
 31
0
  0
LINE
  8
1
 62
2
 10
-363.1058187346862
 20
11.91098063986914
 30
0
 11
-363.1058187346862
 21
14.09220084490278
 31
0
  0
LINE
  8
1
 62
2
 10
-357.954782187838
 20
8.51213602864425
 30
0
 11
-354.253536276525
 21
8.51213602864425
 31
0
  0
LINE
  8
1
 62
2
 10
-354.3922034214761
 20
7.91213602864417
 30
0
 11
-356.217697179929
 21
7.91213602864417
 31
0
  0
LINE
  8
1
 62
2
 10
-356.082779002734
 20
9.91213602864417
 30
0
 11
-357.9288650537592
 21
9.91213602864417
 31
0
  0
LINE
  8
1
 62
2
 10
-348.9058187346861
 20
12.39285989496426
 30
0
 11
-348.9058187346861
 21
11.09285989496425
 31
0
  0
LINE
  8
1
 62
2
 10
-348.9058187346861
 20
12.39285989496426
 30
0
 11
-349.7058187346861
 21
12.39285989496426
 31
0
  0
LINE
  8
1
 62
2
 10
-348.9058187346861
 20
11.09285989496425
 30
0
 11
-349.7058187346861
 21
11.09285989496425
 31
0
  0
LINE
  8
1
 62
2
 10
-349.7058187346861
 20
12.39285989496426
 30
0
 11
-349.7058187346861
 21
13.49285989496417
 31
0
  0
LINE
  8
1
 62
2
 10
-349.7058187346861
 20
13.49285989496417
 30
0
 11
-351.305818734686
 21
13.49285989496417
 31
0
  0
LINE
  8
1
 62
2
 10
-351.305818734686
 20
12.39285989496426
 30
0
 11
-351.305818734686
 21
13.49285989496417
 31
0
  0
LINE
  8
1
 62
2
 10
-351.305818734686
 20
12.39285989496426
 30
0
 11
-352.4058187346861
 21
12.39285989496426
 31
0
  0
LINE
  8
1
 62
2
 10
-352.4058187346861
 20
12.39285989496426
 30
0
 11
-352.4058187346861
 21
13.49285989496417
 31
0
  0
LINE
  8
1
 62
2
 10
-352.4058187346861
 20
13.49285989496417
 30
0
 11
-354.005818734686
 21
13.49285989496417
 31
0
  0
LINE
  8
1
 62
2
 10
-354.005818734686
 20
12.39285989496426
 30
0
 11
-354.005818734686
 21
13.49285989496417
 31
0
  0
LINE
  8
1
 62
2
 10
-354.005818734686
 20
12.39285989496426
 30
0
 11
-354.805818734686
 21
12.39285989496426
 31
0
  0
LINE
  8
1
 62
2
 10
-354.7012598538502
 20
11.09285989496425
 30
0
 11
-354.005818734686
 21
11.09285989496425
 31
0
  0
LINE
  8
1
 62
2
 10
-354.005818734686
 20
11.09285989496425
 30
0
 11
-354.005818734686
 21
7.433189687643733
 31
0
  0
LINE
  8
1
 62
2
 10
-351.305818734686
 20
11.09285989496425
 30
0
 11
-351.305818734686
 21
7.308644804029939
 31
0
  0
LINE
  8
1
 62
2
 10
-352.4058187346861
 20
7.914041346560452
 30
0
 11
-352.4058187346861
 21
11.09285989496425
 31
0
  0
LINE
  8
1
 62
2
 10
-352.4058187346861
 20
11.09285989496425
 30
0
 11
-351.305818734686
 21
11.09285989496425
 31
0
  0
LINE
  8
1
 62
2
 10
-348.9058187346861
 20
7.062382222436838
 30
0
 11
-348.9058187346861
 21
5.86238222243685
 31
0
  0
LINE
  8
1
 62
2
 10
-349.7058187346861
 20
7.474097301910035
 30
0
 11
-349.7058187346861
 21
11.09285989496425
 31
0
  0
LINE
  8
1
 62
2
 10
-348.9067234291501
 20
7.061851922735968
 30
0
 11
-348.9058187346861
 21
7.062382222436838
 31
0
  0
LINE
  8
1
 62
2
 10
-351.6058187346862
 20
7.062382222436838
 30
0
 11
-351.6058187346862
 21
5.863131299221266
 31
0
  0
LINE
  8
1
 62
2
 10
-352.404914040221
 20
7.474097301910035
 30
0
 11
-352.4058187346861
 21
7.914041346560452
 31
0
  0
LINE
  8
1
 62
2
 10
-376.7034616945971
 20
10.34305257737873
 30
0
 11
-376.7034616945971
 21
5.892859894964261
 31
0
  0
LINE
  8
1
 62
2
 10
-378.2034616945971
 20
5.892859894964261
 30
0
 11
-378.2034616945971
 21
10.34305257737873
 31
0
  0
LINE
  8
1
 62
2
 10
-379.803461694597
 20
10.34305257737873
 30
0
 11
-379.803461694597
 21
5.892859894964261
 31
0
  0
LINE
  8
1
 62
2
 10
-381.303461694597
 20
10.34305257737873
 30
0
 11
-381.303461694597
 21
5.892859894964261
 31
0
  0
LINE
  8
1
 62
2
 10
-374.505818734686
 20
13.49220084490287
 30
0
 11
-365.6058187346862
 21
13.49220084490287
 31
0
  0
LINE
  8
1
 62
2
 10
-365.005818734686
 20
14.09220084490278
 30
0
 11
-375.1058187346862
 21
14.09220084490278
 31
0
  0
LINE
  8
1
 62
2
 10
-365.6058187346862
 20
13.49220084490287
 30
0
 11
-365.6058187346862
 21
9.292200844902766
 31
0
  0
LINE
  8
1
 62
2
 10
-382.9034616945971
 20
4.692859894964272
 30
0
 11
-382.9034616945971
 21
5.292859894964238
 31
0
  0
LINE
  8
1
 62
2
 10
-368.1034616945972
 20
5.292859894964238
 30
0
 11
-365.6058187346862
 21
9.292200844902766
 31
0
  0
LINE
  8
1
 62
2
 10
-382.9034616945971
 20
5.292859894964238
 30
0
 11
-368.1034616945972
 21
5.292859894964238
 31
0
  0
LINE
  8
1
 62
2
 10
-365.005818734686
 20
9.292200844902766
 30
0
 11
-367.878169876446
 21
4.692859894964272
 31
0
  0
LINE
  8
1
 62
2
 10
-367.878169876446
 20
4.692859894964272
 30
0
 11
-382.9034616945971
 21
4.692859894964272
 31
0
  0
LINE
  8
1
 62
2
  6
DOT
 10
-253.5347909772411
 20
26.35569110628137
 30
0
 11
-212.3180378256711
 21
26.35569110628137
 31
0
  0
LINE
  8
1
 62
2
  6
DOT
 10
-298.153947675552
 20
22.35569110628137
 30
0
 11
-212.3180378256711
 21
22.35569110628137
 31
0
  0
LINE
  8
1
 62
7
 10
-235.3180378256711
 20
-3.644308893718573
 30
0
 11
-210.3180378256711
 21
-3.644308893718573
 31
0
  0
LINE
  8
1
 62
7
 10
-235.3180378256711
 20
-24.64430889371863
 30
0
 11
-187.653947675552
 21
-24.64430889371863
 31
0
  0
LINE
  8
1
 62
7
 10
-235.3180378256711
 20
-14.64430889371863
 30
0
 11
-210.3180378256711
 21
-14.64430889371863
 31
0
  0
LINE
  8
1
 62
7
 10
-235.3180378256711
 20
-34.64430889371863
 30
0
 11
-235.3180378256711
 21
18.35569110628137
 31
0
  0
LINE
  8
1
 62
7
 10
-300.153947675552
 20
30.35569110628137
 30
0
 11
-300.153947675552
 21
18.35569110628137
 31
0
  0
LINE
  8
1
 62
7
 10
-258.4174020123621
 20
-3.644308893718573
 30
0
 11
-235.3180378256711
 21
-3.644308893718573
 31
0
  0
LINE
  8
1
 62
7
 10
-258.4174020123621
 20
8.355691106281142
 30
0
 11
-258.4174020123621
 21
-3.644308893718573
 31
0
  0
LINE
  8
1
 62
7
 10
-278.6186963615451
 20
18.35569110628137
 30
0
 11
-278.618696361546
 21
8.355691106281427
 31
0
  0
LINE
  8
1
 62
7
 10
-210.3180378256711
 20
18.35569110628137
 30
0
 11
-387.6539476755511
 21
18.35569110628137
 31
0
  0
LINE
  8
1
 62
7
 10
-337.6539476755511
 20
-3.644308893718573
 30
0
 11
-278.618696361546
 21
-3.644308893718573
 31
0
  0
LINE
  8
1
 62
7
 10
-337.6539476755511
 20
18.35569110628137
 30
0
 11
-337.6539476755511
 21
-34.64430889371863
 31
0
  0
LINE
  8
1
 62
7
 10
-210.3180378256711
 20
30.35569110628137
 30
0
 11
-210.3180378256711
 21
-34.64430889371863
 31
0
  0
LINE
  8
1
 62
7
 10
-210.3180378256711
 20
30.35569110628137
 30
0
 11
-212.5519724161741
 21
30.35569110628137
 31
0
  0
LINE
  8
1
 62
2
  6
DOT
 10
-385.6539476755511
 20
22.35569110628137
 30
0
 11
-302.153947675552
 21
22.35569110628137
 31
0
  0
LINE
  8
1
 62
2
  6
DOT
 10
-340.1154861370901
 20
26.35569110628137
 30
0
 11
-302.153947675552
 21
26.35569110628137
 31
0
  0
LINE
  8
1
 62
2
 10
-182.653947675552
 20
257.3556911062814
 30
0
 11
-392.6539476755511
 21
257.3556911062814
 31
0
  0
LINE
  8
1
 62
2
 10
-182.653947675552
 20
-39.64430889371863
 30
0
 11
-182.653947675552
 21
257.3556911062814
 31
0
  0
LINE
  8
1
 62
2
 10
-392.6539476755511
 20
-39.64430889371863
 30
0
 11
-182.653947675552
 21
-39.64430889371863
 31
0
  0
LINE
  8
1
 62
2
 10
-392.6539476755511
 20
257.3556911062814
 30
0
 11
-392.6539476755511
 21
-39.64430889371863
 31
0
  0
LINE
  8
1
 62
7
 10
-387.6539476755511
 20
-34.64430889371863
 30
0
 11
-387.6539476755511
 21
252.3556911062814
 31
0
  0
LINE
  8
1
 62
7
 10
-337.6539476755511
 20
-9.628729761610771
 30
0
 11
-387.6539476755511
 21
-9.628729761610771
 31
0
  0
LINE
  8
1
 62
7
 10
-387.6539476755511
 20
-19.23360425751724
 30
0
 11
-350.600476798556
 21
-19.23360425751724
 31
0
  0
LINE
  8
1
 62
7
 10
-387.6539476755511
 20
-34.64430889371863
 30
0
 11
-187.653947675552
 21
-34.64430889371863
 31
0
  0
LINE
  8
1
 62
2
 10
-195.953289255759
 20
30.35569110628137
 30
0
 11
-195.953289255759
 21
137.9407496167437
 31
0
  0
LINE
  8
1
 62
7
 10
-387.6539476755511
 20
30.35569110628137
 30
0
 11
-187.653947675552
 21
30.35569110628137
 31
0
  0
LINE
  8
1
 62
2
 10
-204.2526308359661
 20
30.35569110628137
 30
0
 11
-204.2526308359661
 21
137.9407496167437
 31
0
  0
LINE
  8
1
 62
7
 10
-187.653947675552
 20
252.3556911062814
 30
0
 11
-387.6539476755511
 21
252.3556911062814
 31
0
  0
LINE
  8
1
 62
2
  6
DOT
 10
-312.513375876272
 20
4.35569110628137
 30
0
 11
-280.544774118124
 21
4.35569110628137
 31
0
  0
LINE
  8
1
 62
2
  6
DOT
 10
-280.544774118124
 20
0.3556911062814265
 30
0
 11
-334.8470375734062
 21
0.3556911062814265
 31
0
  0
LINE
  8
1
 62
7
 10
-350.600476798556
 20
-19.23360425751724
 30
0
 11
-350.600476798556
 21
-34.64430889371863
 31
0
  0
LINE
  8
1
 62
7
 10
-350.600476798556
 20
-19.23360425751724
 30
0
 11
-337.6539476755511
 21
-19.23360425751724
 31
0
  0
LINE
  8
1
 62
7
 10
-337.6539476755511
 20
8.35569110628137
 30
0
 11
-278.618696361546
 21
8.355691106281427
 31
0
  0
LINE
  8
1
 62
7
 10
-303.915120822094
 20
18.35569110628137
 30
0
 11
-303.915120822094
 21
8.355691106281427
 31
0
  0
LINE
  8
1
 62
7
 10
-187.653947675552
 20
-34.64430889371863
 30
0
 11
-187.653947675552
 21
137.9407496167437
 31
0
  0
LINE
  8
1
 62
2
 10
-212.5519724161741
 20
36.97679687701276
 30
0
 11
-187.653947675552
 21
36.97679687701276
 31
0
  0
LINE
  8
1
 62
2
 10
-212.5519724161741
 20
52.57358310040775
 30
0
 11
-187.653947675552
 21
52.57358310040775
 31
0
  0
LINE
  8
1
 62
2
 10
-212.5519724161741
 20
69.90442589427187
 30
0
 11
-187.653947675552
 21
69.90442589427187
 31
0
  0
LINE
  8
1
 62
2
 10
-354.805818734686
 20
12.39285989496426
 30
0
 11
-354.805818734686
 21
11.26370368212304
 31
0
  0
LINE
  8
1
 62
2
 10
-212.5519724161741
 20
147.9767968770127
 30
0
 11
-187.653947675552
 21
147.9767968770127
 31
0
  0
LINE
  8
1
 62
2
 10
-212.5519724161741
 20
163.5735831004077
 30
0
 11
-187.653947675552
 21
163.5735831004077
 31
0
  0
LINE
  8
1
 62
2
 10
-212.5519724161741
 20
180.9044258942719
 30
0
 11
-187.653947675552
 21
180.9044258942719
 31
0
  0
LINE
  8
1
 62
2
 10
-214.9537209888301
 20
140.9219910633077
 30
0
 11
-212.5519724161741
 21
140.9219910633077
 31
0
  0
LINE
  8
1
 62
7
 10
-187.653947675552
 20
140.9219910633077
 30
0
 11
-187.653947675552
 21
250.3032051554037
 31
0
  0
LINE
  8
1
 62
2
 10
-212.5519724161741
 20
163.5735831004077
 30
0
 11
-212.5519724161741
 21
147.9767968770127
 31
0
  0
LINE
  8
1
 62
2
 10
-212.5519724161741
 20
180.9044258942719
 30
0
 11
-212.5519724161741
 21
163.5735831004077
 31
0
  0
LINE
  8
1
 62
2
 10
-191.8036184656551
 20
137.9407496167437
 30
0
 11
-191.8036184656551
 21
30.35569110628137
 31
0
  0
LINE
  8
1
 62
2
 10
-200.102960045863
 20
137.9407496167437
 30
0
 11
-200.102960045863
 21
30.35569110628137
 31
0
  0
LINE
  8
1
 62
2
 10
-208.4023016260701
 20
137.9407496167437
 30
0
 11
-208.4023016260701
 21
30.35569110628137
 31
0
  0
LINE
  8
1
 62
2
 10
-212.5519724161741
 20
137.9407496167437
 30
0
 11
-212.5519724161741
 21
30.35569110628137
 31
0
  0
LINE
  8
1
 62
2
 10
-187.653947675552
 20
137.9407496167437
 30
0
 11
-214.9537209888301
 21
137.9407496167437
 31
0
  0
LINE
  8
1
 62
7
 10
-187.653947675552
 20
137.9407496167437
 30
0
 11
-187.653947675552
 21
140.9219910633077
 31
0
  0
LINE
  8
1
 62
2
 10
-204.2526308359661
 20
140.9219910633077
 30
0
 11
-204.2526308359661
 21
250.3032051554037
 31
0
  0
LINE
  8
1
 62
2
 10
-195.953289255759
 20
140.9219910633077
 30
0
 11
-195.953289255759
 21
250.3032051554037
 31
0
  0
LINE
  8
1
 62
2
 10
-212.5519724161741
 20
140.9219910633077
 30
0
 11
-187.653947675552
 21
140.9219910633077
 31
0
  0
LINE
  8
1
 62
7
 10
-278.618696361546
 20
8.355691106281427
 30
0
 11
-278.618696361546
 21
-3.644308893718573
 31
0
  0
LINE
  8
1
 62
7
 10
-278.618696361546
 20
8.355691106281427
 30
0
 11
-210.3180378256711
 21
8.35569110628137
 31
0
  0
LINE
  8
1
 62
7
 10
-278.618696361546
 20
-3.644308893718573
 30
0
 11
-258.4174020123621
 21
-3.644308893718573
 31
0
  0
LINE
  8
1
 62
7
 10
-187.653947675552
 20
250.3032051554037
 30
0
 11
-187.653947675552
 21
252.3556911062814
 31
0
  0
LINE
  8
1
 62
2
 10
-191.8036184656551
 20
250.3032051554037
 30
0
 11
-191.8036184656551
 21
140.9219910633077
 31
0
  0
LINE
  8
1
 62
2
 10
-200.102960045863
 20
250.3032051554037
 30
0
 11
-200.102960045863
 21
140.9219910633077
 31
0
  0
LINE
  8
1
 62
2
 10
-208.4023016260701
 20
250.3032051554037
 30
0
 11
-208.4023016260701
 21
140.9219910633077
 31
0
  0
LINE
  8
1
 62
2
 10
-212.5519724161741
 20
250.3032051554037
 30
0
 11
-212.5519724161741
 21
140.9219910633077
 31
0
  0
LINE
  8
1
 62
2
 10
-212.5519724161741
 20
250.3032051554037
 30
0
 11
-212.5519724161741
 21
180.9044258942719
 31
0
  0
LINE
  8
1
 62
2
 10
-214.8538804764942
 20
250.3032051554037
 30
0
 11
-187.653947675552
 21
250.3032051554037
 31
0
  0
ARC
  8
1
 62
2
 10
-380.553461694597
 20
10.34305257737873
 30
0
 40
0.75
 50
0
 51
180
  0
ARC
  8
1
 62
2
 10
-377.4534616945971
 20
10.34305257737873
 30
0
 40
0.75
 50
0
 51
180
  0
ARC
  8
1
 62
2
 10
-377.2034616945971
 20
10.49285989496417
 30
0
 40
2.099999999999915
 50
357.5940882005959
 51
135.640260203346
  0
ARC
  8
1
 62
2
 10
-379.9796791898571
 20
10.99419428410317
 30
0
 40
1.600000000000471
 50
37.17956489001687
 51
145.8289083108275
  0
ARC
  8
1
 62
2
 10
-366.8070858086421
 20
9.893013465479271
 30
0
 40
1.199999999999855
 50
75.45999660115031
 51
182.6332143368924
  0
ARC
  8
1
 62
2
 10
-366.78835496652
 20
11.20044224004204
 30
0
 40
1.420793316439101
 50
78.52980935900061
 51
148.9691796267435
  0
ARC
  8
1
 62
2
 10
-349.605830523245
 20
7.411570234228236
 30
0
 40
1.699999999999989
 50
180
 51
294.3161751631344
  0
ARC
  8
1
 62
2
 10
-349.205954946076
 20
7.46242713325006
 30
0
 40
0.500000000000166
 50
178.6625757286703
 51
306.7598996776936
  0
ARC
  8
1
 62
2
 10
-352.305947498945
 20
7.41226644938007
 30
0
 40
1.699999999999136
 50
180
 51
294.3205015122929
  0
ARC
  8
1
 62
2
 10
-351.9050502516111
 20
7.46242713325006
 30
0
 40
0.4999999999999955
 50
178.6625757286699
 51
306.7598996775997
  0
POLYLINE
  8
1
 62
2
 66
1
 70
1
  0
VERTEX
  8
1
 10
-372.2058889775972
 20
11.14285982014934
 30
0
 42
0.01800273692454662
  0
VERTEX
  8
1
 10
-372.241257629538
 20
11.1415584237132
 30
0
 42
0.01735180302103983
  0
VERTEX
  8
1
 10
-372.2764649842906
 20
11.13775968729667
 30
0
 42
0.03337132818067237
  0
VERTEX
  8
1
 10
-372.3457562971353
 20
11.12307055273879
 30
0
 42
0.01550733895397115
  0
VERTEX
  8
1
 10
-372.3795205026802
 20
11.11238033370563
 30
0
 42
0.01724460432872016
  0
VERTEX
  8
1
 10
-372.4152257967207
 20
11.09844414754052
 30
0
 42
0.01494267035335096
  0
VERTEX
  8
1
 10
-372.4499507435012
 20
11.08224474755382
 30
0
 42
0.01510254193827455
  0
VERTEX
  8
1
 10
-372.4836553008211
 20
11.06398120381475
 30
0
 42
0.0128795044039092
  0
VERTEX
  8
1
 10
-372.5162994264796
 20
11.04385258639252
 30
0
 42
0.0131593225495521
  0
VERTEX
  8
1
 10
-372.5478430782762
 20
11.02205796535634
 30
0
 42
0.01264335220497692
  0
VERTEX
  8
1
 10
-372.5821553491057
 20
10.99563532701843
 30
0
 42
0.01291343122729393
  0
VERTEX
  8
1
 10
-372.6150552541593
 20
10.96750933093783
 30
0
 42
0.0107900185106301
  0
VERTEX
  8
1
 10
-372.6465889467806
 20
10.93785256894637
 30
0
 42
0.01108600086831714
  0
VERTEX
  8
1
 10
-372.6768025803137
 20
10.9068376328759
 30
0
 42
0.009012777642366148
  0
VERTEX
  8
1
 10
-372.7057423081021
 20
10.87463711455825
 30
0
 42
0.01069583587160901
  0
VERTEX
  8
1
 10
-372.7371699689612
 20
10.83676721721132
 30
0
 42
0.008898217277572512
  0
VERTEX
  8
1
 10
-372.7670804202254
 20
10.7977075132445
 30
0
 42
0.009379367135792639
  0
VERTEX
  8
1
 10
-372.7955448606458
 20
10.75757875542175
 30
0
 42
0.007593997476811495
  0
VERTEX
  8
1
 10
-372.8226344889734
 20
10.71650169650705
 30
0
 42
0.00809770885878131
  0
VERTEX
  8
1
 10
-372.848420503959
 20
10.67459708926435
 30
0
 42
0.007279109686742106
  0
VERTEX
  8
1
 10
-372.8758759616012
 20
10.62674252661752
 30
0
 42
0.00803778828824705
  0
VERTEX
  8
1
 10
-372.9018483423085
 20
10.57807790624106
 30
0
 42
0.006402728818034213
  0
VERTEX
  8
1
 10
-372.9264051899055
 20
10.52868245870338
 30
0
 42
0.007168245558223673
  0
VERTEX
  8
1
 10
-372.9496140482165
 20
10.47863541457287
 30
0
 42
0.005544384382528134
  0
VERTEX
  8
1
 10
-372.9715424610661
 20
10.42801600441794
 30
0
 42
0.006948847052009994
  0
VERTEX
  8
1
 10
-372.9942158738226
 20
10.37187121995179
 30
0
 42
0.005512061823567957
  0
VERTEX
  8
1
 10
-373.0154812675149
 20
10.31518397004319
 30
0
 42
0.006383291712862818
  0
VERTEX
  8
1
 10
-373.0353924268282
 20
10.2580061220765
 30
0
 42
0.004950994882402833
  0
VERTEX
  8
1
 10
-373.0540031364476
 20
10.20038954343603
 30
0
 42
0.005828593815500083
  0
VERTEX
  8
1
 10
-373.0713671810581
 20
10.14238610150613
 30
0
 42
0.004805288756057167
  0
VERTEX
  8
1
 10
-373.0886573122596
 20
10.07981595471797
 30
0
 42
0.005814783973577988
  0
VERTEX
  8
1
 10
-373.1046138814498
 20
10.01689576659089
 30
0
 42
0.004455940959694731
  0
VERTEX
  8
1
 10
-373.1192748209667
 20
9.953660651766612
 30
0
 42
0.005468708026856025
  0
VERTEX
  8
1
 10
-373.1326780631482
 20
9.890145724886864
 30
0
 42
0.00411401922051481
  0
VERTEX
  8
1
 10
-373.1448615403322
 20
9.826386100593368
 30
0
 42
0.0101180337251424
  0
VERTEX
  8
1
 10
-373.1665657790327
 20
9.692188613123035
 30
0
 42
0.008480955869408426
  0
VERTEX
  8
1
 10
-373.1832644055347
 20
9.557276985266672
 30
0
 42
0.01393930341321775
  0
VERTEX
  8
1
 10
-373.1994616440893
 20
9.350864861831436
 30
0
 42
0.06057705148363586
  0
VERTEX
  8
1
 10
-373.131859907895
 20
8.39455932218727
 30
0
 42
0.008744476478151042
  0
VERTEX
  8
1
 10
-373.118387182524
 20
8.331059097710527
 30
0
 42
0.00118031192267627
  0
VERTEX
  8
1
 10
-373.1036570667108
 20
8.267840061159134
 30
0
 42
0.00909056893174149
  0
VERTEX
  8
1
 10
-373.0876316665585
 20
8.204937368655283
 30
0
 42
0.001529652867027852
  0
VERTEX
  8
1
 10
-373.070273088171
 20
8.142386176321168
 30
0
 42
0.009104379450714378
  0
VERTEX
  8
1
 10
-373.0528455928166
 20
8.084401766980186
 30
0
 42
0.001675355899361847
  0
VERTEX
  8
1
 10
-373.0341718564638
 20
8.026805584664048
 30
0
 42
0.00965910548972676
  0
VERTEX
  8
1
 10
-373.0141981512074
 20
7.969649555571467
 30
0
 42
0.002236409630895675
  0
VERTEX
  8
1
 10
-372.9928707491424
 20
7.912985605901156
 30
0
 42
0.01022469159725025
  0
VERTEX
  8
1
 10
-372.9701359223632
 20
7.856865661851828
 30
0
 42
0.002268731365237622
  0
VERTEX
  8
1
 10
-372.9481521403163
 20
7.806270273707841
 30
0
 42
0.01044410260510196
  0
VERTEX
  8
1
 10
-372.9248885397957
 20
7.75624865217161
 30
0
 42
0.003127051419736362
  0
VERTEX
  8
1
 10
-372.9002776637029
 20
7.706880101663339
 30
0
 42
0.01131369797870487
  0
VERTEX
  8
1
 10
-372.8742520549395
 20
7.658243926603221
 30
0
 42
0.004003402416503453
  0
VERTEX
  8
1
 10
-372.846744256407
 20
7.610419431411458
 30
0
 42
0.01137362235889011
  0
VERTEX
  8
1
 10
-372.820912409334
 20
7.568543061537663
 30
0
 42
0.004318278246204784
  0
VERTEX
  8
1
 10
-372.7937778551135
 20
7.527495665770303
 30
0
 42
0.01265536776153215
  0
VERTEX
  8
1
 10
-372.7652695271523
 20
7.487398074699064
 30
0
 42
0.005622441586979033
  0
VERTEX
  8
1
 10
-372.7353163588567
 20
7.448371118913627
 30
0
 42
0.01397193719530226
  0
VERTEX
  8
1
 10
-372.703847283633
 20
7.410535629003675
 30
0
 42
0.005736996459797041
  0
VERTEX
  8
1
 10
-372.6748723428169
 20
7.378366792700787
 30
0
 42
0.01436213421800837
  0
VERTEX
  8
1
 10
-372.6446247941556
 20
7.347384931706257
 30
0
 42
0.007514141120619196
  0
VERTEX
  8
1
 10
-372.6130586731641
 20
7.317762688244689
 30
0
 42
0.01618972785304287
  0
VERTEX
  8
1
 10
-372.5801280153579
 20
7.289672704540683
 30
0
 42
0.009367352448921413
  0
VERTEX
  8
1
 10
-372.5457868562521
 20
7.263287622818837
 30
0
 42
0.01643564281624633
  0
VERTEX
  8
1
 10
-372.5142193780014
 20
7.241527526503031
 30
0
 42
0.009603487439102105
  0
VERTEX
  8
1
 10
-372.4815532493095
 20
7.221434636824403
 30
0
 42
0.0183790629629034
  0
VERTEX
  8
1
 10
-372.4478287301542
 20
7.203207979923132
 30
0
 42
0.0116664875095745
  0
VERTEX
  8
1
 10
-372.4130860805135
 20
7.187046581939394
 30
0
 42
0.02052137532398946
  0
VERTEX
  8
1
 10
-372.377365560365
 20
7.173149469013367
 30
0
 42
0.02839560756090916
  0
VERTEX
  8
1
 10
-372.3091752756866
 20
7.154040697314175
 30
0
 42
0.02088534601065436
  0
VERTEX
  8
1
 10
-372.274282336293
 20
7.14788288289261
 30
0
 42
0.0132647499636815
  0
VERTEX
  8
1
 10
-372.2390708464434
 20
7.144122668856052
 30
0
 42
0.05809677319293705
  0
VERTEX
  8
1
 10
-372.1331247851304
 20
7.14796010263196
 30
0
 42
0.02832278927463096
  0
VERTEX
  8
1
 10
-372.0638334722859
 20
7.162649237189735
 30
0
 42
0.02055271818270905
  0
VERTEX
  8
1
 10
-372.0300692667411
 20
7.173339456222777
 30
0
 42
0.01219977153031553
  0
VERTEX
  8
1
 10
-371.9943639727004
 20
7.187275642387849
 30
0
 42
0.01998794848214619
  0
VERTEX
  8
1
 10
-371.9596390259197
 20
7.203475042374505
 30
0
 42
0.01005800409357341
  0
VERTEX
  8
1
 10
-371.9259344685996
 20
7.221738586113555
 30
0
 42
0.01792444048703987
  0
VERTEX
  8
1
 10
-371.8932903429409
 20
7.241867203535808
 30
0
 42
0.008115012247728981
  0
VERTEX
  8
1
 10
-371.8617466911442
 20
7.263661824572068
 30
0
 42
0.01768825187631931
  0
VERTEX
  8
1
 10
-371.8274344203148
 20
7.290084462909964
 30
0
 42
0.007869147002989848
  0
VERTEX
  8
1
 10
-371.7945345152614
 20
7.318210458990594
 30
0
 42
0.01583465195836039
  0
VERTEX
  8
1
 10
-371.7630008226403
 20
7.347867220982097
 30
0
 42
0.006041891346256816
  0
VERTEX
  8
1
 10
-371.7327871891074
 20
7.378882157052608
 30
0
 42
0.01405718834752274
  0
VERTEX
  8
1
 10
-371.7038474613191
 20
7.411082675370267
 30
0
 42
0.005651759285242561
  0
VERTEX
  8
1
 10
-371.6724198004601
 20
7.448952572717291
 30
0
 42
0.01394261471827259
  0
VERTEX
  8
1
 10
-371.6425093491958
 20
7.488012276684157
 30
0
 42
0.004335390351036807
  0
VERTEX
  8
1
 10
-371.6140449087753
 20
7.528141034506919
 30
0
 42
0.01263825324175744
  0
VERTEX
  8
1
 10
-371.5869552804477
 20
7.569218093421629
 30
0
 42
0.003053812441842858
  0
VERTEX
  8
1
 10
-371.561169265462
 20
7.611122700664339
 30
0
 42
0.01232333381826951
  0
VERTEX
  8
1
 10
-371.5337138078199
 20
7.65897726331109
 30
0
 42
0.002993895222952221
  0
VERTEX
  8
1
 10
-371.5077414271126
 20
7.707641883687486
 30
0
 42
0.01144687017222488
  0
VERTEX
  8
1
 10
-371.4831845795156
 20
7.757037331225119
 30
0
 42
0.002124397061551685
  0
VERTEX
  8
1
 10
-371.4599757212047
 20
7.807084375355581
 30
0
 42
0.01058845217309584
  0
VERTEX
  8
1
 10
-371.4380473083552
 20
7.857703785510466
 30
0
 42
0.001905008596160146
  0
VERTEX
  8
1
 10
-371.4153738955988
 20
7.913848569976674
 30
0
 42
0.01055612698847104
  0
VERTEX
  8
1
 10
-371.3941085019064
 20
7.97053581988531
 30
0
 42
0.00133947689887729
  0
VERTEX
  8
1
 10
-371.3741973425931
 20
8.027713667852041
 30
0
 42
0.009995016163618867
  0
VERTEX
  8
1
 10
-371.3555866329737
 20
8.085330246492532
 30
0
 42
0.0007847990546217135
  0
VERTEX
  8
1
 10
-371.3382225883631
 20
8.143333688422445
 30
0
 42
0.009849299160612984
  0
VERTEX
  8
1
 10
-371.3209324571616
 20
8.2059038352106
 30
0
 42
0.0007709896710964647
  0
VERTEX
  8
1
 10
-371.3049758879712
 20
8.268824023337665
 30
0
 42
0.009499926159119284
  0
VERTEX
  8
1
 10
-371.2903149484541
 20
8.332059138161924
 30
0
 42
0.000424924614801197
  0
VERTEX
  8
1
 10
-371.2769117062724
 20
8.395574065041657
 30
0
 42
0.009157980942050796
  0
VERTEX
  8
1
 10
-371.2647282290882
 20
8.459333689335153
 30
0
 42
0.005074003092083152
  0
VERTEX
  8
1
 10
-371.2430239903875
 20
8.593531176805442
 30
0
 42
0.01352530612022326
  0
VERTEX
  8
1
 10
-371.2263253638856
 20
8.728442804661794
 30
0
 42
0.008894906350164765
  0
VERTEX
  8
1
 10
-371.2101281253314
 20
8.93485492809692
 30
0
 42
0.06564087887970739
  0
VERTEX
  8
1
 10
-371.2777298615253
 20
9.891160467741241
 30
0
 42
0.003700541575928168
  0
VERTEX
  8
1
 10
-371.2912025868965
 20
9.954660692217956
 30
0
 42
0.006224120666000087
  0
VERTEX
  8
1
 10
-371.3059327027099
 20
10.01787972876932
 30
0
 42
0.00404661170094173
  0
VERTEX
  8
1
 10
-371.3219581028623
 20
10.08078242127314
 30
0
 42
0.006573475274259295
  0
VERTEX
  8
1
 10
-371.33931668125
 20
10.14333361360724
 30
0
 42
0.004060421302682147
  0
VERTEX
  8
1
 10
-371.3567441766046
 20
10.20131802294823
 30
0
 42
0.006719184367224878
  0
VERTEX
  8
1
 10
-371.3754179129574
 20
10.25891420526438
 30
0
 42
0.004615108960231918
  0
VERTEX
  8
1
 10
-371.3953916182138
 20
10.31607023435699
 30
0
 42
0.007280263440974565
  0
VERTEX
  8
1
 10
-371.4167190202789
 20
10.37273418402731
 30
0
 42
0.005180652736625125
  0
VERTEX
  8
1
 10
-371.4394538470581
 20
10.42885412807664
 30
0
 42
0.007312586732348788
  0
VERTEX
  8
1
 10
-371.461437629105
 20
10.47944951622055
 30
0
 42
0.005400046453323457
  0
VERTEX
  8
1
 10
-371.4847012296257
 20
10.52947113775671
 30
0
 42
0.008170951982931786
  0
VERTEX
  8
1
 10
-371.5093121057184
 20
10.57883968826493
 30
0
 42
0.006269568522968243
  0
VERTEX
  8
1
 10
-371.5353377144817
 20
10.62747586332504
 30
0
 42
0.009047356793636902
  0
VERTEX
  8
1
 10
-371.5628455130141
 20
10.67530035851684
 30
0
 42
0.006329487570433003
  0
VERTEX
  8
1
 10
-371.588677360087
 20
10.71717672839069
 30
0
 42
0.009362253850216204
  0
VERTEX
  8
1
 10
-371.6158119143072
 20
10.75822412415813
 30
0
 42
0.00761111024907205
  0
VERTEX
  8
1
 10
-371.6443202422682
 20
10.79832171522944
 30
0
 42
0.01066651576043862
  0
VERTEX
  8
1
 10
-371.6742734105636
 20
10.83734867101492
 30
0
 42
0.008927536372374581
  0
VERTEX
  8
1
 10
-371.7057424857871
 20
10.87518416092485
 30
0
 42
0.01078108011288489
  0
VERTEX
  8
1
 10
-371.7347174266034
 20
10.90735299722782
 30
0
 42
0.009317687559779169
  0
VERTEX
  8
1
 10
-371.7649649752649
 20
10.93833485822237
 30
0
 42
0.0125583887710695
  0
VERTEX
  8
1
 10
-371.7965310962566
 20
10.96795710168393
 30
0
 42
0.01114504608681034
  0
VERTEX
  8
1
 10
-371.8294617540631
 20
10.99604708538791
 30
0
 42
0.01441180505176871
  0
VERTEX
  8
1
 10
-371.8638029131691
 20
11.02243216710974
 30
0
 42
0.01139092684293021
  0
VERTEX
  8
1
 10
-371.8953703914198
 20
11.04419226342545
 30
0
 42
0.01464796864696658
  0
VERTEX
  8
1
 10
-371.9280365201116
 20
11.06428515310402
 30
0
 42
0.01333405520544735
  0
VERTEX
  8
1
 10
-371.9617610392668
 20
11.08251181000527
 30
0
 42
0.01671124254388651
  0
VERTEX
  8
1
 10
-371.9965036889075
 20
11.098673207989
 30
0
 42
0.01547600178524285
  0
VERTEX
  8
1
 10
-372.032224209056
 20
11.11257032091504
 30
0
 42
0.03344416915976737
  0
VERTEX
  8
1
 10
-372.1004144937341
 20
11.13167909261427
 30
0
 42
0.01583990572793197
  0
VERTEX
  8
1
 10
-372.1353074331277
 20
11.13783690703587
 30
0
 42
0.01830974665781843
  0
VERTEX
  8
1
 10
-372.1705189229771
 20
11.14159712107247
 30
0
 42
0.01704480368207706
  0
SEQEND
  8
1
  0
POLYLINE
  8
1
 62
2
 66
1
 70
1
  0
VERTEX
  8
1
 10
-362.2074889331232
 20
11.14285982014934
 30
0
 42
0.01800273692451063
  0
VERTEX
  8
1
 10
-362.242857585064
 20
11.14155842371318
 30
0
 42
0.01735180302107603
  0
VERTEX
  8
1
 10
-362.2780649398165
 20
11.13775968729663
 30
0
 42
0.03337132818022734
  0
VERTEX
  8
1
 10
-362.3473562526613
 20
11.12307055273875
 30
0
 42
0.0155073389536953
  0
VERTEX
  8
1
 10
-362.3811204582062
 20
11.11238033370563
 30
0
 42
0.01724460432837967
  0
VERTEX
  8
1
 10
-362.416825752247
 20
11.09844414754054
 30
0
 42
0.01494267035405811
  0
VERTEX
  8
1
 10
-362.4515506990276
 20
11.08224474755388
 30
0
 42
0.01510254193693221
  0
VERTEX
  8
1
 10
-362.4852552563477
 20
11.06398120381483
 30
0
 42
0.01287950440547798
  0
VERTEX
  8
1
 10
-362.5178993820065
 20
11.04385258639259
 30
0
 42
0.01315932254968824
  0
VERTEX
  8
1
 10
-362.5494430338031
 20
11.02205796535634
 30
0
 42
0.0126433522050089
  0
VERTEX
  8
1
 10
-362.5837553046325
 20
10.99563532701847
 30
0
 42
0.01291343122853692
  0
VERTEX
  8
1
 10
-362.6166552096859
 20
10.96750933093787
 30
0
 42
0.01079001850925948
  0
VERTEX
  8
1
 10
-362.648188902307
 20
10.93785256894638
 30
0
 42
0.01108600087012192
  0
VERTEX
  8
1
 10
-362.6784025358398
 20
10.90683763287589
 30
0
 42
0.009012777639962985
  0
VERTEX
  8
1
 10
-362.7073422636281
 20
10.87463711455825
 30
0
 42
0.01069583587339934
  0
VERTEX
  8
1
 10
-362.7387699244871
 20
10.83676721721126
 30
0
 42
0.008898217274606872
  0
VERTEX
  8
1
 10
-362.7686803757514
 20
10.79770751324443
 30
0
 42
0.009379367139050319
  0
VERTEX
  8
1
 10
-362.7971448161718
 20
10.75757875542169
 30
0
 42
0.007593997473487073
  0
VERTEX
  8
1
 10
-362.8242344444994
 20
10.71650169650702
 30
0
 42
0.008097708862110864
  0
VERTEX
  8
1
 10
-362.850020459485
 20
10.67459708926435
 30
0
 42
0.00727910968346744
  0
VERTEX
  8
1
 10
-362.8774759171272
 20
10.62674252661754
 30
0
 42
0.008037788291601473
  0
VERTEX
  8
1
 10
-362.9034482978345
 20
10.57807790624108
 30
0
 42
0.006402728814695191
  0
VERTEX
  8
1
 10
-362.9280051454315
 20
10.5286824587034
 30
0
 42
0.007168245561616689
  0
VERTEX
  8
1
 10
-362.9512140037425
 20
10.47863541457288
 30
0
 42
0.005544384379120977
  0
VERTEX
  8
1
 10
-362.9731424165921
 20
10.42801600441794
 30
0
 42
0.006948847055414324
  0
VERTEX
  8
1
 10
-362.9958158293486
 20
10.37187121995177
 30
0
 42
0.005512061820594467
  0
VERTEX
  8
1
 10
-363.0170812230409
 20
10.31518397004317
 30
0
 42
0.006383291715371581
  0
VERTEX
  8
1
 10
-363.0369923823541
 20
10.25800612207647
 30
0
 42
0.004950994880323779
  0
VERTEX
  8
1
 10
-363.0556030919735
 20
10.20038954343601
 30
0
 42
0.005828593816200657
  0
VERTEX
  8
1
 10
-363.0729671365841
 20
10.14238610150613
 30
0
 42
0.004805288755049505
  0
VERTEX
  8
1
 10
-363.0902572677858
 20
10.07981595471796
 30
0
 42
0.005814783974987575
  0
VERTEX
  8
1
 10
-363.1062138369761
 20
10.01689576659089
 30
0
 42
0.004455940957416952
  0
VERTEX
  8
1
 10
-363.1208747764932
 20
9.953660651766617
 30
0
 42
0.005468708029138046
  0
VERTEX
  8
1
 10
-363.1342780186749
 20
9.890145724886871
 30
0
 42
0.004114019218669589
  0
VERTEX
  8
1
 10
-363.1464614958591
 20
9.826386100593368
 30
0
 42
0.01011803372742859
  0
VERTEX
  8
1
 10
-363.1681657345598
 20
9.692188613123058
 30
0
 42
0.008480955868175545
  0
VERTEX
  8
1
 10
-363.1848643610618
 20
9.557276985266681
 30
0
 42
0.01393930341547105
  0
VERTEX
  8
1
 10
-363.2010615996159
 20
9.350864861831433
 30
0
 42
0.06057705147998676
  0
VERTEX
  8
1
 10
-363.1334598634218
 20
8.394559322187256
 30
0
 42
0.008744476480630859
  0
VERTEX
  8
1
 10
-363.119987138051
 20
8.331059097710501
 30
0
 42
0.001180311921482924
  0
VERTEX
  8
1
 10
-363.1052570222378
 20
8.267840061159099
 30
0
 42
0.009090568932112571
  0
VERTEX
  8
1
 10
-363.0892316220857
 20
8.204937368655253
 30
0
 42
0.001529652867975846
  0
VERTEX
  8
1
 10
-363.0718730436981
 20
8.142386176321168
 30
0
 42
0.009104379450134712
  0
VERTEX
  8
1
 10
-363.0544455483436
 20
8.084401766980166
 30
0
 42
0.001675355900868257
  0
VERTEX
  8
1
 10
-363.0357718119905
 20
8.026805584664025
 30
0
 42
0.009659105487799235
  0
VERTEX
  8
1
 10
-363.015798106734
 20
7.969649555571453
 30
0
 42
0.002236409633698766
  0
VERTEX
  8
1
 10
-362.9944707046686
 20
7.912985605901153
 30
0
 42
0.01022469159440262
  0
VERTEX
  8
1
 10
-362.9717358778892
 20
7.856865661851828
 30
0
 42
0.002268731367066974
  0
VERTEX
  8
1
 10
-362.9497520958422
 20
7.806270273707902
 30
0
 42
0.01044410260178929
  0
VERTEX
  8
1
 10
-362.9264884953216
 20
7.756248652171711
 30
0
 42
0.003127051422924662
  0
VERTEX
  8
1
 10
-362.9018776192289
 20
7.706880101663444
 30
0
 42
0.0113136979758367
  0
VERTEX
  8
1
 10
-362.8758520104655
 20
7.658243926603296
 30
0
 42
0.00400340241781065
  0
VERTEX
  8
1
 10
-362.8483442119332
 20
7.610419431411458
 30
0
 42
0.0113736223576315
  0
VERTEX
  8
1
 10
-362.8225123648603
 20
7.568543061537634
 30
0
 42
0.004318278245964777
  0
VERTEX
  8
1
 10
-362.7953778106402
 20
7.527495665770231
 30
0
 42
0.01265536776378865
  0
VERTEX
  8
1
 10
-362.7668694826791
 20
7.487398074698962
 30
0
 42
0.005622441585001219
  0
VERTEX
  8
1
 10
-362.7369163143836
 20
7.44837111891354
 30
0
 42
0.01397193719734222
  0
VERTEX
  8
1
 10
-362.7054472391601
 20
7.410535629003675
 30
0
 42
0.005736996459731952
  0
VERTEX
  8
1
 10
-362.6764722983438
 20
7.378366792700753
 30
0
 42
0.01436213421938716
  0
VERTEX
  8
1
 10
-362.6462247496822
 20
7.347384931706245
 30
0
 42
0.007514141118391269
  0
VERTEX
  8
1
 10
-362.6146586286906
 20
7.317762688244715
 30
0
 42
0.01618972785543578
  0
VERTEX
  8
1
 10
-362.5817279708841
 20
7.289672704540724
 30
0
 42
0.00936735244593182
  0
VERTEX
  8
1
 10
-362.5473868117781
 20
7.263287622818837
 30
0
 42
0.0164356428172003
  0
VERTEX
  8
1
 10
-362.5158193335276
 20
7.241527526503113
 30
0
 42
0.009603487437902788
  0
VERTEX
  8
1
 10
-362.4831532048359
 20
7.221434636824496
 30
0
 42
0.01837906296304184
  0
VERTEX
  8
1
 10
-362.4494286856809
 20
7.203207979923194
 30
0
 42
0.01166648751013063
  0
VERTEX
  8
1
 10
-362.4146860360403
 20
7.187046581939415
 30
0
 42
0.02052137532327351
  0
VERTEX
  8
1
 10
-362.3789655158921
 20
7.173149469013367
 30
0
 42
0.02839560756290856
  0
VERTEX
  8
1
 10
-362.3107752312137
 20
7.154040697314128
 30
0
 42
0.02088534600955387
  0
VERTEX
  8
1
 10
-362.27588229182
 20
7.147882882892587
 30
0
 42
0.01326474996455318
  0
VERTEX
  8
1
 10
-362.2406708019704
 20
7.144122668856053
 30
0
 42
0.05809677319131216
  0
VERTEX
  8
1
 10
-362.1347247406568
 20
7.147960102631895
 30
0
 42
0.0283227892761343
  0
VERTEX
  8
1
 10
-362.065433427812
 20
7.162649237189664
 30
0
 42
0.02055271818220263
  0
VERTEX
  8
1
 10
-362.0316692222671
 20
7.173339456222777
 30
0
 42
0.01219977153152841
  0
VERTEX
  8
1
 10
-361.9959639282266
 20
7.18727564238786
 30
0
 42
0.01998794848099448
  0
VERTEX
  8
1
 10
-361.9612389814461
 20
7.203475042374546
 30
0
 42
0.01005800409474625
  0
VERTEX
  8
1
 10
-361.9275344241262
 20
7.221738586113621
 30
0
 42
0.01792444048561
  0
VERTEX
  8
1
 10
-361.8948902984676
 20
7.241867203535866
 30
0
 42
0.00811501224869738
  0
VERTEX
  8
1
 10
-361.8633466466711
 20
7.263661824572068
 30
0
 42
0.01768825187393747
  0
VERTEX
  8
1
 10
-361.8290343758416
 20
7.29008446291001
 30
0
 42
0.00786914700442279
  0
VERTEX
  8
1
 10
-361.7961344707879
 20
7.318210458990638
 30
0
 42
0.01583465195710741
  0
VERTEX
  8
1
 10
-361.7646007781666
 20
7.347867220982117
 30
0
 42
0.006041891347451238
  0
VERTEX
  8
1
 10
-361.7343871446336
 20
7.378882157052606
 30
0
 42
0.01405718834648548
  0
VERTEX
  8
1
 10
-361.7054474168451
 20
7.411082675370267
 30
0
 42
0.005651759287775616
  0
VERTEX
  8
1
 10
-361.6740197559861
 20
7.44895257271723
 30
0
 42
0.01394261471467843
  0
VERTEX
  8
1
 10
-361.6441093047217
 20
7.488012276684081
 30
0
 42
0.004335390355724812
  0
VERTEX
  8
1
 10
-361.6156448643012
 20
7.528141034506858
 30
0
 42
0.0126382532376343
  0
VERTEX
  8
1
 10
-361.5885552359737
 20
7.569218093421598
 30
0
 42
0.003053812445489198
  0
VERTEX
  8
1
 10
-361.562769220988
 20
7.611122700664339
 30
0
 42
0.01232333381454814
  0
VERTEX
  8
1
 10
-361.5353137633459
 20
7.65897726331111
 30
0
 42
0.002993895226618321
  0
VERTEX
  8
1
 10
-361.5093413826386
 20
7.707641883687511
 30
0
 42
0.01144687016944396
  0
VERTEX
  8
1
 10
-361.4847845350417
 20
7.757037331225142
 30
0
 42
0.002124397062915489
  0
VERTEX
  8
1
 10
-361.4615756767308
 20
7.807084375355593
 30
0
 42
0.0105884521721939
  0
VERTEX
  8
1
 10
-361.4396472638812
 20
7.857703785510466
 30
0
 42
0.001905008596991928
  0
VERTEX
  8
1
 10
-361.4169738511248
 20
7.913848569976636
 30
0
 42
0.01055612698721202
  0
VERTEX
  8
1
 10
-361.3957084574324
 20
7.970535819885237
 30
0
 42
0.001339476901475217
  0
VERTEX
  8
1
 10
-361.3757972981192
 20
8.027713667851934
 30
0
 42
0.009995016159692838
  0
VERTEX
  8
1
 10
-361.3571865884998
 20
8.085330246492392
 30
0
 42
0.0007847990585569014
  0
VERTEX
  8
1
 10
-361.3398225438891
 20
8.143333688422274
 30
0
 42
0.009849299156838859
  0
VERTEX
  8
1
 10
-361.3225324126875
 20
8.20590383521046
 30
0
 42
0.0007709896757186589
  0
VERTEX
  8
1
 10
-361.3065758434972
 20
8.268824023337558
 30
0
 42
0.009499926154069867
  0
VERTEX
  8
1
 10
-361.2919149039801
 20
8.332059138161853
 30
0
 42
0.0004249246202733762
  0
VERTEX
  8
1
 10
-361.2785116617985
 20
8.395574065041624
 30
0
 42
0.009157980936139362
  0
VERTEX
  8
1
 10
-361.2663281846142
 20
8.459333689335153
 30
0
 42
0.005074003097742327
  0
VERTEX
  8
1
 10
-361.2446239459135
 20
8.593531176805447
 30
0
 42
0.01352530611455797
  0
VERTEX
  8
1
 10
-361.2279253194116
 20
8.728442804661798
 30
0
 42
0.008894906356172435
  0
VERTEX
  8
1
 10
-361.2117280808574
 20
8.934854928096913
 30
0
 42
0.06564087887416235
  0
VERTEX
  8
1
 10
-361.2793298170525
 20
9.89116046774121
 30
0
 42
0.003700541578697768
  0
VERTEX
  8
1
 10
-361.2928025424234
 20
9.954660692217919
 30
0
 42
0.006224120662783869
  0
VERTEX
  8
1
 10
-361.3075326582365
 20
10.01787972876929
 30
0
 42
0.004046611704161652
  0
VERTEX
  8
1
 10
-361.3235580583885
 20
10.08078242127313
 30
0
 42
0.006573475271898192
  0
VERTEX
  8
1
 10
-361.340916636776
 20
10.14333361360724
 30
0
 42
0.004060421305279223
  0
VERTEX
  8
1
 10
-361.3583441321304
 20
10.20131802294828
 30
0
 42
0.006719184365565242
  0
VERTEX
  8
1
 10
-361.3770178684831
 20
10.25891420526447
 30
0
 42
0.004615108962863092
  0
VERTEX
  8
1
 10
-361.3969915737396
 20
10.31607023435708
 30
0
 42
0.007280263438416586
  0
VERTEX
  8
1
 10
-361.4183189758048
 20
10.37273418402738
 30
0
 42
0.005180652740196142
  0
VERTEX
  8
1
 10
-361.4410538025841
 20
10.42885412807664
 30
0
 42
0.007312586729684887
  0
VERTEX
  8
1
 10
-361.4630375846314
 20
10.47944951622054
 30
0
 42
0.005400046455577831
  0
VERTEX
  8
1
 10
-361.4863011851522
 20
10.52947113775666
 30
0
 42
0.008170951980599717
  0
VERTEX
  8
1
 10
-361.5109120612452
 20
10.57883968826485
 30
0
 42
0.0062695685251286
  0
VERTEX
  8
1
 10
-361.5369376700087
 20
10.62747586332497
 30
0
 42
0.009047356789834853
  0
VERTEX
  8
1
 10
-361.5644454685412
 20
10.67530035851684
 30
0
 42
0.006329487573871057
  0
VERTEX
  8
1
 10
-361.590277315614
 20
10.71717672839064
 30
0
 42
0.009362253844102447
  0
VERTEX
  8
1
 10
-361.6174118698339
 20
10.75822412415808
 30
0
 42
0.007611110256075854
  0
VERTEX
  8
1
 10
-361.6459201977946
 20
10.79832171522942
 30
0
 42
0.01066651575347439
  0
VERTEX
  8
1
 10
-361.6758733660898
 20
10.83734867101493
 30
0
 42
0.008927536379583502
  0
VERTEX
  8
1
 10
-361.7073424413131
 20
10.87518416092485
 30
0
 42
0.01078108010609275
  0
VERTEX
  8
1
 10
-361.7363173821293
 20
10.90735299722787
 30
0
 42
0.00931768756876887
  0
VERTEX
  8
1
 10
-361.7665649307909
 20
10.93833485822243
 30
0
 42
0.0125583887608514
  0
VERTEX
  8
1
 10
-361.7981310517825
 20
10.96795710168397
 30
0
 42
0.01114504609760916
  0
VERTEX
  8
1
 10
-361.831061709589
 20
10.99604708538793
 30
0
 42
0.01441180504169822
  0
VERTEX
  8
1
 10
-361.8654028686951
 20
11.02243216710974
 30
0
 42
0.01139092685261794
  0
VERTEX
  8
1
 10
-361.8969703469459
 20
11.04419226342544
 30
0
 42
0.01464796863672768
  0
VERTEX
  8
1
 10
-361.9296364756377
 20
11.064285153104
 30
0
 42
0.01333405521528213
  0
VERTEX
  8
1
 10
-361.9633609947929
 20
11.08251181000525
 30
0
 42
0.01671124253402364
  0
VERTEX
  8
1
 10
-361.9981036444335
 20
11.09867320798899
 30
0
 42
0.0154760017953543
  0
VERTEX
  8
1
 10
-362.033824164582
 20
11.11257032091504
 30
0
 42
0.03344416914965481
  0
VERTEX
  8
1
 10
-362.1020144492601
 20
11.13167909261428
 30
0
 42
0.01583990573815569
  0
VERTEX
  8
1
 10
-362.1369073886536
 20
11.13783690703589
 30
0
 42
0.01830974664765981
  0
VERTEX
  8
1
 10
-362.1721188785031
 20
11.14159712107248
 30
0
 42
0.01704480369233583
  0
SEQEND
  8
1
  0
POLYLINE
  8
1
 62
2
 66
1
  0
VERTEX
  8
1
 10
-371.3057254073522
 20
6.075069134912667
 30
0
 42
-0.0006681937077029632
  0
VERTEX
  8
1
 10
-371.3415008551133
 20
6.050007504343387
 30
0
 42
-0.002005975893357349
  0
VERTEX
  8
1
 10
-371.3773973203536
 20
6.025146185516149
 30
0
 42
-0.003347374322046047
  0
VERTEX
  8
1
 10
-371.4135358205525
 20
6.000685490172998
 30
0
 42
-0.004692892297731407
  0
VERTEX
  8
1
 10
-371.4500373731892
 20
5.976825730055976
 30
0
 42
-0.006040135198765562
  0
VERTEX
  8
1
 10
-371.487022995743
 20
5.953767216907124
 30
0
 42
-0.01902861300623469
  0
VERTEX
  8
1
 10
-371.5976699855455
 20
5.892352935375127
 30
0
 42
-0.01789814735924154
  0
VERTEX
  8
1
 10
-371.7128047902475
 20
5.839097040710422
 30
0
 42
-0.09756413331682971
  0
VERTEX
  8
1
 10
-372.4171987509801
 20
5.69373361576971
 30
0
 42
-0.05617073605039599
  0
VERTEX
  8
1
 10
-372.7716842545884
 20
5.733625246779913
 30
0
 42
-0.02744836206800451
  0
VERTEX
  8
1
 10
-372.9575164278789
 20
5.786737769887601
 30
0
 42
-0.02531770227854937
  0
VERTEX
  8
1
 10
-373.1373941294208
 20
5.859377706415989
 30
0
 42
-0.02358439647234352
  0
VERTEX
  8
1
 10
-373.3096975682368
 20
5.94940100568948
 30
0
 42
-0.02231572298653446
  0
VERTEX
  8
1
 10
-373.4728069533492
 20
6.054663617032475
 30
0
 42
-0.02167898413263084
  0
VERTEX
  8
1
 10
-373.6292782153804
 20
6.176417780431847
 30
0
 42
-0.02009973532924241
  0
VERTEX
  8
1
 10
-373.7746426818305
 20
6.310443716272075
 30
0
 42
-0.01850314295418726
  0
VERTEX
  8
1
 10
-373.9091825109921
 20
6.455221494562886
 30
0
 42
-0.01696163862881405
  0
VERTEX
  8
1
 10
-374.0331798611578
 20
6.609231185314007
 30
0
 42
-0.01552316354295674
  0
VERTEX
  8
1
 10
-374.1469168906201
 20
6.770952858535168
 30
0
 42
-0.01723591341342977
  0
VERTEX
  8
1
 10
-374.2697144163612
 20
6.972351852048607
 30
0
 42
-0.01623452154967553
  0
VERTEX
  8
1
 10
-374.3787208585754
 20
7.181425936400696
 30
0
 42
-0.01526553623500223
  0
VERTEX
  8
1
 10
-374.4743819235598
 20
7.397015414409596
 30
0
 42
-0.01435402671466155
  0
VERTEX
  8
1
 10
-374.5571433176114
 20
7.617960588893468
 30
0
 42
-0.01351733866008804
  0
VERTEX
  8
1
 10
-374.6274507470271
 20
7.843101762670472
 30
0
 42
-0.02295787400232099
  0
VERTEX
  8
1
 10
-374.7230525571837
 20
8.251713791158212
 30
0
 42
-0.02193675709720486
  0
VERTEX
  8
1
 10
-374.7817401536351
 20
8.666959606047392
 30
0
 42
-0.07896914879589827
  0
VERTEX
  8
1
 10
-374.6882579614553
 20
10.20820400137073
 30
0
 42
-0.01269316429332778
  0
VERTEX
  8
1
 10
-374.632315172467
 20
10.42929118701202
 30
0
 42
-0.0131215186647014
  0
VERTEX
  8
1
 10
-374.5650285943044
 20
10.64723174251675
 30
0
 42
-0.01357076394669298
  0
VERTEX
  8
1
 10
-374.486167840873
 20
10.86138616514717
 30
0
 42
-0.01403161385837687
  0
VERTEX
  8
1
 10
-374.395502526078
 20
11.07111495216554
 30
0
 42
-0.01509103300902338
  0
VERTEX
  8
1
 10
-374.2923712526463
 20
11.27621987584683
 30
0
 42
-0.01676088328338784
  0
VERTEX
  8
1
 10
-374.1763945331838
 20
11.47436015083851
 30
0
 42
-0.0185528952910807
  0
VERTEX
  8
1
 10
-374.0468388656586
 20
11.66366867227096
 30
0
 42
-0.02041552039777769
  0
VERTEX
  8
1
 10
-373.902970748039
 20
11.84227833527455
 30
0
 42
-0.02226465576731394
  0
VERTEX
  8
1
 10
-373.744056678293
 20
12.00832203497964
 30
0
 42
-0.02292111538850766
  0
VERTEX
  8
1
 10
-373.576282704667
 20
12.1545255910791
 30
0
 42
-0.02448547371794569
  0
VERTEX
  8
1
 10
-373.3951639877744
 20
12.28441652533796
 30
0
 42
-0.02648730153189996
  0
VERTEX
  8
1
 10
-373.2020162838493
 20
12.39509180452032
 30
0
 42
-0.02882253648545308
  0
VERTEX
  8
1
 10
-372.9981553491257
 20
12.4836483953903
 30
0
 42
-0.03130774115522406
  0
VERTEX
  8
1
 10
-372.7848969398372
 20
12.54718326471203
 30
0
 42
-0.1067981027776223
  0
VERTEX
  8
1
 10
-372.0593499250543
 20
12.55696865011339
 30
0
 42
-0.05179335734343814
  0
VERTEX
  8
1
 10
-371.7641181949622
 20
12.46255731948673
 30
0
 42
-0.01585376142743313
  0
VERTEX
  8
1
 10
-371.6464595321799
 20
12.40684997804855
 30
0
 42
-0.01122700946565502
  0
VERTEX
  8
1
 10
-371.5314942939987
 20
12.34458879987786
 30
0
 42
-0.006676243896431882
  0
VERTEX
  8
1
 10
-371.4183246722182
 20
12.27795839721883
 30
0
 42
-0.002213414386806887
  0
VERTEX
  8
1
 10
-371.3060528586382
 20
12.20914338231563
 30
0
  0
SEQEND
  8
1
  0
POLYLINE
  8
1
 62
2
 66
1
  0
VERTEX
  8
1
 10
-359.6958285288372
 20
10.09768676461823
 30
0
 42
-0.001126513299476703
  0
VERTEX
  8
1
 10
-359.6583851612947
 20
10.22737402879609
 30
0
 42
-0.003384516855667798
  0
VERTEX
  8
1
 10
-359.6198020994322
 20
10.35662319459462
 30
0
 42
-0.005654736030341565
  0
VERTEX
  8
1
 10
-359.5789396489298
 20
10.48499616363451
 30
0
 42
-0.007936131432942833
  0
VERTEX
  8
1
 10
-359.5346581154674
 20
10.61205483753643
 30
0
 42
-0.01021359401528274
  0
VERTEX
  8
1
 10
-359.485817804725
 20
10.73736111792107
 30
0
 42
-0.01056896575800344
  0
VERTEX
  8
1
 10
-359.4342979842199
 20
10.85457465297175
 30
0
 42
-0.01014314531266227
  0
VERTEX
  8
1
 10
-359.3779024887348
 20
10.96969030227765
 30
0
 42
-0.009739274032881752
  0
VERTEX
  8
1
 10
-359.3169119409061
 20
11.08259226036717
 30
0
 42
-0.009360427992339947
  0
VERTEX
  8
1
 10
-359.2516069633704
 20
11.1931647217687
 30
0
 42
-0.03703060368169094
  0
VERTEX
  8
1
 10
-358.9459969008819
 20
11.61574782575932
 30
0
 42
-0.02081263226691387
  0
VERTEX
  8
1
 10
-358.768515266509
 20
11.80851508116854
 30
0
 42
-0.01862236190698793
  0
VERTEX
  8
1
 10
-358.6075786148409
 20
11.9576116051593
 30
0
 42
-0.01981799049904863
  0
VERTEX
  8
1
 10
-358.4355798427412
 20
12.0938751889675
 30
0
 42
-0.02247559865764934
  0
VERTEX
  8
1
 10
-358.2404085550153
 20
12.22314072180154
 30
0
 42
-0.02472786480785639
  0
VERTEX
  8
1
 10
-358.0209833970151
 20
12.34026336879603
 30
0
 42
-0.02581890526642877
  0
VERTEX
  8
1
 10
-357.790987242955
 20
12.43451970081423
 30
0
 42
-0.03355319630646132
  0
VERTEX
  8
1
 10
-357.4840195022263
 20
12.51928474543354
 30
0
 42
-0.07019278381425578
  0
VERTEX
  8
1
 10
-356.8054020063178
 20
12.56203937651297
 30
0
 42
-0.0520471977592597
  0
VERTEX
  8
1
 10
-356.347978786402
 20
12.47625771821713
 30
0
 42
-0.03257696042987627
  0
VERTEX
  8
1
 10
-356.0522961070084
 20
12.36756323384801
 30
0
 42
-0.0328555749367074
  0
VERTEX
  8
1
 10
-355.759899586089
 20
12.21444820498067
 30
0
 42
-0.009389687577089174
  0
VERTEX
  8
1
 10
-355.6771793513954
 20
12.16184857377057
 30
0
 42
-0.009035808147042784
  0
VERTEX
  8
1
 10
-355.5964357396622
 20
12.10622516905264
 30
0
 42
-0.008687794729971084
  0
VERTEX
  8
1
 10
-355.5176788063646
 20
12.04774924416221
 30
0
 42
-0.008348550483568631
  0
VERTEX
  8
1
 10
-355.4409186069779
 20
11.9865920524346
 30
0
 42
-0.03524460074549839
  0
VERTEX
  8
1
 10
-355.1311561826785
 20
11.69227916146224
 30
0
 42
-0.02019266385507401
  0
VERTEX
  8
1
 10
-354.990255396084
 20
11.52432184651838
 30
0
 42
-0.005533848049635237
  0
VERTEX
  8
1
 10
-354.9518573902714
 20
11.47332413637363
 30
0
 42
-0.00430326503544919
  0
VERTEX
  8
1
 10
-354.9144665001475
 20
11.42157581107268
 30
0
 42
-0.003071751100031986
  0
VERTEX
  8
1
 10
-354.87783094679
 20
11.36926452440455
 30
0
 42
-0.001841802583611921
  0
VERTEX
  8
1
 10
-354.841698951277
 20
11.31657793015832
 30
0
 42
-0.0006136819253797431
  0
VERTEX
  8
1
 10
-354.805818734686
 20
11.26370368212304
 30
0
  0
SEQEND
  8
1
  0
POLYLINE
  8
1
 62
2
 66
1
  0
VERTEX
  8
1
 10
-359.6958285288372
 20
10.09768676461823
 30
0
 42
0.001013998927410756
  0
VERTEX
  8
1
 10
-359.7249831082085
 20
10.22980481820146
 30
0
 42
0.00304449515746288
  0
VERTEX
  8
1
 10
-359.7551909107089
 20
10.36160245598796
 30
0
 42
0.005085875337582182
  0
VERTEX
  8
1
 10
-359.7875051594676
 20
10.49275926218098
 30
0
 42
0.007135147544472361
  0
VERTEX
  8
1
 10
-359.8229790776136
 20
10.62295482098378
 30
0
 42
0.009184466718691184
  0
VERTEX
  8
1
 10
-359.8626658882761
 20
10.75186871659963
 30
0
 42
0.007633063682751569
  0
VERTEX
  8
1
 10
-359.8945615293239
 20
10.84429934039345
 30
0
 42
0.006596422219296397
  0
VERTEX
  8
1
 10
-359.9290983671206
 20
10.93584866032777
 30
0
 42
0.007098441555874959
  0
VERTEX
  8
1
 10
-359.9661533313029
 20
11.02647632905521
 30
0
 42
0.006076889040789596
  0
VERTEX
  8
1
 10
-360.0056033515075
 20
11.11614199922836
 30
0
 42
0.01438170949810317
  0
VERTEX
  8
1
 10
-360.1026977989012
 20
11.31440459737434
 30
0
 42
0.008245472278514849
  0
VERTEX
  8
1
 10
-360.1616230508837
 20
11.42210085349418
 30
0
 42
0.009334641172920887
  0
VERTEX
  8
1
 10
-360.2242793793648
 20
11.52762846515402
 30
0
 42
0.009430111458444334
  0
VERTEX
  8
1
 10
-360.2908450503909
 20
11.63072180564853
 30
0
 42
0.01052695642774484
  0
VERTEX
  8
1
 10
-360.3614983300081
 20
11.73111524827237
 30
0
 42
0.01121101744288235
  0
VERTEX
  8
1
 10
-360.4402400327459
 20
11.83326238562191
 30
0
 42
0.0126132743465614
  0
VERTEX
  8
1
 10
-360.5237877404089
 20
11.93157889279537
 30
0
 42
0.01292842444812874
  0
VERTEX
  8
1
 10
-360.6122468545556
 20
12.02550187624571
 30
0
 42
0.01440377383266683
  0
VERTEX
  8
1
 10
-360.7057227767438
 20
12.11446844242589
 30
0
 42
0.01475974397686576
  0
VERTEX
  8
1
 10
-360.804320908532
 20
12.19791569778886
 30
0
 42
0.0156583917329481
  0
VERTEX
  8
1
 10
-360.9042409383466
 20
12.27254876713311
 30
0
 42
0.01604957598448172
  0
VERTEX
  8
1
 10
-361.0087325454529
 20
12.34072817509643
 30
0
 42
0.01774516692010249
  0
VERTEX
  8
1
 10
-361.1175105240848
 20
12.40165101476594
 30
0
 42
0.01836649404988543
  0
VERTEX
  8
1
 10
-361.2302896684765
 20
12.45451437922878
 30
0
 42
0.02022907046317446
  0
VERTEX
  8
1
 10
-361.3467847728621
 20
12.49851536157206
 30
0
 42
0.05067372342567874
  0
VERTEX
  8
1
 10
-361.6426208274388
 20
12.56449242379803
 30
0
 42
0.01871119830852863
  0
VERTEX
  8
1
 10
-361.7434195639095
 20
12.57264958237561
 30
0
 42
0.05709981286594545
  0
VERTEX
  8
1
 10
-362.0624335109065
 20
12.55004335991174
 30
0
 42
0.01745656876084036
  0
VERTEX
  8
1
 10
-362.1696416314766
 20
12.52609994580596
 30
0
 42
0.01798106470834633
  0
VERTEX
  8
1
 10
-362.2749521136066
 20
12.49460538530746
 30
0
 42
0.1028394473464963
  0
VERTEX
  8
1
 10
-362.851802051816
 20
12.1554446902798
 30
0
 42
0.00232764560675642
  0
VERTEX
  8
1
 10
-362.9382503604659
 20
12.07633064078164
 30
0
 42
0.01272954986634296
  0
VERTEX
  8
1
 10
-363.022567371884
 20
11.99436783051701
 30
0
 42
0.001867616370907529
  0
VERTEX
  8
1
 10
-363.1058187346862
 20
11.91098063986914
 30
0
  0
SEQEND
  8
1
  0
POLYLINE
  8
1
 62
2
 66
1
  0
VERTEX
  8
1
 10
-357.9288650537592
 20
9.91213602864417
 30
0
 42
-0.001044533682612365
  0
VERTEX
  8
1
 10
-357.9070292749372
 20
9.999432181629011
 30
0
 42
-0.00313756435099795
  0
VERTEX
  8
1
 10
-357.8844785839318
 20
10.08648766831828
 30
0
 42
-0.005240317011801745
  0
VERTEX
  8
1
 10
-357.8604980685597
 20
10.17306182241639
 30
0
 42
-0.007351956110197274
  0
VERTEX
  8
1
 10
-357.8343728166372
 20
10.25891397762778
 30
0
 42
-0.009460469284096695
  0
VERTEX
  8
1
 10
-357.8053879159811
 20
10.34380346765687
 30
0
 42
-0.01241773925513348
  0
VERTEX
  8
1
 10
-357.768023066226
 20
10.43923051758612
 30
0
 42
-0.01328499397704981
  0
VERTEX
  8
1
 10
-357.725760401887
 20
10.53271073743766
 30
0
 42
-0.0141694167413283
  0
VERTEX
  8
1
 10
-357.6783611948732
 20
10.62386572065906
 30
0
 42
-0.01505065570650311
  0
VERTEX
  8
1
 10
-357.6255867170936
 20
10.7123170606979
 30
0
 42
-0.01590281110155203
  0
VERTEX
  8
1
 10
-357.5671982404572
 20
10.79768635100174
 30
0
 42
-0.01484445116402133
  0
VERTEX
  8
1
 10
-357.5165545570551
 20
10.86289205774207
 30
0
 42
-0.01884170813578152
  0
VERTEX
  8
1
 10
-357.4617075881782
 20
10.92447415153112
 30
0
 42
-0.02315988031782862
  0
VERTEX
  8
1
 10
-357.402152604402
 20
10.98099581057551
 30
0
 42
-0.02765037074661788
  0
VERTEX
  8
1
 10
-357.3373848763021
 20
11.03102021308189
 30
0
 42
-0.03194285837360864
  0
VERTEX
  8
1
 10
-357.2668996744542
 20
11.07311053725687
 30
0
 42
-0.09263914882735924
  0
VERTEX
  8
1
 10
-357.0498825059154
 20
11.13749845697602
 30
0
 42
-0.0347397408093316
  0
VERTEX
  8
1
 10
-356.9745543402866
 20
11.13979537171333
 30
0
 42
-0.03818029901573463
  0
VERTEX
  8
1
 10
-356.9003508991661
 20
11.13121702574193
 30
0
 42
-0.03309770809950917
  0
VERTEX
  8
1
 10
-356.8375749272939
 20
11.11449904894048
 30
0
 42
-0.0290789227866405
  0
VERTEX
  8
1
 10
-356.7771456268798
 20
11.09003807455826
 30
0
 42
-0.02525623204204579
  0
VERTEX
  8
1
 10
-356.719353383305
 20
11.05897633365759
 30
0
 42
-0.02189063605890376
  0
VERTEX
  8
1
 10
-356.664488581951
 20
11.0224560573008
 30
0
 42
-0.01907494983147758
  0
VERTEX
  8
1
 10
-356.612841608199
 20
10.98161947655024
 30
0
 42
-0.01586450923716839
  0
VERTEX
  8
1
 10
-356.5683341037504
 20
10.94110443964048
 30
0
 42
-0.01462275129722017
  0
VERTEX
  8
1
 10
-356.526594564751
 20
10.89817225855033
 30
0
 42
-0.01330443921844107
  0
VERTEX
  8
1
 10
-356.4874198959435
 20
10.85309387120821
 30
0
 42
-0.01195090424232669
  0
VERTEX
  8
1
 10
-356.4506070020706
 20
10.80614021554257
 30
0
 42
-0.01059294865721091
  0
VERTEX
  8
1
 10
-356.4159527878751
 20
10.75758222948184
 30
0
 42
-0.01108012229448321
  0
VERTEX
  8
1
 10
-356.3782072337542
 20
10.69954805680461
 30
0
 42
-0.01022396337145882
  0
VERTEX
  8
1
 10
-356.3429467911655
 20
10.63992337128112
 30
0
 42
-0.00937998334037334
  0
VERTEX
  8
1
 10
-356.3100235131597
 20
10.57891298033262
 30
0
 42
-0.008555936887166689
  0
VERTEX
  8
1
 10
-356.2792894527871
 20
10.51672169138035
 30
0
 42
-0.007756352544906092
  0
VERTEX
  8
1
 10
-356.2505966630981
 20
10.45355431184555
 30
0
 42
-0.01518234407211142
  0
VERTEX
  8
1
 10
-356.196661745388
 20
10.31877727358128
 30
0
 42
-0.01461359594229487
  0
VERTEX
  8
1
 10
-356.150863089301
 20
10.18115802563566
 30
0
 42
-0.007083205258975774
  0
VERTEX
  8
1
 10
-356.1309621534551
 20
10.11145162466846
 30
0
 42
-0.003393568650127419
  0
VERTEX
  8
1
 10
-356.1210691233139
 20
10.07379881805276
 30
0
 42
-0.00263936461980737
  0
VERTEX
  8
1
 10
-356.111630987381
 20
10.03602882892104
 30
0
 42
-0.001884858682097552
  0
VERTEX
  8
1
 10
-356.1025340221042
 20
9.998170952902312
 30
0
 42
-0.001130651716627759
  0
VERTEX
  8
1
 10
-356.0936645039317
 20
9.960254485625574
 30
0
 42
-0.000376829727333504
  0
VERTEX
  8
1
 10
-356.0849087093111
 20
9.922308722719833
 30
0
  0
SEQEND
  8
1
  0
POLYLINE
  8
1
 62
2
 66
1
  0
VERTEX
  8
1
 10
-363.1058187346862
 20
6.375188058216338
 30
0
 42
0.001657575306786483
  0
VERTEX
  8
1
 10
-363.0290208427289
 20
6.297758860054469
 30
0
 42
0.004983362156840178
  0
VERTEX
  8
1
 10
-362.9513232119404
 20
6.221476111245751
 30
0
 42
0.00835542815353664
  0
VERTEX
  8
1
 10
-362.8718261034899
 20
6.147486261143344
 30
0
 42
0.01176024104314732
  0
VERTEX
  8
1
 10
-362.7896297785461
 20
6.076935759100401
 30
0
 42
0.01516097167399779
  0
VERTEX
  8
1
 10
-362.7038344982782
 20
6.010971054470076
 30
0
 42
0.1137407153672771
  0
VERTEX
  8
1
 10
-362.0466737340405
 20
5.734183859071296
 30
0
 42
0.0235900899976607
  0
VERTEX
  8
1
 10
-361.9152633903799
 20
5.717677260350145
 30
0
 42
0.02124570043069395
  0
VERTEX
  8
1
 10
-361.7831480287695
 20
5.713011621693792
 30
0
 42
0.07633785066240872
  0
VERTEX
  8
1
 10
-361.3738488216888
 20
5.778881420326863
 30
0
 42
0.01093163990599031
  0
VERTEX
  8
1
 10
-361.2843546027235
 20
5.809916644963174
 30
0
 42
0.01882692247308682
  0
VERTEX
  8
1
 10
-361.196895113972
 20
5.846207122217436
 30
0
 42
0.01084024522729068
  0
VERTEX
  8
1
 10
-361.1059880587451
 20
5.890417551285097
 30
0
 42
0.01838532248407986
  0
VERTEX
  8
1
 10
-361.017847204988
 20
5.939846639824778
 30
0
 42
0.009334285427976563
  0
VERTEX
  8
1
 10
-360.9325632886124
 20
5.994094241917779
 30
0
 42
0.01694173340499446
  0
VERTEX
  8
1
 10
-360.8502270455299
 20
6.052760211645397
 30
0
 42
0.007979186398176621
  0
VERTEX
  8
1
 10
-360.7709292116522
 20
6.115444403088929
 30
0
 42
0.01676371334072377
  0
VERTEX
  8
1
 10
-360.6878150527882
 20
6.188105903918979
 30
0
 42
0.007759061958119901
  0
VERTEX
  8
1
 10
-360.608386182325
 20
6.264732009838774
 30
0
 42
0.01543715039833953
  0
VERTEX
  8
1
 10
-360.5325900694661
 20
6.344965470392966
 30
0
 42
0.006469522543455059
  0
VERTEX
  8
1
 10
-360.460374183415
 20
6.428449035126214
 30
0
 42
0.01419998604246704
  0
VERTEX
  8
1
 10
-360.3916859933752
 20
6.514825453583171
 30
0
 42
0.006323844706879707
  0
VERTEX
  8
1
 10
-360.3197066813627
 20
6.613386742235544
 30
0
 42
0.01404728152565254
  0
VERTEX
  8
1
 10
-360.2518165624896
 20
6.714775239450034
 30
0
 42
0.005122687861067832
  0
VERTEX
  8
1
 10
-360.1878490887261
 20
6.818713014737586
 30
0
 42
0.01285779364760929
  0
VERTEX
  8
1
 10
-360.1276377120425
 20
6.924922137609142
 30
0
 42
0.003956158858328004
  0
VERTEX
  8
1
 10
-360.071015884409
 20
7.033124677575643
 30
0
 42
0.02750794795418312
  0
VERTEX
  8
1
 10
-359.9244991296713
 20
7.361927037164686
 30
0
 42
0.02029327714803678
  0
VERTEX
  8
1
 10
-359.811946101554
 20
7.697502636866901
 30
0
 42
0.008638907821860876
  0
VERTEX
  8
1
 10
-359.7819180712714
 20
7.807821992422006
 30
0
 42
0.0009061910970080632
  0
VERTEX
  8
1
 10
-359.7539854813041
 20
7.918757484367029
 30
0
 42
0.005449594460250913
  0
VERTEX
  8
1
 10
-359.7274498515471
 20
8.03010373390533
 30
0
 42
0.0007934266920305369
  0
VERTEX
  8
1
 10
-359.7016127018951
 20
8.141655362240272
 30
0
  0
SEQEND
  8
1
  0
POLYLINE
  8
1
 62
2
 66
1
  0
VERTEX
  8
1
 10
-359.6950726222481
 20
8.175760889994137
 30
0
 42
0.0007111985468875924
  0
VERTEX
  8
1
 10
-359.6705841460764
 20
8.088597715684529
 30
0
 42
0.002134487623648677
  0
VERTEX
  8
1
 10
-359.6456076587128
 20
8.001602030169714
 30
0
 42
0.003561678862157722
  0
VERTEX
  8
1
 10
-359.6196551489661
 20
7.914941322244488
 30
0
 42
0.004991797514624887
  0
VERTEX
  8
1
 10
-359.5922386056444
 20
7.828783080703644
 30
0
 42
0.006422291011944649
  0
VERTEX
  8
1
 10
-359.5628700175562
 20
7.743294794341978
 30
0
 42
0.00680415748092939
  0
VERTEX
  8
1
 10
-359.5333832085288
 20
7.6643246773826
 30
0
 42
0.005997020811388218
  0
VERTEX
  8
1
 10
-359.5018700683454
 20
7.586099478889727
 30
0
 42
0.006309912235046085
  0
VERTEX
  8
1
 10
-359.4684251497409
 20
7.508636215402914
 30
0
 42
0.005511348479429763
  0
VERTEX
  8
1
 10
-359.4331430054502
 20
7.431951903461711
 30
0
 42
0.0295667013770169
  0
VERTEX
  8
1
 10
-359.2211438269614
 20
7.045138277889604
 30
0
 42
0.009358792449758926
  0
VERTEX
  8
1
 10
-359.1560611605619
 20
6.945625216574023
 30
0
 42
0.01433860020647278
  0
VERTEX
  8
1
 10
-359.0401267624961
 20
6.785471168278011
 30
0
 42
0.02585288690860951
  0
VERTEX
  8
1
 10
-358.835300184548
 20
6.545695394904442
 30
0
 42
0.02542399904509375
  0
VERTEX
  8
1
 10
-358.610558532276
 20
6.331526875951301
 30
0
 42
0.01918703947494503
  0
VERTEX
  8
1
 10
-358.4485910603642
 20
6.202651103606229
 30
0
 42
0.01624164690772508
  0
VERTEX
  8
1
 10
-358.2966067193589
 20
6.098392300990327
 30
0
 42
0.01851031788775502
  0
VERTEX
  8
1
 10
-358.1377195334583
 20
6.004921515665151
 30
0
 42
0.03703827389776961
  0
VERTEX
  8
1
 10
-357.7931490365769
 20
5.850755935738262
 30
0
 42
0.03076007584218279
  0
VERTEX
  8
1
 10
-357.5190668149581
 20
5.77040960830328
 30
0
 42
0.2131624636281024
  0
VERTEX
  8
1
 10
-355.647749808242
 20
6.142699676549739
 30
0
 42
0.009127808337150998
  0
VERTEX
  8
1
 10
-355.4814520993222
 20
6.265144553293374
 30
0
 42
0.0275815529435446
  0
VERTEX
  8
1
 10
-355.3245894577531
 20
6.399449408982772
 30
0
 42
0.01636139738367855
  0
VERTEX
  8
1
 10
-355.1054389745008
 20
6.623273390799835
 30
0
 42
0.03414340695071792
  0
VERTEX
  8
1
 10
-354.9088555095461
 20
6.869442884102341
 30
0
 42
0.006349783035226454
  0
VERTEX
  8
1
 10
-354.7892492093141
 20
7.046959256986404
 30
0
 42
0.02445661007029265
  0
VERTEX
  8
1
 10
-354.6807917399121
 20
7.231513649892696
 30
0
 42
0.005233758620062597
  0
VERTEX
  8
1
 10
-354.5799124554566
 20
7.429160314928559
 30
0
 42
0.01424656548822901
  0
VERTEX
  8
1
 10
-354.5558186184024
 20
7.481285758118455
 30
0
 42
0.004451777930008542
  0
VERTEX
  8
1
 10
-354.5326427514349
 20
7.533808114726429
 30
0
 42
0.004648047852676582
  0
VERTEX
  8
1
 10
-354.51043229634
 20
7.586729851952839
 30
0
 42
0.005344397963291153
  0
VERTEX
  8
1
 10
-354.4850836272518
 20
7.650681469360233
 30
0
 42
0.003759887582903034
  0
VERTEX
  8
1
 10
-354.4608994027507
 20
7.715095078007405
 30
0
 42
0.003064602012263447
  0
VERTEX
  8
1
 10
-354.4375885116898
 20
7.779855180084412
 30
0
 42
0.00148187759882695
  0
VERTEX
  8
1
 10
-354.4148598429225
 20
7.844846277781308
 30
0
 42
0.0007901253065756426
  0
VERTEX
  8
1
 10
-354.392422285302
 20
7.909952873288148
 30
0
  0
SEQEND
  8
1
  0
POLYLINE
  8
1
 62
2
 66
1
  0
VERTEX
  8
1
 10
-357.954782187838
 20
8.51213602864425
 30
0
 42
0.0006854189644049144
  0
VERTEX
  8
1
 10
-357.9414393169453
 20
8.444232481210531
 30
0
 42
0.002056790013034637
  0
VERTEX
  8
1
 10
-357.9277268201797
 20
8.376415905042363
 30
0
 42
0.003430325318227751
  0
VERTEX
  8
1
 10
-357.9132750716682
 20
8.308773271405306
 30
0
 42
0.004804616501233093
  0
VERTEX
  8
1
 10
-357.8977144455379
 20
8.241391551564915
 30
0
 42
0.006176327993117976
  0
VERTEX
  8
1
 10
-357.8806753159161
 20
8.174357716786744
 30
0
 42
0.01591382226083461
  0
VERTEX
  8
1
 10
-357.8355762613572
 20
8.024916345504932
 30
0
 42
0.0164255220644009
  0
VERTEX
  8
1
 10
-357.7808964834782
 20
7.878656813048093
 30
0
 42
0.01488432742284298
  0
VERTEX
  8
1
 10
-357.7270345347939
 20
7.758168110584395
 30
0
 42
0.006524670257517414
  0
VERTEX
  8
1
 10
-357.7029359673429
 20
7.709916527548188
 30
0
 42
0.006755371472035331
  0
VERTEX
  8
1
 10
-357.6775625766186
 20
7.662318324575419
 30
0
 42
0.00713152476636625
  0
VERTEX
  8
1
 10
-357.6508657869093
 20
7.61542307865925
 30
0
 42
0.007355399187191685
  0
VERTEX
  8
1
 10
-357.6227970225032
 20
7.569280366792839
 30
0
 42
0.01199283581502455
  0
VERTEX
  8
1
 10
-357.5796265790131
 20
7.504129480643359
 30
0
 42
0.01593278381956116
  0
VERTEX
  8
1
 10
-357.5328840366799
 20
7.441486135805262
 30
0
 42
0.01828318870203574
  0
VERTEX
  8
1
 10
-357.4819651259577
 20
7.382182094512626
 30
0
 42
0.022242491660306
  0
VERTEX
  8
1
 10
-357.4262655773008
 20
7.327049118999526
 30
0
 42
0.02430016482896515
  0
VERTEX
  8
1
 10
-357.365181121163
 20
7.276918971500038
 30
0
 42
0.02879270568201235
  0
VERTEX
  8
1
 10
-357.2936709090712
 20
7.229959574906312
 30
0
 42
0.02935511812141777
  0
VERTEX
  8
1
 10
-357.2168836594015
 20
7.191455788620469
 30
0
 42
0.0343101642790629
  0
VERTEX
  8
1
 10
-357.1363783671307
 20
7.163203635381458
 30
0
 42
0.03768849323767202
  0
VERTEX
  8
1
 10
-357.0537140272353
 20
7.146999137928232
 30
0
 42
0.04497332803458414
  0
VERTEX
  8
1
 10
-356.9704496346922
 20
7.144638318999739
 30
0
 42
0.03613006167010242
  0
VERTEX
  8
1
 10
-356.9052242694293
 20
7.153415875925014
 30
0
 42
0.03007875202533859
  0
VERTEX
  8
1
 10
-356.841272222485
 20
7.17084945107539
 30
0
 42
0.02832804261876091
  0
VERTEX
  8
1
 10
-356.7792677538391
 20
7.195824826047282
 30
0
 42
0.02344507000318762
  0
VERTEX
  8
1
 10
-356.7198851234709
 20
7.227227782437105
 30
0
 42
0.02315740998939096
  0
VERTEX
  8
1
 10
-356.6637985913601
 20
7.263944101841275
 30
0
 42
0.0186847521530371
  0
VERTEX
  8
1
 10
-356.6138765592113
 20
7.30295347051695
 30
0
 42
0.01860560103955387
  0
VERTEX
  8
1
 10
-356.5672708325169
 20
7.345327146475535
 30
0
 42
0.01475947051726971
  0
VERTEX
  8
1
 10
-356.5236901856525
 20
7.390614026957513
 30
0
 42
0.01451867314326735
  0
VERTEX
  8
1
 10
-356.4828433929934
 20
7.438363009203366
 30
0
 42
0.01065692526021079
  0
VERTEX
  8
1
 10
-356.4444392289151
 20
7.488122990453576
 30
0
 42
0.02116718657972402
  0
VERTEX
  8
1
 10
-356.3743741277686
 20
7.591943386678217
 30
0
 42
0.01816495072740941
  0
VERTEX
  8
1
 10
-356.3127031046521
 20
7.700912696532524
 30
0
 42
0.00971502247346152
  0
VERTEX
  8
1
 10
-356.2849669918951
 20
7.757000210129434
 30
0
 42
0.003774438941187743
  0
VERTEX
  8
1
 10
-356.2707966418127
 20
7.787713622390257
 30
0
 42
0.003933035651464824
  0
VERTEX
  8
1
 10
-356.257103883523
 20
7.818636202279162
 30
0
 42
0.00184839716640167
  0
VERTEX
  8
1
 10
-356.243769319078
 20
7.84971565788913
 30
0
 42
0.002005419266805173
  0
VERTEX
  8
1
 10
-356.2306735505295
 20
7.880899697313139
 30
0
 42
0.0004816158881844095
  0
VERTEX
  8
1
 10
-356.217697179929
 20
7.91213602864417
 30
0
  0
SEQEND
  8
1
  0
POLYLINE
  8
1
 62
2
 66
1
  0
VERTEX
  8
1
 10
-354.253536276525
 20
8.51213602864425
 30
0
 42
0.0004151905027546562
  0
VERTEX
  8
1
 10
-354.2462188422575
 20
8.567779515679238
 30
0
 42
0.001245750845803599
  0
VERTEX
  8
1
 10
-354.2390870432234
 20
8.62344111748693
 30
0
 42
0.002077096455581172
  0
VERTEX
  8
1
 10
-354.2323265146561
 20
8.679138948840039
 30
0
 42
0.002909036627098066
  0
VERTEX
  8
1
 10
-354.2261228917889
 20
8.734891124511268
 30
0
 42
0.003741075401370524
  0
VERTEX
  8
1
 10
-354.2206618098551
 20
8.790715759273326
 30
0
 42
0.005849426217412872
  0
VERTEX
  8
1
 10
-354.2145374645965
 20
8.868737695605026
 30
0
 42
0.005222575205946805
  0
VERTEX
  8
1
 10
-354.2101410159136
 20
8.946896799674345
 30
0
 42
0.005327809112221952
  0
VERTEX
  8
1
 10
-354.2073938289713
 20
9.025153953148108
 30
0
 42
0.004706330168415114
  0
VERTEX
  8
1
 10
-354.2062172689346
 20
9.103470037693134
 30
0
 42
0.00481810771813118
  0
VERTEX
  8
1
 10
-354.2065327009682
 20
9.181805934976239
 30
0
 42
0.01897891708273631
  0
VERTEX
  8
1
 10
-354.223542980885
 20
9.511067251836064
 30
0
 42
0.02275313674350083
  0
VERTEX
  8
1
 10
-354.273219515018
 20
9.876617691205221
 30
0
 42
0.03420928058170262
  0
VERTEX
  8
1
 10
-354.4121459703264
 20
10.4230723547356
 30
0
 42
0.008084878855336314
  0
VERTEX
  8
1
 10
-354.4641780778587
 20
10.57325368061058
 30
0
 42
0.005619904396849168
  0
VERTEX
  8
1
 10
-354.4902381960218
 20
10.64229383119552
 30
0
 42
0.004118319808321403
  0
VERTEX
  8
1
 10
-354.5176307976268
 20
10.71079552388037
 30
0
 42
0.006439168165866157
  0
VERTEX
  8
1
 10
-354.54645389551
 20
10.77868078814135
 30
0
 42
0.009333980400407132
  0
VERTEX
  8
1
 10
-354.6005980874431
 20
10.89579083302879
 30
0
 42
0.003847331432350027
  0
VERTEX
  8
1
 10
-354.6251228626005
 20
10.94536232508811
 30
0
 42
0.001646636052740312
  0
VERTEX
  8
1
 10
-354.6501967804244
 20
10.99467305151133
 30
0
 42
0.002014265342315419
  0
VERTEX
  8
1
 10
-354.6756367933596
 20
11.04380993417714
 30
0
 42
0.0004573836730616216
  0
VERTEX
  8
1
 10
-354.7012598538502
 20
11.09285989496425
 30
0
  0
SEQEND
  8
1
  0
POLYLINE
  8
1
 62
2
 66
1
 70
1
  0
VERTEX
  8
1
 10
-347.1682667330491
 20
13.34889674889433
 30
0
  0
VERTEX
  8
1
 10
-347.1682667330491
 20
13.34889674889433
 30
0
 42
0.4142135624
  0
VERTEX
  8
1
 10
-346.1682667330491
 20
14.34889674889433
 30
0
  0
VERTEX
  8
1
 10
-346.1682667330491
 20
14.34889674889433
 30
0
 42
0.4142135624
  0
VERTEX
  8
1
 10
-347.1682667330491
 20
15.34889674889433
 30
0
  0
VERTEX
  8
1
 10
-347.1682667330491
 20
15.34889674889433
 30
0
 42
0.4142135624
  0
VERTEX
  8
1
 10
-348.1682667330491
 20
14.34889674889433
 30
0
  0
VERTEX
  8
1
 10
-348.1682667330491
 20
14.34889674889433
 30
0
 42
0.4142135624
  0
SEQEND
  8
1
  0
TEXT
  8
1
 62
2
 10
-335.141093146731
 20
-27.80326850684105
 30
0
 40
1.5
  1
Progetto (Progect)
 41
0.9
  0
TEXT
  8
1
 62
2
 10
-213.0980316076761
 20
31.68785272372872
 30
0
 40
1.2
  1
(Ind.)
 50
90
 41
1.08
  7
SIMPLEX
  0
TEXT
  8
1
 62
2
 10
-214.802776369796
 20
31.63089064029174
 30
0
 40
1.2
  1
Indic.
 50
90
 41
1.08
  0
TEXT
  8
1
 62
2
 10
-213.0980316076761
 20
57.32833946187372
 30
0
 40
1.2
  1
(Drawn.)
 50
90
 41
1.08
  7
SIMPLEX
  0
TEXT
  8
1
 62
2
 10
-214.802776369796
 20
59.60133247803367
 30
0
 40
1.2
  1
Dis.
 50
90
 41
1.08
  0
TEXT
  8
1
 62
2
 10
-213.2243089974631
 20
41.92249790790373
 30
0
 40
1.2
  1
(Date)
 50
90
 41
1.08
  7
SIMPLEX
  0
TEXT
  8
1
 62
2
 10
-214.929053759583
 20
42.74330094151674
 30
0
 40
1.2
  1
Data
 50
90
 41
1.08
  0
TEXT
  8
1
 62
2
 10
-234.1310536021251
 20
-27.22769671888436
 30
0
 40
1.2
  1
Data
 41
1.08
  0
TEXT
  8
1
 62
2
 10
-234.1310536021251
 20
-29.86769671888436
 30
0
 40
1.2
  1
(Date)
 41
1.08
  0
TEXT
  8
1
 62
2
 10
-386.537145234548
 20
-11.79941234065187
 30
0
 40
1.2
  1
Dis. Complessivo
 41
1.35
  0
TEXT
  8
1
 62
2
 10
-386.537145234548
 20
-14.43941234065187
 30
0
 40
1.2
  1
(Assembly drawing)
 41
1.35
  0
TEXT
  8
1
 62
2
 10
-347.5182667330491
 20
13.84889674889433
 30
0
 40
1
  1
R
 41
0.9
  0
TEXT
  8
1
 62
2
 10
-297.153947675552
 20
26.35569110628137
 30
0
 40
1.3
  1
Tratt. superfic. (Surfaces treatments)
 41
0.9899999999999999
  0
TEXT
  8
1
 62
2
 10
-257.1213191515171
 20
6.014671611973554
 30
0
 40
1.2
  1
Ritiro %%%
 41
1.08
  0
TEXT
  8
1
 62
2
 10
-257.1213191515171
 20
3.374671611973553
 30
0
 40
1.2
  1
(Contraction %%%)
 41
1.08
  0
TEXT
  8
1
 62
2
 10
-334.653947675552
 20
5.149719810636327
 30
0
 40
1.2
  1
Materiale (Mat.)
 41
1.08
  0
TEXT
  8
1
 62
2
 10
-386.537145234548
 20
-21.87031593896903
 30
0
 40
1.2
  1
Disegno o stp.
 41
1.35
  0
TEXT
  8
1
 62
2
 10
-386.537145234548
 20
-24.51031593896903
 30
0
 40
1.2
  1
(Drawing or mould)
 41
1.35
  0
TEXT
  8
1
 62
2
 10
-209.1372023679291
 20
-26.98483328540065
 30
0
 40
1.2
  1
Foglio
 41
1.08
  0
TEXT
  8
1
 62
2
 10
-209.1372023679291
 20
-29.62483328540065
 30
0
 40
1.2
  1
(Sheet)
 41
1.08
  0
TEXT
  8
1
 62
2
 10
-234.018482642608
 20
-17.06567986552066
 30
0
 40
1.2
  1
Cont.
 41
1.08
  0
TEXT
  8
1
 62
2
 10
-234.018482642608
 20
-19.70567986552066
 30
0
 40
1.2
  1
(Checked)
 41
1.08
  0
TEXT
  8
1
 62
2
 10
-234.018482642608
 20
-6.031628424126425
 30
0
 40
1.2
  1
Dis.
 41
1.08
  0
TEXT
  8
1
 62
2
 10
-234.018482642608
 20
-8.671628424126425
 30
0
 40
1.2
  1
(Drawn)
 41
1.08
  0
TEXT
  8
1
 62
2
 10
-234.018482642608
 20
5.626856215734235
 30
0
 40
1.2
  1
Scala
 41
1.08
  0
TEXT
  8
1
 62
2
 10
-234.018482642608
 20
2.986856215734235
 30
0
 40
1.2
  1
(Scale)
 41
1.08
  0
TEXT
  8
1
 62
2
 10
-386.473726965663
 20
-2.615826814503337
 30
0
 40
1.2
  1
Dis. Cliente
 41
1.35
  0
TEXT
  8
1
 62
2
 10
-386.473726965663
 20
-5.255826814503337
 30
0
 40
1.2
  1
(Customer Drawing)
 41
1.35
  0
TEXT
  8
1
 62
2
 10
-384.6539476755511
 20
26.35569110628137
 30
0
 40
1.2
  1
Tratt. termico (Heats treatments)
 41
1.35
  0
TEXT
  8
1
 62
2
 10
-207.5462044793364
 20
-21.38744339091346
 30
0
 40
1.180511166170861
  1
Proprieta'della MarBettS.P.A. senza
 50
90
 41
1.350000000000001
  0
TEXT
  8
1
 62
2
 10
-204.9490799137605
 20
-21.38744339091346
 30
0
 40
1.180511166170861
  1
autorizzazione scritta della stessa
 50
90
 41
1.350000000000001
  0
TEXT
  8
1
 62
2
 10
-202.3519553481846
 20
-21.38744339091346
 30
0
 40
1.180511166170861
  1
il presente disegno non puo essere
 50
90
 41
1.350000000000001
  0
TEXT
  8
1
 62
2
 10
-199.7548307826087
 20
-21.38744339091346
 30
0
 40
1.180511166170861
  1
comunque utilizzato per la costruzi-
 50
90
 41
1.350000000000001
  0
TEXT
  8
1
 62
2
 10
-197.1577062170328
 20
-21.38744339091346
 30
0
 40
1.180511166170861
  1
one dell'oggetto rappresentato ne
 50
90
 41
1.350000000000001
  0
TEXT
  8
1
 62
2
 10
-194.5605816514569
 20
-21.38744339091346
 30
0
 40
1.180511166170861
  1
venire comunicato a terzi o riprodot-
 50
90
 41
1.350000000000001
  0
TEXT
  8
1
 62
2
 10
-191.9634570858811
 20
-21.38744339091346
 30
0
 40
1.180511166170861
  1
to. la Societa'proprietaria tutela i
 50
90
 41
1.350000000000001
  0
TEXT
  8
1
 62
2
 10
-189.3663325203052
 20
-21.38744339091346
 30
0
 40
1.180511166170861
  1
propri diritti a rig. di legge
 50
90
 41
1.350000000000001
  0
TEXT
  8
1
 62
2
 10
-334.660116217176
 20
-8.64430889371863
 30
0
 40
1.5
  1
Descrizione (Description)
 41
0.9
  0
TEXT
  8
1
 62
2
 10
-200.1512392236082
 20
-38.11145624634003
 30
0
 40
2
  1
 UNI A/4
 41
0.9
  0
TEXT
  8
1
 62
2
 10
-277.316041902943
 20
15.79984074843273
 30
0
 40
1.3
  1
Peso
 41
1.08
  0
TEXT
  8
1
 62
2
 10
-277.316041902943
 20
13.19984074843273
 30
0
 40
1.3
  1
(Weight)
 41
1.08
  0
TEXT
  8
1
 62
2
 10
-213.4491436878161
 20
93.24414811468409
 30
0
 40
1.3
  1
Modifiche (Revisions)
 50
90
 41
1.08
  0
TEXT
  8
1
 62
2
 10
-348.596063060166
 20
-22.06355960556095
 30
0
 40
1.3
  1
Modifiche
 41
1.08
  0
TEXT
  8
1
 62
2
 10
-234.0184826426062
 20
16.03063040246685
 30
0
 40
1.2
  1
Quant.
 41
1.08
  0
TEXT
  8
1
 62
2
 10
-234.0184826426062
 20
13.39063040246685
 30
0
 40
1.2
  1
(Qty.)
 41
1.08
  0
TEXT
  8
1
 62
2
 10
-334.2367344635152
 20
12.25396455178776
 30
0
 40
2.5
  1
UFFICI TECNICI
 41
0.9
  0
TEXT
  8
1
 62
2
 10
-302.632594692408
 20
16.13467351719254
 30
0
 40
1.3
  1
Linea
 41
1.08
  0
TEXT
  8
1
 62
2
 10
-346.6267481614861
 20
2.982741038513723
 30
0
 40
1.5
  1
S.p.A
 41
0.9
  0
TEXT
  8
1
 62
2
 10
-213.4491436878161
 20
204.2441481146842
 30
0
 40
1.3
  1
Modifiche (Revisions)
 50
90
 41
1.08
  0
TEXT
  8
1
 62
2
 10
-257.0426296199512
 20
15.90829374751672
 30
0
 40
1.2
  1
Toll.Gen.
 41
1.08
  0
TEXT
  8
1
 62
2
 10
-256.9917988980701
 20
13.21647929262173
 30
0
 40
1.2
  1
(Gen.Toll.)
 41
1.08
  0
TEXT
  8
1
 62
2
 10
-302.944914555907
 20
13.37184901704677
 30
0
 40
1.2
  1
(Line)
 41
1.08
  0
TEXT
  8
1
 62
2
 10
-386.453947675551
 20
-17.59192880711026
 30
0
 40
1.2
  1
N%%d
 41
0.9
  0
TEXT
  8
1
 62
2
 10
-386.453947675551
 20
-7.468343471088247
 30
0
 40
1.2
  1
N%%d
 41
0.9
  0
TEXT
  8
1
 62
2
 10
-386.453947675551
 20
-27.06537563531424
 30
0
 40
1.2
  1
N%%d
 41
0.9
  0
TEXT
  8
1
 62
2
 10
-277.0635477714161
 20
6.159483294968722
 30
0
 40
1.2
  1
Colore
 41
1.08
  0
TEXT
  8
1
 62
2
 10
-277.0635477714161
 20
3.519483294968722
 30
0
 40
1.2
  1
(Color)
 41
1.08
  0
TEXT
  8
1
 62
2
 10
-213.0980316076761
 20
142.2541526807552
 30
0
 40
1.2
  1
(Ind.)
 50
90
 41
1.08
  7
SIMPLEX
  0
TEXT
  8
1
 62
2
 10
-214.802776369796
 20
142.1971905973181
 30
0
 40
1.2
  1
Indic.
 50
90
 41
1.08
  0
TEXT
  8
1
 62
2
 10
-213.0980316076761
 20
167.8946394189002
 30
0
 40
1.2
  1
(Drawn.)
 50
90
 41
1.08
  7
SIMPLEX
  0
TEXT
  8
1
 62
2
 10
-214.802776369796
 20
170.1676324350602
 30
0
 40
1.2
  1
Dis.
 50
90
 41
1.08
  0
TEXT
  8
1
 62
2
 10
-213.2243089974631
 20
152.4887978649301
 30
0
 40
1.2
  1
(Date)
 50
90
 41
1.08
  7
SIMPLEX
  0
TEXT
  8
1
 62
2
 10
-214.929053759583
 20
153.3096008985432
 30
0
 40
1.2
  1
Data
 50
90
 41
1.08
  0
TEXT
  8
1
 62
2
 10
-348.762419738287
 20
-24.24752447972622
 30
0
 40
1.2
  1
(Modify)
 41
1.35
  0
TEXT
  8
1
 62
2
 10
-329.806878853303
 20
-14.69897840894864
 30
0
 40
3
  1
Maglia per LF 820-K325 forata %%c 6,5
 41
0.9
  0
TEXT
  8
1
 62
2
 10
-221.308212215783
 20
0.5568386892009629
 30
0
 40
3.5
  1
1:1
 41
0.9
  0
TEXT
  8
1
 62
2
 10
-223.676432736434
 20
-11.00620438270264
 30
0
 40
3.5
  1
Cieri
 41
0.9
  0
TEXT
  8
1
 62
2
 10
-231.42013964973
 20
-33.84711834318813
 30
0
 40
3
  1
17/11/94
 41
0.9
  0
TEXT
  8
1
 62
2
 10
-245.729151360603
 20
11.2645360054944
 30
0
 40
3.5
  1
%%p0.1
 41
0.9
  0
TEXT
  8
1
 62
2
 10
-376.757300178492
 20
-30.9542683761392
 30
0
 40
3.5
  1
638321
 41
0.9
  0
ENDBLK
  8
0
  0
BLOCK
  8
0
  2
_SEGNO_DI_RUGOSITA__VALORE___3_
 70
0
 10
-245.032519104123
 20
40.35569110628137
 30
0
  0
LINE
  8
1
 62
2
 10
-243.0117931619593
 20
43.85569110628137
 30
0
 11
-247.0532450462867
 21
43.85569110628137
 31
0
  0
LINE
  8
1
 62
2
 10
-247.0532450462867
 20
43.85569110628137
 30
0
 11
-245.032519104123
 21
40.35569110628137
 31
0
  0
LINE
  8
1
 62
2
 10
-245.032519104123
 20
40.35569110628137
 30
0
 11
-243.0117931619593
 21
43.85569110628137
 31
0
  0
LINE
  8
1
 62
2
 10
-243.0117931619593
 20
43.85569110628137
 30
0
 11
-239.9807042487138
 21
49.10569110628137
 31
0
  0
TEXT
  8
1
 62
2
 10
-248.7117931619593
 20
45.36069110628137
 30
0
 40
2
  1
3.2
 41
0.9
 72
2
 11
-243.3117931619593
 21
45.36069110628137
 31
0
  0
ENDBLK
  8
0
  0
BLOCK
  8
1
  2
*D0
 70
1
 10
0
 20
0
 30
0
  0
LINE
  8
1
 62
2
 10
-330.737820714286
 20
71.3098092964937
 30
0
 11
-307.737729714286
 21
71.3098092964937
 31
0
  0
LINE
  8
1
 62
2
 10
-307.737729714286
 20
112.387833963424
 30
0
 11
-307.737729714286
 21
70.3098092964937
 31
0
  0
LINE
  8
1
 62
2
 10
-330.737820714286
 20
110.862890963424
 30
0
 11
-330.737820714286
 21
70.3098092964937
 31
0
  0
LINE
  8
1
 62
2
 10
-330.737820714286
 20
71.3098092964937
 30
0
 11
-327.537820714286
 21
71.72580929649369
 31
0
  0
LINE
  8
1
 62
2
 10
-327.537820714286
 20
71.72580929649369
 30
0
 11
-327.537820714286
 21
70.8938092964937
 31
0
  0
LINE
  8
1
 62
2
 10
-327.537820714286
 20
70.8938092964937
 30
0
 11
-330.737820714286
 21
71.3098092964937
 31
0
  0
LINE
  8
1
 62
2
 10
-307.737729714286
 20
71.3098092964937
 30
0
 11
-310.937729714286
 21
70.8938092964937
 31
0
  0
LINE
  8
1
 62
2
 10
-310.937729714286
 20
70.8938092964937
 30
0
 11
-310.937729714286
 21
71.72580929649369
 31
0
  0
LINE
  8
1
 62
2
 10
-310.937729714286
 20
71.72580929649369
 30
0
 11
-307.737729714286
 21
71.3098092964937
 31
0
  0
TEXT
  8
1
 62
2
 10
-321.637775214286
 20
72.5098092964937
 30
0
 40
3.2
  1
23
 41
0.9
  0
ENDBLK
  8
0
  0
BLOCK
  8
1
  2
*D1
 70
1
 10
0
 20
0
 30
0
  0
LINE
  8
1
 62
2
 10
-307.737729714286
 20
71.3098092964937
 30
0
 11
-295.7327757142861
 21
71.3098092964937
 31
0
  0
LINE
  8
1
 62
2
 10
-307.737729714286
 20
112.387833963424
 30
0
 11
-307.737729714286
 21
70.3098092964937
 31
0
  0
LINE
  8
1
 62
2
 10
-295.7327757142861
 20
112.432996963424
 30
0
 11
-295.7327757142861
 21
70.3098092964937
 31
0
  0
LINE
  8
1
 62
2
 10
-307.737729714286
 20
71.3098092964937
 30
0
 11
-304.537729714286
 21
71.72580929649369
 31
0
  0
LINE
  8
1
 62
2
 10
-304.537729714286
 20
71.72580929649369
 30
0
 11
-304.537729714286
 21
70.8938092964937
 31
0
  0
LINE
  8
1
 62
2
 10
-304.537729714286
 20
70.8938092964937
 30
0
 11
-307.737729714286
 21
71.3098092964937
 31
0
  0
LINE
  8
1
 62
2
 10
-295.7327757142861
 20
71.3098092964937
 30
0
 11
-298.9327757142861
 21
70.8938092964937
 31
0
  0
LINE
  8
1
 62
2
 10
-298.9327757142861
 20
70.8938092964937
 30
0
 11
-298.9327757142861
 21
71.72580929649369
 31
0
  0
LINE
  8
1
 62
2
 10
-298.9327757142861
 20
71.72580929649369
 30
0
 11
-295.7327757142861
 21
71.3098092964937
 31
0
  0
TEXT
  8
1
 62
2
 10
-303.655252714286
 20
72.5098092964937
 30
0
 40
3.2
  1
12
 41
0.9
  0
ENDBLK
  8
0
  0
BLOCK
  8
1
  2
*D2
 70
1
 10
0
 20
0
 30
0
  0
LINE
  8
1
 62
2
 10
-304.487729714286
 20
227.5495570330312
 30
0
 11
-297.487729714286
 21
227.5495570330312
 31
0
  0
LINE
  8
1
 62
2
 10
-310.987729714286
 20
227.5495570330312
 30
0
 11
-317.987729714286
 21
227.5495570330312
 31
0
  0
LINE
  8
1
 62
2
 10
-310.987729714286
 20
227.5495570330312
 30
0
 11
-304.487729714286
 21
227.5495570330312
 31
0
  0
LINE
  8
1
 62
2
 10
-304.487729714286
 20
220.0230170335509
 30
0
 11
-304.487729714286
 21
228.5495570330312
 31
0
  0
LINE
  8
1
 62
2
 10
-310.987729714286
 20
220.0230170335509
 30
0
 11
-310.987729714286
 21
228.5495570330312
 31
0
  0
SOLID
  8
1
 62
2
 10
-310.987729714286
 20
227.5495570330312
 30
0
 11
-314.487729714286
 21
227.0945570330312
 31
0
 12
-314.487729714286
 22
228.0045570330312
 32
0
 13
-314.487729714286
 23
228.0045570330312
 33
0
  0
SOLID
  8
1
 62
2
 10
-304.487729714286
 20
227.5495570330312
 30
0
 11
-300.987729714286
 21
228.0045570330312
 31
0
 12
-300.987729714286
 22
227.0945570330312
 32
0
 13
-300.987729714286
 23
227.0945570330312
 33
0
  0
TEXT
  8
1
 62
2
 10
-308.875229714286
 20
229.8995570330312
 30
0
 40
3.5
  1
6,5
 41
0.9
  0
TEXT
  8
1
 62
2
 10
-313.075229714286
 20
229.8995570330312
 30
0
 40
3.5
  1
%%c
 41
0.9
  0
ENDBLK
  8
0
  0
BLOCK
  8
1
  2
*D3
 70
1
 10
0
 20
0
 30
0
  0
LINE
  8
1
 62
2
 10
-321.36022613735
 20
219.0230170335509
 30
0
 11
-321.36022613735
 21
229.0866329473882
 31
0
  0
LINE
  8
1
 62
2
 10
-321.36022613735
 20
214.9230110335509
 30
0
 11
-321.36022613735
 21
219.0230170335509
 31
0
  0
LINE
  8
1
 62
2
 10
-321.36022613735
 20
207.9230110335509
 30
0
 11
-321.36022613735
 21
214.9230110335509
 31
0
  0
LINE
  8
1
 62
2
 10
-325.237010691457
 20
219.0230170335509
 30
0
 11
-320.36022613735
 21
219.0230170335509
 31
0
  0
LINE
  8
1
 62
2
 10
-321.8876927142861
 20
214.9230110335509
 30
0
 11
-320.36022613735
 21
214.9230110335509
 31
0
  0
SOLID
  8
1
 62
2
 10
-321.36022613735
 20
219.0230170335509
 30
0
 11
-321.81522613735
 21
222.5230170335509
 31
0
 12
-320.90522613735
 22
222.5230170335509
 32
0
 13
-320.90522613735
 23
222.5230170335509
 33
0
  0
SOLID
  8
1
 62
2
 10
-321.36022613735
 20
214.9230110335509
 30
0
 11
-320.90522613735
 21
211.4230110335509
 31
0
 12
-321.81522613735
 22
211.4230110335509
 32
0
 13
-321.81522613735
 23
211.4230110335509
 33
0
  0
TEXT
  8
1
 62
2
 10
-323.71022613735
 20
223.6616329473882
 30
0
 40
3.5
  1
4,1
 50
90
 41
0.9
  0
ENDBLK
  8
0
  0
BLOCK
  8
1
  2
*D4
 70
1
 10
0
 20
0
 30
0
  0
LINE
  8
1
 62
2
 10
-316.542122656629
 20
117.287833963424
 30
0
 11
-316.542122656629
 21
136.337833963424
 31
0
  0
LINE
  8
1
 62
2
 10
-312.637729714286
 20
136.337833963424
 30
0
 11
-317.542122656629
 21
136.337833963424
 31
0
  0
LINE
  8
1
 62
2
 10
-312.637729714286
 20
117.287833963424
 30
0
 11
-317.542122656629
 21
117.287833963424
 31
0
  0
SOLID
  8
1
 62
2
 10
-316.542122656629
 20
136.337833963424
 30
0
 11
-316.087122656629
 21
132.837833963424
 31
0
 12
-316.997122656629
 22
132.837833963424
 32
0
 13
-316.997122656629
 23
132.837833963424
 33
0
  0
SOLID
  8
1
 62
2
 10
-316.542122656629
 20
117.287833963424
 30
0
 11
-316.997122656629
 21
120.787833963424
 31
0
 12
-316.087122656629
 22
120.787833963424
 32
0
 13
-316.087122656629
 23
120.787833963424
 33
0
  0
TEXT
  8
1
 62
2
 10
-318.892122656629
 20
120.950333963424
 30
0
 40
3.5
  1
19,05
 50
90
 41
0.9
  0
ENDBLK
  8
0
  0
BLOCK
  8
1
  2
*D5
 70
1
 10
0
 20
0
 30
0
  0
LINE
  8
1
 62
2
 10
-266.390020369092
 20
85.562833963424
 30
0
 11
-266.390020369092
 21
168.062833963424
 31
0
  0
LINE
  8
1
 62
2
 10
-289.744534714286
 20
85.562833963424
 30
0
 11
-265.390020369092
 21
85.562833963424
 31
0
  0
LINE
  8
1
 62
2
 10
-289.744534714286
 20
168.062833963424
 30
0
 11
-265.390020369092
 21
168.062833963424
 31
0
  0
SOLID
  8
1
 62
2
 10
-266.390020369092
 20
168.062833963424
 30
0
 11
-265.935020369092
 21
164.562833963424
 31
0
 12
-266.845020369092
 22
164.562833963424
 32
0
 13
-266.845020369092
 23
164.562833963424
 33
0
  0
SOLID
  8
1
 62
2
 10
-266.390020369092
 20
85.562833963424
 30
0
 11
-266.845020369092
 21
89.062833963424
 31
0
 12
-265.935020369092
 22
89.062833963424
 32
0
 13
-265.935020369092
 23
89.062833963424
 33
0
  0
TEXT
  8
1
 62
2
 10
-268.740020369092
 20
129.700333963424
 30
0
 40
3.5
  1
82,5
 50
90
 41
0.9
  0
TEXT
  8
1
 62
2
 10
-268.740020369092
 20
114.300333963424
 30
0
 40
3.5
  1
MAX 
 50
90
 41
0.9
  0
ENDBLK
  8
0
  0
BLOCK
  8
1
  2
*D6
 70
1
 10
0
 20
0
 30
0
  0
LINE
  8
1
 62
2
 10
-330.7378207142855
 20
191.7409022170792
 30
0
 11
-292.6376317142855
 21
191.7409022170792
 31
0
  0
LINE
  8
1
 62
2
 10
-292.6376317142855
 20
207.5980190335509
 30
0
 11
-292.6376317142855
 21
190.7409022170792
 31
0
  0
LINE
  8
1
 62
2
 10
-330.7378207142855
 20
207.5230190335509
 30
0
 11
-330.7378207142855
 21
190.7409022170792
 31
0
  0
SOLID
  8
1
 62
2
 10
-330.7378207142855
 20
191.7409022170792
 30
0
 11
-327.2378207142855
 21
192.1959022170792
 31
0
 12
-327.2378207142855
 22
191.2859022170792
 32
0
 13
-327.2378207142855
 23
191.2859022170792
 33
0
  0
SOLID
  8
1
 62
2
 10
-292.6376317142855
 20
191.7409022170792
 30
0
 11
-296.1376317142855
 21
191.2859022170792
 31
0
 12
-296.1376317142855
 22
192.1959022170792
 32
0
 13
-296.1376317142855
 23
192.1959022170792
 33
0
  0
TEXT
  8
1
 62
2
 10
-315.574530826168
 20
194.0909022170792
 30
0
 40
3.5
  1
38,1
 41
0.9
  0
ENDBLK
  8
0
  0
ENDSEC
  0
SECTION
  2
ENTITIES
  0
LINE
  8
1
 62
2
  6
DASHDOT
 10
-307.737729714286
 20
220.0230170335509
 30
0
 11
-307.737729714286
 21
213.9230110335509
 31
0
  0
LINE
  8
MO_001_VIEW_AA
 62
7
 10
-326.237010691457
 20
219.0230170335509
 30
0
 11
-310.987729714286
 21
219.0230170335509
 31
0
  0
LINE
  8
MO_001_VIEW_AA
 62
7
 10
-304.487729714286
 20
214.9230110335509
 30
0
 11
-296.656613714286
 21
214.9230110335509
 31
0
  0
LINE
  8
MO_001_VIEW_AA
 62
7
 10
-304.487729714286
 20
219.0230170335509
 30
0
 11
-292.637631714286
 21
219.0230170335509
 31
0
  0
LINE
  8
1
 62
2
  6
DASHED
 10
-304.487729714286
 20
219.0230170335509
 30
0
 11
-304.487729714286
 21
214.9230110335509
 31
0
  0
LINE
  8
MO_001_VIEW_AA
 62
7
 10
-310.987729714286
 20
214.9230110335509
 30
0
 11
-304.487729714286
 21
214.9230110335509
 31
0
  0
LINE
  8
MO_001_VIEW_AA
 62
7
 10
-310.987729714286
 20
219.0230170335509
 30
0
 11
-304.487729714286
 21
219.0230170335509
 31
0
  0
LINE
  8
1
 62
2
  6
DASHED
 10
-310.987729714286
 20
219.0230170335509
 30
0
 11
-310.987729714286
 21
214.9230110335509
 31
0
  0
LINE
  8
MO_001_VIEW_PV
 62
7
 10
-292.637631714286
 20
113.432996963424
 30
0
 11
-286.287747714286
 21
113.432996963424
 31
0
  0
LINE
  8
MO_001_VIEW_PV
 62
7
 10
-330.737820714286
 20
113.862890963424
 30
0
 11
-327.182309714286
 21
113.862890963424
 31
0
  0
LINE
  8
1
 62
2
  6
DASHDOT
 10
-315.210506138018
 20
126.812833963424
 30
0
 11
-285.4877907142861
 21
126.812833963424
 31
0
  0
LINE
  8
1
 62
2
  6
DASHDOT
 10
-307.737729714286
 20
113.387833963424
 30
0
 11
-307.737729714286
 21
140.237833963424
 31
0
  0
LINE
  8
1
 62
2
  6
DASHDOT
 10
-311.637729714286
 20
117.287833963424
 30
0
 11
-303.837729714286
 21
117.287833963424
 31
0
  0
LINE
  8
1
 62
2
  6
DASHDOT
 10
-311.637729714286
 20
136.337833963424
 30
0
 11
-303.837729714286
 21
136.337833963424
 31
0
  0
LINE
  8
1
 62
2
  6
DASHDOT
 10
-337.087918714286
 20
126.812833963424
 30
0
 11
-323.806620209629
 21
126.812833963424
 31
0
  0
LINE
  8
1
 62
2
  6
DASHDOT
 10
-330.737820714286
 20
141.762952963424
 30
0
 11
-330.737820714286
 21
111.862890963424
 31
0
  0
LINE
  8
1
 62
2
  6
DASHDOT
 10
-292.637631714286
 20
141.762952963424
 30
0
 11
-292.637631714286
 21
111.862890963424
 31
0
  0
LINE
  8
1
 62
2
  6
DASHDOT
 10
-337.087918714286
 20
211.8230200335509
 30
0
 11
-285.4876317142861
 21
211.8230200335509
 31
0
  0
LINE
  8
1
 62
2
  6
DASHDOT
 10
-330.7378207142855
 20
215.1230210335509
 30
0
 11
-330.7378207142855
 21
208.5230190335509
 31
0
  0
LINE
  8
1
 62
2
  6
DASHDOT
 10
-292.6376317142855
 20
215.0480210335509
 30
0
 11
-292.6376317142855
 21
208.5980190335509
 31
0
  0
LINE
  8
MO_001_VIEW_PV
 62
7
 10
-337.087918714286
 20
139.512914963424
 30
0
 11
-337.087918714286
 21
130.212987963424
 31
0
  0
LINE
  8
MO_001_VIEW_PV
 62
7
 10
-336.8378877142861
 20
139.762952963424
 30
0
 11
-327.182309714286
 21
139.762952963424
 31
0
  0
LINE
  8
MO_001_VIEW_PV
 62
7
 10
-336.8378877142861
 20
129.962949963424
 30
0
 11
-327.182309714286
 21
129.962949963424
 31
0
  0
LINE
  8
MO_001_VIEW_PV
 62
7
 10
-337.087918714286
 20
114.112928963424
 30
0
 11
-337.087918714286
 21
123.412855963424
 31
0
  0
LINE
  8
MO_001_VIEW_PV
 62
7
 10
-336.8378877142861
 20
113.862890963424
 30
0
 11
-330.737820714286
 21
113.862890963424
 31
0
  0
LINE
  8
MO_001_VIEW_PV
 62
7
 10
-336.8378877142861
 20
123.662900963424
 30
0
 11
-327.182309714286
 21
123.662900963424
 31
0
  0
LINE
  8
MO_001_VIEW_PV
 62
7
 10
-326.932492714286
 20
88.56291396342398
 30
0
 11
-326.932492714286
 21
113.612852963424
 31
0
  0
LINE
  8
MO_001_VIEW_PV
 62
7
 10
-326.932492714286
 20
140.012998963424
 30
0
 11
-326.932492714286
 21
165.062742963424
 31
0
  0
LINE
  8
MO_001_VIEW_PV
 62
7
 10
-326.932492714286
 20
129.712903963424
 30
0
 11
-326.932492714286
 21
123.912938963424
 31
0
  0
LINE
  8
MO_001_VIEW_PV
 62
7
 10
-332.816891714286
 20
113.862890963424
 30
0
 11
-332.816891714286
 21
123.662900963424
 31
0
  0
LINE
  8
MO_001_VIEW_PV
 62
7
 10
-332.816891714286
 20
129.962949963424
 30
0
 11
-332.816891714286
 21
139.762952963424
 31
0
  0
LINE
  8
MO_001_VIEW_PV
 62
7
 10
-323.932400714286
 20
168.062833963424
 30
0
 11
-290.744534714286
 21
168.062833963424
 31
0
  0
LINE
  8
MO_001_VIEW_PV
 62
7
 10
-323.932400714286
 20
85.56283396342398
 30
0
 11
-290.744534714286
 21
85.56283396342398
 31
0
  0
LINE
  8
MO_001_VIEW_PV
 62
2
 10
-288.636166714286
 20
86.42871596342398
 30
0
 11
-325.851742714286
 21
86.42871596342398
 31
0
  0
LINE
  8
MO_001_VIEW_PV
 62
7
 10
-285.4877907142861
 20
124.283018963424
 30
0
 11
-285.4877907142861
 21
129.343030963424
 31
0
  0
LINE
  8
MO_001_VIEW_PV
 62
7
 10
-295.7227757142861
 20
129.592870963424
 30
0
 11
-285.737820714286
 21
129.592870963424
 31
0
  0
LINE
  8
MO_001_VIEW_PV
 62
7
 10
-295.7227757142861
 20
124.032972963424
 30
0
 11
-285.737820714286
 21
124.032972963424
 31
0
  0
LINE
  8
MO_001_VIEW_PV
 62
7
 10
-286.287747714286
 20
106.282934963424
 30
0
 11
-286.287747714286
 21
113.432996963424
 31
0
  0
LINE
  8
MO_001_VIEW_PV
 62
7
 10
-295.7227757142861
 20
140.193052963424
 30
0
 11
-286.287747714286
 21
140.193052963424
 31
0
  0
LINE
  8
MO_001_VIEW_PV
 62
7
 10
-295.7227757142861
 20
113.432996963424
 30
0
 11
-292.637631714286
 21
113.432996963424
 31
0
  0
LINE
  8
MO_001_VIEW_PV
 62
7
 10
-286.287747714286
 20
140.193052963424
 30
0
 11
-286.287747714286
 21
147.342908963424
 31
0
  0
LINE
  8
MO_001_VIEW_PV
 62
7
 10
-287.4944127142861
 20
106.032895963424
 30
0
 11
-286.5377937142861
 21
106.032895963424
 31
0
  0
LINE
  8
MO_001_VIEW_PV
 62
7
 10
-287.4944127142861
 20
147.592954963424
 30
0
 11
-286.5377937142861
 21
147.592954963424
 31
0
  0
LINE
  8
MO_001_VIEW_PV
 62
7
 10
-295.7327757142861
 20
140.193052963424
 30
0
 11
-295.7327757142861
 21
129.592870963424
 31
0
  0
LINE
  8
MO_001_VIEW_PV
 62
7
 10
-295.7327757142861
 20
113.432996963424
 30
0
 11
-295.7327757142861
 21
124.032972963424
 31
0
  0
LINE
  8
MO_001_VIEW_PV
 62
7
 10
-287.7444587142861
 20
147.842992963424
 30
0
 11
-287.7444587142861
 21
165.062742963424
 31
0
  0
LINE
  8
MO_001_VIEW_PV
 62
7
 10
-287.7444587142861
 20
88.56291396342398
 30
0
 11
-287.7444587142861
 21
105.782850963424
 31
0
  0
LINE
  8
MO_001_VIEW_AA
 62
7
 10
-332.816891714286
 20
219.0230170335509
 30
0
 11
-326.237010691457
 21
219.0230170335509
 31
0
  0
LINE
  8
MO_001_VIEW_AA
 62
7
 10
-337.087918714286
 20
211.8230200335509
 30
0
 11
-337.087918714286
 21
213.0230170335509
 31
0
  0
LINE
  8
MO_001_VIEW_AA
 62
7
 10
-286.287961714286
 20
212.6730110335509
 30
0
 11
-286.287961714286
 21
211.8230200335509
 31
0
  0
LINE
  8
MO_001_VIEW_AA
 62
7
 10
-298.987729714286
 20
211.8230200335509
 30
0
 11
-298.987729714286
 21
213.4230110335509
 31
0
  0
LINE
  8
MO_001_VIEW_AA
 62
7
 10
-322.8876927142861
 20
214.9230110335509
 30
0
 11
-310.987729714286
 21
214.9230110335509
 31
0
  0
LINE
  8
MO_001_VIEW_AA
 62
7
 10
-324.387723714286
 20
211.8230200335509
 30
0
 11
-324.387723714286
 21
213.4230110335509
 31
0
  0
LINE
  8
MO_001_VIEW_AA
 62
7
 10
-299.787900714286
 20
211.8230200335509
 30
0
 11
-299.787900714286
 21
213.4230110335509
 31
0
  0
LINE
  8
MO_001_VIEW_AA
 62
7
 10
-330.871047714286
 20
205.4744280335509
 30
0
 11
-292.787801714286
 21
204.6746040335509
 31
0
  0
LINE
  8
MO_001_VIEW_AA
 62
2
 10
-290.168362714286
 20
218.5230630335509
 30
0
 11
-326.928616714286
 21
218.5230630335509
 31
0
  0
LINE
  8
MO_001_VIEW_PV
 62
2
 10
-325.851742714286
 20
167.196943963424
 30
0
 11
-288.636166714286
 21
167.196943963424
 31
0
  0
ARC
  8
MO_001_VIEW_AA
 62
7
 10
-292.637631714286
 20
211.8230200335509
 30
0
 40
7.150000000000138
 50
179.999964
 51
269.9021086157854
  0
ARC
  8
MO_001_VIEW_AA
 62
7
 10
-330.7378207142855
 20
211.8230210864208
 30
0
 40
6.350000000000019
 50
179.9999735000008
 51
270.1814316631761
  0
ARC
  8
MO_001_VIEW_AA
 62
7
 10
-292.637631714286
 20
211.8230200335509
 30
0
 40
7.149999999999851
 50
269.9021086157854
 51
0
  0
ARC
  8
MO_001_VIEW_AA
 62
7
 10
-330.737820714286
 20
211.8230200335509
 30
0
 40
3.300001000000009
 50
270
 51
90
  0
ARC
  8
MO_001_VIEW_AA
 62
7
 10
-330.737820714286
 20
211.8230200335509
 30
0
 40
3.300001000000009
 50
90
 51
270
  0
ARC
  8
MO_001_VIEW_AA
 62
7
 10
-292.637631714286
 20
211.8230200335509
 30
0
 40
3.225000999999992
 50
270
 51
90
  0
ARC
  8
MO_001_VIEW_AA
 62
7
 10
-292.637631714286
 20
211.8230200335509
 30
0
 40
3.225000999999992
 50
90
 51
270
  0
ARC
  8
MO_001_VIEW_PV
 62
7
 10
-336.8378877142861
 20
139.512861963424
 30
0
 40
0.2500000000000039
 50
89.99992699999527
 51
179.9999640000081
  0
ARC
  8
MO_001_VIEW_PV
 62
7
 10
-336.8378877142861
 20
130.212873963424
 30
0
 40
0.2500000000000184
 50
180.0000219999983
 51
269.9999980000102
  0
ARC
  8
MO_001_VIEW_PV
 62
7
 10
-336.8378877142861
 20
114.112775963424
 30
0
 40
0.2500000000000494
 50
179.9999640000081
 51
269.9999459999893
  0
ARC
  8
MO_001_VIEW_PV
 62
7
 10
-336.8378877142861
 20
123.412771963424
 30
0
 40
0.2499999999999897
 50
89.99992699999527
 51
179.9999090000026
  0
ARC
  8
MO_001_VIEW_PV
 62
7
 10
-327.182309714286
 20
140.012845963424
 30
0
 40
0.2500000000000123
 50
270.0000179999731
 51
359.9999810000059
  0
ARC
  8
MO_001_VIEW_PV
 62
7
 10
-327.182309714286
 20
113.6127989634239
 30
0
 40
0.2500000000000466
 50
3.500001980693591e-005
 51
89.99998200002685
  0
ARC
  8
MO_001_VIEW_PV
 62
7
 10
-327.182309714286
 20
129.712896963424
 30
0
 40
0.2500000000000466
 50
3.500000352249595e-005
 51
89.99998200002685
  0
ARC
  8
MO_001_VIEW_PV
 62
7
 10
-327.182309714286
 20
123.912900963424
 30
0
 40
0.2500000000000123
 50
270.0000179999731
 51
359.9999810000091
  0
ARC
  8
MO_001_VIEW_PV
 62
7
 10
-323.932400714286
 20
88.562859963424
 30
0
 40
2.999999999999994
 50
180.0000220000005
 51
269.9999980000015
  0
ARC
  8
MO_001_VIEW_PV
 62
7
 10
-323.932400714286
 20
165.062665963424
 30
0
 40
3.000000000000047
 50
89.99992699999852
 51
179.999964
  0
ARC
  8
MO_001_VIEW_PV
 62
7
 10
-285.737942714286
 20
129.342740963424
 30
0
 40
0.2499999999999898
 50
3.499999700872791e-005
 51
89.99998200002685
  0
ARC
  8
MO_001_VIEW_PV
 62
7
 10
-285.737774714286
 20
124.282720963424
 30
0
 40
0.2500000000000123
 50
270.0000179999992
 51
359.9999810000091
  0
ARC
  8
MO_001_VIEW_PV
 62
7
 10
-286.537899714286
 20
147.342832963424
 30
0
 40
0.2500000000000466
 50
3.499999700871996e-005
 51
89.9999820000008
  0
ARC
  8
MO_001_VIEW_PV
 62
7
 10
-286.537899714286
 20
106.282842963424
 30
0
 40
0.2500000000000123
 50
270.0000179999992
 51
359.9999809999864
  0
ARC
  8
MO_001_VIEW_PV
 62
7
 10
-287.4945497142861
 20
147.842931963424
 30
0
 40
0.2500000000000184
 50
180.0000219999983
 51
269.9999980000102
  0
ARC
  8
MO_001_VIEW_PV
 62
7
 10
-287.494686714286
 20
105.782964963424
 30
0
 40
0.2499999999999897
 50
89.99992699999527
 51
179.9999640000081
  0
ARC
  8
MO_001_VIEW_PV
 62
7
 10
-290.744595714286
 20
88.56291396342397
 30
0
 40
2.999999999999977
 50
270.0000180000003
 51
359.9999810000002
  0
ARC
  8
MO_001_VIEW_PV
 62
7
 10
-290.7446567142861
 20
165.062620963424
 30
0
 40
3.000000000000105
 50
3.499999972279859e-005
 51
89.9999819999997
  0
ARC
  8
MO_001_VIEW_AA
 62
7
 10
-330.7378207142855
 20
211.8230210864208
 30
0
 40
6.349999999999717
 50
270.1814316631761
 51
359.9999735
  0
ARC
  8
MO_001_VIEW_AA
 62
7
 10
-330.7378207142859
 20
213.023017033551
 30
0
 40
6.350000000000005
 50
109.1117260000014
 51
180.0000190000006
  0
ARC
  8
MO_001_VIEW_AA
 62
7
 10
-292.637631714286
 20
212.6730110335509
 30
0
 40
6.349999999999966
 50
0
 51
89.99998200000019
  0
ARC
  8
MO_001_VIEW_AA
 62
7
 10
-292.6376317142855
 20
211.8230210864208
 30
0
 40
6.350000000000019
 50
179.9999735000008
 51
359.9999735
  0
ARC
  8
MO_001_VIEW_AA
 62
7
 10
-322.8876927142861
 20
213.4230110335508
 30
0
 40
1.500000000000074
 50
89.99998199999645
 51
180.0000189999952
  0
ARC
  8
MO_001_VIEW_AA
 62
7
 10
-300.4877907142861
 20
213.4230110335509
 30
0
 40
1.5
 50
0
 51
89.99998199999428
  0
ARC
  8
MO_001_VIEW_AA
 62
7
 10
-292.637631714286
 20
211.8230200335509
 30
0
 40
7.149999999999864
 50
0
 51
71.43660300000121
  0
ARC
  8
MO_001_VIEW_AA
 62
7
 10
-301.287961714286
 20
213.4230110335509
 30
0
 40
1.5
 50
0
 51
89.99998200000513
  0
ARC
  8
MO_001_VIEW_AA
 62
7
 10
-329.5378697142862
 20
211.8230200335509
 30
0
 40
7.10000000000002
 50
29.5824949999997
 51
67.39959599999884
  0
ARC
  8
MO_001_VIEW_AA
 62
7
 10
-326.2379127142859
 20
218.223014033551
 30
0
 40
0.7999999999999371
 50
89.99998200001464
 51
145.5383270000077
  0
ARC
  8
MO_001_VIEW_AA
 62
7
 10
-326.7324807142861
 20
218.5624770335509
 30
0
 40
0.1999999999998655
 50
145.5199119999864
 51
247.4285200000108
  0
ARC
  8
MO_001_VIEW_AA
 62
7
 10
-322.6677527142861
 20
215.7230140335509
 30
0
 40
0.7999999999999425
 50
209.5785250000048
 51
269.9919310000093
  0
ARC
  8
MO_001_VIEW_AA
 62
7
 10
-292.637631714286
 20
211.8230200335509
 30
0
 40
4.799999999999873
 50
49.77548500000123
 51
135.8858490000007
  0
ARC
  8
MO_001_VIEW_AA
 62
7
 10
-296.656613714286
 20
215.7230140335509
 30
0
 40
0.7999999999999812
 50
270.0003999999996
 51
315.8591579999964
  0
ARC
  8
MO_001_VIEW_AA
 62
7
 10
-288.8300757142861
 20
216.3085090335509
 30
0
 40
1.085507999999933
 50
229.2164120000087
 51
42.98012299999569
  0
CIRCLE
  8
1
 62
7
 10
-307.737729714286
 20
117.287833963424
 30
0
 40
3.25
  0
CIRCLE
  8
1
 62
7
 10
-307.737729714286
 20
136.337833963424
 30
0
 40
3.25
  0
CIRCLE
  8
MO_001_VIEW_AA
 62
7
 10
-292.637631714286
 20
211.8230200335509
 30
0
 40
2.5
  0
POLYLINE
  8
1
 62
2
 66
1
 70
1
  0
VERTEX
  8
1
 10
-378.0132747121511
 20
38.91903231053179
 30
0
  0
VERTEX
  8
1
 10
-329.4132747121511
 20
38.91903231053179
 30
0
  0
VERTEX
  8
1
 10
-329.4132747121511
 20
52.41903231053179
 30
0
  0
VERTEX
  8
1
 10
-378.0132747121511
 20
52.41903231053179
 30
0
  0
SEQEND
  8
1
  0
TEXT
  8
1
 62
2
 10
-376.5132747121511
 20
47.91903231053179
 30
0
 40
3
  1
Ottenuta forando la
 41
0.9
  0
TEXT
  8
1
 62
2
 10
-376.5132747121511
 20
41.31903231053179
 30
0
 40
3
  1
maglia  cod  620381
 41
0.9
  0
DIMENSION
  8
1
  6
CONTINUOUS
 62
2
  2
*D0
  3
DMST_1
 10
-307.737729714286
 20
71.3098092964937
 30
0
 11
-319.237775214286
 21
74.10980929649369
 31
0
 12
0
 22
0
 32
0
 70
0
 13
-330.737820714286
 23
111.862890963424
 33
0
 14
-307.737729714286
 24
113.387833963424
 34
0
 53
0
  0
DIMENSION
  8
1
  6
CONTINUOUS
 62
2
  2
*D1
  3
DMST_1
 10
-295.7327757142861
 20
71.3098092964937
 30
0
 11
-301.735252714286
 21
74.10980929649369
 31
0
 12
0
 22
0
 32
0
 70
0
 13
-307.737729714286
 23
113.387833963424
 33
0
 14
-295.7327757142861
 24
113.432996963424
 34
0
 53
0
  0
DIMENSION
  8
1
  6
CONTINUOUS
 62
2
  2
*D2
  3
DMST_2
 10
-304.487729714286
 20
227.5495570330312
 30
0
 11
-307.737729714286
 21
231.4745570330312
 31
0
 12
0
 22
0
 32
0
 70
0
  1
%%c<>
 13
-310.987729714286
 23
219.0230170335509
 33
0
 14
-304.487729714286
 24
219.0230170335509
 34
0
 53
0
  0
DIMENSION
  8
1
  6
CONTINUOUS
 62
2
  2
*D3
  3
DMST_2
 10
-321.36022613735
 20
219.0230170335509
 30
0
 11
-325.28522613735
 21
226.3741329473882
 31
0
 12
0
 22
0
 32
0
 70
0
 13
-322.8876927142861
 23
214.9230110335509
 33
0
 14
-326.237010691457
 24
219.0230170335509
 34
0
 50
90
 53
0
  0
DIMENSION
  8
1
  6
CONTINUOUS
 62
2
  2
*D4
  3
DMST_2
 10
-316.542122656629
 20
136.337833963424
 30
0
 11
-320.467122656629
 21
126.812833963424
 31
0
 12
0
 22
0
 32
0
 70
0
 13
-311.637729714286
 23
117.287833963424
 33
0
 14
-311.637729714286
 24
136.337833963424
 34
0
 50
90
 53
0
  0
DIMENSION
  8
1
  6
CONTINUOUS
 62
2
  2
*D5
  3
DMST_2
 10
-266.390020369092
 20
168.062833963424
 30
0
 11
-270.315020369092
 21
126.812833963424
 31
0
 12
0
 22
0
 32
0
 70
0
  1
MAX <>
 13
-290.744534714286
 23
85.56283396342398
 33
0
 14
-290.744534714286
 24
168.062833963424
 34
0
 50
90
 53
0
  0
DIMENSION
  8
1
  6
CONTINUOUS
 62
2
  2
*D6
  3
DMST_2
 10
-292.6376317142855
 20
191.7409022170792
 30
0
 11
-311.287030826168
 21
195.6659022170792
 31
0
 12
0
 22
0
 32
0
 70
0
 13
-330.7378207142855
 23
208.5230190335509
 33
0
 14
-292.6376317142855
 24
208.5980190335509
 34
0
 53
0
  0
INSERT
  8
0
  2
A4
 10
-182.653947675552
 20
-39.64430889371863
 30
0
  0
INSERT
  8
0
  2
_SEGNO_DI_RUGOSITA__VALORE___3_
 10
-245.032519104123
 20
40.35569110628137
 30
0
  0
ENDSEC
  0
EOF
